  0
SECTION
  2
HEADER
  9
$ACADVER
  1
AC1014
  9
$ACADMAINTVER
 70
     9
  9
$DWGCODEPAGE
  3
ANSI_932
  9
$INSBASE
 10
0.0
 20
0.0
 30
0.0
  9
$EXTMIN
 10
0.0
 20
0.0
 30
0.0
  9
$EXTMAX
 10
594.0
 20
420.0
 30
0.0
  9
$LIMMIN
 10
0.0
 20
0.0
  9
$LIMMAX
 10
594.0
 20
420.0
  9
$ORTHOMODE
 70
     0
  9
$REGENMODE
 70
     1
  9
$FILLMODE
 70
     1
  9
$QTEXTMODE
 70
     0
  9
$MIRRTEXT
 70
     1
  9
$DRAGMODE
 70
     2
  9
$LTSCALE
 40
1.0
  9
$OSMODE
 70
    37
  9
$ATTMODE
 70
     1
  9
$TEXTSIZE
 40
0.2
  9
$TRACEWID
 40
0.05
  9
$TEXTSTYLE
  7
FX_VECTOR
  9
$CLAYER
  8
0
  9
$CELTYPE
  6
BYLAYER
  9
$CECOLOR
 62
   256
  9
$CELTSCALE
 40
1.0
  9
$DELOBJ
 70
     1
  9
$DISPSILH
 70
     0
  9
$DIMSCALE
 40
1.0
  9
$DIMASZ
 40
4.0
  9
$DIMEXO
 40
1.0
  9
$DIMDLI
 40
10.0
  9
$DIMRND
 40
0.0
  9
$DIMDLE
 40
6.0
  9
$DIMEXE
 40
1.0
  9
$DIMTP
 40
0.0
  9
$DIMTM
 40
0.0
  9
$DIMTXT
 40
4.0
  9
$DIMCEN
 40
2.5
  9
$DIMTSZ
 40
0.0
  9
$DIMTOL
 70
     0
  9
$DIMLIM
 70
     0
  9
$DIMTIH
 70
     0
  9
$DIMTOH
 70
     0
  9
$DIMSE1
 70
     0
  9
$DIMSE2
 70
     0
  9
$DIMTAD
 70
     1
  9
$DIMZIN
 70
     8
  9
$DIMBLK
  1

  9
$DIMASO
 70
     1
  9
$DIMSHO
 70
     1
  9
$DIMPOST
  1

  9
$DIMAPOST
  1

  9
$DIMALT
 70
     0
  9
$DIMALTD
 70
     3
  9
$DIMALTF
 40
0.03937
  9
$DIMLFAC
 40
1.0
  9
$DIMTOFL
 70
     1
  9
$DIMTVP
 40
0.0
  9
$DIMTIX
 70
     0
  9
$DIMSOXD
 70
     0
  9
$DIMSAH
 70
     1
  9
$DIMBLK1
  1
FXTIP_ARROW_S
  9
$DIMBLK2
  1
FXTIP_ARROW_E
  9
$DIMSTYLE
  2
FXDIMINFO
  9
$DIMCLRD
 70
     7
  9
$DIMCLRE
 70
     7
  9
$DIMCLRT
 70
     7
  9
$DIMTFAC
 40
1.0
  9
$DIMGAP
 40
1.0
  9
$DIMJUST
 70
     0
  9
$DIMSD1
 70
     0
  9
$DIMSD2
 70
     0
  9
$DIMTOLJ
 70
     0
  9
$DIMTZIN
 70
     8
  9
$DIMALTZ
 70
     0
  9
$DIMALTTZ
 70
     0
  9
$DIMFIT
 70
     3
  9
$DIMUPT
 70
     0
  9
$DIMUNIT
 70
     2
  9
$DIMDEC
 70
     2
  9
$DIMTDEC
 70
     2
  9
$DIMALTU
 70
     2
  9
$DIMALTTD
 70
     3
  9
$DIMTXSTY
  7
FX_VECTOR
  9
$DIMAUNIT
 70
     0
  9
$LUNITS
 70
     2
  9
$LUPREC
 70
     4
  9
$SKETCHINC
 40
0.1
  9
$FILLETRAD
 40
0.5
  9
$AUNITS
 70
     0
  9
$AUPREC
 70
     0
  9
$MENU
  1
.
  9
$ELEVATION
 40
0.0
  9
$PELEVATION
 40
0.0
  9
$THICKNESS
 40
0.0
  9
$LIMCHECK
 70
     0
  9
$CHAMFERA
 40
0.5
  9
$CHAMFERB
 40
0.5
  9
$CHAMFERC
 40
1.0
  9
$CHAMFERD
 40
0.0
  9
$SKPOLY
 70
     0
  9
$TDCREATE
 40
2455307.608053797
  9
$TDUPDATE
 40
2455307.608053808
  9
$TDINDWG
 40
0.0000000116
  9
$TDUSRTIMER
 40
0.0000000116
  9
$USRTIMER
 70
     1
  9
$ANGBASE
 50
0.0
  9
$ANGDIR
 70
     0
  9
$PDMODE
 70
     0
  9
$PDSIZE
 40
0.0
  9
$PLINEWID
 40
0.0
  9
$COORDS
 70
     1
  9
$SPLFRAME
 70
     0
  9
$SPLINETYPE
 70
     6
  9
$SPLINESEGS
 70
     8
  9
$ATTDIA
 70
     0
  9
$ATTREQ
 70
     1
  9
$HANDLING
 70
     1
  9
$HANDSEED
  5
2E0
  9
$SURFTAB1
 70
     6
  9
$SURFTAB2
 70
     6
  9
$SURFTYPE
 70
     6
  9
$SURFU
 70
     6
  9
$SURFV
 70
     6
  9
$UCSNAME
  2

  9
$UCSORG
 10
0.0
 20
0.0
 30
0.0
  9
$UCSXDIR
 10
1.0
 20
0.0
 30
0.0
  9
$UCSYDIR
 10
0.0
 20
1.0
 30
0.0
  9
$PUCSNAME
  2

  9
$PUCSORG
 10
0.0
 20
0.0
 30
0.0
  9
$PUCSXDIR
 10
1.0
 20
0.0
 30
0.0
  9
$PUCSYDIR
 10
0.0
 20
1.0
 30
0.0
  9
$USERI1
 70
     0
  9
$USERI2
 70
     0
  9
$USERI3
 70
     0
  9
$USERI4
 70
     0
  9
$USERI5
 70
     0
  9
$USERR1
 40
0.0
  9
$USERR2
 40
0.0
  9
$USERR3
 40
0.0
  9
$USERR4
 40
0.0
  9
$USERR5
 40
0.0
  9
$WORLDVIEW
 70
     1
  9
$SHADEDGE
 70
     3
  9
$SHADEDIF
 70
    70
  9
$TILEMODE
 70
     1
  9
$MAXACTVP
 70
    64
  9
$PINSBASE
 10
0.0
 20
0.0
 30
0.0
  9
$PLIMCHECK
 70
     0
  9
$PEXTMIN
 10
1.000000E+20
 20
1.000000E+20
 30
1.000000E+20
  9
$PEXTMAX
 10
-1.000000E+20
 20
-1.000000E+20
 30
-1.000000E+20
  9
$PLIMMIN
 10
0.0
 20
0.0
  9
$PLIMMAX
 10
12.0
 20
9.0
  9
$UNITMODE
 70
     0
  9
$VISRETAIN
 70
     1
  9
$PLINEGEN
 70
     0
  9
$PSLTSCALE
 70
     1
  9
$TREEDEPTH
 70
  3020
  9
$PICKSTYLE
 70
     1
  9
$CMLSTYLE
  2
STANDARD
  9
$CMLJUST
 70
     0
  9
$CMLSCALE
 40
1.0
  9
$PROXYGRAPHICS
 70
     1
  9
$MEASUREMENT
 70
     0
  0
ENDSEC
  0
SECTION
  2
CLASSES
  0
CLASS
  1
ACDBDICTIONARYWDFLT
  2
AcDbDictionaryWithDefault
  3
ObjectDBX Classes
 90
        0
280
     0
281
     0
  0
CLASS
  1
XRECORD
  2
AcDbXrecord
  3
AutoCAD 2000
 90
        0
280
     0
281
     0
  0
CLASS
  1
LWPOLYLINE
  2
AcDbPolyline
  3
AutoCAD 2000
 90
        0
280
     0
281
     1
  0
CLASS
  1
HATCH
  2
AcDbHatch
  3
AutoCAD 2000
 90
        0
280
     0
281
     1
  0
CLASS
  1
ACDBPLACEHOLDER
  2
AcDbPlaceHolder
  3
ObjectDBX Classes
 90
        0
280
     0
281
     0
  0
CLASS
  1
LAYOUT
  2
AcDbLayout
  3
ObjectDBX Classes
 90
        0
280
     0
281
     0
  0
ENDSEC
  0
SECTION
  2
TABLES
  0
TABLE
  2
VPORT
  5
8
330
0
100
AcDbSymbolTable
 70
     1
  0
VPORT
  5
29
330
8
100
AcDbSymbolTableRecord
100
AcDbViewportTableRecord
  2
*ACTIVE
 70
     0
 10
0.0
 20
0.0
 11
1.0
 21
1.0
 12
297.0
 22
210.0
 13
0.0
 23
0.0
 14
0.5
 24
0.5
 15
0.5
 25
0.5
 16
0.0
 26
0.0
 36
1.0
 17
0.0
 27
0.0
 37
0.0
 40
420.0
 41
1.414286
 42
50.0
 43
0.0
 44
0.0
 50
0.0
 51
0.0
 71
     0
 72
   100
 73
     1
 74
     3
 75
     0
 76
     0
 77
     0
 78
     0
  0
ENDTAB
  0
TABLE
  2
LTYPE
  5
5
330
0
100
AcDbSymbolTable
 70
     4
  0
LTYPE
  5
14
330
5
100
AcDbSymbolTableRecord
100
AcDbLinetypeTableRecord
  2
BYBLOCK
 70
     0
  3

 72
    65
 73
     0
 40
0.0
  0
LTYPE
  5
15
330
5
100
AcDbSymbolTableRecord
100
AcDbLinetypeTableRecord
  2
BYLAYER
 70
     0
  3

 72
    65
 73
     0
 40
0.0
  0
LTYPE
  5
16
330
5
100
AcDbSymbolTableRecord
100
AcDbLinetypeTableRecord
  2
CONTINUOUS
 70
     0
  3
--------------------
 72
    65
 73
     0
 40
0.0
  0
LTYPE
  5
2A
330
5
100
AcDbSymbolTableRecord
100
AcDbLinetypeTableRecord
  2
CENTER
 70
     0
  3
Center ____ _ ____ _ ____ _ ____ _ ____ _ ____
 72
    65
 73
     4
 40
13.0
 49
10.0
 74
     0
 49
-1.0
 74
     0
 49
1.0
 74
     0
 49
-1.0
 74
     0
  0
ENDTAB
  0
TABLE
  2
LAYER
  5
2
330
0
100
AcDbSymbolTable
 70
    20
  0
LAYER
  5
10
330
2
100
AcDbSymbolTableRecord
100
AcDbLayerTableRecord
  2
0
 70
     0
 62
     7
  6
CONTINUOUS
  0
LAYER
  5
2D
330
2
100
AcDbSymbolTableRecord
100
AcDbLayerTableRecord
  2
LAYERGROUP-1
 70
     0
 62
     3
  6
CONTINUOUS
  0
LAYER
  5
3D
330
2
100
AcDbSymbolTableRecord
100
AcDbLayerTableRecord
  2
}}ﾊﾊGG血CCТ
 70
     0
 62
     3
  6
CONTINUOUS
  0
LAYER
  5
AA
330
2
100
AcDbSymbolTableRecord
100
AcDbLayerTableRecord
  2
GR1-1
 70
     0
 62
     7
  6
CONTINUOUS
  0
LAYER
  5
1C6
330
2
100
AcDbSymbolTableRecord
100
AcDbLayerTableRecord
  2
0-1
 70
     0
 62
     7
  6
CONTINUOUS
  0
ENDTAB
  0
TABLE
  2
STYLE
  5
3
330
0
100
AcDbSymbolTable
 70
     4
  0
STYLE
  5
11
330
3
100
AcDbSymbolTableRecord
100
AcDbTextStyleTableRecord
  2
STANDARD
 70
     0
 40
0.0
 41
1.0
 50
0.0
 71
     0
 42
0.2
  3
txt
  4

  0
STYLE
  5
40
330
3
100
AcDbSymbolTableRecord
100
AcDbTextStyleTableRecord
  2
FX_VECTOR
 70
     0
 40
0.0
 41
1.0
 50
0.0
 71
     0
 42
0.2
  3
MONOTXT.SHX
  4
BIGFONT.SHX
  0
ENDTAB
  0
TABLE
  2
VIEW
  5
6
330
0
100
AcDbSymbolTable
 70
     0
  0
ENDTAB
  0
TABLE
  2
UCS
  5
7
330
0
100
AcDbSymbolTable
 70
     0
  0
ENDTAB
  0
TABLE
  2
APPID
  5
9
330
0
100
AcDbSymbolTable
 70
     1
  0
APPID
  5
12
330
9
100
AcDbSymbolTableRecord
100
AcDbRegAppTableRecord
  2
ACAD
 70
     0
  0
ENDTAB
  0
TABLE
  2
DIMSTYLE
  5
A
330
0
100
AcDbSymbolTable
 70
     2
  0
DIMSTYLE
105
27
330
A
100
AcDbSymbolTableRecord
100
AcDbDimStyleTableRecord
  2
STANDARD
 70
     0
  3

  4

  5

  6

  7

 40
1.0
 41
0.18
 42
0.0625
 43
0.38
 44
0.18
 45
0.0
 46
0.0
 47
0.0
 48
0.0
140
0.18
141
0.09
142
0.0
143
25.4
144
1.0
145
0.0
146
1.0
147
0.09
 71
     0
 72
     0
 73
     1
 74
     1
 75
     0
 76
     0
 77
     0
 78
     0
170
     0
171
     2
172
     0
173
     0
174
     0
175
     0
176
     0
177
     0
178
     0
270
     2
271
     4
272
     4
273
     2
274
     2
340
11
275
     0
280
     0
281
     0
282
     0
283
     1
284
     0
285
     0
286
     0
287
     3
288
     0
  0
DIMSTYLE
105
A7
102
{ACAD_REACTORS
330
2B6
102
}
330
A
100
AcDbSymbolTableRecord
100
AcDbDimStyleTableRecord
  2
FXDIMINFO
 70
     0
  3

  4

  5

  6
FXTIP_ARROW_S
  7
FXTIP_ARROW_E
 40
1.0
 41
4.0
 42
1.0
 43
10.0
 44
1.0
 45
0.0
 46
6.0
 47
0.0
 48
0.0
140
4.0
141
2.5
142
0.0
143
0.03937
144
1.0
145
0.0
146
1.0
147
1.0
 71
     0
 72
     0
 73
     0
 74
     0
 75
     0
 76
     0
 77
     1
 78
     8
170
     0
171
     3
172
     1
173
     1
174
     0
175
     0
176
     7
177
     7
178
     7
179
     2
270
     2
271
     2
272
     2
273
     2
274
     3
340
40
275
     0
280
     0
281
     0
282
     0
283
     0
284
     8
285
     0
286
     0
287
     3
288
     0
  0
ENDTAB
  0
TABLE
  2
BLOCK_RECORD
  5
1
330
0
100
AcDbSymbolTable
 70
    24
  0
BLOCK_RECORD
  5
1F
330
1
100
AcDbSymbolTableRecord
100
AcDbBlockTableRecord
  2
*MODEL_SPACE
  0
BLOCK_RECORD
  5
1B
330
1
100
AcDbSymbolTableRecord
100
AcDbBlockTableRecord
  2
*PAPER_SPACE
  0
BLOCK_RECORD
  5
41
330
1
100
AcDbSymbolTableRecord
100
AcDbBlockTableRecord
  2
FXTIP_ARROW_S
  0
BLOCK_RECORD
  5
47
330
1
100
AcDbSymbolTableRecord
100
AcDbBlockTableRecord
  2
FXTIP_ARROW_E
  0
BLOCK_RECORD
  5
4D
330
1
100
AcDbSymbolTableRecord
100
AcDbBlockTableRecord
  2
FXTIP_BLACKDOT_S
  0
BLOCK_RECORD
  5
53
330
1
100
AcDbSymbolTableRecord
100
AcDbBlockTableRecord
  2
FXTIP_BLACKDOT_E
  0
BLOCK_RECORD
  5
59
330
1
100
AcDbSymbolTableRecord
100
AcDbBlockTableRecord
  2
FXTIP_TRIANGLE_S
  0
BLOCK_RECORD
  5
60
330
1
100
AcDbSymbolTableRecord
100
AcDbBlockTableRecord
  2
FXTIP_TRIANGLE_E
  0
BLOCK_RECORD
  5
67
330
1
100
AcDbSymbolTableRecord
100
AcDbBlockTableRecord
  2
FXTIP_ARCHITECT_S
  0
BLOCK_RECORD
  5
6D
330
1
100
AcDbSymbolTableRecord
100
AcDbBlockTableRecord
  2
FXTIP_ARCHITECT_E
  0
BLOCK_RECORD
  5
73
330
1
100
AcDbSymbolTableRecord
100
AcDbBlockTableRecord
  2
FXTIP_CIVIL_S
  0
BLOCK_RECORD
  5
79
330
1
100
AcDbSymbolTableRecord
100
AcDbBlockTableRecord
  2
FXTIP_CIVIL_E
  0
BLOCK_RECORD
  5
7F
330
1
100
AcDbSymbolTableRecord
100
AcDbBlockTableRecord
  2
FXTIP_WHITEDOT_S
  0
BLOCK_RECORD
  5
84
330
1
100
AcDbSymbolTableRecord
100
AcDbBlockTableRecord
  2
FXTIP_WHITEDOT_E
  0
BLOCK_RECORD
  5
89
330
1
100
AcDbSymbolTableRecord
100
AcDbBlockTableRecord
  2
FXTIP_UPARROW_S
  0
BLOCK_RECORD
  5
8E
330
1
100
AcDbSymbolTableRecord
100
AcDbBlockTableRecord
  2
FXTIP_UPARROW_E
  0
BLOCK_RECORD
  5
93
330
1
100
AcDbSymbolTableRecord
100
AcDbBlockTableRecord
  2
FXTIP_DOWNARROW_S
  0
BLOCK_RECORD
  5
98
330
1
100
AcDbSymbolTableRecord
100
AcDbBlockTableRecord
  2
FXTIP_DOWNARROW_E
  0
BLOCK_RECORD
  5
9D
330
1
100
AcDbSymbolTableRecord
100
AcDbBlockTableRecord
  2
FXTIP_BLACKTRIANGLE_S
  0
BLOCK_RECORD
  5
A2
330
1
100
AcDbSymbolTableRecord
100
AcDbBlockTableRecord
  2
FXTIP_BLACKTRIANGLE_E
  0
BLOCK_RECORD
  5
1B6
330
1
100
AcDbSymbolTableRecord
100
AcDbBlockTableRecord
  2
BLKF021
  0
BLOCK_RECORD
  5
1C2
330
1
100
AcDbSymbolTableRecord
100
AcDbBlockTableRecord
  2
BLKF022
  0
BLOCK_RECORD
  5
1CB
330
1
100
AcDbSymbolTableRecord
100
AcDbBlockTableRecord
  2
BLKF023
  0
BLOCK_RECORD
  5
22E
330
1
100
AcDbSymbolTableRecord
100
AcDbBlockTableRecord
  2
BLKF024
  0
BLOCK_RECORD
  5
2B7
330
1
100
AcDbSymbolTableRecord
100
AcDbBlockTableRecord
  2
*D23
  0
ENDTAB
  0
ENDSEC
  0
SECTION
  2
BLOCKS
  0
BLOCK
  5
20
330
1F
100
AcDbEntity
  8
0
100
AcDbBlockBegin
  2
*MODEL_SPACE
 70
     0
 71
     0
 10
0.0
 20
0.0
 30
0.0
  3
*MODEL_SPACE
  1

  0
ENDBLK
  5
21
330
1F
100
AcDbEntity
  8
0
100
AcDbBlockEnd
  0
BLOCK
  5
1C
330
1B
100
AcDbEntity
 67
     1
  8
0
100
AcDbBlockBegin
  2
*PAPER_SPACE
 70
     0
 71
     0
 10
0.0
 20
0.0
 30
0.0
  3
*PAPER_SPACE
  1

  0
ENDBLK
  5
1D
330
1B
100
AcDbEntity
 67
     1
  8
0
100
AcDbBlockEnd
  0
BLOCK
  5
42
330
41
100
AcDbEntity
  8
0
100
AcDbBlockBegin
  2
FXTIP_ARROW_S
 70
     0
 71
     0
 10
0.0
 20
0.0
 30
0.0
  3
FXTIP_ARROW_S
  1

  0
LINE
  5
44
330
41
100
AcDbEntity
  8
0
  6
CONTINUOUS
 62
     0
100
AcDbLine
 10
0.0
 20
0.0
 30
0.0
 11
-1.0
 21
0.0
 31
0.0
  0
LINE
  5
45
330
41
100
AcDbEntity
  8
0
  6
CONTINUOUS
 62
     0
100
AcDbLine
 10
0.0
 20
0.0
 30
0.0
 11
-0.965926
 21
-0.258819
 31
0.0
  0
LINE
  5
46
330
41
100
AcDbEntity
  8
0
  6
CONTINUOUS
 62
     0
100
AcDbLine
 10
0.0
 20
0.0
 30
0.0
 11
-0.965926
 21
0.258819
 31
0.0
  0
ENDBLK
  5
43
330
41
100
AcDbEntity
  8
0
100
AcDbBlockEnd
  0
BLOCK
  5
48
330
47
100
AcDbEntity
  8
0
100
AcDbBlockBegin
  2
FXTIP_ARROW_E
 70
     0
 71
     0
 10
0.0
 20
0.0
 30
0.0
  3
FXTIP_ARROW_E
  1

  0
LINE
  5
4A
330
47
100
AcDbEntity
  8
0
  6
CONTINUOUS
 62
     0
100
AcDbLine
 10
0.0
 20
0.0
 30
0.0
 11
-1.0
 21
0.0
 31
0.0
  0
LINE
  5
4B
330
47
100
AcDbEntity
  8
0
  6
CONTINUOUS
 62
     0
100
AcDbLine
 10
0.0
 20
0.0
 30
0.0
 11
-0.965926
 21
0.258819
 31
0.0
  0
LINE
  5
4C
330
47
100
AcDbEntity
  8
0
  6
CONTINUOUS
 62
     0
100
AcDbLine
 10
0.0
 20
0.0
 30
0.0
 11
-0.965926
 21
-0.258819
 31
0.0
  0
ENDBLK
  5
49
330
47
100
AcDbEntity
  8
0
100
AcDbBlockEnd
  0
BLOCK
  5
4E
330
4D
100
AcDbEntity
  8
0
100
AcDbBlockBegin
  2
FXTIP_BLACKDOT_S
 70
     0
 71
     0
 10
0.0
 20
0.0
 30
0.0
  3
FXTIP_BLACKDOT_S
  1

  0
LINE
  5
50
330
4D
100
AcDbEntity
  8
0
  6
CONTINUOUS
 62
     0
100
AcDbLine
 10
0.0
 20
0.0
 30
0.0
 11
-1.0
 21
0.0
 31
0.0
  0
LWPOLYLINE
  5
51
330
4D
100
AcDbEntity
  8
0
  6
CONTINUOUS
 62
     0
100
AcDbPolyline
 90
        2
 70
     1
 10
-0.25
 20
0.0
 40
0.5
 41
0.5
 42
1.0
 10
0.25
 20
0.0
 40
0.5
 41
0.5
 42
1.0
  0
CIRCLE
  5
52
330
4D
100
AcDbEntity
  8
0
  6
CONTINUOUS
 62
     0
100
AcDbCircle
 10
0.0
 20
0.0
 30
0.0
 40
0.5
  0
ENDBLK
  5
4F
330
4D
100
AcDbEntity
  8
0
100
AcDbBlockEnd
  0
BLOCK
  5
54
330
53
100
AcDbEntity
  8
0
100
AcDbBlockBegin
  2
FXTIP_BLACKDOT_E
 70
     0
 71
     0
 10
0.0
 20
0.0
 30
0.0
  3
FXTIP_BLACKDOT_E
  1

  0
LINE
  5
56
330
53
100
AcDbEntity
  8
0
  6
CONTINUOUS
 62
     0
100
AcDbLine
 10
0.0
 20
0.0
 30
0.0
 11
-1.0
 21
0.0
 31
0.0
  0
LWPOLYLINE
  5
57
330
53
100
AcDbEntity
  8
0
  6
CONTINUOUS
 62
     0
100
AcDbPolyline
 90
        2
 70
     1
 10
-0.25
 20
0.0
 40
0.5
 41
0.5
 42
1.0
 10
0.25
 20
0.0
 40
0.5
 41
0.5
 42
1.0
  0
CIRCLE
  5
58
330
53
100
AcDbEntity
  8
0
  6
CONTINUOUS
 62
     0
100
AcDbCircle
 10
0.0
 20
0.0
 30
0.0
 40
0.5
  0
ENDBLK
  5
55
330
53
100
AcDbEntity
  8
0
100
AcDbBlockEnd
  0
BLOCK
  5
5A
330
59
100
AcDbEntity
  8
0
100
AcDbBlockBegin
  2
FXTIP_TRIANGLE_S
 70
     0
 71
     0
 10
0.0
 20
0.0
 30
0.0
  3
FXTIP_TRIANGLE_S
  1

  0
LINE
  5
5C
330
59
100
AcDbEntity
  8
0
  6
CONTINUOUS
 62
     0
100
AcDbLine
 10
0.0
 20
0.0
 30
0.0
 11
-1.0
 21
0.0
 31
0.0
  0
LINE
  5
5D
330
59
100
AcDbEntity
  8
0
  6
CONTINUOUS
 62
     0
100
AcDbLine
 10
0.0
 20
0.0
 30
0.0
 11
-0.965926
 21
-0.258819
 31
0.0
  0
LINE
  5
5E
330
59
100
AcDbEntity
  8
0
  6
CONTINUOUS
 62
     0
100
AcDbLine
 10
0.0
 20
0.0
 30
0.0
 11
-0.965926
 21
0.258819
 31
0.0
  0
LINE
  5
5F
330
59
100
AcDbEntity
  8
0
  6
CONTINUOUS
 62
     0
100
AcDbLine
 10
-0.965926
 20
-0.258819
 30
0.0
 11
-0.965926
 21
0.258819
 31
0.0
  0
ENDBLK
  5
5B
330
59
100
AcDbEntity
  8
0
100
AcDbBlockEnd
  0
BLOCK
  5
61
330
60
100
AcDbEntity
  8
0
100
AcDbBlockBegin
  2
FXTIP_TRIANGLE_E
 70
     0
 71
     0
 10
0.0
 20
0.0
 30
0.0
  3
FXTIP_TRIANGLE_E
  1

  0
LINE
  5
63
330
60
100
AcDbEntity
  8
0
  6
CONTINUOUS
 62
     0
100
AcDbLine
 10
0.0
 20
0.0
 30
0.0
 11
-1.0
 21
0.0
 31
0.0
  0
LINE
  5
64
330
60
100
AcDbEntity
  8
0
  6
CONTINUOUS
 62
     0
100
AcDbLine
 10
0.0
 20
0.0
 30
0.0
 11
-0.965926
 21
0.258819
 31
0.0
  0
LINE
  5
65
330
60
100
AcDbEntity
  8
0
  6
CONTINUOUS
 62
     0
100
AcDbLine
 10
0.0
 20
0.0
 30
0.0
 11
-0.965926
 21
-0.258819
 31
0.0
  0
LINE
  5
66
330
60
100
AcDbEntity
  8
0
  6
CONTINUOUS
 62
     0
100
AcDbLine
 10
-0.965926
 20
0.258819
 30
0.0
 11
-0.965926
 21
-0.258819
 31
0.0
  0
ENDBLK
  5
62
330
60
100
AcDbEntity
  8
0
100
AcDbBlockEnd
  0
BLOCK
  5
68
330
67
100
AcDbEntity
  8
0
100
AcDbBlockBegin
  2
FXTIP_ARCHITECT_S
 70
     0
 71
     0
 10
0.0
 20
0.0
 30
0.0
  3
FXTIP_ARCHITECT_S
  1

  0
LINE
  5
6A
330
67
100
AcDbEntity
  8
0
  6
CONTINUOUS
 62
     0
100
AcDbLine
 10
0.0
 20
0.0
 30
0.0
 11
-1.0
 21
0.0
 31
0.0
  0
LINE
  5
6B
330
67
100
AcDbEntity
  8
0
  6
CONTINUOUS
 62
     0
100
AcDbLine
 10
0.0
 20
0.0
 30
0.0
 11
-0.707107
 21
-0.707107
 31
0.0
  0
LINE
  5
6C
330
67
100
AcDbEntity
  8
0
  6
CONTINUOUS
 62
     0
100
AcDbLine
 10
0.0
 20
0.0
 30
0.0
 11
0.707107
 21
0.707107
 31
0.0
  0
ENDBLK
  5
69
330
67
100
AcDbEntity
  8
0
100
AcDbBlockEnd
  0
BLOCK
  5
6E
330
6D
100
AcDbEntity
  8
0
100
AcDbBlockBegin
  2
FXTIP_ARCHITECT_E
 70
     0
 71
     0
 10
0.0
 20
0.0
 30
0.0
  3
FXTIP_ARCHITECT_E
  1

  0
LINE
  5
70
330
6D
100
AcDbEntity
  8
0
  6
CONTINUOUS
 62
     0
100
AcDbLine
 10
0.0
 20
0.0
 30
0.0
 11
-1.0
 21
0.0
 31
0.0
  0
LINE
  5
71
330
6D
100
AcDbEntity
  8
0
  6
CONTINUOUS
 62
     0
100
AcDbLine
 10
0.0
 20
0.0
 30
0.0
 11
0.707107
 21
0.707107
 31
0.0
  0
LINE
  5
72
330
6D
100
AcDbEntity
  8
0
  6
CONTINUOUS
 62
     0
100
AcDbLine
 10
0.0
 20
0.0
 30
0.0
 11
-0.707107
 21
-0.707107
 31
0.0
  0
ENDBLK
  5
6F
330
6D
100
AcDbEntity
  8
0
100
AcDbBlockEnd
  0
BLOCK
  5
74
330
73
100
AcDbEntity
  8
0
100
AcDbBlockBegin
  2
FXTIP_CIVIL_S
 70
     0
 71
     0
 10
0.0
 20
0.0
 30
0.0
  3
FXTIP_CIVIL_S
  1

  0
LINE
  5
76
330
73
100
AcDbEntity
  8
0
  6
CONTINUOUS
 62
     0
100
AcDbLine
 10
0.0
 20
0.0
 30
0.0
 11
-1.0
 21
0.0
 31
0.0
  0
LINE
  5
77
330
73
100
AcDbEntity
  8
0
  6
CONTINUOUS
 62
     0
100
AcDbLine
 10
0.0
 20
-0.0625
 30
0.0
 11
-1.0
 21
-0.0625
 31
0.0
  0
LINE
  5
78
330
73
100
AcDbEntity
  8
0
  6
CONTINUOUS
 62
     0
100
AcDbLine
 10
0.0
 20
-0.125
 30
0.0
 11
-1.0
 21
-0.125
 31
0.0
  0
ENDBLK
  5
75
330
73
100
AcDbEntity
  8
0
100
AcDbBlockEnd
  0
BLOCK
  5
7A
330
79
100
AcDbEntity
  8
0
100
AcDbBlockBegin
  2
FXTIP_CIVIL_E
 70
     0
 71
     0
 10
0.0
 20
0.0
 30
0.0
  3
FXTIP_CIVIL_E
  1

  0
LINE
  5
7C
330
79
100
AcDbEntity
  8
0
  6
CONTINUOUS
 62
     0
100
AcDbLine
 10
0.0
 20
0.0
 30
0.0
 11
-1.0
 21
0.0
 31
0.0
  0
LINE
  5
7D
330
79
100
AcDbEntity
  8
0
  6
CONTINUOUS
 62
     0
100
AcDbLine
 10
0.0
 20
0.0625
 30
0.0
 11
-1.0
 21
0.0625
 31
0.0
  0
LINE
  5
7E
330
79
100
AcDbEntity
  8
0
  6
CONTINUOUS
 62
     0
100
AcDbLine
 10
0.0
 20
0.125
 30
0.0
 11
-1.0
 21
0.125
 31
0.0
  0
ENDBLK
  5
7B
330
79
100
AcDbEntity
  8
0
100
AcDbBlockEnd
  0
BLOCK
  5
80
330
7F
100
AcDbEntity
  8
0
100
AcDbBlockBegin
  2
FXTIP_WHITEDOT_S
 70
     0
 71
     0
 10
0.0
 20
0.0
 30
0.0
  3
FXTIP_WHITEDOT_S
  1

  0
LINE
  5
82
330
7F
100
AcDbEntity
  8
0
  6
CONTINUOUS
 62
     0
100
AcDbLine
 10
0.0
 20
0.0
 30
0.0
 11
-1.0
 21
0.0
 31
0.0
  0
CIRCLE
  5
83
330
7F
100
AcDbEntity
  8
0
  6
CONTINUOUS
 62
     0
100
AcDbCircle
 10
0.0
 20
0.0
 30
0.0
 40
0.5
  0
ENDBLK
  5
81
330
7F
100
AcDbEntity
  8
0
100
AcDbBlockEnd
  0
BLOCK
  5
85
330
84
100
AcDbEntity
  8
0
100
AcDbBlockBegin
  2
FXTIP_WHITEDOT_E
 70
     0
 71
     0
 10
0.0
 20
0.0
 30
0.0
  3
FXTIP_WHITEDOT_E
  1

  0
LINE
  5
87
330
84
100
AcDbEntity
  8
0
  6
CONTINUOUS
 62
     0
100
AcDbLine
 10
0.0
 20
0.0
 30
0.0
 11
-1.0
 21
0.0
 31
0.0
  0
CIRCLE
  5
88
330
84
100
AcDbEntity
  8
0
  6
CONTINUOUS
 62
     0
100
AcDbCircle
 10
0.0
 20
0.0
 30
0.0
 40
0.5
  0
ENDBLK
  5
86
330
84
100
AcDbEntity
  8
0
100
AcDbBlockEnd
  0
BLOCK
  5
8A
330
89
100
AcDbEntity
  8
0
100
AcDbBlockBegin
  2
FXTIP_UPARROW_S
 70
     0
 71
     0
 10
0.0
 20
0.0
 30
0.0
  3
FXTIP_UPARROW_S
  1

  0
LINE
  5
8C
330
89
100
AcDbEntity
  8
0
  6
CONTINUOUS
 62
     0
100
AcDbLine
 10
0.0
 20
0.0
 30
0.0
 11
-1.0
 21
0.0
 31
0.0
  0
LINE
  5
8D
330
89
100
AcDbEntity
  8
0
  6
CONTINUOUS
 62
     0
100
AcDbLine
 10
0.0
 20
0.0
 30
0.0
 11
-0.965926
 21
-0.258819
 31
0.0
  0
ENDBLK
  5
8B
330
89
100
AcDbEntity
  8
0
100
AcDbBlockEnd
  0
BLOCK
  5
8F
330
8E
100
AcDbEntity
  8
0
100
AcDbBlockBegin
  2
FXTIP_UPARROW_E
 70
     0
 71
     0
 10
0.0
 20
0.0
 30
0.0
  3
FXTIP_UPARROW_E
  1

  0
LINE
  5
91
330
8E
100
AcDbEntity
  8
0
  6
CONTINUOUS
 62
     0
100
AcDbLine
 10
0.0
 20
0.0
 30
0.0
 11
-1.0
 21
0.0
 31
0.0
  0
LINE
  5
92
330
8E
100
AcDbEntity
  8
0
  6
CONTINUOUS
 62
     0
100
AcDbLine
 10
0.0
 20
0.0
 30
0.0
 11
-0.965926
 21
0.258819
 31
0.0
  0
ENDBLK
  5
90
330
8E
100
AcDbEntity
  8
0
100
AcDbBlockEnd
  0
BLOCK
  5
94
330
93
100
AcDbEntity
  8
0
100
AcDbBlockBegin
  2
FXTIP_DOWNARROW_S
 70
     0
 71
     0
 10
0.0
 20
0.0
 30
0.0
  3
FXTIP_DOWNARROW_S
  1

  0
LINE
  5
96
330
93
100
AcDbEntity
  8
0
  6
CONTINUOUS
 62
     0
100
AcDbLine
 10
0.0
 20
0.0
 30
0.0
 11
-1.0
 21
0.0
 31
0.0
  0
LINE
  5
97
330
93
100
AcDbEntity
  8
0
  6
CONTINUOUS
 62
     0
100
AcDbLine
 10
0.0
 20
0.0
 30
0.0
 11
-0.965926
 21
0.258819
 31
0.0
  0
ENDBLK
  5
95
330
93
100
AcDbEntity
  8
0
100
AcDbBlockEnd
  0
BLOCK
  5
99
330
98
100
AcDbEntity
  8
0
100
AcDbBlockBegin
  2
FXTIP_DOWNARROW_E
 70
     0
 71
     0
 10
0.0
 20
0.0
 30
0.0
  3
FXTIP_DOWNARROW_E
  1

  0
LINE
  5
9B
330
98
100
AcDbEntity
  8
0
  6
CONTINUOUS
 62
     0
100
AcDbLine
 10
0.0
 20
0.0
 30
0.0
 11
-1.0
 21
0.0
 31
0.0
  0
LINE
  5
9C
330
98
100
AcDbEntity
  8
0
  6
CONTINUOUS
 62
     0
100
AcDbLine
 10
0.0
 20
0.0
 30
0.0
 11
-0.965926
 21
-0.258819
 31
0.0
  0
ENDBLK
  5
9A
330
98
100
AcDbEntity
  8
0
100
AcDbBlockEnd
  0
BLOCK
  5
9E
330
9D
100
AcDbEntity
  8
0
100
AcDbBlockBegin
  2
FXTIP_BLACKTRIANGLE_S
 70
     0
 71
     0
 10
0.0
 20
0.0
 30
0.0
  3
FXTIP_BLACKTRIANGLE_S
  1

  0
LINE
  5
A0
330
9D
100
AcDbEntity
  8
0
  6
CONTINUOUS
 62
     0
100
AcDbLine
 10
0.0
 20
0.0
 30
0.0
 11
-1.0
 21
0.0
 31
0.0
  0
SOLID
  5
A1
330
9D
100
AcDbEntity
  8
0
  6
CONTINUOUS
 62
     0
100
AcDbTrace
 10
0.0
 20
0.0
 30
0.0
 11
-0.965926
 21
-0.258819
 31
0.0
 12
-0.965926
 22
0.258819
 32
0.0
 13
-0.965926
 23
0.258819
 33
0.0
  0
ENDBLK
  5
9F
330
9D
100
AcDbEntity
  8
0
100
AcDbBlockEnd
  0
BLOCK
  5
A3
330
A2
100
AcDbEntity
  8
0
100
AcDbBlockBegin
  2
FXTIP_BLACKTRIANGLE_E
 70
     0
 71
     0
 10
0.0
 20
0.0
 30
0.0
  3
FXTIP_BLACKTRIANGLE_E
  1

  0
LINE
  5
A5
330
A2
100
AcDbEntity
  8
0
  6
CONTINUOUS
 62
     0
100
AcDbLine
 10
0.0
 20
0.0
 30
0.0
 11
-1.0
 21
0.0
 31
0.0
  0
SOLID
  5
A6
330
A2
100
AcDbEntity
  8
0
  6
CONTINUOUS
 62
     0
100
AcDbTrace
 10
0.0
 20
0.0
 30
0.0
 11
-0.965926
 21
0.258819
 31
0.0
 12
-0.965926
 22
-0.258819
 32
0.0
 13
-0.965926
 23
-0.258819
 33
0.0
  0
ENDBLK
  5
A4
330
A2
100
AcDbEntity
  8
0
100
AcDbBlockEnd
  0
BLOCK
  5
1B7
330
1B6
100
AcDbEntity
  8
0
100
AcDbBlockBegin
  2
BLKF021
 70
     0
 71
     0
 10
0.0
 20
0.0
 30
0.0
  3
BLKF021
  1

  0
LINE
  5
1BA
330
1B6
100
AcDbEntity
  8
}}ﾊﾊGG血CCТ
  6
CONTINUOUS
 62
     7
100
AcDbLine
 10
10.0
 20
10.0
 30
0.0
 11
584.0
 21
10.0
 31
0.0
  0
LINE
  5
1BB
330
1B6
100
AcDbEntity
  8
}}ﾊﾊGG血CCТ
  6
CONTINUOUS
 62
     7
100
AcDbLine
 10
10.0
 20
10.0
 30
0.0
 11
10.0
 21
410.0
 31
0.0
  0
LINE
  5
1BC
330
1B6
100
AcDbEntity
  8
}}ﾊﾊGG血CCТ
  6
CONTINUOUS
 62
     7
100
AcDbLine
 10
10.0
 20
410.0
 30
0.0
 11
584.0
 21
410.0
 31
0.0
  0
LINE
  5
1BD
330
1B6
100
AcDbEntity
  8
}}ﾊﾊGG血CCТ
  6
CONTINUOUS
 62
     7
100
AcDbLine
 10
584.0
 20
410.0
 30
0.0
 11
584.0
 21
10.0
 31
0.0
  0
LINE
  5
1BE
330
1B6
100
AcDbEntity
  8
}}ﾊﾊGG血CCТ
  6
CONTINUOUS
 62
     7
100
AcDbLine
 10
327.0
 20
10.0
 30
0.0
 11
327.0
 21
20.0
 31
0.0
  0
TEXT
  5
1BF
330
1B6
100
AcDbEntity
  8
}}ﾊﾊGG血CCТ
  6
CONTINUOUS
 62
     7
100
AcDbText
 10
311.738831
 20
11.596879
 30
0.0
 40
6.648749
  1
品名
 41
1.083413
  7
FX_VECTOR
 72
     5
 11
323.058371
 21
11.596879
 31
0.0
100
AcDbText
  0
LINE
  5
1C0
330
1B6
100
AcDbEntity
  8
}}ﾊﾊGG血CCТ
  6
CONTINUOUS
 62
     7
100
AcDbLine
 10
407.0
 20
20.0
 30
0.0
 11
407.0
 21
10.0
 31
0.0
  0
LINE
  5
1C1
330
1B6
100
AcDbEntity
  8
}}ﾊﾊGG血CCТ
  6
CONTINUOUS
 62
     7
100
AcDbLine
 10
307.0
 20
20.0
 30
0.0
 11
584.0
 21
20.0
 31
0.0
  0
INSERT
  5
1C5
330
1B6
100
AcDbEntity
  8
0
100
AcDbBlockReference
  2
BLKF022
 10
0.0
 20
0.0
 30
0.0
  0
INSERT
  5
1CE
330
1B6
100
AcDbEntity
  8
0
100
AcDbBlockReference
  2
BLKF023
 10
0.0
 20
0.0
 30
0.0
  0
HATCH
  5
1DE
330
1B6
100
AcDbEntity
  8
GR1-1
  6
CONTINUOUS
 62
     7
100
AcDbHatch
 10
0.0
 20
0.0
 30
0.0
210
0.0
220
0.0
230
1.0
  2

 70
     0
 71
     1
 91
        2
 92
        0
 93
        4
 72
     1
 10
512.8018997861325
 20
17.91346152
 11
518.8018997861325
 21
17.91346152
 72
     1
 10
518.8018997861325
 20
17.91346152
 11
518.8018997861325
 21
11.91346152
 72
     1
 10
518.8018997861325
 20
11.91346152
 11
512.8018997861325
 21
11.91346152
 72
     1
 10
512.8018997861325
 20
11.91346152
 11
512.8018997861325
 21
17.91346152
 97
        0
 92
        0
 93
       15
 72
     1
 10
515.8018997861325
 20
17.76923076000002
 11
512.9461305461325
 21
14.91346152
 72
     1
 10
512.9461305461325
 20
14.91346152
 11
515.8018997861325
 21
12.05769228000001
 72
     1
 10
515.8018997861325
 20
12.05769228000001
 11
517.3595920661326
 21
13.61538462
 72
     1
 10
517.3595920661326
 20
13.61538462
 11
517.3595920661326
 21
12.98076924
 72
     1
 10
517.3595920661326
 20
12.98076924
 11
518.2249766861326
 21
12.98076924
 72
     1
 10
518.2249766861326
 20
12.98076924
 11
518.2249766861326
 21
15.00000000000001
 72
     1
 10
518.2249766861326
 20
15.00000000000001
 11
515.8018997861325
 21
15.00000000000001
 72
     1
 10
515.8018997861325
 20
15.00000000000001
 11
515.8018997861325
 21
14.13461538000001
 72
     1
 10
515.8018997861325
 20
14.13461538000001
 11
516.2461305461325
 21
14.13461538000001
 72
     1
 10
516.2461305461325
 20
14.13461538000001
 11
515.8018997861325
 21
13.69038462
 72
     1
 10
515.8018997861325
 20
13.69038462
 11
514.5788228861325
 21
14.91346152
 72
     1
 10
514.5788228861325
 20
14.91346152
 11
515.8018997861325
 21
16.13653842000003
 72
     1
 10
515.8018997861325
 20
16.13653842000003
 11
516.5922844061325
 21
15.3461538
 72
     1
 10
516.5922844061325
 20
15.3461538
 11
518.2249766861326
 21
15.3461538
 72
     1
 10
518.2249766861326
 20
15.3461538
 11
515.8018997861325
 21
17.76923076000002
 97
        0
 75
     0
 76
     0
 52
45.0
 41
0.05
 77
     0
 78
     1
 53
45.0
 43
0.0
 44
0.0
 45
-0.0353553390593274
 46
0.0353553390593274
 79
     0
 98
        0
  0
TEXT
  5
1DF
330
1B6
100
AcDbEntity
  8
}}ﾊﾊGG血CCТ
  6
CONTINUOUS
 62
     7
100
AcDbText
 10
523.225769
 20
11.461285
 30
0.0
 40
7.170908
  1
GOLD CASTER
 41
0.63978
  7
FX_VECTOR
 72
     5
 11
569.977636
 21
11.461285
 31
0.0
100
AcDbText
  0
LINE
  5
1E0
330
1B6
100
AcDbEntity
  8
}}ﾊﾊGG血CCТ
  6
CONTINUOUS
 62
     7
100
AcDbLine
 10
427.0
 20
10.0
 30
0.0
 11
427.0
 21
20.0
 31
0.0
  0
TEXT
  5
1E1
330
1B6
100
AcDbEntity
  8
}}ﾊﾊGG血CCТ
  6
CONTINUOUS
 62
     7
100
AcDbText
 10
411.738831
 20
11.596879
 30
0.0
 40
6.648749
  1
図番
 41
1.083413
  7
FX_VECTOR
 72
     5
 11
423.058371
 21
11.596879
 31
0.0
100
AcDbText
  0
LINE
  5
1E2
330
1B6
100
AcDbEntity
  8
}}ﾊﾊGG血CCТ
  6
CONTINUOUS
 62
     7
100
AcDbLine
 10
507.0
 20
20.0
 30
0.0
 11
507.0
 21
10.0
 31
0.0
  0
LINE
  5
1E3
330
1B6
100
AcDbEntity
  8
}}ﾊﾊGG血CCТ
  6
CONTINUOUS
 62
     7
100
AcDbLine
 10
307.0
 20
20.0
 30
0.0
 11
307.0
 21
10.0
 31
0.0
  0
ENDBLK
  5
1B8
330
1B6
100
AcDbEntity
  8
0
100
AcDbBlockEnd
  0
BLOCK
  5
1C3
330
1C2
100
AcDbEntity
  8
0
100
AcDbBlockBegin
  2
BLKF022
 70
     0
 71
     0
 10
0.0
 20
0.0
 30
0.0
  3
BLKF022
  1

  0
LINE
  5
1C7
330
1C2
100
AcDbEntity
  8
0-1
  6
CONTINUOUS
 62
     7
100
AcDbLine
 10
518.8019
 20
17.913462
 30
0.0
 11
512.8019
 21
17.913462
 31
0.0
  0
LINE
  5
1C8
330
1C2
100
AcDbEntity
  8
0-1
  6
CONTINUOUS
 62
     7
100
AcDbLine
 10
512.8019
 20
17.913462
 30
0.0
 11
512.8019
 21
11.913462
 31
0.0
  0
LINE
  5
1C9
330
1C2
100
AcDbEntity
  8
0-1
  6
CONTINUOUS
 62
     7
100
AcDbLine
 10
512.8019
 20
11.913462
 30
0.0
 11
518.8019
 21
11.913462
 31
0.0
  0
LINE
  5
1CA
330
1C2
100
AcDbEntity
  8
0-1
  6
CONTINUOUS
 62
     7
100
AcDbLine
 10
518.8019
 20
11.913462
 30
0.0
 11
518.8019
 21
17.913462
 31
0.0
  0
ENDBLK
  5
1C4
330
1C2
100
AcDbEntity
  8
0
100
AcDbBlockEnd
  0
BLOCK
  5
1CC
330
1CB
100
AcDbEntity
  8
0
100
AcDbBlockBegin
  2
BLKF023
 70
     0
 71
     0
 10
0.0
 20
0.0
 30
0.0
  3
BLKF023
  1

  0
LINE
  5
1CF
330
1CB
100
AcDbEntity
  8
0-1
  6
CONTINUOUS
 62
     7
100
AcDbLine
 10
518.224977
 20
15.346154
 30
0.0
 11
515.8019
 21
17.769231
 31
0.0
  0
LINE
  5
1D0
330
1CB
100
AcDbEntity
  8
0-1
  6
CONTINUOUS
 62
     7
100
AcDbLine
 10
515.8019
 20
17.769231
 30
0.0
 11
512.946131
 21
14.913462
 31
0.0
  0
LINE
  5
1D1
330
1CB
100
AcDbEntity
  8
0-1
  6
CONTINUOUS
 62
     7
100
AcDbLine
 10
512.946131
 20
14.913462
 30
0.0
 11
515.8019
 21
12.057692
 31
0.0
  0
LINE
  5
1D2
330
1CB
100
AcDbEntity
  8
0-1
  6
CONTINUOUS
 62
     7
100
AcDbLine
 10
515.8019
 20
12.057692
 30
0.0
 11
517.359592
 21
13.615385
 31
0.0
  0
LINE
  5
1D3
330
1CB
100
AcDbEntity
  8
0-1
  6
CONTINUOUS
 62
     7
100
AcDbLine
 10
517.359592
 20
13.615385
 30
0.0
 11
517.359592
 21
12.980769
 31
0.0
  0
LINE
  5
1D4
330
1CB
100
AcDbEntity
  8
0-1
  6
CONTINUOUS
 62
     7
100
AcDbLine
 10
517.359592
 20
12.980769
 30
0.0
 11
518.224977
 21
12.980769
 31
0.0
  0
LINE
  5
1D5
330
1CB
100
AcDbEntity
  8
0-1
  6
CONTINUOUS
 62
     7
100
AcDbLine
 10
518.224977
 20
12.980769
 30
0.0
 11
518.224977
 21
15.0
 31
0.0
  0
LINE
  5
1D6
330
1CB
100
AcDbEntity
  8
0-1
  6
CONTINUOUS
 62
     7
100
AcDbLine
 10
518.224977
 20
15.0
 30
0.0
 11
515.8019
 21
15.0
 31
0.0
  0
LINE
  5
1D7
330
1CB
100
AcDbEntity
  8
0-1
  6
CONTINUOUS
 62
     7
100
AcDbLine
 10
515.8019
 20
15.0
 30
0.0
 11
515.8019
 21
14.134615
 31
0.0
  0
LINE
  5
1D8
330
1CB
100
AcDbEntity
  8
0-1
  6
CONTINUOUS
 62
     7
100
AcDbLine
 10
515.8019
 20
14.134615
 30
0.0
 11
516.246131
 21
14.134615
 31
0.0
  0
LINE
  5
1D9
330
1CB
100
AcDbEntity
  8
0-1
  6
CONTINUOUS
 62
     7
100
AcDbLine
 10
516.246131
 20
14.134615
 30
0.0
 11
515.8019
 21
13.690385
 31
0.0
  0
LINE
  5
1DA
330
1CB
100
AcDbEntity
  8
0-1
  6
CONTINUOUS
 62
     7
100
AcDbLine
 10
515.8019
 20
13.690385
 30
0.0
 11
514.578823
 21
14.913462
 31
0.0
  0
LINE
  5
1DB
330
1CB
100
AcDbEntity
  8
0-1
  6
CONTINUOUS
 62
     7
100
AcDbLine
 10
514.578823
 20
14.913462
 30
0.0
 11
515.8019
 21
16.136538
 31
0.0
  0
LINE
  5
1DC
330
1CB
100
AcDbEntity
  8
0-1
  6
CONTINUOUS
 62
     7
100
AcDbLine
 10
515.8019
 20
16.136538
 30
0.0
 11
516.592284
 21
15.346154
 31
0.0
  0
LINE
  5
1DD
330
1CB
100
AcDbEntity
  8
0-1
  6
CONTINUOUS
 62
     7
100
AcDbLine
 10
516.592284
 20
15.346154
 30
0.0
 11
518.224977
 21
15.346154
 31
0.0
  0
ENDBLK
  5
1CD
330
1CB
100
AcDbEntity
  8
0
100
AcDbBlockEnd
  0
BLOCK
  5
22F
330
22E
100
AcDbEntity
  8
0
100
AcDbBlockBegin
  2
BLKF024
 70
     0
 71
     0
 10
0.0
 20
0.0
 30
0.0
  3
BLKF024
  1

  0
LINE
  5
232
330
22E
100
AcDbEntity
  8
GR1-1
  6
CONTINUOUS
 62
     7
100
AcDbLine
 10
351.006998
 20
86.28316
 30
0.0
 11
350.656646
 21
86.200371
 31
0.0
  0
LINE
  5
233
330
22E
100
AcDbEntity
  8
GR1-1
  6
CONTINUOUS
 62
     7
100
AcDbLine
 10
351.223567
 20
86.149378
 30
0.0
 11
350.522865
 21
85.983801
 31
0.0
  0
LINE
  5
234
330
22E
100
AcDbEntity
  8
GR1-1
  6
CONTINUOUS
 62
     7
100
AcDbLine
 10
351.440137
 20
86.015597
 30
0.0
 11
350.389083
 21
85.767232
 31
0.0
  0
LINE
  5
235
330
22E
100
AcDbEntity
  8
GR1-1
  6
CONTINUOUS
 62
     7
100
AcDbLine
 10
351.656707
 20
85.881816
 30
0.0
 11
350.255302
 21
85.550662
 31
0.0
  0
LINE
  5
236
330
22E
100
AcDbEntity
  8
GR1-1
  6
CONTINUOUS
 62
     7
100
AcDbLine
 10
351.873277
 20
85.748034
 30
0.0
 11
350.664724
 21
85.462451
 31
0.0
  0
LINE
  5
237
330
22E
100
AcDbEntity
  8
GR1-1
  6
CONTINUOUS
 62
     7
100
AcDbLine
 10
350.334044
 20
85.384311
 30
0.0
 11
350.121521
 21
85.334092
 31
0.0
  0
LINE
  5
238
330
22E
100
AcDbEntity
  8
GR1-1
  6
CONTINUOUS
 62
     7
100
AcDbLine
 10
352.089847
 20
85.614253
 30
0.0
 11
350.881294
 21
85.32867
 31
0.0
  0
LINE
  5
239
330
22E
100
AcDbEntity
  8
GR1-1
  6
CONTINUOUS
 62
     7
100
AcDbLine
 10
350.200263
 20
85.167741
 30
0.0
 11
349.987739
 21
85.117522
 31
0.0
  0
LINE
  5
23A
330
22E
100
AcDbEntity
  8
GR1-1
  6
CONTINUOUS
 62
     7
100
AcDbLine
 10
352.306417
 20
85.480471
 30
0.0
 11
351.097863
 21
85.194889
 31
0.0
  0
LINE
  5
23B
330
22E
100
AcDbEntity
  8
GR1-1
  6
CONTINUOUS
 62
     7
100
AcDbLine
 10
350.066481
 20
84.951171
 30
0.0
 11
349.853958
 21
84.900952
 31
0.0
  0
LINE
  5
23C
330
22E
100
AcDbEntity
  8
GR1-1
  6
CONTINUOUS
 62
     7
100
AcDbLine
 10
352.522987
 20
85.34669
 30
0.0
 11
351.171379
 21
85.027303
 31
0.0
  0
LINE
  5
23D
330
22E
100
AcDbEntity
  8
GR1-1
  6
CONTINUOUS
 62
     7
100
AcDbLine
 10
349.9327
 20
84.734602
 30
0.0
 11
349.720176
 21
84.684382
 31
0.0
  0
LINE
  5
23E
330
22E
100
AcDbEntity
  8
GR1-1
  6
CONTINUOUS
 62
     7
100
AcDbLine
 10
352.739557
 20
85.212909
 30
0.0
 11
351.037598
 21
84.810733
 31
0.0
  0
LINE
  5
23F
330
22E
100
AcDbEntity
  8
GR1-1
  6
CONTINUOUS
 62
     7
100
AcDbLine
 10
349.798919
 20
84.518032
 30
0.0
 11
349.586395
 21
84.467812
 31
0.0
  0
LINE
  5
240
330
22E
100
AcDbEntity
  8
GR1-1
  6
CONTINUOUS
 62
     7
100
AcDbLine
 10
352.956127
 20
85.079127
 30
0.0
 11
350.903816
 21
84.594163
 31
0.0
  0
LINE
  5
241
330
22E
100
AcDbEntity
  8
GR1-1
  6
CONTINUOUS
 62
     7
100
AcDbLine
 10
349.665137
 20
84.301462
 30
0.0
 11
349.452613
 21
84.251242
 31
0.0
  0
LINE
  5
242
330
22E
100
AcDbEntity
  8
GR1-1
  6
CONTINUOUS
 62
     7
100
AcDbLine
 10
353.172697
 20
84.945346
 30
0.0
 11
350.872396
 21
84.401781
 31
0.0
  0
LINE
  5
243
330
22E
100
AcDbEntity
  8
GR1-1
  6
CONTINUOUS
 62
     7
100
AcDbLine
 10
349.531356
 20
84.084892
 30
0.0
 11
349.318832
 21
84.034672
 31
0.0
  0
LINE
  5
244
330
22E
100
AcDbEntity
  8
GR1-1
  6
CONTINUOUS
 62
     7
100
AcDbLine
 10
353.389267
 20
84.811564
 30
0.0
 11
353.038915
 21
84.728776
 31
0.0
  0
LINE
  5
245
330
22E
100
AcDbEntity
  8
GR1-1
  6
CONTINUOUS
 62
     7
100
AcDbLine
 10
349.67323
 20
83.93346
 30
0.0
 11
349.185051
 21
83.818102
 31
0.0
  0
LINE
  5
246
330
22E
100
AcDbEntity
  8
GR1-1
  6
CONTINUOUS
 62
     7
100
AcDbLine
 10
353.605837
 20
84.677783
 30
0.0
 11
353.08031
 21
84.5536
 31
0.0
  0
LINE
  5
247
330
22E
100
AcDbEntity
  8
GR1-1
  6
CONTINUOUS
 62
     7
100
AcDbLine
 10
349.889799
 20
83.799678
 30
0.0
 11
349.051269
 21
83.601532
 31
0.0
  0
LINE
  5
248
330
22E
100
AcDbEntity
  8
GR1-1
  6
CONTINUOUS
 62
     7
100
AcDbLine
 10
353.822407
 20
84.544001
 30
0.0
 11
353.121704
 21
84.378424
 31
0.0
  0
LINE
  5
249
330
22E
100
AcDbEntity
  8
GR1-1
  6
CONTINUOUS
 62
     7
100
AcDbLine
 10
350.106369
 20
83.665897
 30
0.0
 11
349.734766
 21
83.578086
 31
0.0
  0
LINE
  5
24A
330
22E
100
AcDbEntity
  8
GR1-1
  6
CONTINUOUS
 62
     7
100
AcDbLine
 10
349.61819
 20
83.550539
 30
0.0
 11
348.917488
 21
83.384962
 31
0.0
  0
LINE
  5
24B
330
22E
100
AcDbEntity
  8
GR1-1
  6
CONTINUOUS
 62
     7
100
AcDbLine
 10
354.038976
 20
84.41022
 30
0.0
 11
353.163098
 21
84.203249
 31
0.0
  0
LINE
  5
24C
330
22E
100
AcDbEntity
  8
GR1-1
  6
CONTINUOUS
 62
     7
100
AcDbLine
 10
350.322939
 20
83.532115
 30
0.0
 11
349.951336
 21
83.444305
 31
0.0
  0
LINE
  5
24D
330
22E
100
AcDbEntity
  8
GR1-1
  6
CONTINUOUS
 62
     7
100
AcDbLine
 10
349.659585
 20
83.375364
 30
0.0
 11
348.783706
 21
83.168392
 31
0.0
  0
LINE
  5
24E
330
22E
100
AcDbEntity
  8
GR1-1
  6
CONTINUOUS
 62
     7
100
AcDbLine
 10
354.255546
 20
84.276439
 30
0.0
 11
353.204492
 21
84.028073
 31
0.0
  0
LINE
  5
24F
330
22E
100
AcDbEntity
  8
GR1-1
  6
CONTINUOUS
 62
     7
100
AcDbLine
 10
350.539509
 20
83.398334
 30
0.0
 11
350.167906
 21
83.310523
 31
0.0
  0
LINE
  5
250
330
22E
100
AcDbEntity
  8
GR1-1
  6
CONTINUOUS
 62
     7
100
AcDbLine
 10
349.700979
 20
83.200188
 30
0.0
 11
348.649925
 21
82.951823
 31
0.0
  0
LINE
  5
251
330
22E
100
AcDbEntity
  8
GR1-1
  6
CONTINUOUS
 62
     7
100
AcDbLine
 10
354.472116
 20
84.142657
 30
0.0
 11
353.245887
 21
83.852897
 31
0.0
  0
LINE
  5
252
330
22E
100
AcDbEntity
  8
GR1-1
  6
CONTINUOUS
 62
     7
100
AcDbLine
 10
352.370008
 20
83.645926
 30
0.0
 11
351.3773
 21
83.411348
 31
0.0
  0
LINE
  5
253
330
22E
100
AcDbEntity
  8
GR1-1
  6
CONTINUOUS
 62
     7
100
AcDbLine
 10
350.756079
 20
83.264553
 30
0.0
 11
350.384475
 21
83.176742
 31
0.0
  0
LINE
  5
254
330
22E
100
AcDbEntity
  8
GR1-1
  6
CONTINUOUS
 62
     7
100
AcDbLine
 10
349.742373
 20
83.025012
 30
0.0
 11
348.516144
 21
82.735253
 31
0.0
  0
LINE
  5
255
330
22E
100
AcDbEntity
  8
GR1-1
  6
CONTINUOUS
 62
     7
100
AcDbLine
 10
354.688686
 20
84.008876
 30
0.0
 11
353.287281
 21
83.677722
 31
0.0
  0
LINE
  5
256
330
22E
100
AcDbEntity
  8
GR1-1
  6
CONTINUOUS
 62
     7
100
AcDbLine
 10
352.411403
 20
83.470751
 30
0.0
 11
351.591989
 21
83.277122
 31
0.0
  0
LINE
  5
257
330
22E
100
AcDbEntity
  8
GR1-1
  6
CONTINUOUS
 62
     7
100
AcDbLine
 10
350.972649
 20
83.130771
 30
0.0
 11
350.601045
 21
83.042961
 31
0.0
  0
LINE
  5
258
330
22E
100
AcDbEntity
  8
GR1-1
  6
CONTINUOUS
 62
     7
100
AcDbLine
 10
349.783767
 20
82.849837
 30
0.0
 11
348.382362
 21
82.518683
 31
0.0
  0
LINE
  5
259
330
22E
100
AcDbEntity
  8
GR1-1
  6
CONTINUOUS
 62
     7
100
AcDbLine
 10
354.905256
 20
83.875094
 30
0.0
 11
353.328675
 21
83.502546
 31
0.0
  0
LINE
  5
25A
330
22E
100
AcDbEntity
  8
GR1-1
  6
CONTINUOUS
 62
     7
100
AcDbLine
 10
352.452797
 20
83.295575
 30
0.0
 11
351.808559
 21
83.14334
 31
0.0
  0
LINE
  5
25B
330
22E
100
AcDbEntity
  8
GR1-1
  6
CONTINUOUS
 62
     7
100
AcDbLine
 10
351.189219
 20
82.99699
 30
0.0
 11
350.70104
 21
82.881632
 31
0.0
  0
LINE
  5
25C
330
22E
100
AcDbEntity
  8
GR1-1
  6
CONTINUOUS
 62
     7
100
AcDbLine
 10
349.825162
 20
82.674661
 30
0.0
 11
348.248581
 21
82.302113
 31
0.0
  0
LINE
  5
25D
330
22E
100
AcDbEntity
  8
GR1-1
  6
CONTINUOUS
 62
     7
100
AcDbLine
 10
355.121826
 20
83.741313
 30
0.0
 11
353.370069
 21
83.32737
 31
0.0
  0
LINE
  5
25E
330
22E
100
AcDbEntity
  8
GR1-1
  6
CONTINUOUS
 62
     7
100
AcDbLine
 10
352.494191
 20
83.120399
 30
0.0
 11
351.830836
 21
82.963648
 31
0.0
  0
LINE
  5
25F
330
22E
100
AcDbEntity
  8
GR1-1
  6
CONTINUOUS
 62
     7
100
AcDbLine
 10
351.405789
 20
82.863208
 30
0.0
 11
350.742434
 21
82.706457
 31
0.0
  0
LINE
  5
260
330
22E
100
AcDbEntity
  8
GR1-1
  6
CONTINUOUS
 62
     7
100
AcDbLine
 10
349.866556
 20
82.499485
 30
0.0
 11
348.114799
 21
82.085543
 31
0.0
  0
LINE
  5
261
330
22E
100
AcDbEntity
  8
GR1-1
  6
CONTINUOUS
 62
     7
100
AcDbLine
 10
355.338396
 20
83.607532
 30
0.0
 11
353.411464
 21
83.152195
 31
0.0
  0
LINE
  5
262
330
22E
100
AcDbEntity
  8
GR1-1
  6
CONTINUOUS
 62
     7
100
AcDbLine
 10
352.535585
 20
82.945224
 30
0.0
 11
351.697055
 21
82.747078
 31
0.0
  0
LINE
  5
263
330
22E
100
AcDbEntity
  8
GR1-1
  6
CONTINUOUS
 62
     7
100
AcDbLine
 10
351.622359
 20
82.729427
 30
0.0
 11
350.783829
 21
82.531281
 31
0.0
  0
LINE
  5
264
330
22E
100
AcDbEntity
  8
GR1-1
  6
CONTINUOUS
 62
     7
100
AcDbLine
 10
349.90795
 20
82.32431
 30
0.0
 11
347.981018
 21
81.868973
 31
0.0
  0
LINE
  5
265
330
22E
100
AcDbEntity
  8
GR1-1
  6
CONTINUOUS
 62
     7
100
AcDbLine
 10
355.279311
 20
83.408612
 30
0.0
 11
353.452858
 21
82.977019
 31
0.0
  0
LINE
  5
266
330
22E
100
AcDbEntity
  8
GR1-1
  6
CONTINUOUS
 62
     7
100
AcDbLine
 10
352.57698
 20
82.770048
 30
0.0
 11
350.825223
 21
82.356105
 31
0.0
  0
LINE
  5
267
330
22E
100
AcDbEntity
  8
GR1-1
  6
CONTINUOUS
 62
     7
100
AcDbLine
 10
349.949344
 20
82.149134
 30
0.0
 11
348.122892
 21
81.717541
 31
0.0
  0
LINE
  5
268
330
22E
100
AcDbEntity
  8
GR1-1
  6
CONTINUOUS
 62
     7
100
AcDbLine
 10
355.145529
 20
83.192043
 30
0.0
 11
353.494252
 21
82.801843
 31
0.0
  0
LINE
  5
269
330
22E
100
AcDbEntity
  8
GR1-1
  6
CONTINUOUS
 62
     7
100
AcDbLine
 10
352.618374
 20
82.594872
 30
0.0
 11
350.866617
 21
82.18093
 31
0.0
  0
LINE
  5
26A
330
22E
100
AcDbEntity
  8
GR1-1
  6
CONTINUOUS
 62
     7
100
AcDbLine
 10
349.990739
 20
81.973958
 30
0.0
 11
348.339462
 21
81.583759
 31
0.0
  0
LINE
  5
26B
330
22E
100
AcDbEntity
  8
GR1-1
  6
CONTINUOUS
 62
     7
100
AcDbLine
 10
355.011748
 20
82.975473
 30
0.0
 11
353.535646
 21
82.626668
 31
0.0
  0
LINE
  5
26C
330
22E
100
AcDbEntity
  8
GR1-1
  6
CONTINUOUS
 62
     7
100
AcDbLine
 10
352.659768
 20
82.419696
 30
0.0
 11
350.908011
 21
82.005754
 31
0.0
  0
LINE
  5
26D
330
22E
100
AcDbEntity
  8
GR1-1
  6
CONTINUOUS
 62
     7
100
AcDbLine
 10
350.032133
 20
81.798783
 30
0.0
 11
348.556032
 21
81.449978
 31
0.0
  0
LINE
  5
26E
330
22E
100
AcDbEntity
  8
GR1-1
  6
CONTINUOUS
 62
     7
100
AcDbLine
 10
354.877966
 20
82.758903
 30
0.0
 11
353.577041
 21
82.451492
 31
0.0
  0
LINE
  5
26F
330
22E
100
AcDbEntity
  8
GR1-1
  6
CONTINUOUS
 62
     7
100
AcDbLine
 10
352.701162
 20
82.244521
 30
0.0
 11
350.949406
 21
81.830578
 31
0.0
  0
LINE
  5
270
330
22E
100
AcDbEntity
  8
GR1-1
  6
CONTINUOUS
 62
     7
100
AcDbLine
 10
350.073527
 20
81.623607
 30
0.0
 11
348.772601
 21
81.316196
 31
0.0
  0
LINE
  5
271
330
22E
100
AcDbEntity
  8
GR1-1
  6
CONTINUOUS
 62
     7
100
AcDbLine
 10
354.744185
 20
82.542333
 30
0.0
 11
353.618435
 21
82.276316
 31
0.0
  0
LINE
  5
272
330
22E
100
AcDbEntity
  8
GR1-1
  6
CONTINUOUS
 62
     7
100
AcDbLine
 10
352.742557
 20
82.069345
 30
0.0
 11
350.9908
 21
81.655403
 31
0.0
  0
LINE
  5
273
330
22E
100
AcDbEntity
  8
GR1-1
  6
CONTINUOUS
 62
     7
100
AcDbLine
 10
350.114922
 20
81.448431
 30
0.0
 11
348.989171
 21
81.182415
 31
0.0
  0
LINE
  5
274
330
22E
100
AcDbEntity
  8
GR1-1
  6
CONTINUOUS
 62
     7
100
AcDbLine
 10
354.610404
 20
82.325763
 30
0.0
 11
353.659829
 21
82.101141
 31
0.0
  0
LINE
  5
275
330
22E
100
AcDbEntity
  8
GR1-1
  6
CONTINUOUS
 62
     7
100
AcDbLine
 10
350.156316
 20
81.273256
 30
0.0
 11
349.205741
 21
81.048634
 31
0.0
  0
LINE
  5
276
330
22E
100
AcDbEntity
  8
GR1-1
  6
CONTINUOUS
 62
     7
100
AcDbLine
 10
354.476622
 20
82.109193
 30
0.0
 11
353.701223
 21
81.925965
 31
0.0
  0
LINE
  5
277
330
22E
100
AcDbEntity
  8
GR1-1
  6
CONTINUOUS
 62
     7
100
AcDbLine
 10
350.19771
 20
81.09808
 30
0.0
 11
349.422311
 21
80.914852
 31
0.0
  0
LINE
  5
278
330
22E
100
AcDbEntity
  8
GR1-1
  6
CONTINUOUS
 62
     7
100
AcDbLine
 10
354.342841
 20
81.892623
 30
0.0
 11
353.742618
 21
81.750789
 31
0.0
  0
LINE
  5
279
330
22E
100
AcDbEntity
  8
GR1-1
  6
CONTINUOUS
 62
     7
100
AcDbLine
 10
350.239104
 20
80.922904
 30
0.0
 11
349.638881
 21
80.781071
 31
0.0
  0
LINE
  5
27A
330
22E
100
AcDbEntity
  8
GR1-1
  6
CONTINUOUS
 62
     7
100
AcDbLine
 10
354.209059
 20
81.676053
 30
0.0
 11
353.784012
 21
81.575614
 31
0.0
  0
LINE
  5
27B
330
22E
100
AcDbEntity
  8
GR1-1
  6
CONTINUOUS
 62
     7
100
AcDbLine
 10
350.280499
 20
80.747729
 30
0.0
 11
349.855451
 21
80.647289
 31
0.0
  0
LINE
  5
27C
330
22E
100
AcDbEntity
  8
GR1-1
  6
CONTINUOUS
 62
     7
100
AcDbLine
 10
354.075278
 20
81.459483
 30
0.0
 11
353.825406
 21
81.400438
 31
0.0
  0
LINE
  5
27D
330
22E
100
AcDbEntity
  8
GR1-1
  6
CONTINUOUS
 62
     7
100
AcDbLine
 10
350.321893
 20
80.572553
 30
0.0
 11
350.072021
 21
80.513508
 31
0.0
  0
LINE
  5
27E
330
22E
100
AcDbEntity
  8
GR1-1
  6
CONTINUOUS
 62
     7
100
AcDbLine
 10
353.941497
 20
81.242913
 30
0.0
 11
350.288591
 21
80.379727
 31
0.0
  0
LINE
  5
27F
330
22E
100
AcDbEntity
  8
GR1-1
  6
CONTINUOUS
 62
     7
100
AcDbLine
 10
353.807715
 20
81.026343
 30
0.0
 11
350.505161
 21
80.245945
 31
0.0
  0
LINE
  5
280
330
22E
100
AcDbEntity
  8
GR1-1
  6
CONTINUOUS
 62
     7
100
AcDbLine
 10
353.673934
 20
80.809773
 30
0.0
 11
350.721731
 21
80.112164
 31
0.0
  0
LINE
  5
281
330
22E
100
AcDbEntity
  8
GR1-1
  6
CONTINUOUS
 62
     7
100
AcDbLine
 10
353.540152
 20
80.593203
 30
0.0
 11
350.938301
 21
79.978382
 31
0.0
  0
LINE
  5
282
330
22E
100
AcDbEntity
  8
GR1-1
  6
CONTINUOUS
 62
     7
100
AcDbLine
 10
353.406371
 20
80.376633
 30
0.0
 11
351.154871
 21
79.844601
 31
0.0
  0
LINE
  5
283
330
22E
100
AcDbEntity
  8
GR1-1
  6
CONTINUOUS
 62
     7
100
AcDbLine
 10
353.272589
 20
80.160064
 30
0.0
 11
351.371441
 21
79.710819
 31
0.0
  0
LINE
  5
284
330
22E
100
AcDbEntity
  8
GR1-1
  6
CONTINUOUS
 62
     7
100
AcDbLine
 10
353.138808
 20
79.943494
 30
0.0
 11
351.58801
 21
79.577038
 31
0.0
  0
LINE
  5
285
330
22E
100
AcDbEntity
  8
GR1-1
  6
CONTINUOUS
 62
     7
100
AcDbLine
 10
353.005027
 20
79.726924
 30
0.0
 11
351.80458
 21
79.443257
 31
0.0
  0
LINE
  5
286
330
22E
100
AcDbEntity
  8
GR1-1
  6
CONTINUOUS
 62
     7
100
AcDbLine
 10
352.871245
 20
79.510354
 30
0.0
 11
352.02115
 21
79.309475
 31
0.0
  0
LINE
  5
287
330
22E
100
AcDbEntity
  8
GR1-1
  6
CONTINUOUS
 62
     7
100
AcDbLine
 10
352.737464
 20
79.293784
 30
0.0
 11
352.23772
 21
79.175694
 31
0.0
  0
LINE
  5
288
330
22E
100
AcDbEntity
  8
GR1-1
  6
CONTINUOUS
 62
     7
100
AcDbLine
 10
352.603682
 20
79.077214
 30
0.0
 11
352.45429
 21
79.041912
 31
0.0
  0
ENDBLK
  5
230
330
22E
100
AcDbEntity
  8
0
100
AcDbBlockEnd
  0
BLOCK
  5
2B8
330
2B7
100
AcDbEntity
  8
0
100
AcDbBlockBegin
  2
*D23
 70
     1
 71
     0
 10
0.0
 20
0.0
 30
0.0
  3
*D23
  1

  0
TEXT
  5
2BA
330
2B7
100
AcDbEntity
  8
LAYERGROUP-1
  6
CONTINUOUS
 62
     7
100
AcDbText
 10
170.318985
 20
56.828178
 30
0.0
 40
4.0
  1
32
 41
0.851351
  7
FX_VECTOR
 72
     5
 11
176.318985
 21
56.828178
 31
0.0
100
AcDbText
  0
LINE
  5
2BB
330
2B7
100
AcDbEntity
  8
LAYERGROUP-1
  6
CONTINUOUS
 62
     7
100
AcDbLine
 10
157.318992
 20
55.82818
 30
0.0
 11
189.318992
 21
55.82818
 31
0.0
  0
INSERT
  5
2BC
330
2B7
100
AcDbEntity
  8
LAYERGROUP-1
  6
CONTINUOUS
 62
     7
100
AcDbBlockReference
  2
FXTIP_ARROW_S
 10
157.318992
 20
55.82818
 30
0.0
 41
4.0
 42
4.0
 50
180.0
  0
INSERT
  5
2BD
330
2B7
100
AcDbEntity
  8
LAYERGROUP-1
  6
CONTINUOUS
 62
     7
100
AcDbBlockReference
  2
FXTIP_ARROW_E
 10
189.318992
 20
55.82818
 30
0.0
 41
4.0
 42
4.0
 50
360.0
  0
LINE
  5
2BE
330
2B7
100
AcDbEntity
  8
LAYERGROUP-1
  6
CONTINUOUS
 62
     7
100
AcDbLine
 10
157.318992
 20
81.0
 30
0.0
 11
157.318992
 21
54.82818
 31
0.0
  0
LINE
  5
2BF
330
2B7
100
AcDbEntity
  8
LAYERGROUP-1
  6
CONTINUOUS
 62
     7
100
AcDbLine
 10
189.318992
 20
81.0
 30
0.0
 11
189.318992
 21
54.82818
 31
0.0
  0
ENDBLK
  5
2B9
330
2B7
100
AcDbEntity
  8
0
100
AcDbBlockEnd
  0
ENDSEC
  0
SECTION
  2
ENTITIES
  0
TEXT
  5
A8
330
1F
100
AcDbEntity
  8
}}ﾊﾊGG血CCТ
  6
CONTINUOUS
 62
     7
100
AcDbText
 10
329.0
 20
12.0
 30
0.0
 40
6.0
  1
ＳＫ－１００　Ｒ
 41
0.794326
  7
FX_VECTOR
 72
     5
 11
361.0
 21
12.0
 31
0.0
100
AcDbText
  0
TEXT
  5
A9
330
1F
100
AcDbEntity
  8
LAYERGROUP-1
  6
CONTINUOUS
 62
     7
100
AcDbText
 10
429.0
 20
12.0
 30
0.0
 40
6.0
  1
S30B0GCA-C01
 41
0.702929
  7
FX_VECTOR
 72
     5
 11
477.0
 21
12.0
 31
0.0
100
AcDbText
  0
LINE
  5
AB
330
1F
100
AcDbEntity
  8
GR1-1
  6
CONTINUOUS
 62
     3
100
AcDbLine
 10
134.818992
 20
196.5
 30
0.0
 11
134.818992
 21
162.0
 31
0.0
  0
LINE
  5
AC
330
1F
100
AcDbEntity
  8
GR1-1
  6
CONTINUOUS
 62
     3
100
AcDbLine
 10
137.418992
 20
162.108516
 30
0.0
 11
137.418992
 21
196.4
 31
0.0
  0
LINE
  5
AD
330
1F
100
AcDbEntity
  8
GR1-1
  6
CONTINUOUS
 62
     3
100
AcDbLine
 10
138.418992
 20
197.4
 30
0.0
 11
208.218992
 21
197.4
 31
0.0
  0
LINE
  5
AE
330
1F
100
AcDbEntity
  8
GR1-1
  6
CONTINUOUS
 62
     3
100
AcDbLine
 10
209.218992
 20
196.4
 30
0.0
 11
209.218992
 21
162.108516
 31
0.0
  0
LINE
  5
AF
330
1F
100
AcDbEntity
  8
GR1-1
  6
CONTINUOUS
 62
     3
100
AcDbLine
 10
211.818992
 20
162.0
 30
0.0
 11
211.818992
 21
196.5
 31
0.0
  0
ARC
  5
B0
330
1F
100
AcDbEntity
  8
GR1-1
  6
CONTINUOUS
 62
     3
100
AcDbCircle
 10
208.318992
 20
196.5
 30
0.0
 40
3.5
100
AcDbArc
 50
0.0
 51
90.0
  0
LINE
  5
B1
330
1F
100
AcDbEntity
  8
GR1-1
  6
CONTINUOUS
 62
     3
100
AcDbLine
 10
208.318992
 20
200.0
 30
0.0
 11
138.318992
 21
200.0
 31
0.0
  0
ARC
  5
B2
330
1F
100
AcDbEntity
  8
GR1-1
  6
CONTINUOUS
 62
     3
100
AcDbCircle
 10
138.318992
 20
196.5
 30
0.0
 40
3.5
100
AcDbArc
 50
90.0
 51
180.0
  0
ARC
  5
B3
330
1F
100
AcDbEntity
  8
GR1-1
  6
CONTINUOUS
 62
     3
100
AcDbCircle
 10
138.418992
 20
196.4
 30
0.0
 40
1.0
100
AcDbArc
 50
90.0
 51
180.0
  0
LINE
  5
B4
330
1F
100
AcDbEntity
  8
GR1-1
  6
CONTINUOUS
 62
     3
100
AcDbLine
 10
149.043858
 20
194.9
 30
0.0
 11
197.594126
 21
194.9
 31
0.0
  0
LINE
  5
B5
330
1F
100
AcDbEntity
  8
GR1-1
  6
CONTINUOUS
 62
     3
100
AcDbLine
 10
150.318992
 20
100.8
 30
0.0
 11
147.718992
 21
100.8
 31
0.0
  0
LINE
  5
B6
330
1F
100
AcDbEntity
  8
GR1-1
  6
CONTINUOUS
 62
     3
100
AcDbLine
 10
147.718992
 20
100.8
 30
0.0
 11
147.718992
 21
114.8
 31
0.0
  0
ARC
  5
B7
330
1F
100
AcDbEntity
  8
GR1-1
  6
CONTINUOUS
 62
     3
100
AcDbCircle
 10
-35.966325
 20
60.569687
 30
0.0
 40
195.1794657725243
100
AcDbArc
 50
19.651452
 51
21.460639
  0
ARC
  5
B8
330
1F
100
AcDbEntity
  8
GR1-1
  6
CONTINUOUS
 62
     3
100
AcDbCircle
 10
-142.793247
 20
18.574196
 30
0.0
 40
309.9645376202534
100
AcDbArc
 50
21.460639
 51
23.037408
  0
ARC
  5
B9
330
1F
100
AcDbEntity
  8
GR1-1
  6
CONTINUOUS
 62
     3
100
AcDbCircle
 10
187.102498
 20
158.860899
 30
0.0
 40
48.52055584056337
100
AcDbArc
 50
195.842661
 51
203.037408
  0
ARC
  5
BA
330
1F
100
AcDbEntity
  8
GR1-1
  6
CONTINUOUS
 62
     3
100
AcDbCircle
 10
106.91762
 20
111.592996
 30
0.0
 40
43.45867054004482
100
AcDbArc
 50
9.835674
 51
19.651452
  0
ARC
  5
BB
330
1F
100
AcDbEntity
  8
GR1-1
  6
CONTINUOUS
 62
     3
100
AcDbCircle
 10
81.621711
 20
107.207412
 30
0.0
 40
69.13193167802386
100
AcDbArc
 50
6.552839
 51
9.835674
  0
LINE
  5
BC
330
1F
100
AcDbEntity
  8
GR1-1
  6
CONTINUOUS
 62
     3
100
AcDbLine
 10
150.318992
 20
100.8
 30
0.0
 11
150.318992
 21
193.9
 31
0.0
  0
ARC
  5
BD
330
1F
100
AcDbEntity
  8
GR1-1
  6
CONTINUOUS
 62
     3
100
AcDbCircle
 10
151.318992
 20
193.9
 30
0.0
 40
1.0
100
AcDbArc
 50
90.0
 51
180.0
  0
ARC
  5
BE
330
1F
100
AcDbEntity
  8
GR1-1
  6
CONTINUOUS
 62
     3
100
AcDbCircle
 10
224.354086
 20
169.432
 30
0.0
 40
87.24301650277951
100
AcDbArc
 50
184.815275
 51
195.842661
  0
LINE
  5
BF
330
1F
100
AcDbEntity
  8
GR1-1
  6
CONTINUOUS
 62
     3
100
AcDbLine
 10
368.473791
 20
357.35
 30
0.0
 11
367.473791
 21
356.35
 31
0.0
  0
LINE
  5
C0
330
1F
100
AcDbEntity
  8
GR1-1
  6
CONTINUOUS
 62
     3
100
AcDbLine
 10
367.473791
 20
356.35
 30
0.0
 11
367.473791
 21
355.65
 31
0.0
  0
LINE
  5
C1
330
1F
100
AcDbEntity
  8
GR1-1
  6
CONTINUOUS
 62
     3
100
AcDbLine
 10
368.473791
 20
357.35
 30
0.0
 11
378.473791
 21
357.35
 31
0.0
  0
LINE
  5
C2
330
1F
100
AcDbEntity
  8
GR1-1
  6
CONTINUOUS
 62
     3
100
AcDbLine
 10
378.473791
 20
357.35
 30
0.0
 11
379.473791
 21
356.35
 31
0.0
  0
LINE
  5
C3
330
1F
100
AcDbEntity
  8
GR1-1
  6
CONTINUOUS
 62
     3
100
AcDbLine
 10
379.473791
 20
356.35
 30
0.0
 11
379.473791
 21
355.65
 31
0.0
  0
ARC
  5
C4
330
1F
100
AcDbEntity
  8
GR1-1
  6
CONTINUOUS
 62
     3
100
AcDbCircle
 10
387.647151
 20
357.15
 30
0.0
 40
11.5
100
AcDbArc
 50
270.0
 51
308.59465
  0
LINE
  5
C5
330
1F
100
AcDbEntity
  8
GR1-1
  6
CONTINUOUS
 62
     3
100
AcDbLine
 10
394.820927
 20
348.161845
 30
0.0
 11
405.037151
 21
356.315787
 31
0.0
  0
LINE
  5
C6
330
1F
100
AcDbEntity
  8
GR1-1
  6
CONTINUOUS
 62
     3
100
AcDbLine
 10
411.275217
 20
358.5
 30
0.0
 11
419.473791
 21
358.5
 31
0.0
  0
LINE
  5
C7
330
1F
100
AcDbEntity
  8
GR1-1
  6
CONTINUOUS
 62
     3
100
AcDbLine
 10
419.973791
 20
358.0
 30
0.0
 11
419.973791
 21
357.5
 31
0.0
  0
ARC
  5
C8
330
1F
100
AcDbEntity
  8
GR1-1
  6
CONTINUOUS
 62
     3
100
AcDbCircle
 10
420.973791
 20
357.5
 30
0.0
 40
1.0
100
AcDbArc
 50
180.0
 51
270.0
  0
ARC
  5
C9
330
1F
100
AcDbEntity
  8
GR1-1
  6
CONTINUOUS
 62
     3
100
AcDbCircle
 10
419.473791
 20
358.0
 30
0.0
 40
0.5
100
AcDbArc
 50
0.0
 51
90.0
  0
ARC
  5
CA
330
1F
100
AcDbEntity
  8
GR1-1
  6
CONTINUOUS
 62
     3
100
AcDbCircle
 10
411.275217
 20
348.5
 30
0.0
 40
10.0
100
AcDbArc
 50
90.0
 51
128.59465
  0
ARC
  5
CB
330
1F
100
AcDbEntity
  8
GR1-1
  6
CONTINUOUS
 62
     3
100
AcDbCircle
 10
413.473791
 20
342.5
 30
0.0
 40
5.5
100
AcDbArc
 50
116.565051
 51
296.565051
  0
LINE
  5
CC
330
1F
100
AcDbEntity
  8
GR1-1
  6
CONTINUOUS
 62
     3
100
AcDbLine
 10
415.933466
 20
337.58065
 30
0.0
 11
420.973874
 21
340.100855
 31
0.0
  0
ARC
  5
CD
330
1F
100
AcDbEntity
  8
GR1-1
  6
CONTINUOUS
 62
     3
100
AcDbCircle
 10
418.473791
 20
345.0
 30
0.0
 40
5.5
100
AcDbArc
 50
-62.965291
 51
116.565051
  0
LINE
  5
CE
330
1F
100
AcDbEntity
  8
GR1-1
  6
CONTINUOUS
 62
     3
100
AcDbLine
 10
416.014116
 20
349.91935
 30
0.0
 11
411.014116
 21
347.41935
 31
0.0
  0
LINE
  5
CF
330
1F
100
AcDbEntity
  8
GR1-1
  6
CONTINUOUS
 62
     3
100
AcDbLine
 10
428.473791
 20
349.0
 30
0.0
 11
428.473791
 21
291.0
 31
0.0
  0
ARC
  5
D0
330
1F
100
AcDbEntity
  8
GR1-1
  6
CONTINUOUS
 62
     3
100
AcDbCircle
 10
420.973791
 20
291.0
 30
0.0
 40
7.5
100
AcDbArc
 50
270.0
 51
360.0
  0
ARC
  5
D1
330
1F
100
AcDbEntity
  8
GR1-1
  6
CONTINUOUS
 62
     3
100
AcDbCircle
 10
420.973791
 20
282.5
 30
0.0
 40
1.0
100
AcDbArc
 50
90.0
 51
180.0
  0
LINE
  5
D2
330
1F
100
AcDbEntity
  8
GR1-1
  6
CONTINUOUS
 62
     3
100
AcDbLine
 10
419.973791
 20
282.5
 30
0.0
 11
419.973791
 21
282.0
 31
0.0
  0
ARC
  5
D3
330
1F
100
AcDbEntity
  8
GR1-1
  6
CONTINUOUS
 62
     3
100
AcDbCircle
 10
419.473791
 20
282.0
 30
0.0
 40
0.5
100
AcDbArc
 50
270.0
 51
360.0
  0
LINE
  5
D4
330
1F
100
AcDbEntity
  8
GR1-1
  6
CONTINUOUS
 62
     3
100
AcDbLine
 10
419.473791
 20
281.5
 30
0.0
 11
411.275217
 21
281.5
 31
0.0
  0
ARC
  5
D5
330
1F
100
AcDbEntity
  8
GR1-1
  6
CONTINUOUS
 62
     3
100
AcDbCircle
 10
411.275217
 20
291.5
 30
0.0
 40
10.0
100
AcDbArc
 50
231.40535
 51
270.0
  0
LINE
  5
D6
330
1F
100
AcDbEntity
  8
GR1-1
  6
CONTINUOUS
 62
     3
100
AcDbLine
 10
405.037151
 20
283.684213
 30
0.0
 11
394.820927
 21
291.838155
 31
0.0
  0
ARC
  5
D7
330
1F
100
AcDbEntity
  8
GR1-1
  6
CONTINUOUS
 62
     3
100
AcDbCircle
 10
387.647151
 20
282.85
 30
0.0
 40
11.5
100
AcDbArc
 50
51.40535
 51
90.0
  0
LINE
  5
D8
330
1F
100
AcDbEntity
  8
GR1-1
  6
CONTINUOUS
 62
     3
100
AcDbLine
 10
387.647151
 20
294.35
 30
0.0
 11
359.300431
 21
294.35
 31
0.0
  0
ARC
  5
D9
330
1F
100
AcDbEntity
  8
GR1-1
  6
CONTINUOUS
 62
     3
100
AcDbCircle
 10
359.300431
 20
282.85
 30
0.0
 40
11.5
100
AcDbArc
 50
90.0
 51
128.59465
  0
LINE
  5
DA
330
1F
100
AcDbEntity
  8
GR1-1
  6
CONTINUOUS
 62
     3
100
AcDbLine
 10
352.126655
 20
291.838155
 30
0.0
 11
341.910431
 21
283.684213
 31
0.0
  0
LINE
  5
DB
330
1F
100
AcDbEntity
  8
GR1-1
  6
CONTINUOUS
 62
     3
100
AcDbLine
 10
335.672365
 20
281.5
 30
0.0
 11
327.473791
 21
281.5
 31
0.0
  0
LINE
  5
DC
330
1F
100
AcDbEntity
  8
GR1-1
  6
CONTINUOUS
 62
     3
100
AcDbLine
 10
326.973791
 20
282.0
 30
0.0
 11
326.973791
 21
282.5
 31
0.0
  0
ARC
  5
DD
330
1F
100
AcDbEntity
  8
GR1-1
  6
CONTINUOUS
 62
     3
100
AcDbCircle
 10
325.973791
 20
282.5
 30
0.0
 40
1.0
100
AcDbArc
 50
0.0
 51
90.0
  0
ARC
  5
DE
330
1F
100
AcDbEntity
  8
GR1-1
  6
CONTINUOUS
 62
     3
100
AcDbCircle
 10
327.473791
 20
282.0
 30
0.0
 40
0.5
100
AcDbArc
 50
180.0
 51
270.0
  0
ARC
  5
DF
330
1F
100
AcDbEntity
  8
GR1-1
  6
CONTINUOUS
 62
     3
100
AcDbCircle
 10
335.672365
 20
291.5
 30
0.0
 40
10.0
100
AcDbArc
 50
270.0
 51
308.59465
  0
ARC
  5
E0
330
1F
100
AcDbEntity
  8
GR1-1
  6
CONTINUOUS
 62
     3
100
AcDbCircle
 10
333.473791
 20
297.5
 30
0.0
 40
5.5
100
AcDbArc
 50
-63.434949
 51
116.565051
  0
LINE
  5
E1
330
1F
100
AcDbEntity
  8
GR1-1
  6
CONTINUOUS
 62
     3
100
AcDbLine
 10
331.014116
 20
302.41935
 30
0.0
 11
325.973708
 21
299.899145
 31
0.0
  0
ARC
  5
E2
330
1F
100
AcDbEntity
  8
GR1-1
  6
CONTINUOUS
 62
     3
100
AcDbCircle
 10
328.473791
 20
295.0
 30
0.0
 40
5.5
100
AcDbArc
 50
117.034709
 51
296.565051
  0
LINE
  5
E3
330
1F
100
AcDbEntity
  8
GR1-1
  6
CONTINUOUS
 62
     3
100
AcDbLine
 10
330.933466
 20
290.08065
 30
0.0
 11
335.933466
 21
292.58065
 31
0.0
  0
ARC
  5
E4
330
1F
100
AcDbEntity
  8
GR1-1
  6
CONTINUOUS
 62
     3
100
AcDbCircle
 10
325.973791
 20
291.0
 30
0.0
 40
7.5
100
AcDbArc
 50
180.0
 51
270.0
  0
LINE
  5
E5
330
1F
100
AcDbEntity
  8
GR1-1
  6
CONTINUOUS
 62
     3
100
AcDbLine
 10
318.473791
 20
291.0
 30
0.0
 11
318.473791
 21
349.0
 31
0.0
  0
ARC
  5
E6
330
1F
100
AcDbEntity
  8
GR1-1
  6
CONTINUOUS
 62
     3
100
AcDbCircle
 10
325.973791
 20
357.5
 30
0.0
 40
1.0
100
AcDbArc
 50
270.0
 51
360.0
  0
LINE
  5
E7
330
1F
100
AcDbEntity
  8
GR1-1
  6
CONTINUOUS
 62
     3
100
AcDbLine
 10
326.973791
 20
357.5
 30
0.0
 11
326.973791
 21
358.0
 31
0.0
  0
LINE
  5
E8
330
1F
100
AcDbEntity
  8
GR1-1
  6
CONTINUOUS
 62
     3
100
AcDbLine
 10
327.473791
 20
358.5
 30
0.0
 11
335.672365
 21
358.5
 31
0.0
  0
ARC
  5
E9
330
1F
100
AcDbEntity
  8
GR1-1
  6
CONTINUOUS
 62
     3
100
AcDbCircle
 10
335.672365
 20
348.5
 30
0.0
 40
10.0
100
AcDbArc
 50
51.40535
 51
90.0
  0
LINE
  5
EA
330
1F
100
AcDbEntity
  8
GR1-1
  6
CONTINUOUS
 62
     3
100
AcDbLine
 10
341.910431
 20
356.315787
 30
0.0
 11
352.126655
 21
348.161845
 31
0.0
  0
ARC
  5
EB
330
1F
100
AcDbEntity
  8
GR1-1
  6
CONTINUOUS
 62
     3
100
AcDbCircle
 10
359.300431
 20
357.15
 30
0.0
 40
11.5
100
AcDbArc
 50
231.40535
 51
270.0
  0
LINE
  5
EC
330
1F
100
AcDbEntity
  8
GR1-1
  6
CONTINUOUS
 62
     3
100
AcDbLine
 10
359.300431
 20
345.65
 30
0.0
 11
387.647151
 21
345.65
 31
0.0
  0
LINE
  5
ED
330
1F
100
AcDbEntity
  8
GR1-1
  6
CONTINUOUS
 62
     3
100
AcDbLine
 10
335.933466
 20
347.41935
 30
0.0
 11
330.933466
 21
349.91935
 31
0.0
  0
ARC
  5
EE
330
1F
100
AcDbEntity
  8
GR1-1
  6
CONTINUOUS
 62
     3
100
AcDbCircle
 10
328.473791
 20
345.0
 30
0.0
 40
5.5
100
AcDbArc
 50
63.434949
 51
242.965291
  0
LINE
  5
EF
330
1F
100
AcDbEntity
  8
GR1-1
  6
CONTINUOUS
 62
     3
100
AcDbLine
 10
325.973708
 20
340.100855
 30
0.0
 11
331.014116
 21
337.58065
 31
0.0
  0
ARC
  5
F0
330
1F
100
AcDbEntity
  8
GR1-1
  6
CONTINUOUS
 62
     3
100
AcDbCircle
 10
333.473791
 20
342.5
 30
0.0
 40
5.5
100
AcDbArc
 50
-116.565051
 51
63.434949
  0
ARC
  5
F1
330
1F
100
AcDbEntity
  8
GR1-1
  6
CONTINUOUS
 62
     3
100
AcDbCircle
 10
325.973791
 20
349.0
 30
0.0
 40
7.5
100
AcDbArc
 50
90.0
 51
180.0
  0
ARC
  5
F2
330
1F
100
AcDbEntity
  8
GR1-1
  6
CONTINUOUS
 62
     3
100
AcDbCircle
 10
327.473791
 20
358.0
 30
0.0
 40
0.5
100
AcDbArc
 50
90.0
 51
180.0
  0
LINE
  5
F3
330
1F
100
AcDbEntity
  8
GR1-1
  6
CONTINUOUS
 62
     3
100
AcDbLine
 10
363.473791
 20
294.35
 30
0.0
 11
363.473791
 21
290.85
 31
0.0
  0
LINE
  5
F4
330
1F
100
AcDbEntity
  8
GR1-1
  6
CONTINUOUS
 62
     3
100
AcDbLine
 10
363.473791
 20
290.85
 30
0.0
 11
365.473791
 21
289.35
 31
0.0
  0
LINE
  5
F5
330
1F
100
AcDbEntity
  8
GR1-1
  6
CONTINUOUS
 62
     3
100
AcDbLine
 10
365.473791
 20
289.35
 30
0.0
 11
381.473791
 21
289.35
 31
0.0
  0
LINE
  5
F6
330
1F
100
AcDbEntity
  8
GR1-1
  6
CONTINUOUS
 62
     3
100
AcDbLine
 10
381.473791
 20
289.35
 30
0.0
 11
383.473791
 21
290.85
 31
0.0
  0
LINE
  5
F7
330
1F
100
AcDbEntity
  8
GR1-1
  6
CONTINUOUS
 62
     3
100
AcDbLine
 10
383.473791
 20
290.85
 30
0.0
 11
383.473791
 21
294.35
 31
0.0
  0
LINE
  5
F8
330
1F
100
AcDbEntity
  8
GR1-1
  6
CONTINUOUS
 62
     3
100
AcDbLine
 10
411.014116
 20
292.58065
 30
0.0
 11
416.014116
 21
290.08065
 31
0.0
  0
ARC
  5
F9
330
1F
100
AcDbEntity
  8
GR1-1
  6
CONTINUOUS
 62
     3
100
AcDbCircle
 10
418.473791
 20
295.0
 30
0.0
 40
5.5
100
AcDbArc
 50
-116.565051
 51
62.965291
  0
LINE
  5
FA
330
1F
100
AcDbEntity
  8
GR1-1
  6
CONTINUOUS
 62
     3
100
AcDbLine
 10
420.973874
 20
299.899145
 30
0.0
 11
415.933466
 21
302.41935
 31
0.0
  0
ARC
  5
FB
330
1F
100
AcDbEntity
  8
GR1-1
  6
CONTINUOUS
 62
     3
100
AcDbCircle
 10
413.473791
 20
297.5
 30
0.0
 40
5.5
100
AcDbArc
 50
63.434949
 51
243.434949
  0
ARC
  5
FC
330
1F
100
AcDbEntity
  8
GR1-1
  6
CONTINUOUS
 62
     3
100
AcDbCircle
 10
420.973791
 20
349.0
 30
0.0
 40
7.5
100
AcDbArc
 50
0.0
 51
90.0
  0
ARC
  5
FD
330
1F
100
AcDbEntity
  8
GR1-1
  6
CONTINUOUS
 62
     3
100
AcDbCircle
 10
195.318992
 20
193.9
 30
0.0
 40
1.0
100
AcDbArc
 50
0.0
 51
90.0
  0
ARC
  5
FE
330
1F
100
AcDbEntity
  8
GR1-1
  6
CONTINUOUS
 62
     3
100
AcDbCircle
 10
208.218992
 20
196.4
 30
0.0
 40
1.0
100
AcDbArc
 50
0.0
 51
90.0
  0
LINE
  5
FF
330
1F
100
AcDbEntity
  8
GR1-1
  6
CONTINUOUS
 62
     3
100
AcDbLine
 10
318.473791
 20
197.4
 30
0.0
 11
318.473791
 21
200.0
 31
0.0
  0
LINE
  5
100
330
1F
100
AcDbEntity
  8
GR1-1
  6
CONTINUOUS
 62
     3
100
AcDbLine
 10
318.473791
 20
200.0
 30
0.0
 11
350.871955
 21
200.0
 31
0.0
  0
LINE
  5
101
330
1F
100
AcDbEntity
  8
GR1-1
  6
CONTINUOUS
 62
     3
100
AcDbLine
 10
354.031686
 20
198.452774
 30
0.0
 11
354.771287
 21
197.5
 31
0.0
  0
LINE
  5
102
330
1F
100
AcDbEntity
  8
GR1-1
  6
CONTINUOUS
 62
     3
100
AcDbLine
 10
354.771287
 20
197.5
 30
0.0
 11
357.258878
 21
197.5
 31
0.0
  0
ARC
  5
103
330
1F
100
AcDbEntity
  8
GR1-1
  6
CONTINUOUS
 62
     3
100
AcDbCircle
 10
350.871955
 20
196.0
 30
0.0
 40
4.0
100
AcDbArc
 50
37.820774
 51
90.0
  0
LINE
  5
104
330
1F
100
AcDbEntity
  8
GR1-1
  6
CONTINUOUS
 62
     3
100
AcDbLine
 10
361.050929
 20
199.2
 30
0.0
 11
385.896653
 21
199.2
 31
0.0
  0
LINE
  5
105
330
1F
100
AcDbEntity
  8
GR1-1
  6
CONTINUOUS
 62
     3
100
AcDbLine
 10
389.688704
 20
197.5
 30
0.0
 11
392.176295
 21
197.5
 31
0.0
  0
LINE
  5
106
330
1F
100
AcDbEntity
  8
GR1-1
  6
CONTINUOUS
 62
     3
100
AcDbLine
 10
392.176295
 20
197.5
 30
0.0
 11
392.915896
 21
198.452774
 31
0.0
  0
ARC
  5
107
330
1F
100
AcDbEntity
  8
GR1-1
  6
CONTINUOUS
 62
     3
100
AcDbCircle
 10
386.052586
 20
179.229535
 30
0.0
 40
19.97107423080771
100
AcDbArc
 50
70.767278
 51
90.447368
  0
LINE
  5
108
330
1F
100
AcDbEntity
  8
GR1-1
  6
CONTINUOUS
 62
     3
100
AcDbLine
 10
396.075627
 20
200.0
 30
0.0
 11
428.473791
 21
200.0
 31
0.0
  0
LINE
  5
109
330
1F
100
AcDbEntity
  8
GR1-1
  6
CONTINUOUS
 62
     3
100
AcDbLine
 10
428.473791
 20
200.0
 30
0.0
 11
428.473791
 21
197.4
 31
0.0
  0
LINE
  5
10A
330
1F
100
AcDbEntity
  8
GR1-1
  6
CONTINUOUS
 62
     3
100
AcDbLine
 10
428.473791
 20
197.4
 30
0.0
 11
419.973791
 21
197.4
 31
0.0
  0
LINE
  5
10B
330
1F
100
AcDbEntity
  8
GR1-1
  6
CONTINUOUS
 62
     3
100
AcDbLine
 10
419.973791
 20
198.0
 30
0.0
 11
419.973791
 21
195.5
 31
0.0
  0
ARC
  5
10C
330
1F
100
AcDbEntity
  8
GR1-1
  6
CONTINUOUS
 62
     3
100
AcDbCircle
 10
424.629902
 20
180.290735
 30
0.0
 40
13.5
100
AcDbArc
 50
119.64568
 51
164.0
  0
LINE
  5
10D
330
1F
100
AcDbEntity
  8
GR1-1
  6
CONTINUOUS
 62
     3
100
AcDbLine
 10
411.652869
 20
184.011839
 30
0.0
 11
391.806694
 21
114.8
 31
0.0
  0
ARC
  5
10E
330
1F
100
AcDbEntity
  8
GR1-1
  6
CONTINUOUS
 62
     3
100
AcDbCircle
 10
24.429111
 20
252.826959
 30
0.0
 40
392.198469754377
100
AcDbArc
 50
339.893131
 51
348.106869
  0
ARC
  5
10F
330
1F
100
AcDbEntity
  8
GR1-1
  6
CONTINUOUS
 62
     3
100
AcDbCircle
 10
415.973791
 20
195.5
 30
0.0
 40
4.0
100
AcDbArc
 50
299.64568
 51
360.0
  0
ARC
  5
110
330
1F
100
AcDbEntity
  8
GR1-1
  6
CONTINUOUS
 62
     3
100
AcDbCircle
 10
421.973791
 20
198.0
 30
0.0
 40
2.0
100
AcDbArc
 50
90.0
 51
180.0
  0
ARC
  5
111
330
1F
100
AcDbEntity
  8
GR1-1
  6
CONTINUOUS
 62
     3
100
AcDbCircle
 10
396.075627
 20
196.0
 30
0.0
 40
4.0
100
AcDbArc
 50
90.0
 51
142.179226
  0
ARC
  5
112
330
1F
100
AcDbEntity
  8
GR1-1
  6
CONTINUOUS
 62
     3
100
AcDbCircle
 10
360.894996
 20
179.229535
 30
0.0
 40
19.97107423080771
100
AcDbArc
 50
89.552632
 51
109.232722
  0
LINE
  5
113
330
1F
100
AcDbEntity
  8
GR1-1
  6
CONTINUOUS
 62
     3
100
AcDbLine
 10
335.294713
 20
184.011839
 30
0.0
 11
355.140888
 21
114.8
 31
0.0
  0
ARC
  5
114
330
1F
100
AcDbEntity
  8
GR1-1
  6
CONTINUOUS
 62
     3
100
AcDbCircle
 10
373.473791
 20
119.8
 30
0.0
 40
19.0
100
AcDbArc
 50
195.25546
 51
344.74454
  0
ARC
  5
115
330
1F
100
AcDbEntity
  8
GR1-1
  6
CONTINUOUS
 62
     3
100
AcDbCircle
 10
722.518471
 20
252.826959
 30
0.0
 40
392.198469754377
100
AcDbArc
 50
191.893131
 51
200.106869
  0
ARC
  5
116
330
1F
100
AcDbEntity
  8
GR1-1
  6
CONTINUOUS
 62
     3
100
AcDbCircle
 10
322.31768
 20
180.290735
 30
0.0
 40
13.5
100
AcDbArc
 50
16.0
 51
60.35432
  0
ARC
  5
117
330
1F
100
AcDbEntity
  8
GR1-1
  6
CONTINUOUS
 62
     3
100
AcDbCircle
 10
330.973791
 20
195.5
 30
0.0
 40
4.0
100
AcDbArc
 50
180.0
 51
240.35432
  0
LINE
  5
118
330
1F
100
AcDbEntity
  8
GR1-1
  6
CONTINUOUS
 62
     3
100
AcDbLine
 10
326.973791
 20
195.5
 30
0.0
 11
326.973791
 21
198.0
 31
0.0
  0
ARC
  5
119
330
1F
100
AcDbEntity
  8
GR1-1
  6
CONTINUOUS
 62
     3
100
AcDbCircle
 10
324.973791
 20
198.0
 30
0.0
 40
2.0
100
AcDbArc
 50
0.0
 51
90.0
  0
LINE
  5
11A
330
1F
100
AcDbEntity
  8
GR1-1
  6
CONTINUOUS
 62
     3
100
AcDbLine
 10
326.973791
 20
197.4
 30
0.0
 11
318.473791
 21
197.4
 31
0.0
  0
LINE
  5
11B
330
1F
100
AcDbEntity
  8
GR1-1
  6
CENTER
 62
     6
100
AcDbLine
 10
413.473791
 20
335.797556
 30
0.0
 11
413.473791
 21
349.305349
 31
0.0
  0
LINE
  5
11C
330
1F
100
AcDbEntity
  8
GR1-1
  6
CENTER
 62
     6
100
AcDbLine
 10
418.473791
 20
351.71119
 30
0.0
 11
418.473791
 21
337.827484
 31
0.0
  0
LINE
  5
11D
330
1F
100
AcDbEntity
  8
GR1-1
  6
CENTER
 62
     6
100
AcDbLine
 10
425.284277
 20
345.0
 30
0.0
 11
408.092539
 21
345.0
 31
0.0
  0
LINE
  5
11E
330
1F
100
AcDbEntity
  8
GR1-1
  6
CENTER
 62
     6
100
AcDbLine
 10
406.212976
 20
342.5
 30
0.0
 11
421.149238
 21
342.5
 31
0.0
  0
ARC
  5
11F
330
1F
100
AcDbEntity
  8
GR1-1
  6
CONTINUOUS
 62
     6
100
AcDbCircle
 10
196.456559
 20
198.874866
 30
0.0
 40
4.134443050190309
100
AcDbArc
 50
254.029408
 51
339.100694
  0
ARC
  5
120
330
1F
100
AcDbEntity
  8
GR1-1
  6
CONTINUOUS
 62
     6
100
AcDbCircle
 10
150.181425
 20
198.874866
 30
0.0
 40
4.134443050190309
100
AcDbArc
 50
200.899306
 51
285.970592
  0
LINE
  5
121
330
1F
100
AcDbEntity
  8
GR1-1
  6
CENTER
 62
     6
100
AcDbLine
 10
320.877773
 20
118.0
 30
0.0
 11
426.581268
 21
118.0
 31
0.0
  0
LINE
  5
122
330
1F
100
AcDbEntity
  8
GR1-1
  6
CONTINUOUS
 62
     6
100
AcDbLine
 10
390.932499
 20
117.230498
 30
0.0
 11
390.932499
 21
195.627826
 31
0.0
  0
LINE
  5
123
330
1F
100
AcDbEntity
  8
GR1-1
  6
CENTER
 62
     6
100
AcDbLine
 10
373.473791
 20
203.65143
 30
0.0
 11
373.473791
 21
63.268315
 31
0.0
  0
LINE
  5
124
330
1F
100
AcDbEntity
  8
GR1-1
  6
CONTINUOUS
 62
     6
100
AcDbLine
 10
356.015083
 20
117.230498
 30
0.0
 11
356.015083
 21
195.627826
 31
0.0
  0
LINE
  5
125
330
1F
100
AcDbEntity
  8
GR1-1
  6
CENTER
 62
     6
100
AcDbLine
 10
373.473791
 20
285.907082
 30
0.0
 11
373.473791
 21
359.710723
 31
0.0
  0
LINE
  5
126
330
1F
100
AcDbEntity
  8
GR1-1
  6
CONTINUOUS
 62
     6
100
AcDbLine
 10
377.973791
 20
357.35
 30
0.0
 11
377.973791
 21
355.65
 31
0.0
  0
LINE
  5
127
330
1F
100
AcDbEntity
  8
GR1-1
  6
CONTINUOUS
 62
     6
100
AcDbLine
 10
379.473791
 20
356.35
 30
0.0
 11
367.473791
 21
356.35
 31
0.0
  0
LINE
  5
128
330
1F
100
AcDbEntity
  8
GR1-1
  6
CONTINUOUS
 62
     6
100
AcDbLine
 10
368.973791
 20
355.65
 30
0.0
 11
368.973791
 21
357.35
 31
0.0
  0
ARC
  5
129
330
1F
100
AcDbEntity
  8
GR1-1
  6
CONTINUOUS
 62
     6
100
AcDbCircle
 10
373.473791
 20
320.0
 30
0.0
 40
30.5
100
AcDbArc
 50
122.116092
 51
237.883908
  0
LINE
  5
12A
330
1F
100
AcDbEntity
  8
GR1-1
  6
CONTINUOUS
 62
     6
100
AcDbLine
 10
363.473791
 20
290.85
 30
0.0
 11
383.473791
 21
290.85
 31
0.0
  0
ARC
  5
12B
330
1F
100
AcDbEntity
  8
GR1-1
  6
CONTINUOUS
 62
     6
100
AcDbCircle
 10
373.473791
 20
320.0
 30
0.0
 40
30.5
100
AcDbArc
 50
-57.883908
 51
57.883908
  0
ARC
  5
12C
330
1F
100
AcDbEntity
  8
GR1-1
  6
CONTINUOUS
 62
     6
100
AcDbCircle
 10
373.473791
 20
320.0
 30
0.0
 40
32.5
100
AcDbArc
 50
11.225994
 51
54.868031
  0
ARC
  5
12D
330
1F
100
AcDbEntity
  8
GR1-1
  6
CONTINUOUS
 62
     6
100
AcDbCircle
 10
409.275434
 20
327.105797
 30
0.0
 40
4.0
100
AcDbArc
 50
191.225994
 51
255.0
  0
LINE
  5
12E
330
1F
100
AcDbEntity
  8
GR1-1
  6
CONTINUOUS
 62
     6
100
AcDbLine
 10
408.240158
 20
323.242094
 30
0.0
 11
418.473791
 21
320.5
 31
0.0
  0
ARC
  5
12F
330
1F
100
AcDbEntity
  8
GR1-1
  6
CONTINUOUS
 62
     6
100
AcDbCircle
 10
418.473791
 20
320.0
 30
0.0
 40
0.5
100
AcDbArc
 50
-90.0
 51
90.0
  0
LINE
  5
130
330
1F
100
AcDbEntity
  8
GR1-1
  6
CONTINUOUS
 62
     6
100
AcDbLine
 10
418.473791
 20
319.5
 30
0.0
 11
408.240158
 21
316.757906
 31
0.0
  0
ARC
  5
131
330
1F
100
AcDbEntity
  8
GR1-1
  6
CONTINUOUS
 62
     6
100
AcDbCircle
 10
409.275434
 20
312.894203
 30
0.0
 40
4.0
100
AcDbArc
 50
105.0
 51
168.774006
  0
ARC
  5
132
330
1F
100
AcDbEntity
  8
GR1-1
  6
CONTINUOUS
 62
     6
100
AcDbCircle
 10
373.473791
 20
320.0
 30
0.0
 40
32.5
100
AcDbArc
 50
305.131969
 51
348.774006
  0
LINE
  5
133
330
1F
100
AcDbEntity
  8
GR1-1
  6
CENTER
 62
     6
100
AcDbLine
 10
431.258621
 20
320.0
 30
0.0
 11
313.562026
 21
320.0
 31
0.0
  0
LINE
  5
134
330
1F
100
AcDbEntity
  8
GR1-1
  6
CONTINUOUS
 62
     6
100
AcDbLine
 10
328.473791
 20
319.5
 30
0.0
 11
338.707424
 21
316.757906
 31
0.0
  0
ARC
  5
135
330
1F
100
AcDbEntity
  8
GR1-1
  6
CONTINUOUS
 62
     6
100
AcDbCircle
 10
373.473791
 20
320.0
 30
0.0
 40
32.5
100
AcDbArc
 50
191.225994
 51
234.868031
  0
ARC
  5
136
330
1F
100
AcDbEntity
  8
GR1-1
  6
CONTINUOUS
 62
     6
100
AcDbCircle
 10
337.672148
 20
312.894203
 30
0.0
 40
4.0
100
AcDbArc
 50
11.225994
 51
75.0
  0
ARC
  5
137
330
1F
100
AcDbEntity
  8
GR1-1
  6
CONTINUOUS
 62
     6
100
AcDbCircle
 10
337.672148
 20
327.105797
 30
0.0
 40
4.0
100
AcDbArc
 50
285.0
 51
348.774006
  0
LINE
  5
138
330
1F
100
AcDbEntity
  8
GR1-1
  6
CONTINUOUS
 62
     6
100
AcDbLine
 10
338.707424
 20
323.242094
 30
0.0
 11
328.473791
 21
320.5
 31
0.0
  0
ARC
  5
139
330
1F
100
AcDbEntity
  8
GR1-1
  6
CONTINUOUS
 62
     6
100
AcDbCircle
 10
373.473791
 20
320.0
 30
0.0
 40
32.5
100
AcDbArc
 50
125.131969
 51
168.774006
  0
LINE
  5
13A
330
1F
100
AcDbEntity
  8
GR1-1
  6
CONTINUOUS
 62
     3
100
AcDbLine
 10
196.318992
 20
100.8
 30
0.0
 11
198.918992
 21
100.8
 31
0.0
  0
LINE
  5
13B
330
1F
100
AcDbEntity
  8
GR1-1
  6
CONTINUOUS
 62
     3
100
AcDbLine
 10
198.918992
 20
100.8
 30
0.0
 11
198.918992
 21
114.8
 31
0.0
  0
ARC
  5
13C
330
1F
100
AcDbEntity
  8
GR1-1
  6
CONTINUOUS
 62
     3
100
AcDbCircle
 10
382.604309
 20
60.569687
 30
0.0
 40
195.1794657725243
100
AcDbArc
 50
158.539361
 51
160.348548
  0
ARC
  5
13D
330
1F
100
AcDbEntity
  8
GR1-1
  6
CONTINUOUS
 62
     3
100
AcDbCircle
 10
489.431232
 20
18.574196
 30
0.0
 40
309.9645376202534
100
AcDbArc
 50
156.962592
 51
158.539361
  0
ARC
  5
13E
330
1F
100
AcDbEntity
  8
GR1-1
  6
CONTINUOUS
 62
     3
100
AcDbCircle
 10
159.535486
 20
158.860899
 30
0.0
 40
48.52055584056337
100
AcDbArc
 50
336.962592
 51
344.157339
  0
ARC
  5
13F
330
1F
100
AcDbEntity
  8
GR1-1
  6
CONTINUOUS
 62
     3
100
AcDbCircle
 10
239.720365
 20
111.592996
 30
0.0
 40
43.45867054004482
100
AcDbArc
 50
160.348548
 51
170.164326
  0
LINE
  5
140
330
1F
100
AcDbEntity
  8
GR1-1
  6
CONTINUOUS
 62
     3
100
AcDbLine
 10
196.318992
 20
100.8
 30
0.0
 11
196.318992
 21
193.9
 31
0.0
  0
ARC
  5
141
330
1F
100
AcDbEntity
  8
GR1-1
  6
CONTINUOUS
 62
     3
100
AcDbCircle
 10
122.283899
 20
169.432
 30
0.0
 40
87.24301650277951
100
AcDbArc
 50
344.157339
 51
355.184725
  0
LINE
  5
142
330
1F
100
AcDbEntity
  8
GR1-1
  6
CONTINUOUS
 62
     3
100
AcDbLine
 10
198.918992
 20
108.0
 30
0.0
 11
202.418992
 21
108.0
 31
0.0
  0
LINE
  5
143
330
1F
100
AcDbEntity
  8
GR1-1
  6
CONTINUOUS
 62
     3
100
AcDbLine
 10
202.418992
 20
108.0
 30
0.0
 11
203.918992
 21
110.0
 31
0.0
  0
LINE
  5
144
330
1F
100
AcDbEntity
  8
GR1-1
  6
CONTINUOUS
 62
     3
100
AcDbLine
 10
203.918992
 20
110.0
 30
0.0
 11
203.918992
 21
126.0
 31
0.0
  0
LINE
  5
145
330
1F
100
AcDbEntity
  8
GR1-1
  6
CONTINUOUS
 62
     3
100
AcDbLine
 10
203.918992
 20
126.0
 30
0.0
 11
202.418992
 21
128.0
 31
0.0
  0
LINE
  5
146
330
1F
100
AcDbEntity
  8
GR1-1
  6
CONTINUOUS
 62
     3
100
AcDbLine
 10
202.418992
 20
128.0
 30
0.0
 11
202.21583
 21
128.0
 31
0.0
  0
LINE
  5
147
330
1F
100
AcDbEntity
  8
GR1-1
  6
CONTINUOUS
 62
     3
100
AcDbLine
 10
137.718992
 20
112.0
 30
0.0
 11
136.918992
 21
112.0
 31
0.0
  0
LINE
  5
148
330
1F
100
AcDbEntity
  8
GR1-1
  6
CONTINUOUS
 62
     3
100
AcDbLine
 10
136.918992
 20
112.0
 30
0.0
 11
135.918992
 21
113.0
 31
0.0
  0
LINE
  5
149
330
1F
100
AcDbEntity
  8
GR1-1
  6
CONTINUOUS
 62
     3
100
AcDbLine
 10
135.918992
 20
113.0
 30
0.0
 11
135.918992
 21
123.0
 31
0.0
  0
LINE
  5
14A
330
1F
100
AcDbEntity
  8
GR1-1
  6
CONTINUOUS
 62
     3
100
AcDbLine
 10
135.918992
 20
123.0
 30
0.0
 11
136.918992
 21
124.0
 31
0.0
  0
LINE
  5
14B
330
1F
100
AcDbEntity
  8
GR1-1
  6
CONTINUOUS
 62
     3
100
AcDbLine
 10
136.918992
 20
124.0
 30
0.0
 11
137.718992
 21
124.0
 31
0.0
  0
LINE
  5
14C
330
1F
100
AcDbEntity
  8
GR1-1
  6
CONTINUOUS
 62
     6
100
AcDbLine
 10
202.418992
 20
128.0
 30
0.0
 11
202.418992
 21
108.0
 31
0.0
  0
LINE
  5
14D
330
1F
100
AcDbEntity
  8
GR1-1
  6
CONTINUOUS
 62
     6
100
AcDbLine
 10
135.918992
 20
122.5
 30
0.0
 11
137.718992
 21
122.5
 31
0.0
  0
LINE
  5
14E
330
1F
100
AcDbEntity
  8
GR1-1
  6
CONTINUOUS
 62
     6
100
AcDbLine
 10
136.918992
 20
124.0
 30
0.0
 11
136.918992
 21
112.0
 31
0.0
  0
LINE
  5
14F
330
1F
100
AcDbEntity
  8
GR1-1
  6
CONTINUOUS
 62
     6
100
AcDbLine
 10
137.718992
 20
113.5
 30
0.0
 11
135.918992
 21
113.5
 31
0.0
  0
ARC
  5
150
330
1F
100
AcDbEntity
  8
GR1-1
  6
CONTINUOUS
 62
     6
100
AcDbCircle
 10
328.473791
 20
320.0
 30
0.0
 40
0.5
100
AcDbArc
 50
90.0
 51
270.0
  0
CIRCLE
  5
151
330
1F
100
AcDbEntity
  8
GR1-1
  6
CONTINUOUS
 62
     3
100
AcDbCircle
 10
373.473791
 20
118.0
 30
0.0
 40
10.0
  0
CIRCLE
  5
152
330
1F
100
AcDbEntity
  8
GR1-1
  6
CONTINUOUS
 62
     6
100
AcDbCircle
 10
373.473791
 20
118.0
 30
0.0
 40
8.0
  0
CIRCLE
  5
153
330
1F
100
AcDbEntity
  8
GR1-1
  6
CONTINUOUS
 62
     6
100
AcDbCircle
 10
373.473791
 20
118.0
 30
0.0
 40
3.0
  0
ARC
  5
154
330
1F
100
AcDbEntity
  8
GR1-1
  6
CONTINUOUS
 62
     3
100
AcDbCircle
 10
265.016273
 20
107.207412
 30
0.0
 40
69.13193167802386
100
AcDbArc
 50
170.164326
 51
173.447161
  0
LINE
  5
155
330
1F
100
AcDbEntity
  8
GR1-1
  6
CENTER
 62
     6
100
AcDbLine
 10
333.473791
 20
335.797556
 30
0.0
 11
333.473791
 21
349.305349
 31
0.0
  0
LINE
  5
156
330
1F
100
AcDbEntity
  8
GR1-1
  6
CENTER
 62
     6
100
AcDbLine
 10
328.473791
 20
351.71119
 30
0.0
 11
328.473791
 21
337.827484
 31
0.0
  0
LINE
  5
157
330
1F
100
AcDbEntity
  8
GR1-1
  6
CENTER
 62
     6
100
AcDbLine
 10
321.663305
 20
345.0
 30
0.0
 11
338.855043
 21
345.0
 31
0.0
  0
LINE
  5
158
330
1F
100
AcDbEntity
  8
GR1-1
  6
CENTER
 62
     6
100
AcDbLine
 10
340.734606
 20
342.5
 30
0.0
 11
325.798344
 21
342.5
 31
0.0
  0
LINE
  5
159
330
1F
100
AcDbEntity
  8
GR1-1
  6
CENTER
 62
     6
100
AcDbLine
 10
413.473791
 20
304.202444
 30
0.0
 11
413.473791
 21
290.694651
 31
0.0
  0
LINE
  5
15A
330
1F
100
AcDbEntity
  8
GR1-1
  6
CENTER
 62
     6
100
AcDbLine
 10
418.473791
 20
288.28881
 30
0.0
 11
418.473791
 21
302.172516
 31
0.0
  0
LINE
  5
15B
330
1F
100
AcDbEntity
  8
GR1-1
  6
CENTER
 62
     6
100
AcDbLine
 10
425.284277
 20
295.0
 30
0.0
 11
408.092539
 21
295.0
 31
0.0
  0
LINE
  5
15C
330
1F
100
AcDbEntity
  8
GR1-1
  6
CENTER
 62
     6
100
AcDbLine
 10
406.212976
 20
297.5
 30
0.0
 11
421.149238
 21
297.5
 31
0.0
  0
LINE
  5
15D
330
1F
100
AcDbEntity
  8
GR1-1
  6
CENTER
 62
     6
100
AcDbLine
 10
333.473791
 20
304.202444
 30
0.0
 11
333.473791
 21
290.694651
 31
0.0
  0
LINE
  5
15E
330
1F
100
AcDbEntity
  8
GR1-1
  6
CENTER
 62
     6
100
AcDbLine
 10
328.473791
 20
288.28881
 30
0.0
 11
328.473791
 21
302.172516
 31
0.0
  0
LINE
  5
15F
330
1F
100
AcDbEntity
  8
GR1-1
  6
CENTER
 62
     6
100
AcDbLine
 10
321.663305
 20
295.0
 30
0.0
 11
338.855043
 21
295.0
 31
0.0
  0
LINE
  5
160
330
1F
100
AcDbEntity
  8
GR1-1
  6
CENTER
 62
     6
100
AcDbLine
 10
340.734606
 20
297.5
 30
0.0
 11
325.798344
 21
297.5
 31
0.0
  0
LINE
  5
161
330
1F
100
AcDbEntity
  8
LAYERGROUP-1
  6
CONTINUOUS
 62
     3
100
AcDbLine
 10
151.318992
 20
124.0
 30
0.0
 11
150.318992
 21
124.0
 31
0.0
  0
LINE
  5
162
330
1F
100
AcDbEntity
  8
LAYERGROUP-1
  6
CONTINUOUS
 62
     3
100
AcDbLine
 10
195.318992
 20
124.0
 30
0.0
 11
196.318992
 21
124.0
 31
0.0
  0
LINE
  5
163
330
1F
100
AcDbEntity
  8
LAYERGROUP-1
  6
CONTINUOUS
 62
     3
100
AcDbLine
 10
150.318992
 20
112.0
 30
0.0
 11
151.318992
 21
112.0
 31
0.0
  0
LINE
  5
164
330
1F
100
AcDbEntity
  8
LAYERGROUP-1
  6
CONTINUOUS
 62
     3
100
AcDbLine
 10
195.318992
 20
112.0
 30
0.0
 11
196.318992
 21
112.0
 31
0.0
  0
LINE
  5
165
330
1F
100
AcDbEntity
  8
GR1-1
  6
CENTER
 62
     6
100
AcDbLine
 10
206.555389
 20
118.0
 30
0.0
 11
133.89908
 21
118.0
 31
0.0
  0
LINE
  5
166
330
1F
100
AcDbEntity
  8
GR1-1
  6
CENTER
 62
     6
100
AcDbLine
 10
173.318992
 20
65.609275
 30
0.0
 11
173.318992
 21
203.385732
 31
0.0
  0
TEXT
  5
167
330
1F
100
AcDbEntity
  8
GR1-1
  6
CONTINUOUS
 62
     7
100
AcDbText
 10
437.419647
 20
156.0
 30
0.0
 40
4.0
  1
82
 50
90.0
 41
0.851351
  7
FX_VECTOR
 72
     5
 11
437.419647
 21
162.0
 31
0.0
100
AcDbText
  0
LINE
  5
168
330
1F
100
AcDbEntity
  8
GR1-1
  6
CONTINUOUS
 62
     7
100
AcDbLine
 10
427.555494
 20
118.0
 30
0.0
 11
439.419655
 21
118.0
 31
0.0
  0
LINE
  5
169
330
1F
100
AcDbEntity
  8
GR1-1
  6
CONTINUOUS
 62
     7
100
AcDbLine
 10
429.473791
 20
200.0
 30
0.0
 11
449.56576
 21
200.0
 31
0.0
  0
LINE
  5
16A
330
1F
100
AcDbEntity
  8
GR1-1
  6
CONTINUOUS
 62
     7
100
AcDbLine
 10
438.419655
 20
118.0
 30
0.0
 11
438.419655
 21
200.0
 31
0.0
  0
INSERT
  5
16B
330
1F
100
AcDbEntity
  8
GR1-1
  6
CONTINUOUS
 62
     7
100
AcDbBlockReference
  2
FXTIP_ARROW_S
 10
438.419655
 20
118.0
 30
0.0
 41
4.0
 42
4.0
 50
270.0
  0
INSERT
  5
16C
330
1F
100
AcDbEntity
  8
GR1-1
  6
CONTINUOUS
 62
     7
100
AcDbBlockReference
  2
FXTIP_ARROW_E
 10
438.419655
 20
200.0
 30
0.0
 41
4.0
 42
4.0
 50
90.0
  0
TEXT
  5
16D
330
1F
100
AcDbEntity
  8
GR1-1
  6
CONTINUOUS
 62
     7
100
AcDbText
 10
447.565735
 20
129.5
 30
0.0
 40
4.0
  1
132
 50
90.0
 41
0.828947
  7
FX_VECTOR
 72
     5
 11
447.565735
 21
138.5
 31
0.0
100
AcDbText
  0
LINE
  5
16E
330
1F
100
AcDbEntity
  8
GR1-1
  6
CONTINUOUS
 62
     7
100
AcDbLine
 10
374.473791
 20
68.0
 30
0.0
 11
449.56576
 21
68.0
 31
0.0
  0
LINE
  5
16F
330
1F
100
AcDbEntity
  8
GR1-1
  6
CONTINUOUS
 62
     7
100
AcDbLine
 10
448.56576
 20
68.0
 30
0.0
 11
448.56576
 21
200.0
 31
0.0
  0
INSERT
  5
170
330
1F
100
AcDbEntity
  8
GR1-1
  6
CONTINUOUS
 62
     7
100
AcDbBlockReference
  2
FXTIP_ARROW_S
 10
448.56576
 20
68.0
 30
0.0
 41
4.0
 42
4.0
 50
270.0
  0
INSERT
  5
171
330
1F
100
AcDbEntity
  8
GR1-1
  6
CONTINUOUS
 62
     7
100
AcDbBlockReference
  2
FXTIP_ARROW_E
 10
448.56576
 20
200.0
 30
0.0
 41
4.0
 42
4.0
 50
90.0
  0
TEXT
  5
172
330
1F
100
AcDbEntity
  8
GR1-1
  6
CONTINUOUS
 62
     7
100
AcDbText
 10
293.595283
 20
337.826613
 30
0.0
 40
4.0
  1
4-11
 50
63.434948
 41
0.818182
  7
FX_VECTOR
 72
     5
 11
298.961846
 21
348.559739
 31
0.0
100
AcDbText
  0
LINE
  5
173
330
1F
100
AcDbEntity
  8
GR1-1
  6
CONTINUOUS
 62
     7
100
AcDbLine
 10
330.119689
 20
338.027864
 30
0.0
 11
300.975127
 21
352.600145
 31
0.0
  0
LINE
  5
174
330
1F
100
AcDbEntity
  8
GR1-1
  6
CONTINUOUS
 62
     7
100
AcDbLine
 10
335.039039
 20
347.866563
 30
0.0
 11
305.894477
 21
362.438844
 31
0.0
  0
LINE
  5
175
330
1F
100
AcDbEntity
  8
GR1-1
  6
CONTINUOUS
 62
     7
100
AcDbLine
 10
301.869554
 20
352.152931
 30
0.0
 11
306.788904
 21
361.991631
 31
0.0
  0
LINE
  5
176
330
1F
100
AcDbEntity
  8
GR1-1
  6
CONTINUOUS
 62
     7
100
AcDbLine
 10
309.472185
 20
367.358194
 30
0.0
 11
306.788904
 21
361.991631
 31
0.0
  0
INSERT
  5
177
330
1F
100
AcDbEntity
  8
GR1-1
  6
CONTINUOUS
 62
     7
100
AcDbBlockReference
  2
FXTIP_ARROW_E
 10
306.788904
 20
361.991631
 30
0.0
 41
4.0
 42
4.0
 50
243.434949
  0
LINE
  5
178
330
1F
100
AcDbEntity
  8
GR1-1
  6
CONTINUOUS
 62
     7
100
AcDbLine
 10
293.778596
 20
335.971015
 30
0.0
 11
301.869554
 21
352.152931
 31
0.0
  0
INSERT
  5
179
330
1F
100
AcDbEntity
  8
GR1-1
  6
CONTINUOUS
 62
     7
100
AcDbBlockReference
  2
FXTIP_ARROW_E
 10
301.869554
 20
352.152931
 30
0.0
 41
4.0
 42
4.0
 50
63.434949
  0
TEXT
  5
17A
330
1F
100
AcDbEntity
  8
GR1-1
  6
CONTINUOUS
 62
     7
100
AcDbText
 10
457.267334
 20
317.0
 30
0.0
 40
4.0
  1
77
 50
90.0
 41
0.851351
  7
FX_VECTOR
 72
     5
 11
457.267334
 21
323.0
 31
0.0
100
AcDbText
  0
LINE
  5
17B
330
1F
100
AcDbEntity
  8
GR1-1
  6
CONTINUOUS
 62
     7
100
AcDbLine
 10
420.473791
 20
281.5
 30
0.0
 11
459.267353
 21
281.5
 31
0.0
  0
LINE
  5
17C
330
1F
100
AcDbEntity
  8
GR1-1
  6
CONTINUOUS
 62
     7
100
AcDbLine
 10
420.473791
 20
358.5
 30
0.0
 11
459.267353
 21
358.5
 31
0.0
  0
LINE
  5
17D
330
1F
100
AcDbEntity
  8
GR1-1
  6
CONTINUOUS
 62
     7
100
AcDbLine
 10
458.267353
 20
281.5
 30
0.0
 11
458.267353
 21
358.5
 31
0.0
  0
INSERT
  5
17E
330
1F
100
AcDbEntity
  8
GR1-1
  6
CONTINUOUS
 62
     7
100
AcDbBlockReference
  2
FXTIP_ARROW_S
 10
458.267353
 20
281.5
 30
0.0
 41
4.0
 42
4.0
 50
270.0
  0
INSERT
  5
17F
330
1F
100
AcDbEntity
  8
GR1-1
  6
CONTINUOUS
 62
     7
100
AcDbBlockReference
  2
FXTIP_ARROW_E
 10
458.267353
 20
358.5
 30
0.0
 41
4.0
 42
4.0
 50
90.0
  0
TEXT
  5
180
330
1F
100
AcDbEntity
  8
GR1-1
  6
CONTINUOUS
 62
     7
100
AcDbText
 10
437.267334
 20
317.0
 30
0.0
 40
4.0
  1
45
 50
90.0
 41
0.851351
  7
FX_VECTOR
 72
     5
 11
437.267334
 21
323.0
 31
0.0
100
AcDbText
  0
LINE
  5
181
330
1F
100
AcDbEntity
  8
GR1-1
  6
CONTINUOUS
 62
     7
100
AcDbLine
 10
421.973791
 20
342.5
 30
0.0
 11
439.267353
 21
342.5
 31
0.0
  0
LINE
  5
182
330
1F
100
AcDbEntity
  8
GR1-1
  6
CONTINUOUS
 62
     7
100
AcDbLine
 10
421.973791
 20
297.5
 30
0.0
 11
439.267353
 21
297.5
 31
0.0
  0
LINE
  5
183
330
1F
100
AcDbEntity
  8
GR1-1
  6
CONTINUOUS
 62
     7
100
AcDbLine
 10
438.267353
 20
342.5
 30
0.0
 11
438.267353
 21
297.5
 31
0.0
  0
INSERT
  5
184
330
1F
100
AcDbEntity
  8
GR1-1
  6
CONTINUOUS
 62
     7
100
AcDbBlockReference
  2
FXTIP_ARROW_S
 10
438.267353
 20
342.5
 30
0.0
 41
4.0
 42
4.0
 50
90.0
  0
INSERT
  5
185
330
1F
100
AcDbEntity
  8
GR1-1
  6
CONTINUOUS
 62
     7
100
AcDbBlockReference
  2
FXTIP_ARROW_E
 10
438.267353
 20
297.5
 30
0.0
 41
4.0
 42
4.0
 50
270.0
  0
TEXT
  5
186
330
1F
100
AcDbEntity
  8
GR1-1
  6
CONTINUOUS
 62
     7
100
AcDbText
 10
447.267334
 20
317.0
 30
0.0
 40
4.0
  1
50
 50
90.0
 41
0.851351
  7
FX_VECTOR
 72
     5
 11
447.267334
 21
323.0
 31
0.0
100
AcDbText
  0
LINE
  5
187
330
1F
100
AcDbEntity
  8
GR1-1
  6
CONTINUOUS
 62
     7
100
AcDbLine
 10
426.973791
 20
345.0
 30
0.0
 11
449.267353
 21
345.0
 31
0.0
  0
LINE
  5
188
330
1F
100
AcDbEntity
  8
GR1-1
  6
CONTINUOUS
 62
     7
100
AcDbLine
 10
426.973791
 20
295.0
 30
0.0
 11
449.267353
 21
295.0
 31
0.0
  0
LINE
  5
189
330
1F
100
AcDbEntity
  8
GR1-1
  6
CONTINUOUS
 62
     7
100
AcDbLine
 10
448.267353
 20
345.0
 30
0.0
 11
448.267353
 21
295.0
 31
0.0
  0
INSERT
  5
18A
330
1F
100
AcDbEntity
  8
GR1-1
  6
CONTINUOUS
 62
     7
100
AcDbBlockReference
  2
FXTIP_ARROW_S
 10
448.267353
 20
345.0
 30
0.0
 41
4.0
 42
4.0
 50
90.0
  0
INSERT
  5
18B
330
1F
100
AcDbEntity
  8
GR1-1
  6
CONTINUOUS
 62
     7
100
AcDbBlockReference
  2
FXTIP_ARROW_E
 10
448.267353
 20
295.0
 30
0.0
 41
4.0
 42
4.0
 50
270.0
  0
TEXT
  5
18C
330
1F
100
AcDbEntity
  8
GR1-1
  6
CONTINUOUS
 62
     7
100
AcDbText
 10
370.473785
 20
272.301208
 30
0.0
 40
4.0
  1
80
 41
0.851351
  7
FX_VECTOR
 72
     5
 11
376.473785
 21
272.301208
 31
0.0
100
AcDbText
  0
LINE
  5
18D
330
1F
100
AcDbEntity
  8
GR1-1
  6
CONTINUOUS
 62
     7
100
AcDbLine
 10
333.473791
 20
289.0
 30
0.0
 11
333.473791
 21
270.301194
 31
0.0
  0
LINE
  5
18E
330
1F
100
AcDbEntity
  8
GR1-1
  6
CONTINUOUS
 62
     7
100
AcDbLine
 10
413.473791
 20
289.0
 30
0.0
 11
413.473791
 21
270.301194
 31
0.0
  0
LINE
  5
18F
330
1F
100
AcDbEntity
  8
GR1-1
  6
CONTINUOUS
 62
     7
100
AcDbLine
 10
333.473791
 20
271.301194
 30
0.0
 11
413.473791
 21
271.301194
 31
0.0
  0
INSERT
  5
190
330
1F
100
AcDbEntity
  8
GR1-1
  6
CONTINUOUS
 62
     7
100
AcDbBlockReference
  2
FXTIP_ARROW_S
 10
333.473791
 20
271.301194
 30
0.0
 41
4.0
 42
4.0
 50
180.0
  0
INSERT
  5
191
330
1F
100
AcDbEntity
  8
GR1-1
  6
CONTINUOUS
 62
     7
100
AcDbBlockReference
  2
FXTIP_ARROW_E
 10
413.473791
 20
271.301194
 30
0.0
 41
4.0
 42
4.0
 50
360.0
  0
TEXT
  5
192
330
1F
100
AcDbEntity
  8
GR1-1
  6
CONTINUOUS
 62
     7
100
AcDbText
 10
370.473785
 20
262.301208
 30
0.0
 40
4.0
  1
90
 41
0.851351
  7
FX_VECTOR
 72
     5
 11
376.473785
 21
262.301208
 31
0.0
100
AcDbText
  0
LINE
  5
193
330
1F
100
AcDbEntity
  8
GR1-1
  6
CONTINUOUS
 62
     7
100
AcDbLine
 10
328.473791
 20
286.5
 30
0.0
 11
328.473791
 21
260.301194
 31
0.0
  0
LINE
  5
194
330
1F
100
AcDbEntity
  8
GR1-1
  6
CONTINUOUS
 62
     7
100
AcDbLine
 10
418.473791
 20
286.5
 30
0.0
 11
418.473791
 21
260.301194
 31
0.0
  0
LINE
  5
195
330
1F
100
AcDbEntity
  8
GR1-1
  6
CONTINUOUS
 62
     7
100
AcDbLine
 10
328.473791
 20
261.301194
 30
0.0
 11
418.473791
 21
261.301194
 31
0.0
  0
INSERT
  5
196
330
1F
100
AcDbEntity
  8
GR1-1
  6
CONTINUOUS
 62
     7
100
AcDbBlockReference
  2
FXTIP_ARROW_S
 10
328.473791
 20
261.301194
 30
0.0
 41
4.0
 42
4.0
 50
180.0
  0
INSERT
  5
197
330
1F
100
AcDbEntity
  8
GR1-1
  6
CONTINUOUS
 62
     7
100
AcDbBlockReference
  2
FXTIP_ARROW_E
 10
418.473791
 20
261.301194
 30
0.0
 41
4.0
 42
4.0
 50
360.0
  0
TEXT
  5
198
330
1F
100
AcDbEntity
  8
GR1-1
  6
CONTINUOUS
 62
     7
100
AcDbText
 10
368.973785
 20
252.301193
 30
0.0
 40
4.0
  1
110
 41
0.828947
  7
FX_VECTOR
 72
     5
 11
377.973785
 21
252.301193
 31
0.0
100
AcDbText
  0
LINE
  5
199
330
1F
100
AcDbEntity
  8
GR1-1
  6
CONTINUOUS
 62
     7
100
AcDbLine
 10
318.473791
 20
290.0
 30
0.0
 11
318.473791
 21
250.301194
 31
0.0
  0
LINE
  5
19A
330
1F
100
AcDbEntity
  8
GR1-1
  6
CONTINUOUS
 62
     7
100
AcDbLine
 10
428.473791
 20
290.0
 30
0.0
 11
428.473791
 21
250.301194
 31
0.0
  0
LINE
  5
19B
330
1F
100
AcDbEntity
  8
GR1-1
  6
CONTINUOUS
 62
     7
100
AcDbLine
 10
318.473791
 20
251.301194
 30
0.0
 11
428.473791
 21
251.301194
 31
0.0
  0
INSERT
  5
19C
330
1F
100
AcDbEntity
  8
GR1-1
  6
CONTINUOUS
 62
     7
100
AcDbBlockReference
  2
FXTIP_ARROW_S
 10
318.473791
 20
251.301194
 30
0.0
 41
4.0
 42
4.0
 50
180.0
  0
INSERT
  5
19D
330
1F
100
AcDbEntity
  8
GR1-1
  6
CONTINUOUS
 62
     7
100
AcDbBlockReference
  2
FXTIP_ARROW_E
 10
428.473791
 20
251.301194
 30
0.0
 41
4.0
 42
4.0
 50
360.0
  0
ARC
  5
19E
330
1F
100
AcDbEntity
  8
GR1-1
  6
CONTINUOUS
 62
     3
100
AcDbCircle
 10
224.354086
 20
169.432
 30
0.0
 40
89.84301650277952
100
AcDbArc
 50
184.745048
 51
195.842661
  0
ARC
  5
19F
330
1F
100
AcDbEntity
  8
GR1-1
  6
CONTINUOUS
 62
     3
100
AcDbCircle
 10
187.102498
 20
158.860899
 30
0.0
 40
51.12055584056337
100
AcDbArc
 50
195.842661
 51
203.037408
  0
ARC
  5
1A0
330
1F
100
AcDbEntity
  8
GR1-1
  6
CONTINUOUS
 62
     3
100
AcDbCircle
 10
-142.793247
 20
18.574196
 30
0.0
 40
307.3645376202534
100
AcDbArc
 50
21.460639
 51
23.037408
  0
ARC
  5
1A1
330
1F
100
AcDbEntity
  8
GR1-1
  6
CONTINUOUS
 62
     3
100
AcDbCircle
 10
-35.966325
 20
60.569687
 30
0.0
 40
192.5794657725243
100
AcDbArc
 50
19.651452
 51
21.460639
  0
ARC
  5
1A2
330
1F
100
AcDbEntity
  8
GR1-1
  6
CONTINUOUS
 62
     3
100
AcDbCircle
 10
106.91762
 20
111.592996
 30
0.0
 40
40.85867054004483
100
AcDbArc
 50
9.835674
 51
19.651452
  0
ARC
  5
1A3
330
1F
100
AcDbEntity
  8
GR1-1
  6
CONTINUOUS
 62
     3
100
AcDbCircle
 10
81.621711
 20
107.207412
 30
0.0
 40
66.53193167802387
100
AcDbArc
 50
6.552839
 51
9.835674
  0
ARC
  5
1A4
330
1F
100
AcDbEntity
  8
GR1-1
  6
CONTINUOUS
 62
     3
100
AcDbCircle
 10
122.283899
 20
169.432
 30
0.0
 40
89.84301650277952
100
AcDbArc
 50
344.157339
 51
355.254952
  0
ARC
  5
1A5
330
1F
100
AcDbEntity
  8
GR1-1
  6
CONTINUOUS
 62
     3
100
AcDbCircle
 10
159.535486
 20
158.860899
 30
0.0
 40
51.12055584056337
100
AcDbArc
 50
336.962592
 51
344.157339
  0
ARC
  5
1A6
330
1F
100
AcDbEntity
  8
GR1-1
  6
CONTINUOUS
 62
     3
100
AcDbCircle
 10
489.431232
 20
18.574196
 30
0.0
 40
307.3645376202534
100
AcDbArc
 50
156.962592
 51
158.539361
  0
ARC
  5
1A7
330
1F
100
AcDbEntity
  8
GR1-1
  6
CONTINUOUS
 62
     3
100
AcDbCircle
 10
382.604309
 20
60.569687
 30
0.0
 40
192.5794657725243
100
AcDbArc
 50
158.539361
 51
160.348548
  0
ARC
  5
1A8
330
1F
100
AcDbEntity
  8
GR1-1
  6
CONTINUOUS
 62
     3
100
AcDbCircle
 10
239.720365
 20
111.592996
 30
0.0
 40
40.85867054004483
100
AcDbArc
 50
160.348548
 51
170.164326
  0
ARC
  5
1A9
330
1F
100
AcDbEntity
  8
GR1-1
  6
CONTINUOUS
 62
     3
100
AcDbCircle
 10
265.016273
 20
107.207412
 30
0.0
 40
66.53193167802387
100
AcDbArc
 50
170.164326
 51
173.447161
  0
TEXT
  5
1AA
330
1F
100
AcDbEntity
  8
LAYERGROUP-1
  6
CONTINUOUS
 62
     7
100
AcDbText
 10
170.318985
 20
43.246819
 30
0.0
 40
4.0
  1
44
 41
0.828947
  7
FX_VECTOR
 72
     5
 11
176.318985
 21
43.246819
 31
0.0
100
AcDbText
  0
LINE
  5
1AB
330
1F
100
AcDbEntity
  8
LAYERGROUP-1
  6
CONTINUOUS
 62
     7
100
AcDbLine
 10
151.318992
 20
42.246817
 30
0.0
 11
195.318992
 21
42.246817
 31
0.0
  0
INSERT
  5
1AC
330
1F
100
AcDbEntity
  8
LAYERGROUP-1
  6
CONTINUOUS
 62
     7
100
AcDbBlockReference
  2
FXTIP_ARROW_S
 10
151.318992
 20
42.246817
 30
0.0
 41
4.0
 42
4.0
 50
180.0
  0
INSERT
  5
1AD
330
1F
100
AcDbEntity
  8
LAYERGROUP-1
  6
CONTINUOUS
 62
     7
100
AcDbBlockReference
  2
FXTIP_ARROW_E
 10
195.318992
 20
42.246817
 30
0.0
 41
4.0
 42
4.0
 50
360.0
  0
LINE
  5
1AE
330
1F
100
AcDbEntity
  8
LAYERGROUP-1
  6
CONTINUOUS
 62
     7
100
AcDbLine
 10
151.318992
 20
104.374497
 30
0.0
 11
151.318992
 21
41.246817
 31
0.0
  0
LINE
  5
1AF
330
1F
100
AcDbEntity
  8
LAYERGROUP-1
  6
CONTINUOUS
 62
     7
100
AcDbLine
 10
195.318992
 20
104.374497
 30
0.0
 11
195.318992
 21
41.246817
 31
0.0
  0
TEXT
  5
1B0
330
1F
100
AcDbEntity
  8
LAYERGROUP-1
  6
CONTINUOUS
 62
     7
100
AcDbText
 10
230.601746
 20
112.0
 30
0.0
 40
4.0
  1
%%c100
 50
90.0
 41
0.828947
  7
FX_VECTOR
 72
     5
 11
230.601746
 21
124.0
 31
0.0
100
AcDbText
  0
LINE
  5
1B1
330
1F
100
AcDbEntity
  8
LAYERGROUP-1
  6
CONTINUOUS
 62
     7
100
AcDbLine
 10
231.601743
 20
68.0
 30
0.0
 11
231.601743
 21
168.0
 31
0.0
  0
INSERT
  5
1B2
330
1F
100
AcDbEntity
  8
LAYERGROUP-1
  6
CONTINUOUS
 62
     7
100
AcDbBlockReference
  2
FXTIP_ARROW_S
 10
231.601743
 20
68.0
 30
0.0
 41
4.0
 42
4.0
 50
270.0
  0
INSERT
  5
1B3
330
1F
100
AcDbEntity
  8
LAYERGROUP-1
  6
CONTINUOUS
 62
     7
100
AcDbBlockReference
  2
FXTIP_ARROW_E
 10
231.601743
 20
168.0
 30
0.0
 41
4.0
 42
4.0
 50
90.0
  0
LINE
  5
1B4
330
1F
100
AcDbEntity
  8
LAYERGROUP-1
  6
CONTINUOUS
 62
     7
100
AcDbLine
 10
174.318992
 20
68.0
 30
0.0
 11
232.601743
 21
68.0
 31
0.0
  0
LINE
  5
1B5
330
1F
100
AcDbEntity
  8
LAYERGROUP-1
  6
CONTINUOUS
 62
     7
100
AcDbLine
 10
174.318992
 20
168.0
 30
0.0
 11
232.601743
 21
168.0
 31
0.0
  0
INSERT
  5
1B9
330
1F
100
AcDbEntity
  8
0
100
AcDbBlockReference
  2
BLKF021
 10
0.0
 20
0.0
 30
0.0
  0
LINE
  5
1E4
330
1F
100
AcDbEntity
  8
GR1-1
  6
CONTINUOUS
 62
     3
100
AcDbLine
 10
137.718992
 20
111.0
 30
0.0
 11
137.718992
 21
125.0
 31
0.0
  0
LINE
  5
1E5
330
1F
100
AcDbEntity
  8
GR1-1
  6
CONTINUOUS
 62
     3
100
AcDbLine
 10
137.718992
 20
125.0
 30
0.0
 11
141.718992
 21
127.5
 31
0.0
  0
ARC
  5
1E6
330
1F
100
AcDbEntity
  8
GR1-1
  6
CONTINUOUS
 62
     3
100
AcDbCircle
 10
142.750592
 20
125.3
 30
0.0
 40
2.42985542723951
100
AcDbArc
 50
115.122296
 51
244.877704
  0
ARC
  5
1E7
330
1F
100
AcDbEntity
  8
GR1-1
  6
CONTINUOUS
 62
     3
100
AcDbCircle
 10
150.320736
 20
118.0
 30
0.0
 40
10.0
100
AcDbArc
 50
149.33617
 51
210.66383
  0
ARC
  5
1E8
330
1F
100
AcDbEntity
  8
GR1-1
  6
CONTINUOUS
 62
     3
100
AcDbCircle
 10
142.750592
 20
110.7
 30
0.0
 40
2.429855427239536
100
AcDbArc
 50
115.122296
 51
244.877704
  0
LINE
  5
1E9
330
1F
100
AcDbEntity
  8
GR1-1
  6
CONTINUOUS
 62
     3
100
AcDbLine
 10
141.718992
 20
108.5
 30
0.0
 11
137.718992
 21
111.0
 31
0.0
  0
LINE
  5
1EA
330
1F
100
AcDbEntity
  8
GR1-1
  6
CONTINUOUS
 62
     3
100
AcDbLine
 10
141.718992
 20
123.1
 30
0.0
 11
146.122464
 21
123.1
 31
0.0
  0
LINE
  5
1EB
330
1F
100
AcDbEntity
  8
GR1-1
  6
CONTINUOUS
 62
     3
100
AcDbLine
 10
144.608269
 20
127.5
 30
0.0
 11
141.718992
 21
127.5
 31
0.0
  0
ARC
  5
1EC
330
1F
100
AcDbEntity
  8
GR1-1
  6
CONTINUOUS
 62
     3
100
AcDbCircle
 10
134.213992
 20
118.0
 30
0.0
 40
13.50500000000005
100
AcDbArc
 50
337.812554
 51
351.4837
  0
LINE
  5
1ED
330
1F
100
AcDbEntity
  8
GR1-1
  6
CONTINUOUS
 62
     3
100
AcDbLine
 10
146.718992
 20
112.9
 30
0.0
 11
141.718992
 21
112.9
 31
0.0
  0
LINE
  5
1EE
330
1F
100
AcDbEntity
  8
GR1-1
  6
CONTINUOUS
 62
     3
100
AcDbLine
 10
141.718992
 20
108.5
 30
0.0
 11
146.718992
 21
108.5
 31
0.0
  0
ARC
  5
1EF
330
1F
100
AcDbEntity
  8
GR1-1
  6
CONTINUOUS
 62
     3
100
AcDbCircle
 10
144.798992
 20
110.7
 30
0.0
 40
2.919999999999983
100
AcDbArc
 50
-48.88791
 51
48.88791
  0
LINE
  5
1F0
330
1F
100
AcDbEntity
  8
GR1-1
  6
CONTINUOUS
 62
     3
100
AcDbLine
 10
366.473791
 20
355.65
 30
0.0
 11
380.473791
 21
355.65
 31
0.0
  0
LINE
  5
1F1
330
1F
100
AcDbEntity
  8
LAYERGROUP-1
  6
CONTINUOUS
 62
     3
100
AcDbLine
 10
381.973791
 20
352.890811
 30
0.0
 11
380.473791
 21
355.65
 31
0.0
  0
LINE
  5
1F2
330
1F
100
AcDbEntity
  8
LAYERGROUP-1
  6
CONTINUOUS
 62
     3
100
AcDbLine
 10
364.973791
 20
352.890811
 30
0.0
 11
366.473791
 21
355.65
 31
0.0
  0
LINE
  5
1F3
330
1F
100
AcDbEntity
  8
LAYERGROUP-1
  6
CONTINUOUS
 62
     3
100
AcDbLine
 10
381.973791
 20
352.890811
 30
0.0
 11
381.973791
 21
345.65
 31
0.0
  0
LINE
  5
1F4
330
1F
100
AcDbEntity
  8
LAYERGROUP-1
  6
CONTINUOUS
 62
     3
100
AcDbLine
 10
381.973791
 20
345.65
 30
0.0
 11
364.973791
 21
345.65
 31
0.0
  0
LINE
  5
1F5
330
1F
100
AcDbEntity
  8
LAYERGROUP-1
  6
CONTINUOUS
 62
     3
100
AcDbLine
 10
364.973791
 20
345.65
 30
0.0
 11
364.973791
 21
352.890811
 31
0.0
  0
LINE
  5
1F6
330
1F
100
AcDbEntity
  8
LAYERGROUP-1
  6
CONTINUOUS
 62
     3
100
AcDbLine
 10
373.473791
 20
352.890811
 30
0.0
 11
373.473791
 21
345.65
 31
0.0
  0
ARC
  5
1F7
330
1F
100
AcDbEntity
  8
LAYERGROUP-1
  6
CONTINUOUS
 62
     3
100
AcDbCircle
 10
369.223791
 20
341.374493
 30
0.0
 40
12.27550663840318
100
AcDbArc
 50
69.743842
 51
110.256158
  0
ARC
  5
1F8
330
1F
100
AcDbEntity
  8
LAYERGROUP-1
  6
CONTINUOUS
 62
     3
100
AcDbCircle
 10
377.723791
 20
341.374493
 30
0.0
 40
12.27550663840318
100
AcDbArc
 50
69.743842
 51
110.256158
  0
ARC
  5
1F9
330
1F
100
AcDbEntity
  8
LAYERGROUP-1
  6
CONTINUOUS
 62
     3
100
AcDbCircle
 10
369.223791
 20
357.925507
 30
0.0
 40
12.27550663840318
100
AcDbArc
 50
249.743842
 51
290.256158
  0
ARC
  5
1FA
330
1F
100
AcDbEntity
  8
LAYERGROUP-1
  6
CONTINUOUS
 62
     3
100
AcDbCircle
 10
377.723791
 20
357.925507
 30
0.0
 40
12.27550663840318
100
AcDbArc
 50
249.743842
 51
290.256158
  0
LINE
  5
1FB
330
1F
100
AcDbEntity
  8
GR1-1
  6
CONTINUOUS
 62
     3
100
AcDbLine
 10
157.318992
 20
82.0
 30
0.0
 11
158.038661
 21
82.0
 31
0.0
  0
LINE
  5
1FC
330
1F
100
AcDbEntity
  8
GR1-1
  6
CONTINUOUS
 62
     3
100
AcDbLine
 10
188.599323
 20
82.0
 30
0.0
 11
189.318992
 21
82.0
 31
0.0
  0
LINE
  5
1FD
330
1F
100
AcDbEntity
  8
GR1-1
  6
CONTINUOUS
 62
     3
100
AcDbLine
 10
157.318992
 20
154.017812
 30
0.0
 11
157.318992
 21
81.982188
 31
0.0
  0
LINE
  5
1FE
330
1F
100
AcDbEntity
  8
GR1-1
  6
CONTINUOUS
 62
     3
100
AcDbLine
 10
189.318992
 20
154.017812
 30
0.0
 11
189.318992
 21
81.982188
 31
0.0
  0
LINE
  5
1FF
330
1F
100
AcDbEntity
  8
LAYERGROUP-1
  6
CONTINUOUS
 62
     3
100
AcDbLine
 10
151.318992
 20
108.0
 30
0.0
 11
151.318992
 21
128.0
 31
0.0
  0
LINE
  5
200
330
1F
100
AcDbEntity
  8
LAYERGROUP-1
  6
CONTINUOUS
 62
     3
100
AcDbLine
 10
151.318992
 20
108.0
 30
0.0
 11
155.318992
 21
106.5
 31
0.0
  0
LINE
  5
201
330
1F
100
AcDbEntity
  8
GR1-1
  6
CONTINUOUS
 62
     3
100
AcDbLine
 10
159.480554
 20
80.913456
 30
0.0
 11
162.135871
 21
71.653264
 31
0.0
  0
ARC
  5
202
330
1F
100
AcDbEntity
  8
GR1-1
  6
CONTINUOUS
 62
     3
100
AcDbCircle
 10
165.980918
 20
72.755814
 30
0.0
 40
4.0
100
AcDbArc
 50
196.0
 51
258.238667
  0
ARC
  5
203
330
1F
100
AcDbEntity
  8
GR1-1
  6
CONTINUOUS
 62
     3
100
AcDbCircle
 10
173.318992
 20
108.0
 30
0.0
 40
40.0
100
AcDbArc
 50
258.238667
 51
281.761333
  0
ARC
  5
204
330
1F
100
AcDbEntity
  8
GR1-1
  6
CONTINUOUS
 62
     3
100
AcDbCircle
 10
180.657067
 20
72.755814
 30
0.0
 40
4.0
100
AcDbArc
 50
281.761333
 51
344.0
  0
LINE
  5
205
330
1F
100
AcDbEntity
  8
GR1-1
  6
CONTINUOUS
 62
     3
100
AcDbLine
 10
184.502114
 20
71.653264
 30
0.0
 11
187.157431
 21
80.913456
 31
0.0
  0
LINE
  5
206
330
1F
100
AcDbEntity
  8
LAYERGROUP-1
  6
CONTINUOUS
 62
     3
100
AcDbLine
 10
157.318992
 20
104.0
 30
0.0
 11
156.318992
 21
104.0
 31
0.0
  0
ARC
  5
207
330
1F
100
AcDbEntity
  8
LAYERGROUP-1
  6
CONTINUOUS
 62
     3
100
AcDbCircle
 10
156.318992
 20
105.0
 30
0.0
 40
1.0
100
AcDbArc
 50
180.0
 51
270.0
  0
LINE
  5
208
330
1F
100
AcDbEntity
  8
LAYERGROUP-1
  6
CONTINUOUS
 62
     3
100
AcDbLine
 10
189.318992
 20
104.0
 30
0.0
 11
190.318992
 21
104.0
 31
0.0
  0
ARC
  5
209
330
1F
100
AcDbEntity
  8
LAYERGROUP-1
  6
CONTINUOUS
 62
     3
100
AcDbCircle
 10
190.318992
 20
105.0
 30
0.0
 40
1.0
100
AcDbArc
 50
270.0
 51
360.0
  0
LINE
  5
20A
330
1F
100
AcDbEntity
  8
LAYERGROUP-1
  6
CONTINUOUS
 62
     3
100
AcDbLine
 10
195.318992
 20
108.0
 30
0.0
 11
195.318992
 21
128.0
 31
0.0
  0
LINE
  5
20B
330
1F
100
AcDbEntity
  8
LAYERGROUP-1
  6
CONTINUOUS
 62
     3
100
AcDbLine
 10
195.318992
 20
108.0
 30
0.0
 11
191.318992
 21
106.5
 31
0.0
  0
ARC
  5
20C
330
1F
100
AcDbEntity
  8
GR1-1
  6
CONTINUOUS
 62
     3
100
AcDbCircle
 10
188.599323
 20
80.5
 30
0.0
 40
1.5
100
AcDbArc
 50
90.0
 51
164.0
  0
ARC
  5
20D
330
1F
100
AcDbEntity
  8
GR1-1
  6
CONTINUOUS
 62
     3
100
AcDbCircle
 10
158.038661
 20
80.5
 30
0.0
 40
1.5
100
AcDbArc
 50
16.0
 51
90.0
  0
LINE
  5
20E
330
1F
100
AcDbEntity
  8
GR1-1
  6
CONTINUOUS
 62
     6
100
AcDbLine
 10
162.778
 20
70.359709
 30
0.0
 11
162.778
 21
165.640291
 31
0.0
  0
LINE
  5
20F
330
1F
100
AcDbEntity
  8
GR1-1
  6
CONTINUOUS
 62
     6
100
AcDbLine
 10
183.859985
 20
70.359709
 30
0.0
 11
183.859985
 21
165.640291
 31
0.0
  0
LINE
  5
210
330
1F
100
AcDbEntity
  8
GR1-1
  6
CONTINUOUS
 62
     6
100
AcDbLine
 10
159.168992
 20
81.486079
 30
0.0
 11
159.168992
 21
154.513921
 31
0.0
  0
LINE
  5
211
330
1F
100
AcDbEntity
  8
GR1-1
  6
CONTINUOUS
 62
     6
100
AcDbLine
 10
187.468992
 20
81.486079
 30
0.0
 11
187.468992
 21
154.513921
 31
0.0
  0
LINE
  5
212
330
1F
100
AcDbEntity
  8
GR1-1
  6
CONTINUOUS
 62
     3
100
AcDbLine
 10
158.038661
 20
154.0
 30
0.0
 11
157.318992
 21
154.0
 31
0.0
  0
LINE
  5
213
330
1F
100
AcDbEntity
  8
GR1-1
  6
CONTINUOUS
 62
     3
100
AcDbLine
 10
189.318992
 20
154.0
 30
0.0
 11
188.599323
 21
154.0
 31
0.0
  0
LINE
  5
214
330
1F
100
AcDbEntity
  8
LAYERGROUP-1
  6
CONTINUOUS
 62
     3
100
AcDbLine
 10
157.318992
 20
132.0
 30
0.0
 11
156.318992
 21
132.0
 31
0.0
  0
ARC
  5
215
330
1F
100
AcDbEntity
  8
LAYERGROUP-1
  6
CONTINUOUS
 62
     3
100
AcDbCircle
 10
156.318992
 20
131.0
 30
0.0
 40
1.0
100
AcDbArc
 50
90.0
 51
180.0
  0
LINE
  5
216
330
1F
100
AcDbEntity
  8
LAYERGROUP-1
  6
CONTINUOUS
 62
     3
100
AcDbLine
 10
151.318992
 20
128.0
 30
0.0
 11
155.318992
 21
129.5
 31
0.0
  0
LINE
  5
217
330
1F
100
AcDbEntity
  8
GR1-1
  6
CONTINUOUS
 62
     3
100
AcDbLine
 10
159.480554
 20
155.086544
 30
0.0
 11
162.135871
 21
164.346736
 31
0.0
  0
ARC
  5
218
330
1F
100
AcDbEntity
  8
GR1-1
  6
CONTINUOUS
 62
     3
100
AcDbCircle
 10
165.980918
 20
163.244186
 30
0.0
 40
4.0
100
AcDbArc
 50
101.761333
 51
164.0
  0
LINE
  5
219
330
1F
100
AcDbEntity
  8
GR1-1
  6
CONTINUOUS
 62
     3
100
AcDbLine
 10
187.157431
 20
155.086544
 30
0.0
 11
184.502114
 21
164.346736
 31
0.0
  0
ARC
  5
21A
330
1F
100
AcDbEntity
  8
GR1-1
  6
CONTINUOUS
 62
     3
100
AcDbCircle
 10
180.657067
 20
163.244186
 30
0.0
 40
4.0
100
AcDbArc
 50
16.0
 51
78.238667
  0
ARC
  5
21B
330
1F
100
AcDbEntity
  8
GR1-1
  6
CONTINUOUS
 62
     3
100
AcDbCircle
 10
173.318992
 20
128.0
 30
0.0
 40
40.0
100
AcDbArc
 50
78.238667
 51
101.761333
  0
LINE
  5
21C
330
1F
100
AcDbEntity
  8
LAYERGROUP-1
  6
CONTINUOUS
 62
     3
100
AcDbLine
 10
155.318992
 20
105.0
 30
0.0
 11
155.318992
 21
131.0
 31
0.0
  0
LINE
  5
21D
330
1F
100
AcDbEntity
  8
LAYERGROUP-1
  6
CONTINUOUS
 62
     3
100
AcDbLine
 10
189.318992
 20
132.0
 30
0.0
 11
190.318992
 21
132.0
 31
0.0
  0
ARC
  5
21E
330
1F
100
AcDbEntity
  8
LAYERGROUP-1
  6
CONTINUOUS
 62
     3
100
AcDbCircle
 10
190.318992
 20
131.0
 30
0.0
 40
1.0
100
AcDbArc
 50
0.0
 51
90.0
  0
LINE
  5
21F
330
1F
100
AcDbEntity
  8
LAYERGROUP-1
  6
CONTINUOUS
 62
     3
100
AcDbLine
 10
195.318992
 20
128.0
 30
0.0
 11
191.318992
 21
129.5
 31
0.0
  0
LINE
  5
220
330
1F
100
AcDbEntity
  8
LAYERGROUP-1
  6
CONTINUOUS
 62
     3
100
AcDbLine
 10
191.318992
 20
131.0
 30
0.0
 11
191.318992
 21
105.0
 31
0.0
  0
ARC
  5
221
330
1F
100
AcDbEntity
  8
GR1-1
  6
CONTINUOUS
 62
     3
100
AcDbCircle
 10
158.038661
 20
155.5
 30
0.0
 40
1.5
100
AcDbArc
 50
270.0
 51
344.0
  0
ARC
  5
222
330
1F
100
AcDbEntity
  8
GR1-1
  6
CONTINUOUS
 62
     3
100
AcDbCircle
 10
188.599323
 20
155.5
 30
0.0
 40
1.5
100
AcDbArc
 50
196.0
 51
270.0
  0
CIRCLE
  5
223
330
1F
100
AcDbEntity
  8
GR1-1
  6
CONTINUOUS
 62
     3
100
AcDbCircle
 10
373.49367
 20
92.3
 30
0.0
 40
4.0
  0
CIRCLE
  5
224
330
1F
100
AcDbEntity
  8
GR1-1
  6
CONTINUOUS
 62
     3
100
AcDbCircle
 10
373.49367
 20
92.3
 30
0.0
 40
6.0
  0
CIRCLE
  5
225
330
1F
100
AcDbEntity
  8
GR1-1
  6
CONTINUOUS
 62
     3
100
AcDbCircle
 10
386.34367
 20
95.743147
 30
0.0
 40
2.0
  0
CIRCLE
  5
226
330
1F
100
AcDbEntity
  8
GR1-1
  6
CONTINUOUS
 62
     3
100
AcDbCircle
 10
395.750523
 20
105.15
 30
0.0
 40
4.0
  0
ARC
  5
227
330
1F
100
AcDbEntity
  8
GR1-1
  6
CONTINUOUS
 62
     3
100
AcDbCircle
 10
373.49367
 20
118.0
 30
0.0
 40
36.00000000000004
100
AcDbArc
 50
-221.168176
 51
41.240001
  0
ARC
  5
228
330
1F
100
AcDbEntity
  8
GR1-1
  6
CONTINUOUS
 62
     3
100
AcDbCircle
 10
395.750523
 20
130.85
 30
0.0
 40
6.0
100
AcDbArc
 50
-95.553087
 51
59.182975
  0
ARC
  5
229
330
1F
100
AcDbEntity
  8
GR1-1
  6
CONTINUOUS
 62
     3
100
AcDbCircle
 10
395.750523
 20
130.85
 30
0.0
 40
4.0
100
AcDbArc
 50
-88.647295
 51
52.277183
  0
ARC
  5
22A
330
1F
100
AcDbEntity
  8
GR1-1
  6
CONTINUOUS
 62
     3
100
AcDbCircle
 10
351.236818
 20
130.85
 30
0.0
 40
6.0
100
AcDbArc
 50
121.190026
 51
275.183724
  0
ARC
  5
22B
330
1F
100
AcDbEntity
  8
GR1-1
  6
CONTINUOUS
 62
     3
100
AcDbCircle
 10
351.236818
 20
130.85
 30
0.0
 40
4.0
100
AcDbArc
 50
128.301783
 51
268.071967
  0
CIRCLE
  5
22C
330
1F
100
AcDbEntity
  8
GR1-1
  6
CONTINUOUS
 62
     3
100
AcDbCircle
 10
351.236818
 20
105.15
 30
0.0
 40
4.0
  0
ARC
  5
22D
330
1F
100
AcDbEntity
  8
GR1-1
  6
CONTINUOUS
 62
     6
100
AcDbCircle
 10
373.49367
 20
118.0
 30
0.0
 40
18.89999999999995
100
AcDbArc
 50
184.550122
 51
356.019555
  0
INSERT
  5
231
330
1F
100
AcDbEntity
  8
0
100
AcDbBlockReference
  2
BLKF024
 10
0.0
 20
0.0
 30
0.0
  0
TEXT
  5
289
330
1F
100
AcDbEntity
  8
GR1-1
  6
CONTINUOUS
 62
     7
100
AcDbText
 10
346.420593
 20
89.909767
 30
0.0
 40
5.527687
  1
G
 50
130.295197
 41
1.177104
  7
FX_VECTOR
 72
     5
 11
342.813713
 21
94.163577
 31
0.0
100
AcDbText
  0
TEXT
  5
28A
330
1F
100
AcDbEntity
  8
GR1-1
  6
CONTINUOUS
 62
     7
100
AcDbText
 10
342.622711
 20
94.119713
 30
0.0
 40
5.394396
  1
O
 50
122.295189
 41
1.156776
  7
FX_VECTOR
 72
     5
 11
339.606258
 21
98.892157
 31
0.0
100
AcDbText
  0
TEXT
  5
28B
330
1F
100
AcDbEntity
  8
GR1-1
  6
CONTINUOUS
 62
     7
100
AcDbText
 10
339.379303
 20
99.13031
 30
0.0
 40
5.181109
  1
L
 50
114.295189
 41
1.226271
  7
FX_VECTOR
 72
     5
 11
337.387648
 21
103.542324
 31
0.0
100
AcDbText
  0
TEXT
  5
28C
330
1F
100
AcDbEntity
  8
GR1-1
  6
CONTINUOUS
 62
     7
100
AcDbText
 10
337.203522
 20
103.401558
 30
0.0
 40
5.349136
  1
D
 50
106.295189
 41
1.281978
  7
FX_VECTOR
 72
     5
 11
335.554283
 21
109.043274
 31
0.0
100
AcDbText
  0
TEXT
  5
28D
330
1F
100
AcDbEntity
  8
GR1-1
  6
CONTINUOUS
 62
     7
100
AcDbText
 10
334.55658
 20
114.120232
 30
0.0
 40
5.331959
  1
C
 50
90.295197
 41
1.12043
  7
FX_VECTOR
 72
     5
 11
334.530197
 21
119.240808
 31
0.0
100
AcDbText
  0
TEXT
  5
28E
330
1F
100
AcDbEntity
  8
GR1-1
  6
CONTINUOUS
 62
     7
100
AcDbText
 10
334.516418
 20
119.479362
 30
0.0
 40
5.403154
  1
A
 50
82.295197
 41
1.254194
  7
FX_VECTOR
 72
     5
 11
335.251899
 21
124.915659
 31
0.0
100
AcDbText
  0
TEXT
  5
28F
330
1F
100
AcDbEntity
  8
GR1-1
  6
CONTINUOUS
 62
     7
100
AcDbText
 10
334.969025
 20
124.694695
 30
0.0
 40
5.389345
  1
S
 50
74.295197
 41
1.212367
  7
FX_VECTOR
 72
     5
 11
336.400744
 21
129.786559
 31
0.0
100
AcDbText
  0
TEXT
  5
290
330
1F
100
AcDbEntity
  8
GR1-1
  6
CONTINUOUS
 62
     7
100
AcDbText
 10
336.36615
 20
129.848251
 30
0.0
 40
5.666542
  1
T
 50
66.295197
 41
1.377387
  7
FX_VECTOR
 72
     5
 11
338.607443
 21
134.952897
 31
0.0
100
AcDbText
  0
TEXT
  5
291
330
1F
100
AcDbEntity
  8
GR1-1
  6
CONTINUOUS
 62
     7
100
AcDbText
 10
338.578217
 20
135.415466
 30
0.0
 40
5.715663
  1
E
 50
58.295197
 41
1.014916
  7
FX_VECTOR
 72
     5
 11
341.046157
 21
139.410653
 31
0.0
100
AcDbText
  0
TEXT
  5
292
330
1F
100
AcDbEntity
  8
GR1-1
  6
CONTINUOUS
 62
     7
100
AcDbText
 10
341.316284
 20
139.846985
 30
0.0
 40
5.39817
  1
R
 50
50.295197
 41
1.165762
  7
FX_VECTOR
 72
     5
 11
344.762134
 21
143.996824
 31
0.0
100
AcDbText
  0
TEXT
  5
293
330
1F
100
AcDbEntity
  8
GR1-1
  6
CONTINUOUS
 62
     7
100
AcDbText
 10
404.658752
 20
141.503372
 30
0.0
 40
5.587932
  1
1
 50
302.795197
 41
2.049953
  7
FX_VECTOR
 72
     5
 11
407.908707
 21
136.459501
 31
0.0
100
AcDbText
  0
TEXT
  5
294
330
1F
100
AcDbEntity
  8
GR1-1
  6
CONTINUOUS
 62
     7
100
AcDbText
 10
408.124023
 20
136.035187
 30
0.0
 40
5.480185
  1
0
 50
293.795197
 41
1.273862
  7
FX_VECTOR
 72
     5
 11
410.40414
 21
130.864297
 31
0.0
100
AcDbText
  0
TEXT
  5
295
330
1F
100
AcDbEntity
  8
GR1-1
  6
CONTINUOUS
 62
     7
100
AcDbText
 10
410.472534
 20
130.364166
 30
0.0
 40
5.424929
  1
0
 50
284.795197
 41
1.245341
  7
FX_VECTOR
 72
     5
 11
411.869137
 21
125.076443
 31
0.0
100
AcDbText
  0
TEXT
  5
296
330
1F
100
AcDbEntity
  8
GR1-1
  6
CONTINUOUS
 62
     7
100
AcDbText
 10
412.588013
 20
118.718002
 30
0.0
 40
5.455782
  1
3
 50
266.795197
 41
1.213692
  7
FX_VECTOR
 72
     5
 11
412.28834
 21
113.366012
 31
0.0
100
AcDbText
  0
TEXT
  5
297
330
1F
100
AcDbEntity
  8
GR1-1
  6
CONTINUOUS
 62
     7
100
AcDbText
 10
411.963287
 20
112.177292
 30
0.0
 40
5.540185
  1
2
 50
257.795197
 41
1.092768
  7
FX_VECTOR
 72
     5
 11
410.92719
 21
107.387095
 31
0.0
100
AcDbText
  0
LINE
  5
298
330
1F
100
AcDbEntity
  8
GR1-1
  6
CONTINUOUS
 62
     7
100
AcDbLine
 10
347.952495
 20
81.822799
 30
0.0
 11
352.546637
 21
78.984867
 31
0.0
  0
LINE
  5
299
330
1F
100
AcDbEntity
  8
GR1-1
  6
CONTINUOUS
 62
     7
100
AcDbLine
 10
352.546637
 20
78.984867
 30
0.0
 11
355.384569
 21
83.579009
 31
0.0
  0
LINE
  5
29A
330
1F
100
AcDbEntity
  8
GR1-1
  6
CONTINUOUS
 62
     7
100
AcDbLine
 10
355.384569
 20
83.579009
 30
0.0
 11
350.790428
 21
86.416941
 31
0.0
  0
LINE
  5
29B
330
1F
100
AcDbEntity
  8
GR1-1
  6
CONTINUOUS
 62
     7
100
AcDbLine
 10
350.790428
 20
86.416941
 30
0.0
 11
347.952495
 21
81.822799
 31
0.0
  0
LINE
  5
29C
330
1F
100
AcDbEntity
  8
GR1-1
  6
CONTINUOUS
 62
     7
100
AcDbLine
 10
349.590644
 20
83.667115
 30
0.0
 11
350.330718
 21
80.535205
 31
0.0
  0
LINE
  5
29D
330
1F
100
AcDbEntity
  8
GR1-1
  6
CONTINUOUS
 62
     7
100
AcDbLine
 10
350.330718
 20
80.535205
 30
0.0
 11
353.834232
 21
81.36309
 31
0.0
  0
LINE
  5
29E
330
1F
100
AcDbEntity
  8
GR1-1
  6
CONTINUOUS
 62
     7
100
AcDbLine
 10
353.834232
 20
81.36309
 30
0.0
 11
353.006347
 21
84.866603
 31
0.0
  0
LINE
  5
29F
330
1F
100
AcDbEntity
  8
GR1-1
  6
CONTINUOUS
 62
     7
100
AcDbLine
 10
353.006347
 20
84.866603
 30
0.0
 11
350.952968
 21
84.381387
 31
0.0
  0
LINE
  5
2A0
330
1F
100
AcDbEntity
  8
GR1-1
  6
CONTINUOUS
 62
     7
100
AcDbLine
 10
350.855702
 20
84.516274
 30
0.0
 11
351.226004
 21
85.115732
 31
0.0
  0
LINE
  5
2A1
330
1F
100
AcDbEntity
  8
GR1-1
  6
CONTINUOUS
 62
     7
100
AcDbLine
 10
351.226004
 20
85.115732
 30
0.0
 11
350.460314
 21
85.588721
 31
0.0
  0
LINE
  5
2A2
330
1F
100
AcDbEntity
  8
GR1-1
  6
CONTINUOUS
 62
     7
100
AcDbLine
 10
350.460314
 20
85.588721
 30
0.0
 11
349.502833
 21
84.038718
 31
0.0
  0
LINE
  5
2A3
330
1F
100
AcDbEntity
  8
GR1-1
  6
CONTINUOUS
 62
     7
100
AcDbLine
 10
349.502833
 20
84.038718
 30
0.0
 11
351.668532
 21
82.700904
 31
0.0
  0
LINE
  5
2A4
330
1F
100
AcDbEntity
  8
GR1-1
  6
CONTINUOUS
 62
     7
100
AcDbLine
 10
351.668532
 20
82.700904
 30
0.0
 11
351.905027
 21
83.083749
 31
0.0
  0
LINE
  5
2A5
330
1F
100
AcDbEntity
  8
GR1-1
  6
CONTINUOUS
 62
     7
100
AcDbLine
 10
351.905027
 20
83.083749
 30
0.0
 11
351.389876
 21
83.401972
 31
0.0
  0
ARC
  5
2A6
330
1F
100
AcDbEntity
  8
GR1-1
  6
CONTINUOUS
 62
     7
100
AcDbCircle
 10
351.437175
 20
83.478541
 30
0.0
 40
0.09
100
AcDbArc
 50
103.295192
 51
238.295192
  0
LINE
  5
2A7
330
1F
100
AcDbEntity
  8
GR1-1
  6
CONTINUOUS
 62
     7
100
AcDbLine
 10
351.416478
 20
83.566129
 30
0.0
 11
352.337439
 21
83.783754
 31
0.0
  0
LINE
  5
2A8
330
1F
100
AcDbEntity
  8
GR1-1
  6
CONTINUOUS
 62
     7
100
AcDbLine
 10
352.337439
 20
83.783754
 30
0.0
 11
352.751382
 21
82.031997
 31
0.0
  0
LINE
  5
2A9
330
1F
100
AcDbEntity
  8
GR1-1
  6
CONTINUOUS
 62
     7
100
AcDbLine
 10
352.751382
 20
82.031997
 30
0.0
 11
350.999625
 21
81.618055
 31
0.0
  0
LINE
  5
2AA
330
1F
100
AcDbEntity
  8
GR1-1
  6
CONTINUOUS
 62
     7
100
AcDbLine
 10
350.999625
 20
81.618055
 30
0.0
 11
350.673493
 21
82.998208
 31
0.0
  0
LINE
  5
2AB
330
1F
100
AcDbEntity
  8
GR1-1
  6
CONTINUOUS
 62
     7
100
AcDbLine
 10
350.673493
 20
82.998208
 30
0.0
 11
349.590644
 21
83.667115
 31
0.0
  0
ARC
  5
2AC
330
1F
100
AcDbEntity
  8
GR1-1
  6
CONTINUOUS
 62
     7
100
AcDbCircle
 10
350.932271
 20
84.468975
 30
0.0
 40
0.09
100
AcDbArc
 50
148.295192
 51
283.295192
  0
ARC
  5
2AD
330
1F
100
AcDbEntity
  8
LAYERGROUP-1
  6
CONTINUOUS
 62
     3
100
AcDbCircle
 10
373.49367
 20
118.0
 30
0.0
 40
50.0
100
AcDbArc
 50
-231.263363
 51
51.311942
  0
TEXT
  5
2AE
330
1F
100
AcDbEntity
  8
GR1-1
  6
CONTINUOUS
 62
     7
100
AcDbText
 10
412.738464
 20
124.744484
 30
0.0
 40
4.397401
  1
X
 50
275.795197
 41
1.182111
  7
FX_VECTOR
 72
     5
 11
413.163366
 21
120.557912
 31
0.0
100
AcDbText
  0
ARC
  5
2AF
330
1F
100
AcDbEntity
  8
GR1-1
  6
CONTINUOUS
 62
     6
100
AcDbCircle
 10
373.473791
 20
118.0
 30
0.0
 40
32.4
100
AcDbArc
 50
-217.128759
 51
37.128759
  0
LINE
  5
2B0
330
1F
100
AcDbEntity
  8
GR1-1
  6
CENTER
 62
     6
100
AcDbLine
 10
389.093377
 20
108.982028
 30
0.0
 11
403.963973
 21
100.396485
 31
0.0
  0
LINE
  5
2B1
330
1F
100
AcDbEntity
  8
GR1-1
  6
CENTER
 62
     6
100
AcDbLine
 10
389.5137
 20
90.218063
 30
0.0
 11
383.790373
 21
100.131155
 31
0.0
  0
LINE
  5
2B2
330
1F
100
AcDbEntity
  8
GR1-1
  6
CENTER
 62
     6
100
AcDbLine
 10
349.485697
 20
131.722915
 30
0.0
 11
343.214845
 21
135.470011
 31
0.0
  0
LINE
  5
2B3
330
1F
100
AcDbEntity
  8
GR1-1
  6
CENTER
 62
     6
100
AcDbLine
 10
357.854205
 20
108.982028
 30
0.0
 11
342.893699
 21
100.344576
 31
0.0
  0
LINE
  5
2B4
330
1F
100
AcDbEntity
  8
GR1-1
  6
CENTER
 62
     6
100
AcDbLine
 10
397.512428
 20
131.878714
 30
0.0
 11
403.877685
 21
135.553696
 31
0.0
  0
ARC
  5
2B5
330
1F
100
AcDbEntity
  8
GR1-1
  6
CENTER
 62
     6
100
AcDbCircle
 10
373.473791
 20
118.0
 30
0.0
 40
25.6999999999999
100
AcDbArc
 50
-205.749715
 51
25.749715
  0
DIMENSION
  5
2B6
330
1F
100
AcDbEntity
  8
LAYERGROUP-1
100
AcDbDimension
  2
*D23
 10
189.318992
 20
55.82818
 30
0.0
 11
173.318985
 21
56.828178
 31
0.0
 70
    33
  3
FXDIMINFO
100
AcDbAlignedDimension
 13
157.318992
 23
82.0
 33
0.0
 14
189.318992
 24
82.0
 34
0.0
1001
ACAD
1000
DSTYLE
1002
{
1070
     7
1000
FXTIP_ARROW_E
1070
     6
1000
FXTIP_ARROW_S
1070
   173
1070
     1
1002
}
  0
ENDSEC
  0
SECTION
  2
OBJECTS
  0
DICTIONARY
  5
C
330
0
100
AcDbDictionary
  3
ACAD_GROUP
350
D
  3
ACAD_LAYOUT
350
1A
  3
ACAD_MLINESTYLE
350
17
  3
ACAD_PLOTSETTINGS
350
19
  3
ACDBHEADERROUNDTRIPXREC
350
2C0
  0
DICTIONARY
  5
D
102
{ACAD_REACTORS
330
C
102
}
330
C
100
AcDbDictionary
  0
DICTIONARY
  5
1A
102
{ACAD_REACTORS
330
C
102
}
330
C
100
AcDbDictionary
  0
DICTIONARY
  5
17
102
{ACAD_REACTORS
330
C
102
}
330
C
100
AcDbDictionary
  3
STANDARD
350
18
  0
DICTIONARY
  5
19
102
{ACAD_REACTORS
330
C
102
}
330
C
100
AcDbDictionary
  0
DICTIONARY
  5
2C0
102
{ACAD_REACTORS
330
C
102
}
330
C
100
AcDbDictionary
  3
CEPSNTYPE
350
2C9
  3
DIMSTYLEDATA
350
2DF
  3
FINGERPRINTGUID
350
2CA
  3
HYPERLINKBASE
350
2C3
  3
INSUNITS
350
2C8
  3
LAYOUTDICT
350
2C5
  3
LWETCUNION
350
2C7
  3
PLOTSETDICT
350
2C6
  3
PSVPSCALE
350
2CC
  3
PUCSBASE
350
2CF
  3
PUCSORGBACK
350
2D5
  3
PUCSORGBOTTOM
350
2D1
  3
PUCSORGFRONT
350
2D4
  3
PUCSORGLEFT
350
2D2
  3
PUCSORGRIGHT
350
2D3
  3
PUCSORGTOP
350
2D0
  3
PUCSORTHOREF
350
2CD
  3
PUCSORTHOVIEW
350
2CE
  3
STYLESHEET
350
2C4
  3
TSTACKALIGN
350
2C1
  3
TSTACKSIZE
350
2C2
  3
UCSBASE
350
2D8
  3
UCSORGBACK
350
2DE
  3
UCSORGBOTTOM
350
2DA
  3
UCSORGFRONT
350
2DD
  3
UCSORGLEFT
350
2DB
  3
UCSORGRIGHT
350
2DC
  3
UCSORGTOP
350
2D9
  3
UCSORTHOREF
350
2D6
  3
UCSORTHOVIEW
350
2D7
  3
VERSIONGUID
350
2CB
  0
MLINESTYLE
  5
18
102
{ACAD_REACTORS
330
17
102
}
330
17
100
AcDbMlineStyle
  2
Standard
 70
     0
  3

 62
   256
 51
90.0
 52
90.0
 71
     2
 49
0.5
 62
   256
  6
BYLAYER
 49
-0.5
 62
   256
  6
BYLAYER
  0
XRECORD
  5
2C9
102
{ACAD_REACTORS
330
2C0
102
}
330
2C0
100
AcDbXrecord
 90
        0
  0
XRECORD
  5
2DF
102
{ACAD_REACTORS
330
2C0
102
}
330
2C0
100
AcDbXrecord
1000
DSTYLE
1002
{
1070
   179
 70
     2
1070
   171
 70
     3
1070
   143
 40
0.03937
1070
   274
 70
     3
1070
    41
 40
4.0
1070
   343
340
41
1070
   344
340
47
1070
   141
 40
2.5
1070
   176
 70
     7
1070
   177
 70
     7
1070
   178
 70
     7
1070
   271
 70
     2
1070
    46
 40
6.0
1070
    43
 40
10.0
1070
    44
 40
1.0
1070
    42
 40
1.0
1070
   147
 40
1.0
1070
   341
340
41
1070
   173
 70
     1
1070
    77
 70
     1
1070
   272
 70
     2
1070
    73
 70
     0
1070
   172
 70
     1
1070
    74
 70
     0
1070
   283
 70
     0
1070
   340
340
40
1070
   140
 40
4.0
1070
   284
 70
     8
1070
    78
 70
     8
1002
}
  0
XRECORD
  5
2CA
102
{ACAD_REACTORS
330
2C0
102
}
330
2C0
100
AcDbXrecord
  1
{844DD9EB-14B6-43DC-8842-0C91085930F9}
  0
XRECORD
  5
2C3
102
{ACAD_REACTORS
330
2C0
102
}
330
2C0
100
AcDbXrecord
  1

  0
XRECORD
  5
2C8
102
{ACAD_REACTORS
330
2C0
102
}
330
2C0
100
AcDbXrecord
 90
        1
  0
XRECORD
  5
2C5
102
{ACAD_REACTORS
330
2C0
102
}
330
2C0
100
AcDbXrecord
340
1A
  0
XRECORD
  5
2C7
102
{ACAD_REACTORS
330
2C0
102
}
330
2C0
100
AcDbXrecord
 90
    10781
  0
XRECORD
  5
2C6
102
{ACAD_REACTORS
330
2C0
102
}
330
2C0
100
AcDbXrecord
340
19
  0
XRECORD
  5
2CC
102
{ACAD_REACTORS
330
2C0
102
}
330
2C0
100
AcDbXrecord
 40
0.0
  0
XRECORD
  5
2CF
102
{ACAD_REACTORS
330
2C0
102
}
330
2C0
100
AcDbXrecord
340
0
  0
XRECORD
  5
2D5
102
{ACAD_REACTORS
330
2C0
102
}
330
2C0
100
AcDbXrecord
 10
0.0
 20
0.0
 30
0.0
  0
XRECORD
  5
2D1
102
{ACAD_REACTORS
330
2C0
102
}
330
2C0
100
AcDbXrecord
 10
0.0
 20
0.0
 30
0.0
  0
XRECORD
  5
2D4
102
{ACAD_REACTORS
330
2C0
102
}
330
2C0
100
AcDbXrecord
 10
0.0
 20
0.0
 30
0.0
  0
XRECORD
  5
2D2
102
{ACAD_REACTORS
330
2C0
102
}
330
2C0
100
AcDbXrecord
 10
0.0
 20
0.0
 30
0.0
  0
XRECORD
  5
2D3
102
{ACAD_REACTORS
330
2C0
102
}
330
2C0
100
AcDbXrecord
 10
0.0
 20
0.0
 30
0.0
  0
XRECORD
  5
2D0
102
{ACAD_REACTORS
330
2C0
102
}
330
2C0
100
AcDbXrecord
 10
0.0
 20
0.0
 30
0.0
  0
XRECORD
  5
2CD
102
{ACAD_REACTORS
330
2C0
102
}
330
2C0
100
AcDbXrecord
340
0
  0
XRECORD
  5
2CE
102
{ACAD_REACTORS
330
2C0
102
}
330
2C0
100
AcDbXrecord
 70
     0
  0
XRECORD
  5
2C4
102
{ACAD_REACTORS
330
2C0
102
}
330
2C0
100
AcDbXrecord
  1

  0
XRECORD
  5
2C1
102
{ACAD_REACTORS
330
2C0
102
}
330
2C0
100
AcDbXrecord
 90
        1
  0
XRECORD
  5
2C2
102
{ACAD_REACTORS
330
2C0
102
}
330
2C0
100
AcDbXrecord
 90
       70
  0
XRECORD
  5
2D8
102
{ACAD_REACTORS
330
2C0
102
}
330
2C0
100
AcDbXrecord
340
0
  0
XRECORD
  5
2DE
102
{ACAD_REACTORS
330
2C0
102
}
330
2C0
100
AcDbXrecord
 10
0.0
 20
0.0
 30
0.0
  0
XRECORD
  5
2DA
102
{ACAD_REACTORS
330
2C0
102
}
330
2C0
100
AcDbXrecord
 10
0.0
 20
0.0
 30
0.0
  0
XRECORD
  5
2DD
102
{ACAD_REACTORS
330
2C0
102
}
330
2C0
100
AcDbXrecord
 10
0.0
 20
0.0
 30
0.0
  0
XRECORD
  5
2DB
102
{ACAD_REACTORS
330
2C0
102
}
330
2C0
100
AcDbXrecord
 10
0.0
 20
0.0
 30
0.0
  0
XRECORD
  5
2DC
102
{ACAD_REACTORS
330
2C0
102
}
330
2C0
100
AcDbXrecord
 10
0.0
 20
0.0
 30
0.0
  0
XRECORD
  5
2D9
102
{ACAD_REACTORS
330
2C0
102
}
330
2C0
100
AcDbXrecord
 10
0.0
 20
0.0
 30
0.0
  0
XRECORD
  5
2D6
102
{ACAD_REACTORS
330
2C0
102
}
330
2C0
100
AcDbXrecord
340
0
  0
XRECORD
  5
2D7
102
{ACAD_REACTORS
330
2C0
102
}
330
2C0
100
AcDbXrecord
 70
     0
  0
XRECORD
  5
2CB
102
{ACAD_REACTORS
330
2C0
102
}
330
2C0
100
AcDbXrecord
  1
{FAEB1C32-E019-11D5-929B-00C0DF256EC4}
  0
ENDSEC
  0
EOF
