  0
SECTION
  2
HEADER
  9
$ACADVER
  1
AC1014
  9
$ACADMAINTVER
 70
     9
  9
$DWGCODEPAGE
  3
ANSI_932
  9
$INSBASE
 10
0.0
 20
0.0
 30
0.0
  9
$EXTMIN
 10
0.0
 20
0.0
 30
0.0
  9
$EXTMAX
 10
594.0
 20
420.0
 30
0.0
  9
$LIMMIN
 10
0.0
 20
0.0
  9
$LIMMAX
 10
594.0
 20
420.0
  9
$ORTHOMODE
 70
     0
  9
$REGENMODE
 70
     1
  9
$FILLMODE
 70
     1
  9
$QTEXTMODE
 70
     0
  9
$MIRRTEXT
 70
     1
  9
$DRAGMODE
 70
     2
  9
$LTSCALE
 40
1.0
  9
$OSMODE
 70
    37
  9
$ATTMODE
 70
     1
  9
$TEXTSIZE
 40
0.2
  9
$TRACEWID
 40
0.05
  9
$TEXTSTYLE
  7
STYLE1
  9
$CLAYER
  8
0
  9
$CELTYPE
  6
BYLAYER
  9
$CECOLOR
 62
   256
  9
$CELTSCALE
 40
1.0
  9
$DELOBJ
 70
     1
  9
$DISPSILH
 70
     0
  9
$DIMSCALE
 40
1.0
  9
$DIMASZ
 40
4.0
  9
$DIMEXO
 40
1.0
  9
$DIMDLI
 40
10.0
  9
$DIMRND
 40
0.0
  9
$DIMDLE
 40
6.0
  9
$DIMEXE
 40
1.0
  9
$DIMTP
 40
0.0
  9
$DIMTM
 40
0.0
  9
$DIMTXT
 40
4.0
  9
$DIMCEN
 40
2.5
  9
$DIMTSZ
 40
0.0
  9
$DIMTOL
 70
     0
  9
$DIMLIM
 70
     0
  9
$DIMTIH
 70
     0
  9
$DIMTOH
 70
     0
  9
$DIMSE1
 70
     0
  9
$DIMSE2
 70
     0
  9
$DIMTAD
 70
     1
  9
$DIMZIN
 70
     8
  9
$DIMBLK
  1

  9
$DIMASO
 70
     1
  9
$DIMSHO
 70
     1
  9
$DIMPOST
  1

  9
$DIMAPOST
  1

  9
$DIMALT
 70
     0
  9
$DIMALTD
 70
     3
  9
$DIMALTF
 40
0.03937
  9
$DIMLFAC
 40
1.0
  9
$DIMTOFL
 70
     1
  9
$DIMTVP
 40
0.0
  9
$DIMTIX
 70
     0
  9
$DIMSOXD
 70
     0
  9
$DIMSAH
 70
     1
  9
$DIMBLK1
  1
FXTIP_ARROW_S
  9
$DIMBLK2
  1
FXTIP_ARROW_E
  9
$DIMSTYLE
  2
FXDIMINFO
  9
$DIMCLRD
 70
     7
  9
$DIMCLRE
 70
     7
  9
$DIMCLRT
 70
     7
  9
$DIMTFAC
 40
1.0
  9
$DIMGAP
 40
1.0
  9
$DIMJUST
 70
     0
  9
$DIMSD1
 70
     0
  9
$DIMSD2
 70
     0
  9
$DIMTOLJ
 70
     0
  9
$DIMTZIN
 70
     8
  9
$DIMALTZ
 70
     0
  9
$DIMALTTZ
 70
     0
  9
$DIMFIT
 70
     3
  9
$DIMUPT
 70
     0
  9
$DIMUNIT
 70
     2
  9
$DIMDEC
 70
     2
  9
$DIMTDEC
 70
     2
  9
$DIMALTU
 70
     2
  9
$DIMALTTD
 70
     3
  9
$DIMTXSTY
  7
STYLE1
  9
$DIMAUNIT
 70
     0
  9
$LUNITS
 70
     2
  9
$LUPREC
 70
     4
  9
$SKETCHINC
 40
0.1
  9
$FILLETRAD
 40
0.5
  9
$AUNITS
 70
     0
  9
$AUPREC
 70
     0
  9
$MENU
  1
.
  9
$ELEVATION
 40
0.0
  9
$PELEVATION
 40
0.0
  9
$THICKNESS
 40
0.0
  9
$LIMCHECK
 70
     0
  9
$CHAMFERA
 40
0.5
  9
$CHAMFERB
 40
0.5
  9
$CHAMFERC
 40
1.0
  9
$CHAMFERD
 40
0.0
  9
$SKPOLY
 70
     0
  9
$TDCREATE
 40
2455307.608001528
  9
$TDUPDATE
 40
2455307.60800154
  9
$TDINDWG
 40
0.0000000116
  9
$TDUSRTIMER
 40
0.0000000116
  9
$USRTIMER
 70
     1
  9
$ANGBASE
 50
0.0
  9
$ANGDIR
 70
     0
  9
$PDMODE
 70
     0
  9
$PDSIZE
 40
0.0
  9
$PLINEWID
 40
0.0
  9
$COORDS
 70
     1
  9
$SPLFRAME
 70
     0
  9
$SPLINETYPE
 70
     6
  9
$SPLINESEGS
 70
     8
  9
$ATTDIA
 70
     0
  9
$ATTREQ
 70
     1
  9
$HANDLING
 70
     1
  9
$HANDSEED
  5
2B7
  9
$SURFTAB1
 70
     6
  9
$SURFTAB2
 70
     6
  9
$SURFTYPE
 70
     6
  9
$SURFU
 70
     6
  9
$SURFV
 70
     6
  9
$UCSNAME
  2

  9
$UCSORG
 10
0.0
 20
0.0
 30
0.0
  9
$UCSXDIR
 10
1.0
 20
0.0
 30
0.0
  9
$UCSYDIR
 10
0.0
 20
1.0
 30
0.0
  9
$PUCSNAME
  2

  9
$PUCSORG
 10
0.0
 20
0.0
 30
0.0
  9
$PUCSXDIR
 10
1.0
 20
0.0
 30
0.0
  9
$PUCSYDIR
 10
0.0
 20
1.0
 30
0.0
  9
$USERI1
 70
     0
  9
$USERI2
 70
     0
  9
$USERI3
 70
     0
  9
$USERI4
 70
     0
  9
$USERI5
 70
     0
  9
$USERR1
 40
0.0
  9
$USERR2
 40
0.0
  9
$USERR3
 40
0.0
  9
$USERR4
 40
0.0
  9
$USERR5
 40
0.0
  9
$WORLDVIEW
 70
     1
  9
$SHADEDGE
 70
     3
  9
$SHADEDIF
 70
    70
  9
$TILEMODE
 70
     1
  9
$MAXACTVP
 70
    64
  9
$PINSBASE
 10
0.0
 20
0.0
 30
0.0
  9
$PLIMCHECK
 70
     0
  9
$PEXTMIN
 10
1.000000E+20
 20
1.000000E+20
 30
1.000000E+20
  9
$PEXTMAX
 10
-1.000000E+20
 20
-1.000000E+20
 30
-1.000000E+20
  9
$PLIMMIN
 10
0.0
 20
0.0
  9
$PLIMMAX
 10
12.0
 20
9.0
  9
$UNITMODE
 70
     0
  9
$VISRETAIN
 70
     1
  9
$PLINEGEN
 70
     0
  9
$PSLTSCALE
 70
     1
  9
$TREEDEPTH
 70
  3020
  9
$PICKSTYLE
 70
     1
  9
$CMLSTYLE
  2
STANDARD
  9
$CMLJUST
 70
     0
  9
$CMLSCALE
 40
1.0
  9
$PROXYGRAPHICS
 70
     1
  9
$MEASUREMENT
 70
     0
  0
ENDSEC
  0
SECTION
  2
CLASSES
  0
CLASS
  1
ACDBDICTIONARYWDFLT
  2
AcDbDictionaryWithDefault
  3
ObjectDBX Classes
 90
        0
280
     0
281
     0
  0
CLASS
  1
XRECORD
  2
AcDbXrecord
  3
AutoCAD 2000
 90
        0
280
     0
281
     0
  0
CLASS
  1
LWPOLYLINE
  2
AcDbPolyline
  3
AutoCAD 2000
 90
        0
280
     0
281
     1
  0
CLASS
  1
HATCH
  2
AcDbHatch
  3
AutoCAD 2000
 90
        0
280
     0
281
     1
  0
CLASS
  1
ACDBPLACEHOLDER
  2
AcDbPlaceHolder
  3
ObjectDBX Classes
 90
        0
280
     0
281
     0
  0
CLASS
  1
LAYOUT
  2
AcDbLayout
  3
ObjectDBX Classes
 90
        0
280
     0
281
     0
  0
ENDSEC
  0
SECTION
  2
TABLES
  0
TABLE
  2
VPORT
  5
8
330
0
100
AcDbSymbolTable
 70
     1
  0
VPORT
  5
29
330
8
100
AcDbSymbolTableRecord
100
AcDbViewportTableRecord
  2
*ACTIVE
 70
     0
 10
0.0
 20
0.0
 11
1.0
 21
1.0
 12
297.0
 22
210.0
 13
0.0
 23
0.0
 14
0.5
 24
0.5
 15
0.5
 25
0.5
 16
0.0
 26
0.0
 36
1.0
 17
0.0
 27
0.0
 37
0.0
 40
420.0
 41
1.414286
 42
50.0
 43
0.0
 44
0.0
 50
0.0
 51
0.0
 71
     0
 72
   100
 73
     1
 74
     3
 75
     0
 76
     0
 77
     0
 78
     0
  0
ENDTAB
  0
TABLE
  2
LTYPE
  5
5
330
0
100
AcDbSymbolTable
 70
     4
  0
LTYPE
  5
14
330
5
100
AcDbSymbolTableRecord
100
AcDbLinetypeTableRecord
  2
BYBLOCK
 70
     0
  3

 72
    65
 73
     0
 40
0.0
  0
LTYPE
  5
15
330
5
100
AcDbSymbolTableRecord
100
AcDbLinetypeTableRecord
  2
BYLAYER
 70
     0
  3

 72
    65
 73
     0
 40
0.0
  0
LTYPE
  5
16
330
5
100
AcDbSymbolTableRecord
100
AcDbLinetypeTableRecord
  2
CONTINUOUS
 70
     0
  3
--------------------
 72
    65
 73
     0
 40
0.0
  0
LTYPE
  5
2A
330
5
100
AcDbSymbolTableRecord
100
AcDbLinetypeTableRecord
  2
CENTER
 70
     0
  3
Center ____ _ ____ _ ____ _ ____ _ ____ _ ____
 72
    65
 73
     4
 40
13.0
 49
10.0
 74
     0
 49
-1.0
 74
     0
 49
1.0
 74
     0
 49
-1.0
 74
     0
  0
ENDTAB
  0
TABLE
  2
LAYER
  5
2
330
0
100
AcDbSymbolTable
 70
    20
  0
LAYER
  5
10
330
2
100
AcDbSymbolTableRecord
100
AcDbLayerTableRecord
  2
0
 70
     0
 62
     7
  6
CONTINUOUS
  0
LAYER
  5
2D
330
2
100
AcDbSymbolTableRecord
100
AcDbLayerTableRecord
  2
LAYERGROUP-1
 70
     0
 62
     3
  6
CONTINUOUS
  0
LAYER
  5
3D
330
2
100
AcDbSymbolTableRecord
100
AcDbLayerTableRecord
  2
}}ﾊﾊGG血CCТ
 70
     0
 62
     3
  6
CONTINUOUS
  0
LAYER
  5
A8
330
2
100
AcDbSymbolTableRecord
100
AcDbLayerTableRecord
  2
GR1-1
 70
     0
 62
     7
  6
CONTINUOUS
  0
LAYER
  5
198
330
2
100
AcDbSymbolTableRecord
100
AcDbLayerTableRecord
  2
0-1
 70
     0
 62
     7
  6
CONTINUOUS
  0
ENDTAB
  0
TABLE
  2
STYLE
  5
3
330
0
100
AcDbSymbolTable
 70
     4
  0
STYLE
  5
11
330
3
100
AcDbSymbolTableRecord
100
AcDbTextStyleTableRecord
  2
STANDARD
 70
     0
 40
0.0
 41
1.0
 50
0.0
 71
     0
 42
0.2
  3
txt
  4

  0
STYLE
  5
3F
330
3
100
AcDbSymbolTableRecord
100
AcDbTextStyleTableRecord
  2
STYLE1
 70
     0
 40
0.0
 41
1.0
 50
0.0
 71
     0
 42
0.2
  3
MONOTXT.SHX
  4
extfont.shx
  0
STYLE
  5
40
330
3
100
AcDbSymbolTableRecord
100
AcDbTextStyleTableRecord
  2
FX_VECTOR
 70
     0
 40
0.0
 41
1.0
 50
0.0
 71
     0
 42
0.2
  3
MONOTXT.SHX
  4
BIGFONT.SHX
  0
ENDTAB
  0
TABLE
  2
VIEW
  5
6
330
0
100
AcDbSymbolTable
 70
     0
  0
ENDTAB
  0
TABLE
  2
UCS
  5
7
330
0
100
AcDbSymbolTable
 70
     0
  0
ENDTAB
  0
TABLE
  2
APPID
  5
9
330
0
100
AcDbSymbolTable
 70
     1
  0
APPID
  5
12
330
9
100
AcDbSymbolTableRecord
100
AcDbRegAppTableRecord
  2
ACAD
 70
     0
  0
ENDTAB
  0
TABLE
  2
DIMSTYLE
  5
A
330
0
100
AcDbSymbolTable
 70
     2
  0
DIMSTYLE
105
27
330
A
100
AcDbSymbolTableRecord
100
AcDbDimStyleTableRecord
  2
STANDARD
 70
     0
  3

  4

  5

  6

  7

 40
1.0
 41
0.18
 42
0.0625
 43
0.38
 44
0.18
 45
0.0
 46
0.0
 47
0.0
 48
0.0
140
0.18
141
0.09
142
0.0
143
25.4
144
1.0
145
0.0
146
1.0
147
0.09
 71
     0
 72
     0
 73
     1
 74
     1
 75
     0
 76
     0
 77
     0
 78
     0
170
     0
171
     2
172
     0
173
     0
174
     0
175
     0
176
     0
177
     0
178
     0
270
     2
271
     4
272
     4
273
     2
274
     2
340
11
275
     0
280
     0
281
     0
282
     0
283
     1
284
     0
285
     0
286
     0
287
     3
288
     0
  0
DIMSTYLE
105
A7
102
{ACAD_REACTORS
330
1F4
330
1FE
102
}
330
A
100
AcDbSymbolTableRecord
100
AcDbDimStyleTableRecord
  2
FXDIMINFO
 70
     0
  3

  4

  5

  6
FXTIP_ARROW_S
  7
FXTIP_ARROW_E
 40
1.0
 41
4.0
 42
1.0
 43
10.0
 44
1.0
 45
0.0
 46
6.0
 47
0.0
 48
0.0
140
4.0
141
2.5
142
0.0
143
0.03937
144
1.0
145
0.0
146
1.0
147
1.0
 71
     0
 72
     0
 73
     0
 74
     0
 75
     0
 76
     0
 77
     1
 78
     8
170
     0
171
     3
172
     1
173
     1
174
     0
175
     0
176
     7
177
     7
178
     7
179
     2
270
     2
271
     2
272
     2
273
     2
274
     3
340
3F
275
     0
280
     0
281
     0
282
     0
283
     0
284
     8
285
     0
286
     0
287
     3
288
     0
  0
ENDTAB
  0
TABLE
  2
BLOCK_RECORD
  5
1
330
0
100
AcDbSymbolTable
 70
    26
  0
BLOCK_RECORD
  5
1F
330
1
100
AcDbSymbolTableRecord
100
AcDbBlockTableRecord
  2
*MODEL_SPACE
  0
BLOCK_RECORD
  5
1B
330
1
100
AcDbSymbolTableRecord
100
AcDbBlockTableRecord
  2
*PAPER_SPACE
  0
BLOCK_RECORD
  5
41
330
1
100
AcDbSymbolTableRecord
100
AcDbBlockTableRecord
  2
FXTIP_ARROW_S
  0
BLOCK_RECORD
  5
47
330
1
100
AcDbSymbolTableRecord
100
AcDbBlockTableRecord
  2
FXTIP_ARROW_E
  0
BLOCK_RECORD
  5
4D
330
1
100
AcDbSymbolTableRecord
100
AcDbBlockTableRecord
  2
FXTIP_BLACKDOT_S
  0
BLOCK_RECORD
  5
53
330
1
100
AcDbSymbolTableRecord
100
AcDbBlockTableRecord
  2
FXTIP_BLACKDOT_E
  0
BLOCK_RECORD
  5
59
330
1
100
AcDbSymbolTableRecord
100
AcDbBlockTableRecord
  2
FXTIP_TRIANGLE_S
  0
BLOCK_RECORD
  5
60
330
1
100
AcDbSymbolTableRecord
100
AcDbBlockTableRecord
  2
FXTIP_TRIANGLE_E
  0
BLOCK_RECORD
  5
67
330
1
100
AcDbSymbolTableRecord
100
AcDbBlockTableRecord
  2
FXTIP_ARCHITECT_S
  0
BLOCK_RECORD
  5
6D
330
1
100
AcDbSymbolTableRecord
100
AcDbBlockTableRecord
  2
FXTIP_ARCHITECT_E
  0
BLOCK_RECORD
  5
73
330
1
100
AcDbSymbolTableRecord
100
AcDbBlockTableRecord
  2
FXTIP_CIVIL_S
  0
BLOCK_RECORD
  5
79
330
1
100
AcDbSymbolTableRecord
100
AcDbBlockTableRecord
  2
FXTIP_CIVIL_E
  0
BLOCK_RECORD
  5
7F
330
1
100
AcDbSymbolTableRecord
100
AcDbBlockTableRecord
  2
FXTIP_WHITEDOT_S
  0
BLOCK_RECORD
  5
84
330
1
100
AcDbSymbolTableRecord
100
AcDbBlockTableRecord
  2
FXTIP_WHITEDOT_E
  0
BLOCK_RECORD
  5
89
330
1
100
AcDbSymbolTableRecord
100
AcDbBlockTableRecord
  2
FXTIP_UPARROW_S
  0
BLOCK_RECORD
  5
8E
330
1
100
AcDbSymbolTableRecord
100
AcDbBlockTableRecord
  2
FXTIP_UPARROW_E
  0
BLOCK_RECORD
  5
93
330
1
100
AcDbSymbolTableRecord
100
AcDbBlockTableRecord
  2
FXTIP_DOWNARROW_S
  0
BLOCK_RECORD
  5
98
330
1
100
AcDbSymbolTableRecord
100
AcDbBlockTableRecord
  2
FXTIP_DOWNARROW_E
  0
BLOCK_RECORD
  5
9D
330
1
100
AcDbSymbolTableRecord
100
AcDbBlockTableRecord
  2
FXTIP_BLACKTRIANGLE_S
  0
BLOCK_RECORD
  5
A2
330
1
100
AcDbSymbolTableRecord
100
AcDbBlockTableRecord
  2
FXTIP_BLACKTRIANGLE_E
  0
BLOCK_RECORD
  5
188
330
1
100
AcDbSymbolTableRecord
100
AcDbBlockTableRecord
  2
BLKF021
  0
BLOCK_RECORD
  5
194
330
1
100
AcDbSymbolTableRecord
100
AcDbBlockTableRecord
  2
BLKF022
  0
BLOCK_RECORD
  5
19D
330
1
100
AcDbSymbolTableRecord
100
AcDbBlockTableRecord
  2
BLKF023
  0
BLOCK_RECORD
  5
1B6
330
1
100
AcDbSymbolTableRecord
100
AcDbBlockTableRecord
  2
BLKF024
  0
BLOCK_RECORD
  5
1F5
330
1
100
AcDbSymbolTableRecord
100
AcDbBlockTableRecord
  2
*D23
  0
BLOCK_RECORD
  5
1FF
330
1
100
AcDbSymbolTableRecord
100
AcDbBlockTableRecord
  2
*D24
  0
BLOCK_RECORD
  5
20A
330
1
100
AcDbSymbolTableRecord
100
AcDbBlockTableRecord
  2
BLKF027
  0
ENDTAB
  0
ENDSEC
  0
SECTION
  2
BLOCKS
  0
BLOCK
  5
20
330
1F
100
AcDbEntity
  8
0
100
AcDbBlockBegin
  2
*MODEL_SPACE
 70
     0
 71
     0
 10
0.0
 20
0.0
 30
0.0
  3
*MODEL_SPACE
  1

  0
ENDBLK
  5
21
330
1F
100
AcDbEntity
  8
0
100
AcDbBlockEnd
  0
BLOCK
  5
1C
330
1B
100
AcDbEntity
 67
     1
  8
0
100
AcDbBlockBegin
  2
*PAPER_SPACE
 70
     0
 71
     0
 10
0.0
 20
0.0
 30
0.0
  3
*PAPER_SPACE
  1

  0
ENDBLK
  5
1D
330
1B
100
AcDbEntity
 67
     1
  8
0
100
AcDbBlockEnd
  0
BLOCK
  5
42
330
41
100
AcDbEntity
  8
0
100
AcDbBlockBegin
  2
FXTIP_ARROW_S
 70
     0
 71
     0
 10
0.0
 20
0.0
 30
0.0
  3
FXTIP_ARROW_S
  1

  0
LINE
  5
44
330
41
100
AcDbEntity
  8
0
  6
CONTINUOUS
 62
     0
100
AcDbLine
 10
0.0
 20
0.0
 30
0.0
 11
-1.0
 21
0.0
 31
0.0
  0
LINE
  5
45
330
41
100
AcDbEntity
  8
0
  6
CONTINUOUS
 62
     0
100
AcDbLine
 10
0.0
 20
0.0
 30
0.0
 11
-0.965926
 21
-0.258819
 31
0.0
  0
LINE
  5
46
330
41
100
AcDbEntity
  8
0
  6
CONTINUOUS
 62
     0
100
AcDbLine
 10
0.0
 20
0.0
 30
0.0
 11
-0.965926
 21
0.258819
 31
0.0
  0
ENDBLK
  5
43
330
41
100
AcDbEntity
  8
0
100
AcDbBlockEnd
  0
BLOCK
  5
48
330
47
100
AcDbEntity
  8
0
100
AcDbBlockBegin
  2
FXTIP_ARROW_E
 70
     0
 71
     0
 10
0.0
 20
0.0
 30
0.0
  3
FXTIP_ARROW_E
  1

  0
LINE
  5
4A
330
47
100
AcDbEntity
  8
0
  6
CONTINUOUS
 62
     0
100
AcDbLine
 10
0.0
 20
0.0
 30
0.0
 11
-1.0
 21
0.0
 31
0.0
  0
LINE
  5
4B
330
47
100
AcDbEntity
  8
0
  6
CONTINUOUS
 62
     0
100
AcDbLine
 10
0.0
 20
0.0
 30
0.0
 11
-0.965926
 21
0.258819
 31
0.0
  0
LINE
  5
4C
330
47
100
AcDbEntity
  8
0
  6
CONTINUOUS
 62
     0
100
AcDbLine
 10
0.0
 20
0.0
 30
0.0
 11
-0.965926
 21
-0.258819
 31
0.0
  0
ENDBLK
  5
49
330
47
100
AcDbEntity
  8
0
100
AcDbBlockEnd
  0
BLOCK
  5
4E
330
4D
100
AcDbEntity
  8
0
100
AcDbBlockBegin
  2
FXTIP_BLACKDOT_S
 70
     0
 71
     0
 10
0.0
 20
0.0
 30
0.0
  3
FXTIP_BLACKDOT_S
  1

  0
LINE
  5
50
330
4D
100
AcDbEntity
  8
0
  6
CONTINUOUS
 62
     0
100
AcDbLine
 10
0.0
 20
0.0
 30
0.0
 11
-1.0
 21
0.0
 31
0.0
  0
LWPOLYLINE
  5
51
330
4D
100
AcDbEntity
  8
0
  6
CONTINUOUS
 62
     0
100
AcDbPolyline
 90
        2
 70
     1
 10
-0.25
 20
0.0
 40
0.5
 41
0.5
 42
1.0
 10
0.25
 20
0.0
 40
0.5
 41
0.5
 42
1.0
  0
CIRCLE
  5
52
330
4D
100
AcDbEntity
  8
0
  6
CONTINUOUS
 62
     0
100
AcDbCircle
 10
0.0
 20
0.0
 30
0.0
 40
0.5
  0
ENDBLK
  5
4F
330
4D
100
AcDbEntity
  8
0
100
AcDbBlockEnd
  0
BLOCK
  5
54
330
53
100
AcDbEntity
  8
0
100
AcDbBlockBegin
  2
FXTIP_BLACKDOT_E
 70
     0
 71
     0
 10
0.0
 20
0.0
 30
0.0
  3
FXTIP_BLACKDOT_E
  1

  0
LINE
  5
56
330
53
100
AcDbEntity
  8
0
  6
CONTINUOUS
 62
     0
100
AcDbLine
 10
0.0
 20
0.0
 30
0.0
 11
-1.0
 21
0.0
 31
0.0
  0
LWPOLYLINE
  5
57
330
53
100
AcDbEntity
  8
0
  6
CONTINUOUS
 62
     0
100
AcDbPolyline
 90
        2
 70
     1
 10
-0.25
 20
0.0
 40
0.5
 41
0.5
 42
1.0
 10
0.25
 20
0.0
 40
0.5
 41
0.5
 42
1.0
  0
CIRCLE
  5
58
330
53
100
AcDbEntity
  8
0
  6
CONTINUOUS
 62
     0
100
AcDbCircle
 10
0.0
 20
0.0
 30
0.0
 40
0.5
  0
ENDBLK
  5
55
330
53
100
AcDbEntity
  8
0
100
AcDbBlockEnd
  0
BLOCK
  5
5A
330
59
100
AcDbEntity
  8
0
100
AcDbBlockBegin
  2
FXTIP_TRIANGLE_S
 70
     0
 71
     0
 10
0.0
 20
0.0
 30
0.0
  3
FXTIP_TRIANGLE_S
  1

  0
LINE
  5
5C
330
59
100
AcDbEntity
  8
0
  6
CONTINUOUS
 62
     0
100
AcDbLine
 10
0.0
 20
0.0
 30
0.0
 11
-1.0
 21
0.0
 31
0.0
  0
LINE
  5
5D
330
59
100
AcDbEntity
  8
0
  6
CONTINUOUS
 62
     0
100
AcDbLine
 10
0.0
 20
0.0
 30
0.0
 11
-0.965926
 21
-0.258819
 31
0.0
  0
LINE
  5
5E
330
59
100
AcDbEntity
  8
0
  6
CONTINUOUS
 62
     0
100
AcDbLine
 10
0.0
 20
0.0
 30
0.0
 11
-0.965926
 21
0.258819
 31
0.0
  0
LINE
  5
5F
330
59
100
AcDbEntity
  8
0
  6
CONTINUOUS
 62
     0
100
AcDbLine
 10
-0.965926
 20
-0.258819
 30
0.0
 11
-0.965926
 21
0.258819
 31
0.0
  0
ENDBLK
  5
5B
330
59
100
AcDbEntity
  8
0
100
AcDbBlockEnd
  0
BLOCK
  5
61
330
60
100
AcDbEntity
  8
0
100
AcDbBlockBegin
  2
FXTIP_TRIANGLE_E
 70
     0
 71
     0
 10
0.0
 20
0.0
 30
0.0
  3
FXTIP_TRIANGLE_E
  1

  0
LINE
  5
63
330
60
100
AcDbEntity
  8
0
  6
CONTINUOUS
 62
     0
100
AcDbLine
 10
0.0
 20
0.0
 30
0.0
 11
-1.0
 21
0.0
 31
0.0
  0
LINE
  5
64
330
60
100
AcDbEntity
  8
0
  6
CONTINUOUS
 62
     0
100
AcDbLine
 10
0.0
 20
0.0
 30
0.0
 11
-0.965926
 21
0.258819
 31
0.0
  0
LINE
  5
65
330
60
100
AcDbEntity
  8
0
  6
CONTINUOUS
 62
     0
100
AcDbLine
 10
0.0
 20
0.0
 30
0.0
 11
-0.965926
 21
-0.258819
 31
0.0
  0
LINE
  5
66
330
60
100
AcDbEntity
  8
0
  6
CONTINUOUS
 62
     0
100
AcDbLine
 10
-0.965926
 20
0.258819
 30
0.0
 11
-0.965926
 21
-0.258819
 31
0.0
  0
ENDBLK
  5
62
330
60
100
AcDbEntity
  8
0
100
AcDbBlockEnd
  0
BLOCK
  5
68
330
67
100
AcDbEntity
  8
0
100
AcDbBlockBegin
  2
FXTIP_ARCHITECT_S
 70
     0
 71
     0
 10
0.0
 20
0.0
 30
0.0
  3
FXTIP_ARCHITECT_S
  1

  0
LINE
  5
6A
330
67
100
AcDbEntity
  8
0
  6
CONTINUOUS
 62
     0
100
AcDbLine
 10
0.0
 20
0.0
 30
0.0
 11
-1.0
 21
0.0
 31
0.0
  0
LINE
  5
6B
330
67
100
AcDbEntity
  8
0
  6
CONTINUOUS
 62
     0
100
AcDbLine
 10
0.0
 20
0.0
 30
0.0
 11
-0.707107
 21
-0.707107
 31
0.0
  0
LINE
  5
6C
330
67
100
AcDbEntity
  8
0
  6
CONTINUOUS
 62
     0
100
AcDbLine
 10
0.0
 20
0.0
 30
0.0
 11
0.707107
 21
0.707107
 31
0.0
  0
ENDBLK
  5
69
330
67
100
AcDbEntity
  8
0
100
AcDbBlockEnd
  0
BLOCK
  5
6E
330
6D
100
AcDbEntity
  8
0
100
AcDbBlockBegin
  2
FXTIP_ARCHITECT_E
 70
     0
 71
     0
 10
0.0
 20
0.0
 30
0.0
  3
FXTIP_ARCHITECT_E
  1

  0
LINE
  5
70
330
6D
100
AcDbEntity
  8
0
  6
CONTINUOUS
 62
     0
100
AcDbLine
 10
0.0
 20
0.0
 30
0.0
 11
-1.0
 21
0.0
 31
0.0
  0
LINE
  5
71
330
6D
100
AcDbEntity
  8
0
  6
CONTINUOUS
 62
     0
100
AcDbLine
 10
0.0
 20
0.0
 30
0.0
 11
0.707107
 21
0.707107
 31
0.0
  0
LINE
  5
72
330
6D
100
AcDbEntity
  8
0
  6
CONTINUOUS
 62
     0
100
AcDbLine
 10
0.0
 20
0.0
 30
0.0
 11
-0.707107
 21
-0.707107
 31
0.0
  0
ENDBLK
  5
6F
330
6D
100
AcDbEntity
  8
0
100
AcDbBlockEnd
  0
BLOCK
  5
74
330
73
100
AcDbEntity
  8
0
100
AcDbBlockBegin
  2
FXTIP_CIVIL_S
 70
     0
 71
     0
 10
0.0
 20
0.0
 30
0.0
  3
FXTIP_CIVIL_S
  1

  0
LINE
  5
76
330
73
100
AcDbEntity
  8
0
  6
CONTINUOUS
 62
     0
100
AcDbLine
 10
0.0
 20
0.0
 30
0.0
 11
-1.0
 21
0.0
 31
0.0
  0
LINE
  5
77
330
73
100
AcDbEntity
  8
0
  6
CONTINUOUS
 62
     0
100
AcDbLine
 10
0.0
 20
-0.0625
 30
0.0
 11
-1.0
 21
-0.0625
 31
0.0
  0
LINE
  5
78
330
73
100
AcDbEntity
  8
0
  6
CONTINUOUS
 62
     0
100
AcDbLine
 10
0.0
 20
-0.125
 30
0.0
 11
-1.0
 21
-0.125
 31
0.0
  0
ENDBLK
  5
75
330
73
100
AcDbEntity
  8
0
100
AcDbBlockEnd
  0
BLOCK
  5
7A
330
79
100
AcDbEntity
  8
0
100
AcDbBlockBegin
  2
FXTIP_CIVIL_E
 70
     0
 71
     0
 10
0.0
 20
0.0
 30
0.0
  3
FXTIP_CIVIL_E
  1

  0
LINE
  5
7C
330
79
100
AcDbEntity
  8
0
  6
CONTINUOUS
 62
     0
100
AcDbLine
 10
0.0
 20
0.0
 30
0.0
 11
-1.0
 21
0.0
 31
0.0
  0
LINE
  5
7D
330
79
100
AcDbEntity
  8
0
  6
CONTINUOUS
 62
     0
100
AcDbLine
 10
0.0
 20
0.0625
 30
0.0
 11
-1.0
 21
0.0625
 31
0.0
  0
LINE
  5
7E
330
79
100
AcDbEntity
  8
0
  6
CONTINUOUS
 62
     0
100
AcDbLine
 10
0.0
 20
0.125
 30
0.0
 11
-1.0
 21
0.125
 31
0.0
  0
ENDBLK
  5
7B
330
79
100
AcDbEntity
  8
0
100
AcDbBlockEnd
  0
BLOCK
  5
80
330
7F
100
AcDbEntity
  8
0
100
AcDbBlockBegin
  2
FXTIP_WHITEDOT_S
 70
     0
 71
     0
 10
0.0
 20
0.0
 30
0.0
  3
FXTIP_WHITEDOT_S
  1

  0
LINE
  5
82
330
7F
100
AcDbEntity
  8
0
  6
CONTINUOUS
 62
     0
100
AcDbLine
 10
0.0
 20
0.0
 30
0.0
 11
-1.0
 21
0.0
 31
0.0
  0
CIRCLE
  5
83
330
7F
100
AcDbEntity
  8
0
  6
CONTINUOUS
 62
     0
100
AcDbCircle
 10
0.0
 20
0.0
 30
0.0
 40
0.5
  0
ENDBLK
  5
81
330
7F
100
AcDbEntity
  8
0
100
AcDbBlockEnd
  0
BLOCK
  5
85
330
84
100
AcDbEntity
  8
0
100
AcDbBlockBegin
  2
FXTIP_WHITEDOT_E
 70
     0
 71
     0
 10
0.0
 20
0.0
 30
0.0
  3
FXTIP_WHITEDOT_E
  1

  0
LINE
  5
87
330
84
100
AcDbEntity
  8
0
  6
CONTINUOUS
 62
     0
100
AcDbLine
 10
0.0
 20
0.0
 30
0.0
 11
-1.0
 21
0.0
 31
0.0
  0
CIRCLE
  5
88
330
84
100
AcDbEntity
  8
0
  6
CONTINUOUS
 62
     0
100
AcDbCircle
 10
0.0
 20
0.0
 30
0.0
 40
0.5
  0
ENDBLK
  5
86
330
84
100
AcDbEntity
  8
0
100
AcDbBlockEnd
  0
BLOCK
  5
8A
330
89
100
AcDbEntity
  8
0
100
AcDbBlockBegin
  2
FXTIP_UPARROW_S
 70
     0
 71
     0
 10
0.0
 20
0.0
 30
0.0
  3
FXTIP_UPARROW_S
  1

  0
LINE
  5
8C
330
89
100
AcDbEntity
  8
0
  6
CONTINUOUS
 62
     0
100
AcDbLine
 10
0.0
 20
0.0
 30
0.0
 11
-1.0
 21
0.0
 31
0.0
  0
LINE
  5
8D
330
89
100
AcDbEntity
  8
0
  6
CONTINUOUS
 62
     0
100
AcDbLine
 10
0.0
 20
0.0
 30
0.0
 11
-0.965926
 21
-0.258819
 31
0.0
  0
ENDBLK
  5
8B
330
89
100
AcDbEntity
  8
0
100
AcDbBlockEnd
  0
BLOCK
  5
8F
330
8E
100
AcDbEntity
  8
0
100
AcDbBlockBegin
  2
FXTIP_UPARROW_E
 70
     0
 71
     0
 10
0.0
 20
0.0
 30
0.0
  3
FXTIP_UPARROW_E
  1

  0
LINE
  5
91
330
8E
100
AcDbEntity
  8
0
  6
CONTINUOUS
 62
     0
100
AcDbLine
 10
0.0
 20
0.0
 30
0.0
 11
-1.0
 21
0.0
 31
0.0
  0
LINE
  5
92
330
8E
100
AcDbEntity
  8
0
  6
CONTINUOUS
 62
     0
100
AcDbLine
 10
0.0
 20
0.0
 30
0.0
 11
-0.965926
 21
0.258819
 31
0.0
  0
ENDBLK
  5
90
330
8E
100
AcDbEntity
  8
0
100
AcDbBlockEnd
  0
BLOCK
  5
94
330
93
100
AcDbEntity
  8
0
100
AcDbBlockBegin
  2
FXTIP_DOWNARROW_S
 70
     0
 71
     0
 10
0.0
 20
0.0
 30
0.0
  3
FXTIP_DOWNARROW_S
  1

  0
LINE
  5
96
330
93
100
AcDbEntity
  8
0
  6
CONTINUOUS
 62
     0
100
AcDbLine
 10
0.0
 20
0.0
 30
0.0
 11
-1.0
 21
0.0
 31
0.0
  0
LINE
  5
97
330
93
100
AcDbEntity
  8
0
  6
CONTINUOUS
 62
     0
100
AcDbLine
 10
0.0
 20
0.0
 30
0.0
 11
-0.965926
 21
0.258819
 31
0.0
  0
ENDBLK
  5
95
330
93
100
AcDbEntity
  8
0
100
AcDbBlockEnd
  0
BLOCK
  5
99
330
98
100
AcDbEntity
  8
0
100
AcDbBlockBegin
  2
FXTIP_DOWNARROW_E
 70
     0
 71
     0
 10
0.0
 20
0.0
 30
0.0
  3
FXTIP_DOWNARROW_E
  1

  0
LINE
  5
9B
330
98
100
AcDbEntity
  8
0
  6
CONTINUOUS
 62
     0
100
AcDbLine
 10
0.0
 20
0.0
 30
0.0
 11
-1.0
 21
0.0
 31
0.0
  0
LINE
  5
9C
330
98
100
AcDbEntity
  8
0
  6
CONTINUOUS
 62
     0
100
AcDbLine
 10
0.0
 20
0.0
 30
0.0
 11
-0.965926
 21
-0.258819
 31
0.0
  0
ENDBLK
  5
9A
330
98
100
AcDbEntity
  8
0
100
AcDbBlockEnd
  0
BLOCK
  5
9E
330
9D
100
AcDbEntity
  8
0
100
AcDbBlockBegin
  2
FXTIP_BLACKTRIANGLE_S
 70
     0
 71
     0
 10
0.0
 20
0.0
 30
0.0
  3
FXTIP_BLACKTRIANGLE_S
  1

  0
LINE
  5
A0
330
9D
100
AcDbEntity
  8
0
  6
CONTINUOUS
 62
     0
100
AcDbLine
 10
0.0
 20
0.0
 30
0.0
 11
-1.0
 21
0.0
 31
0.0
  0
SOLID
  5
A1
330
9D
100
AcDbEntity
  8
0
  6
CONTINUOUS
 62
     0
100
AcDbTrace
 10
0.0
 20
0.0
 30
0.0
 11
-0.965926
 21
-0.258819
 31
0.0
 12
-0.965926
 22
0.258819
 32
0.0
 13
-0.965926
 23
0.258819
 33
0.0
  0
ENDBLK
  5
9F
330
9D
100
AcDbEntity
  8
0
100
AcDbBlockEnd
  0
BLOCK
  5
A3
330
A2
100
AcDbEntity
  8
0
100
AcDbBlockBegin
  2
FXTIP_BLACKTRIANGLE_E
 70
     0
 71
     0
 10
0.0
 20
0.0
 30
0.0
  3
FXTIP_BLACKTRIANGLE_E
  1

  0
LINE
  5
A5
330
A2
100
AcDbEntity
  8
0
  6
CONTINUOUS
 62
     0
100
AcDbLine
 10
0.0
 20
0.0
 30
0.0
 11
-1.0
 21
0.0
 31
0.0
  0
SOLID
  5
A6
330
A2
100
AcDbEntity
  8
0
  6
CONTINUOUS
 62
     0
100
AcDbTrace
 10
0.0
 20
0.0
 30
0.0
 11
-0.965926
 21
0.258819
 31
0.0
 12
-0.965926
 22
-0.258819
 32
0.0
 13
-0.965926
 23
-0.258819
 33
0.0
  0
ENDBLK
  5
A4
330
A2
100
AcDbEntity
  8
0
100
AcDbBlockEnd
  0
BLOCK
  5
189
330
188
100
AcDbEntity
  8
0
100
AcDbBlockBegin
  2
BLKF021
 70
     0
 71
     0
 10
0.0
 20
0.0
 30
0.0
  3
BLKF021
  1

  0
LINE
  5
18C
330
188
100
AcDbEntity
  8
}}ﾊﾊGG血CCТ
  6
CONTINUOUS
 62
     7
100
AcDbLine
 10
10.0
 20
10.0
 30
0.0
 11
584.0
 21
10.0
 31
0.0
  0
LINE
  5
18D
330
188
100
AcDbEntity
  8
}}ﾊﾊGG血CCТ
  6
CONTINUOUS
 62
     7
100
AcDbLine
 10
10.0
 20
10.0
 30
0.0
 11
10.0
 21
410.0
 31
0.0
  0
LINE
  5
18E
330
188
100
AcDbEntity
  8
}}ﾊﾊGG血CCТ
  6
CONTINUOUS
 62
     7
100
AcDbLine
 10
10.0
 20
410.0
 30
0.0
 11
584.0
 21
410.0
 31
0.0
  0
LINE
  5
18F
330
188
100
AcDbEntity
  8
}}ﾊﾊGG血CCТ
  6
CONTINUOUS
 62
     7
100
AcDbLine
 10
584.0
 20
410.0
 30
0.0
 11
584.0
 21
10.0
 31
0.0
  0
LINE
  5
190
330
188
100
AcDbEntity
  8
}}ﾊﾊGG血CCТ
  6
CONTINUOUS
 62
     7
100
AcDbLine
 10
327.0
 20
10.0
 30
0.0
 11
327.0
 21
20.0
 31
0.0
  0
TEXT
  5
191
330
188
100
AcDbEntity
  8
}}ﾊﾊGG血CCТ
  6
CONTINUOUS
 62
     7
100
AcDbText
 10
311.738831
 20
11.596879
 30
0.0
 40
6.648749
  1
品名
 41
1.083413
  7
FX_VECTOR
 72
     5
 11
323.058371
 21
11.596879
 31
0.0
100
AcDbText
  0
LINE
  5
192
330
188
100
AcDbEntity
  8
}}ﾊﾊGG血CCТ
  6
CONTINUOUS
 62
     7
100
AcDbLine
 10
407.0
 20
20.0
 30
0.0
 11
407.0
 21
10.0
 31
0.0
  0
LINE
  5
193
330
188
100
AcDbEntity
  8
}}ﾊﾊGG血CCТ
  6
CONTINUOUS
 62
     7
100
AcDbLine
 10
307.0
 20
20.0
 30
0.0
 11
584.0
 21
20.0
 31
0.0
  0
INSERT
  5
197
330
188
100
AcDbEntity
  8
0
100
AcDbBlockReference
  2
BLKF022
 10
0.0
 20
0.0
 30
0.0
  0
INSERT
  5
1A0
330
188
100
AcDbEntity
  8
0
100
AcDbBlockReference
  2
BLKF023
 10
0.0
 20
0.0
 30
0.0
  0
HATCH
  5
1B0
330
188
100
AcDbEntity
  8
GR1-1
  6
CONTINUOUS
 62
     7
100
AcDbHatch
 10
0.0
 20
0.0
 30
0.0
210
0.0
220
0.0
230
1.0
  2

 70
     0
 71
     1
 91
        2
 92
        0
 93
        4
 72
     1
 10
512.8018997861325
 20
17.91346152
 11
518.8018997861325
 21
17.91346152
 72
     1
 10
518.8018997861325
 20
17.91346152
 11
518.8018997861325
 21
11.91346152
 72
     1
 10
518.8018997861325
 20
11.91346152
 11
512.8018997861325
 21
11.91346152
 72
     1
 10
512.8018997861325
 20
11.91346152
 11
512.8018997861325
 21
17.91346152
 97
        0
 92
        0
 93
       15
 72
     1
 10
515.8018997861325
 20
17.76923076000002
 11
512.9461305461325
 21
14.91346152
 72
     1
 10
512.9461305461325
 20
14.91346152
 11
515.8018997861325
 21
12.05769228000001
 72
     1
 10
515.8018997861325
 20
12.05769228000001
 11
517.3595920661326
 21
13.61538462
 72
     1
 10
517.3595920661326
 20
13.61538462
 11
517.3595920661326
 21
12.98076924
 72
     1
 10
517.3595920661326
 20
12.98076924
 11
518.2249766861326
 21
12.98076924
 72
     1
 10
518.2249766861326
 20
12.98076924
 11
518.2249766861326
 21
15.00000000000001
 72
     1
 10
518.2249766861326
 20
15.00000000000001
 11
515.8018997861325
 21
15.00000000000001
 72
     1
 10
515.8018997861325
 20
15.00000000000001
 11
515.8018997861325
 21
14.13461538000001
 72
     1
 10
515.8018997861325
 20
14.13461538000001
 11
516.2461305461325
 21
14.13461538000001
 72
     1
 10
516.2461305461325
 20
14.13461538000001
 11
515.8018997861325
 21
13.69038462
 72
     1
 10
515.8018997861325
 20
13.69038462
 11
514.5788228861325
 21
14.91346152
 72
     1
 10
514.5788228861325
 20
14.91346152
 11
515.8018997861325
 21
16.13653842000003
 72
     1
 10
515.8018997861325
 20
16.13653842000003
 11
516.5922844061325
 21
15.3461538
 72
     1
 10
516.5922844061325
 20
15.3461538
 11
518.2249766861326
 21
15.3461538
 72
     1
 10
518.2249766861326
 20
15.3461538
 11
515.8018997861325
 21
17.76923076000002
 97
        0
 75
     0
 76
     0
 52
45.0
 41
0.05
 77
     0
 78
     1
 53
45.0
 43
0.0
 44
0.0
 45
-0.0353553390593274
 46
0.0353553390593274
 79
     0
 98
        0
  0
TEXT
  5
1B1
330
188
100
AcDbEntity
  8
}}ﾊﾊGG血CCТ
  6
CONTINUOUS
 62
     7
100
AcDbText
 10
523.225769
 20
11.461285
 30
0.0
 40
7.170908
  1
GOLD CASTER
 41
0.63978
  7
FX_VECTOR
 72
     5
 11
569.977636
 21
11.461285
 31
0.0
100
AcDbText
  0
LINE
  5
1B2
330
188
100
AcDbEntity
  8
}}ﾊﾊGG血CCТ
  6
CONTINUOUS
 62
     7
100
AcDbLine
 10
427.0
 20
10.0
 30
0.0
 11
427.0
 21
20.0
 31
0.0
  0
TEXT
  5
1B3
330
188
100
AcDbEntity
  8
}}ﾊﾊGG血CCТ
  6
CONTINUOUS
 62
     7
100
AcDbText
 10
411.738831
 20
11.596879
 30
0.0
 40
6.648749
  1
図番
 41
1.083413
  7
FX_VECTOR
 72
     5
 11
423.058371
 21
11.596879
 31
0.0
100
AcDbText
  0
LINE
  5
1B4
330
188
100
AcDbEntity
  8
}}ﾊﾊGG血CCТ
  6
CONTINUOUS
 62
     7
100
AcDbLine
 10
507.0
 20
20.0
 30
0.0
 11
507.0
 21
10.0
 31
0.0
  0
LINE
  5
1B5
330
188
100
AcDbEntity
  8
}}ﾊﾊGG血CCТ
  6
CONTINUOUS
 62
     7
100
AcDbLine
 10
307.0
 20
20.0
 30
0.0
 11
307.0
 21
10.0
 31
0.0
  0
ENDBLK
  5
18A
330
188
100
AcDbEntity
  8
0
100
AcDbBlockEnd
  0
BLOCK
  5
195
330
194
100
AcDbEntity
  8
0
100
AcDbBlockBegin
  2
BLKF022
 70
     0
 71
     0
 10
0.0
 20
0.0
 30
0.0
  3
BLKF022
  1

  0
LINE
  5
199
330
194
100
AcDbEntity
  8
0-1
  6
CONTINUOUS
 62
     7
100
AcDbLine
 10
518.8019
 20
17.913462
 30
0.0
 11
512.8019
 21
17.913462
 31
0.0
  0
LINE
  5
19A
330
194
100
AcDbEntity
  8
0-1
  6
CONTINUOUS
 62
     7
100
AcDbLine
 10
512.8019
 20
17.913462
 30
0.0
 11
512.8019
 21
11.913462
 31
0.0
  0
LINE
  5
19B
330
194
100
AcDbEntity
  8
0-1
  6
CONTINUOUS
 62
     7
100
AcDbLine
 10
512.8019
 20
11.913462
 30
0.0
 11
518.8019
 21
11.913462
 31
0.0
  0
LINE
  5
19C
330
194
100
AcDbEntity
  8
0-1
  6
CONTINUOUS
 62
     7
100
AcDbLine
 10
518.8019
 20
11.913462
 30
0.0
 11
518.8019
 21
17.913462
 31
0.0
  0
ENDBLK
  5
196
330
194
100
AcDbEntity
  8
0
100
AcDbBlockEnd
  0
BLOCK
  5
19E
330
19D
100
AcDbEntity
  8
0
100
AcDbBlockBegin
  2
BLKF023
 70
     0
 71
     0
 10
0.0
 20
0.0
 30
0.0
  3
BLKF023
  1

  0
LINE
  5
1A1
330
19D
100
AcDbEntity
  8
0-1
  6
CONTINUOUS
 62
     7
100
AcDbLine
 10
518.224977
 20
15.346154
 30
0.0
 11
515.8019
 21
17.769231
 31
0.0
  0
LINE
  5
1A2
330
19D
100
AcDbEntity
  8
0-1
  6
CONTINUOUS
 62
     7
100
AcDbLine
 10
515.8019
 20
17.769231
 30
0.0
 11
512.946131
 21
14.913462
 31
0.0
  0
LINE
  5
1A3
330
19D
100
AcDbEntity
  8
0-1
  6
CONTINUOUS
 62
     7
100
AcDbLine
 10
512.946131
 20
14.913462
 30
0.0
 11
515.8019
 21
12.057692
 31
0.0
  0
LINE
  5
1A4
330
19D
100
AcDbEntity
  8
0-1
  6
CONTINUOUS
 62
     7
100
AcDbLine
 10
515.8019
 20
12.057692
 30
0.0
 11
517.359592
 21
13.615385
 31
0.0
  0
LINE
  5
1A5
330
19D
100
AcDbEntity
  8
0-1
  6
CONTINUOUS
 62
     7
100
AcDbLine
 10
517.359592
 20
13.615385
 30
0.0
 11
517.359592
 21
12.980769
 31
0.0
  0
LINE
  5
1A6
330
19D
100
AcDbEntity
  8
0-1
  6
CONTINUOUS
 62
     7
100
AcDbLine
 10
517.359592
 20
12.980769
 30
0.0
 11
518.224977
 21
12.980769
 31
0.0
  0
LINE
  5
1A7
330
19D
100
AcDbEntity
  8
0-1
  6
CONTINUOUS
 62
     7
100
AcDbLine
 10
518.224977
 20
12.980769
 30
0.0
 11
518.224977
 21
15.0
 31
0.0
  0
LINE
  5
1A8
330
19D
100
AcDbEntity
  8
0-1
  6
CONTINUOUS
 62
     7
100
AcDbLine
 10
518.224977
 20
15.0
 30
0.0
 11
515.8019
 21
15.0
 31
0.0
  0
LINE
  5
1A9
330
19D
100
AcDbEntity
  8
0-1
  6
CONTINUOUS
 62
     7
100
AcDbLine
 10
515.8019
 20
15.0
 30
0.0
 11
515.8019
 21
14.134615
 31
0.0
  0
LINE
  5
1AA
330
19D
100
AcDbEntity
  8
0-1
  6
CONTINUOUS
 62
     7
100
AcDbLine
 10
515.8019
 20
14.134615
 30
0.0
 11
516.246131
 21
14.134615
 31
0.0
  0
LINE
  5
1AB
330
19D
100
AcDbEntity
  8
0-1
  6
CONTINUOUS
 62
     7
100
AcDbLine
 10
516.246131
 20
14.134615
 30
0.0
 11
515.8019
 21
13.690385
 31
0.0
  0
LINE
  5
1AC
330
19D
100
AcDbEntity
  8
0-1
  6
CONTINUOUS
 62
     7
100
AcDbLine
 10
515.8019
 20
13.690385
 30
0.0
 11
514.578823
 21
14.913462
 31
0.0
  0
LINE
  5
1AD
330
19D
100
AcDbEntity
  8
0-1
  6
CONTINUOUS
 62
     7
100
AcDbLine
 10
514.578823
 20
14.913462
 30
0.0
 11
515.8019
 21
16.136538
 31
0.0
  0
LINE
  5
1AE
330
19D
100
AcDbEntity
  8
0-1
  6
CONTINUOUS
 62
     7
100
AcDbLine
 10
515.8019
 20
16.136538
 30
0.0
 11
516.592284
 21
15.346154
 31
0.0
  0
LINE
  5
1AF
330
19D
100
AcDbEntity
  8
0-1
  6
CONTINUOUS
 62
     7
100
AcDbLine
 10
516.592284
 20
15.346154
 30
0.0
 11
518.224977
 21
15.346154
 31
0.0
  0
ENDBLK
  5
19F
330
19D
100
AcDbEntity
  8
0
100
AcDbBlockEnd
  0
BLOCK
  5
1B7
330
1B6
100
AcDbEntity
  8
0
100
AcDbBlockBegin
  2
BLKF024
 70
     0
 71
     0
 10
0.0
 20
0.0
 30
0.0
  3
BLKF024
  1

  0
ARC
  5
1BA
330
1B6
100
AcDbEntity
  8
GR1-1
  6
CONTINUOUS
 62
     3
100
AcDbCircle
 10
162.42244
 20
23.187451
 30
0.0
 40
140.0
100
AcDbArc
 50
84.177368
 51
95.822632
  0
LINE
  5
1BB
330
1B6
100
AcDbEntity
  8
LAYERGROUP-1
  6
CONTINUOUS
 62
     3
100
AcDbLine
 10
141.42244
 20
132.009252
 30
0.0
 11
141.42244
 21
113.187451
 31
0.0
  0
LINE
  5
1BC
330
1B6
100
AcDbEntity
  8
LAYERGROUP-1
  6
CONTINUOUS
 62
     3
100
AcDbLine
 10
146.42244
 20
134.569086
 30
0.0
 11
143.075144
 21
133.978867
 31
0.0
  0
ARC
  5
1BD
330
1B6
100
AcDbEntity
  8
LAYERGROUP-1
  6
CONTINUOUS
 62
     3
100
AcDbCircle
 10
143.42244
 20
132.009252
 30
0.0
 40
2.0
100
AcDbArc
 50
100.0
 51
180.0
  0
ARC
  5
1BE
330
1B6
100
AcDbEntity
  8
LAYERGROUP-1
  6
CONTINUOUS
 62
     3
100
AcDbCircle
 10
148.42244
 20
160.475469
 30
0.0
 40
2.0
100
AcDbArc
 50
95.822632
 51
180.0
  0
LINE
  5
1BF
330
1B6
100
AcDbEntity
  8
LAYERGROUP-1
  6
CONTINUOUS
 62
     3
100
AcDbLine
 10
146.42244
 20
160.475469
 30
0.0
 11
146.42244
 21
156.097289
 31
0.0
  0
LINE
  5
1C0
330
1B6
100
AcDbEntity
  8
LAYERGROUP-1
  6
CONTINUOUS
 62
     3
100
AcDbLine
 10
146.42244
 20
156.097289
 30
0.0
 11
146.42244
 21
113.187451
 31
0.0
  0
LINE
  5
1C1
330
1B6
100
AcDbEntity
  8
GR1-1
  6
CONTINUOUS
 62
     3
100
AcDbLine
 10
139.92244
 20
113.187451
 30
0.0
 11
139.92244
 21
121.187451
 31
0.0
  0
LINE
  5
1C2
330
1B6
100
AcDbEntity
  8
GR1-1
  6
CONTINUOUS
 62
     3
100
AcDbLine
 10
139.92244
 20
121.187451
 30
0.0
 11
140.42244
 21
121.687451
 31
0.0
  0
LINE
  5
1C3
330
1B6
100
AcDbEntity
  8
GR1-1
  6
CONTINUOUS
 62
     3
100
AcDbLine
 10
140.42244
 20
121.687451
 30
0.0
 11
141.42244
 21
121.687451
 31
0.0
  0
LINE
  5
1C4
330
1B6
100
AcDbEntity
  8
LAYERGROUP-1
  6
CONTINUOUS
 62
     3
100
AcDbLine
 10
183.42244
 20
132.009252
 30
0.0
 11
183.42244
 21
113.187451
 31
0.0
  0
LINE
  5
1C5
330
1B6
100
AcDbEntity
  8
LAYERGROUP-1
  6
CONTINUOUS
 62
     3
100
AcDbLine
 10
178.42244
 20
134.569086
 30
0.0
 11
181.769737
 21
133.978867
 31
0.0
  0
ARC
  5
1C6
330
1B6
100
AcDbEntity
  8
LAYERGROUP-1
  6
CONTINUOUS
 62
     3
100
AcDbCircle
 10
181.42244
 20
132.009252
 30
0.0
 40
2.0
100
AcDbArc
 50
0.0
 51
80.0
  0
ARC
  5
1C7
330
1B6
100
AcDbEntity
  8
LAYERGROUP-1
  6
CONTINUOUS
 62
     3
100
AcDbCircle
 10
176.42244
 20
160.475469
 30
0.0
 40
2.0
100
AcDbArc
 50
0.0
 51
84.177368
  0
LINE
  5
1C8
330
1B6
100
AcDbEntity
  8
LAYERGROUP-1
  6
CONTINUOUS
 62
     3
100
AcDbLine
 10
178.42244
 20
160.475469
 30
0.0
 11
178.42244
 21
156.097289
 31
0.0
  0
LINE
  5
1C9
330
1B6
100
AcDbEntity
  8
LAYERGROUP-1
  6
CONTINUOUS
 62
     3
100
AcDbLine
 10
178.42244
 20
156.097289
 30
0.0
 11
178.42244
 21
113.187451
 31
0.0
  0
LINE
  5
1CA
330
1B6
100
AcDbEntity
  8
GR1-1
  6
CONTINUOUS
 62
     3
100
AcDbLine
 10
184.92244
 20
113.187451
 30
0.0
 11
184.92244
 21
121.187451
 31
0.0
  0
LINE
  5
1CB
330
1B6
100
AcDbEntity
  8
GR1-1
  6
CONTINUOUS
 62
     3
100
AcDbLine
 10
184.92244
 20
121.187451
 30
0.0
 11
184.42244
 21
121.687451
 31
0.0
  0
LINE
  5
1CC
330
1B6
100
AcDbEntity
  8
GR1-1
  6
CONTINUOUS
 62
     3
100
AcDbLine
 10
184.42244
 20
121.687451
 30
0.0
 11
183.42244
 21
121.687451
 31
0.0
  0
ARC
  5
1CD
330
1B6
100
AcDbEntity
  8
GR1-1
  6
CONTINUOUS
 62
     3
100
AcDbCircle
 10
162.42244
 20
203.187451
 30
0.0
 40
140.0
100
AcDbArc
 50
264.177368
 51
275.822632
  0
LINE
  5
1CE
330
1B6
100
AcDbEntity
  8
LAYERGROUP-1
  6
CONTINUOUS
 62
     3
100
AcDbLine
 10
141.42244
 20
94.36565
 30
0.0
 11
141.42244
 21
113.187451
 31
0.0
  0
LINE
  5
1CF
330
1B6
100
AcDbEntity
  8
LAYERGROUP-1
  6
CONTINUOUS
 62
     3
100
AcDbLine
 10
146.42244
 20
91.805816
 30
0.0
 11
143.075144
 21
92.396035
 31
0.0
  0
ARC
  5
1D0
330
1B6
100
AcDbEntity
  8
LAYERGROUP-1
  6
CONTINUOUS
 62
     3
100
AcDbCircle
 10
143.42244
 20
94.36565
 30
0.0
 40
2.0
100
AcDbArc
 50
180.0
 51
260.0
  0
ARC
  5
1D1
330
1B6
100
AcDbEntity
  8
LAYERGROUP-1
  6
CONTINUOUS
 62
     3
100
AcDbCircle
 10
148.42244
 20
65.899432
 30
0.0
 40
2.0
100
AcDbArc
 50
180.0
 51
264.177368
  0
LINE
  5
1D2
330
1B6
100
AcDbEntity
  8
LAYERGROUP-1
  6
CONTINUOUS
 62
     3
100
AcDbLine
 10
146.42244
 20
65.899432
 30
0.0
 11
146.42244
 21
70.277613
 31
0.0
  0
LINE
  5
1D3
330
1B6
100
AcDbEntity
  8
LAYERGROUP-1
  6
CONTINUOUS
 62
     3
100
AcDbLine
 10
146.42244
 20
70.277613
 30
0.0
 11
146.42244
 21
113.187451
 31
0.0
  0
LINE
  5
1D4
330
1B6
100
AcDbEntity
  8
GR1-1
  6
CONTINUOUS
 62
     3
100
AcDbLine
 10
139.92244
 20
113.187451
 30
0.0
 11
139.92244
 21
105.187451
 31
0.0
  0
LINE
  5
1D5
330
1B6
100
AcDbEntity
  8
GR1-1
  6
CONTINUOUS
 62
     3
100
AcDbLine
 10
139.92244
 20
105.187451
 30
0.0
 11
140.42244
 21
104.687451
 31
0.0
  0
LINE
  5
1D6
330
1B6
100
AcDbEntity
  8
GR1-1
  6
CONTINUOUS
 62
     3
100
AcDbLine
 10
140.42244
 20
104.687451
 30
0.0
 11
141.42244
 21
104.687451
 31
0.0
  0
LINE
  5
1D7
330
1B6
100
AcDbEntity
  8
LAYERGROUP-1
  6
CONTINUOUS
 62
     3
100
AcDbLine
 10
183.42244
 20
94.36565
 30
0.0
 11
183.42244
 21
113.187451
 31
0.0
  0
LINE
  5
1D8
330
1B6
100
AcDbEntity
  8
LAYERGROUP-1
  6
CONTINUOUS
 62
     3
100
AcDbLine
 10
178.42244
 20
91.805816
 30
0.0
 11
181.769737
 21
92.396035
 31
0.0
  0
ARC
  5
1D9
330
1B6
100
AcDbEntity
  8
LAYERGROUP-1
  6
CONTINUOUS
 62
     3
100
AcDbCircle
 10
181.42244
 20
94.36565
 30
0.0
 40
2.0
100
AcDbArc
 50
280.0
 51
360.0
  0
ARC
  5
1DA
330
1B6
100
AcDbEntity
  8
LAYERGROUP-1
  6
CONTINUOUS
 62
     3
100
AcDbCircle
 10
176.42244
 20
65.899432
 30
0.0
 40
2.0
100
AcDbArc
 50
275.822632
 51
360.0
  0
LINE
  5
1DB
330
1B6
100
AcDbEntity
  8
LAYERGROUP-1
  6
CONTINUOUS
 62
     3
100
AcDbLine
 10
178.42244
 20
65.899432
 30
0.0
 11
178.42244
 21
70.277613
 31
0.0
  0
LINE
  5
1DC
330
1B6
100
AcDbEntity
  8
LAYERGROUP-1
  6
CONTINUOUS
 62
     3
100
AcDbLine
 10
178.42244
 20
70.277613
 30
0.0
 11
178.42244
 21
113.187451
 31
0.0
  0
LINE
  5
1DD
330
1B6
100
AcDbEntity
  8
GR1-1
  6
CONTINUOUS
 62
     3
100
AcDbLine
 10
184.92244
 20
113.187451
 30
0.0
 11
184.92244
 21
105.187451
 31
0.0
  0
LINE
  5
1DE
330
1B6
100
AcDbEntity
  8
GR1-1
  6
CONTINUOUS
 62
     3
100
AcDbLine
 10
184.92244
 20
105.187451
 30
0.0
 11
184.42244
 21
104.687451
 31
0.0
  0
LINE
  5
1DF
330
1B6
100
AcDbEntity
  8
GR1-1
  6
CONTINUOUS
 62
     3
100
AcDbLine
 10
184.42244
 20
104.687451
 30
0.0
 11
183.42244
 21
104.687451
 31
0.0
  0
ENDBLK
  5
1B8
330
1B6
100
AcDbEntity
  8
0
100
AcDbBlockEnd
  0
BLOCK
  5
1F6
330
1F5
100
AcDbEntity
  8
0
100
AcDbBlockBegin
  2
*D23
 70
     1
 71
     0
 10
0.0
 20
0.0
 30
0.0
  3
*D23
  1

  0
TEXT
  5
1F8
330
1F5
100
AcDbEntity
  8
GR1-1
  6
CONTINUOUS
 62
     7
100
AcDbText
 10
159.42244
 20
34.975952
 30
0.0
 40
4.0
  1
45
 41
0.851351
  7
FX_VECTOR
 72
     5
 11
165.42244
 21
34.975952
 31
0.0
100
AcDbText
  0
LINE
  5
1F9
330
1F5
100
AcDbEntity
  8
GR1-1
  6
CONTINUOUS
 62
     7
100
AcDbLine
 10
139.92244
 20
33.975976
 30
0.0
 11
184.92244
 21
33.975976
 31
0.0
  0
INSERT
  5
1FA
330
1F5
100
AcDbEntity
  8
GR1-1
  6
CONTINUOUS
 62
     7
100
AcDbBlockReference
  2
FXTIP_ARROW_S
 10
139.92244
 20
33.975976
 30
0.0
 41
4.0
 42
4.0
 50
180.0
  0
INSERT
  5
1FB
330
1F5
100
AcDbEntity
  8
GR1-1
  6
CONTINUOUS
 62
     7
100
AcDbBlockReference
  2
FXTIP_ARROW_E
 10
184.92244
 20
33.975976
 30
0.0
 41
4.0
 42
4.0
 50
360.0
  0
LINE
  5
1FC
330
1F5
100
AcDbEntity
  8
GR1-1
  6
CONTINUOUS
 62
     7
100
AcDbLine
 10
139.92244
 20
104.187451
 30
0.0
 11
139.92244
 21
32.975976
 31
0.0
  0
LINE
  5
1FD
330
1F5
100
AcDbEntity
  8
GR1-1
  6
CONTINUOUS
 62
     7
100
AcDbLine
 10
184.92244
 20
104.187451
 30
0.0
 11
184.92244
 21
32.975976
 31
0.0
  0
ENDBLK
  5
1F7
330
1F5
100
AcDbEntity
  8
0
100
AcDbBlockEnd
  0
BLOCK
  5
200
330
1FF
100
AcDbEntity
  8
0
100
AcDbBlockBegin
  2
*D24
 70
     1
 71
     0
 10
0.0
 20
0.0
 30
0.0
  3
*D24
  1

  0
TEXT
  5
202
330
1FF
100
AcDbEntity
  8
GR1-1
  6
CONTINUOUS
 62
     7
100
AcDbText
 10
159.42244
 20
49.12793
 30
0.0
 40
4.0
  1
32
 41
0.851351
  7
FX_VECTOR
 72
     5
 11
165.42244
 21
49.12793
 31
0.0
100
AcDbText
  0
LINE
  5
203
330
1FF
100
AcDbEntity
  8
GR1-1
  6
CONTINUOUS
 62
     7
100
AcDbLine
 10
146.42244
 20
48.127929
 30
0.0
 11
178.42244
 21
48.127929
 31
0.0
  0
INSERT
  5
204
330
1FF
100
AcDbEntity
  8
GR1-1
  6
CONTINUOUS
 62
     7
100
AcDbBlockReference
  2
FXTIP_ARROW_S
 10
146.42244
 20
48.127929
 30
0.0
 41
4.0
 42
4.0
 50
180.0
  0
INSERT
  5
205
330
1FF
100
AcDbEntity
  8
GR1-1
  6
CONTINUOUS
 62
     7
100
AcDbBlockReference
  2
FXTIP_ARROW_E
 10
178.42244
 20
48.127929
 30
0.0
 41
4.0
 42
4.0
 50
360.0
  0
LINE
  5
206
330
1FF
100
AcDbEntity
  8
GR1-1
  6
CONTINUOUS
 62
     7
100
AcDbLine
 10
146.42244
 20
64.899432
 30
0.0
 11
146.42244
 21
47.127929
 31
0.0
  0
LINE
  5
207
330
1FF
100
AcDbEntity
  8
GR1-1
  6
CONTINUOUS
 62
     7
100
AcDbLine
 10
178.42244
 20
64.899432
 30
0.0
 11
178.42244
 21
47.127929
 31
0.0
  0
ENDBLK
  5
201
330
1FF
100
AcDbEntity
  8
0
100
AcDbBlockEnd
  0
BLOCK
  5
20B
330
20A
100
AcDbEntity
  8
0
100
AcDbBlockBegin
  2
BLKF027
 70
     0
 71
     0
 10
0.0
 20
0.0
 30
0.0
  3
BLKF027
  1

  0
LINE
  5
20E
330
20A
100
AcDbEntity
  8
GR1-1
  6
CONTINUOUS
 62
     7
100
AcDbLine
 10
304.976236
 20
104.232882
 30
0.0
 11
304.764709
 21
104.35972
 31
0.0
  0
LINE
  5
20F
330
20A
100
AcDbEntity
  8
GR1-1
  6
CONTINUOUS
 62
     7
100
AcDbLine
 10
305.01858
 20
104.0637
 30
0.0
 11
304.595527
 21
104.317376
 31
0.0
  0
LINE
  5
210
330
20A
100
AcDbEntity
  8
GR1-1
  6
CONTINUOUS
 62
     7
100
AcDbLine
 10
305.060924
 20
103.894518
 30
0.0
 11
304.426345
 21
104.275032
 31
0.0
  0
LINE
  5
211
330
20A
100
AcDbEntity
  8
GR1-1
  6
CONTINUOUS
 62
     7
100
AcDbLine
 10
305.103268
 20
103.725335
 30
0.0
 11
304.257163
 21
104.232688
 31
0.0
  0
LINE
  5
212
330
20A
100
AcDbEntity
  8
GR1-1
  6
CONTINUOUS
 62
     7
100
AcDbLine
 10
305.145612
 20
103.556153
 30
0.0
 11
304.415942
 21
103.993687
 31
0.0
  0
LINE
  5
213
330
20A
100
AcDbEntity
  8
GR1-1
  6
CONTINUOUS
 62
     7
100
AcDbLine
 10
304.216293
 20
104.113403
 30
0.0
 11
304.08798
 21
104.190344
 31
0.0
  0
LINE
  5
214
330
20A
100
AcDbEntity
  8
GR1-1
  6
CONTINUOUS
 62
     7
100
AcDbLine
 10
305.187956
 20
103.386971
 30
0.0
 11
304.458286
 21
103.824505
 31
0.0
  0
LINE
  5
215
330
20A
100
AcDbEntity
  8
GR1-1
  6
CONTINUOUS
 62
     7
100
AcDbLine
 10
304.04711
 20
104.071059
 30
0.0
 11
303.918798
 21
104.148
 31
0.0
  0
LINE
  5
216
330
20A
100
AcDbEntity
  8
GR1-1
  6
CONTINUOUS
 62
     7
100
AcDbLine
 10
305.2303
 20
103.217789
 30
0.0
 11
304.50063
 21
103.655323
 31
0.0
  0
LINE
  5
217
330
20A
100
AcDbEntity
  8
GR1-1
  6
CONTINUOUS
 62
     7
100
AcDbLine
 10
303.877928
 20
104.028715
 30
0.0
 11
303.749616
 21
104.105655
 31
0.0
  0
LINE
  5
218
330
20A
100
AcDbEntity
  8
GR1-1
  6
CONTINUOUS
 62
     7
100
AcDbLine
 10
305.272645
 20
103.048607
 30
0.0
 11
304.456605
 21
103.537931
 31
0.0
  0
LINE
  5
219
330
20A
100
AcDbEntity
  8
GR1-1
  6
CONTINUOUS
 62
     7
100
AcDbLine
 10
303.708746
 20
103.986371
 30
0.0
 11
303.580434
 21
104.063311
 31
0.0
  0
LINE
  5
21A
330
20A
100
AcDbEntity
  8
GR1-1
  6
CONTINUOUS
 62
     7
100
AcDbLine
 10
305.314989
 20
102.879424
 30
0.0
 11
304.287422
 21
103.495587
 31
0.0
  0
LINE
  5
21B
330
20A
100
AcDbEntity
  8
GR1-1
  6
CONTINUOUS
 62
     7
100
AcDbLine
 10
303.539564
 20
103.944027
 30
0.0
 11
303.411252
 21
104.020967
 31
0.0
  0
LINE
  5
21C
330
20A
100
AcDbEntity
  8
GR1-1
  6
CONTINUOUS
 62
     7
100
AcDbLine
 10
305.357333
 20
102.710242
 30
0.0
 11
304.11824
 21
103.453242
 31
0.0
  0
LINE
  5
21D
330
20A
100
AcDbEntity
  8
GR1-1
  6
CONTINUOUS
 62
     7
100
AcDbLine
 10
303.370382
 20
103.901683
 30
0.0
 11
303.242069
 21
103.978623
 31
0.0
  0
LINE
  5
21E
330
20A
100
AcDbEntity
  8
GR1-1
  6
CONTINUOUS
 62
     7
100
AcDbLine
 10
305.399677
 20
102.54106
 30
0.0
 11
304.010859
 21
103.373841
 31
0.0
  0
LINE
  5
21F
330
20A
100
AcDbEntity
  8
GR1-1
  6
CONTINUOUS
 62
     7
100
AcDbLine
 10
303.201199
 20
103.859339
 30
0.0
 11
303.072887
 21
103.936279
 31
0.0
  0
LINE
  5
220
330
20A
100
AcDbEntity
  8
GR1-1
  6
CONTINUOUS
 62
     7
100
AcDbLine
 10
305.442021
 20
102.371878
 30
0.0
 11
305.230495
 21
102.498716
 31
0.0
  0
LINE
  5
221
330
20A
100
AcDbEntity
  8
GR1-1
  6
CONTINUOUS
 62
     7
100
AcDbLine
 10
303.198445
 20
103.717199
 30
0.0
 11
302.903705
 21
103.893935
 31
0.0
  0
LINE
  5
222
330
20A
100
AcDbEntity
  8
GR1-1
  6
CONTINUOUS
 62
     7
100
AcDbLine
 10
305.484365
 20
102.202696
 30
0.0
 11
305.167076
 21
102.392953
 31
0.0
  0
LINE
  5
223
330
20A
100
AcDbEntity
  8
GR1-1
  6
CONTINUOUS
 62
     7
100
AcDbLine
 10
303.24079
 20
103.548017
 30
0.0
 11
302.734523
 21
103.851591
 31
0.0
  0
LINE
  5
224
330
20A
100
AcDbEntity
  8
GR1-1
  6
CONTINUOUS
 62
     7
100
AcDbLine
 10
305.526709
 20
102.033513
 30
0.0
 11
305.103657
 21
102.28719
 31
0.0
  0
LINE
  5
225
330
20A
100
AcDbEntity
  8
GR1-1
  6
CONTINUOUS
 62
     7
100
AcDbLine
 10
303.283134
 20
103.378834
 30
0.0
 11
303.058776
 21
103.513366
 31
0.0
  0
LINE
  5
226
330
20A
100
AcDbEntity
  8
GR1-1
  6
CONTINUOUS
 62
     7
100
AcDbLine
 10
302.988393
 20
103.55557
 30
0.0
 11
302.565341
 21
103.809247
 31
0.0
  0
LINE
  5
227
330
20A
100
AcDbEntity
  8
GR1-1
  6
CONTINUOUS
 62
     7
100
AcDbLine
 10
305.569053
 20
101.864331
 30
0.0
 11
305.040238
 21
102.181426
 31
0.0
  0
LINE
  5
228
330
20A
100
AcDbEntity
  8
GR1-1
  6
CONTINUOUS
 62
     7
100
AcDbLine
 10
303.325478
 20
103.209652
 30
0.0
 11
303.10112
 21
103.344184
 31
0.0
  0
LINE
  5
229
330
20A
100
AcDbEntity
  8
GR1-1
  6
CONTINUOUS
 62
     7
100
AcDbLine
 10
302.924974
 20
103.449807
 30
0.0
 11
302.396158
 21
103.766902
 31
0.0
  0
LINE
  5
22A
330
20A
100
AcDbEntity
  8
GR1-1
  6
CONTINUOUS
 62
     7
100
AcDbLine
 10
305.611398
 20
101.695149
 30
0.0
 11
304.976819
 21
102.075663
 31
0.0
  0
LINE
  5
22B
330
20A
100
AcDbEntity
  8
GR1-1
  6
CONTINUOUS
 62
     7
100
AcDbLine
 10
303.367822
 20
103.04047
 30
0.0
 11
303.143464
 21
103.175002
 31
0.0
  0
LINE
  5
22C
330
20A
100
AcDbEntity
  8
GR1-1
  6
CONTINUOUS
 62
     7
100
AcDbLine
 10
302.861555
 20
103.344044
 30
0.0
 11
302.226976
 21
103.724558
 31
0.0
  0
LINE
  5
22D
330
20A
100
AcDbEntity
  8
GR1-1
  6
CONTINUOUS
 62
     7
100
AcDbLine
 10
305.653742
 20
101.525967
 30
0.0
 11
304.913399
 21
101.9699
 31
0.0
  0
LINE
  5
22E
330
20A
100
AcDbEntity
  8
GR1-1
  6
CONTINUOUS
 62
     7
100
AcDbLine
 10
304.384584
 20
102.286995
 30
0.0
 11
303.785231
 21
102.646386
 31
0.0
  0
LINE
  5
22F
330
20A
100
AcDbEntity
  8
GR1-1
  6
CONTINUOUS
 62
     7
100
AcDbLine
 10
303.410166
 20
102.871288
 30
0.0
 11
303.185809
 21
103.00582
 31
0.0
  0
LINE
  5
230
330
20A
100
AcDbEntity
  8
GR1-1
  6
CONTINUOUS
 62
     7
100
AcDbLine
 10
302.798136
 20
103.238281
 30
0.0
 11
302.057794
 21
103.682214
 31
0.0
  0
LINE
  5
231
330
20A
100
AcDbEntity
  8
GR1-1
  6
CONTINUOUS
 62
     7
100
AcDbLine
 10
305.696086
 20
101.356785
 30
0.0
 11
304.84998
 21
101.864137
 31
0.0
  0
LINE
  5
232
330
20A
100
AcDbEntity
  8
GR1-1
  6
CONTINUOUS
 62
     7
100
AcDbLine
 10
304.321165
 20
102.181232
 30
0.0
 11
303.826439
 21
102.477885
 31
0.0
  0
LINE
  5
233
330
20A
100
AcDbEntity
  8
GR1-1
  6
CONTINUOUS
 62
     7
100
AcDbLine
 10
303.45251
 20
102.702106
 30
0.0
 11
303.228153
 21
102.836638
 31
0.0
  0
LINE
  5
234
330
20A
100
AcDbEntity
  8
GR1-1
  6
CONTINUOUS
 62
     7
100
AcDbLine
 10
302.734717
 20
103.132518
 30
0.0
 11
301.888612
 21
103.63987
 31
0.0
  0
LINE
  5
235
330
20A
100
AcDbEntity
  8
GR1-1
  6
CONTINUOUS
 62
     7
100
AcDbLine
 10
305.73843
 20
101.187602
 30
0.0
 11
304.786561
 21
101.758374
 31
0.0
  0
LINE
  5
236
330
20A
100
AcDbEntity
  8
GR1-1
  6
CONTINUOUS
 62
     7
100
AcDbLine
 10
304.257746
 20
102.075469
 30
0.0
 11
303.868784
 21
102.308703
 31
0.0
  0
LINE
  5
237
330
20A
100
AcDbEntity
  8
GR1-1
  6
CONTINUOUS
 62
     7
100
AcDbLine
 10
303.494854
 20
102.532923
 30
0.0
 11
303.200114
 21
102.709659
 31
0.0
  0
LINE
  5
238
330
20A
100
AcDbEntity
  8
GR1-1
  6
CONTINUOUS
 62
     7
100
AcDbLine
 10
302.671298
 20
103.026755
 30
0.0
 11
301.71943
 21
103.597526
 31
0.0
  0
LINE
  5
239
330
20A
100
AcDbEntity
  8
GR1-1
  6
CONTINUOUS
 62
     7
100
AcDbLine
 10
305.780774
 20
101.01842
 30
0.0
 11
304.723142
 21
101.652611
 31
0.0
  0
LINE
  5
23A
330
20A
100
AcDbEntity
  8
GR1-1
  6
CONTINUOUS
 62
     7
100
AcDbLine
 10
304.194327
 20
101.969706
 30
0.0
 11
303.793823
 21
102.209861
 31
0.0
  0
LINE
  5
23B
330
20A
100
AcDbEntity
  8
GR1-1
  6
CONTINUOUS
 62
     7
100
AcDbLine
 10
303.537198
 20
102.363741
 30
0.0
 11
303.136695
 21
102.603896
 31
0.0
  0
LINE
  5
23C
330
20A
100
AcDbEntity
  8
GR1-1
  6
CONTINUOUS
 62
     7
100
AcDbLine
 10
302.607879
 20
102.920991
 30
0.0
 11
301.550247
 21
103.555182
 31
0.0
  0
LINE
  5
23D
330
20A
100
AcDbEntity
  8
GR1-1
  6
CONTINUOUS
 62
     7
100
AcDbLine
 10
305.823118
 20
100.849238
 30
0.0
 11
304.659723
 21
101.546847
 31
0.0
  0
LINE
  5
23E
330
20A
100
AcDbEntity
  8
GR1-1
  6
CONTINUOUS
 62
     7
100
AcDbLine
 10
304.130907
 20
101.863943
 30
0.0
 11
303.624641
 21
102.167517
 31
0.0
  0
LINE
  5
23F
330
20A
100
AcDbEntity
  8
GR1-1
  6
CONTINUOUS
 62
     7
100
AcDbLine
 10
303.579543
 20
102.194559
 30
0.0
 11
303.073276
 21
102.498133
 31
0.0
  0
LINE
  5
240
330
20A
100
AcDbEntity
  8
GR1-1
  6
CONTINUOUS
 62
     7
100
AcDbLine
 10
302.54446
 20
102.815228
 30
0.0
 11
301.381065
 21
103.512838
 31
0.0
  0
LINE
  5
241
330
20A
100
AcDbEntity
  8
GR1-1
  6
CONTINUOUS
 62
     7
100
AcDbLine
 10
305.699034
 20
100.779851
 30
0.0
 11
304.596304
 21
101.441084
 31
0.0
  0
LINE
  5
242
330
20A
100
AcDbEntity
  8
GR1-1
  6
CONTINUOUS
 62
     7
100
AcDbLine
 10
304.067488
 20
101.758179
 30
0.0
 11
303.009857
 21
102.39237
 31
0.0
  0
LINE
  5
243
330
20A
100
AcDbEntity
  8
GR1-1
  6
CONTINUOUS
 62
     7
100
AcDbLine
 10
302.481041
 20
102.709465
 30
0.0
 11
301.378311
 21
103.370698
 31
0.0
  0
LINE
  5
244
330
20A
100
AcDbEntity
  8
GR1-1
  6
CONTINUOUS
 62
     7
100
AcDbLine
 10
305.529852
 20
100.737507
 30
0.0
 11
304.532885
 21
101.335321
 31
0.0
  0
LINE
  5
245
330
20A
100
AcDbEntity
  8
GR1-1
  6
CONTINUOUS
 62
     7
100
AcDbLine
 10
304.004069
 20
101.652416
 30
0.0
 11
302.946438
 21
102.286607
 31
0.0
  0
LINE
  5
246
330
20A
100
AcDbEntity
  8
GR1-1
  6
CONTINUOUS
 62
     7
100
AcDbLine
 10
302.417622
 20
102.603702
 30
0.0
 11
301.420655
 21
103.201516
 31
0.0
  0
LINE
  5
247
330
20A
100
AcDbEntity
  8
GR1-1
  6
CONTINUOUS
 62
     7
100
AcDbLine
 10
305.36067
 20
100.695163
 30
0.0
 11
304.469466
 21
101.229558
 31
0.0
  0
LINE
  5
248
330
20A
100
AcDbEntity
  8
GR1-1
  6
CONTINUOUS
 62
     7
100
AcDbLine
 10
303.94065
 20
101.546653
 30
0.0
 11
302.883019
 21
102.180843
 31
0.0
  0
LINE
  5
249
330
20A
100
AcDbEntity
  8
GR1-1
  6
CONTINUOUS
 62
     7
100
AcDbLine
 10
302.354203
 20
102.497939
 30
0.0
 11
301.462999
 21
103.032333
 31
0.0
  0
LINE
  5
24A
330
20A
100
AcDbEntity
  8
GR1-1
  6
CONTINUOUS
 62
     7
100
AcDbLine
 10
305.191487
 20
100.652819
 30
0.0
 11
304.406047
 21
101.123795
 31
0.0
  0
LINE
  5
24B
330
20A
100
AcDbEntity
  8
GR1-1
  6
CONTINUOUS
 62
     7
100
AcDbLine
 10
303.877231
 20
101.44089
 30
0.0
 11
302.8196
 21
102.07508
 31
0.0
  0
LINE
  5
24C
330
20A
100
AcDbEntity
  8
GR1-1
  6
CONTINUOUS
 62
     7
100
AcDbLine
 10
302.290784
 20
102.392175
 30
0.0
 11
301.505343
 21
102.863151
 31
0.0
  0
LINE
  5
24D
330
20A
100
AcDbEntity
  8
GR1-1
  6
CONTINUOUS
 62
     7
100
AcDbLine
 10
305.022305
 20
100.610475
 30
0.0
 11
304.342628
 21
101.018032
 31
0.0
  0
LINE
  5
24E
330
20A
100
AcDbEntity
  8
GR1-1
  6
CONTINUOUS
 62
     7
100
AcDbLine
 10
303.813812
 20
101.335127
 30
0.0
 11
302.756181
 21
101.969317
 31
0.0
  0
LINE
  5
24F
330
20A
100
AcDbEntity
  8
GR1-1
  6
CONTINUOUS
 62
     7
100
AcDbLine
 10
302.227365
 20
102.286412
 30
0.0
 11
301.547688
 21
102.693969
 31
0.0
  0
LINE
  5
250
330
20A
100
AcDbEntity
  8
GR1-1
  6
CONTINUOUS
 62
     7
100
AcDbLine
 10
304.853123
 20
100.568131
 30
0.0
 11
304.279209
 21
100.912268
 31
0.0
  0
LINE
  5
251
330
20A
100
AcDbEntity
  8
GR1-1
  6
CONTINUOUS
 62
     7
100
AcDbLine
 10
302.163946
 20
102.180649
 30
0.0
 11
301.590032
 21
102.524787
 31
0.0
  0
LINE
  5
252
330
20A
100
AcDbEntity
  8
GR1-1
  6
CONTINUOUS
 62
     7
100
AcDbLine
 10
304.683941
 20
100.525787
 30
0.0
 11
304.21579
 21
100.806505
 31
0.0
  0
LINE
  5
253
330
20A
100
AcDbEntity
  8
GR1-1
  6
CONTINUOUS
 62
     7
100
AcDbLine
 10
302.100527
 20
102.074886
 30
0.0
 11
301.632376
 21
102.355604
 31
0.0
  0
LINE
  5
254
330
20A
100
AcDbEntity
  8
GR1-1
  6
CONTINUOUS
 62
     7
100
AcDbLine
 10
304.514759
 20
100.483443
 30
0.0
 11
304.152371
 21
100.700742
 31
0.0
  0
LINE
  5
255
330
20A
100
AcDbEntity
  8
GR1-1
  6
CONTINUOUS
 62
     7
100
AcDbLine
 10
302.037108
 20
101.969123
 30
0.0
 11
301.67472
 21
102.186422
 31
0.0
  0
LINE
  5
256
330
20A
100
AcDbEntity
  8
GR1-1
  6
CONTINUOUS
 62
     7
100
AcDbLine
 10
304.345576
 20
100.441098
 30
0.0
 11
304.088952
 21
100.594979
 31
0.0
  0
LINE
  5
257
330
20A
100
AcDbEntity
  8
GR1-1
  6
CONTINUOUS
 62
     7
100
AcDbLine
 10
301.973689
 20
101.86336
 30
0.0
 11
301.717064
 21
102.01724
 31
0.0
  0
LINE
  5
258
330
20A
100
AcDbEntity
  8
GR1-1
  6
CONTINUOUS
 62
     7
100
AcDbLine
 10
304.176394
 20
100.398754
 30
0.0
 11
304.025533
 21
100.489216
 31
0.0
  0
LINE
  5
259
330
20A
100
AcDbEntity
  8
GR1-1
  6
CONTINUOUS
 62
     7
100
AcDbLine
 10
301.91027
 20
101.757596
 30
0.0
 11
301.759408
 21
101.848058
 31
0.0
  0
LINE
  5
25A
330
20A
100
AcDbEntity
  8
GR1-1
  6
CONTINUOUS
 62
     7
100
AcDbLine
 10
304.007212
 20
100.35641
 30
0.0
 11
301.801752
 21
101.678876
 31
0.0
  0
LINE
  5
25B
330
20A
100
AcDbEntity
  8
GR1-1
  6
CONTINUOUS
 62
     7
100
AcDbLine
 10
303.83803
 20
100.314066
 30
0.0
 11
301.844097
 21
101.509693
 31
0.0
  0
LINE
  5
25C
330
20A
100
AcDbEntity
  8
GR1-1
  6
CONTINUOUS
 62
     7
100
AcDbLine
 10
303.668848
 20
100.271722
 30
0.0
 11
301.886441
 21
101.340511
 31
0.0
  0
LINE
  5
25D
330
20A
100
AcDbEntity
  8
GR1-1
  6
CONTINUOUS
 62
     7
100
AcDbLine
 10
303.499665
 20
100.229378
 30
0.0
 11
301.928785
 21
101.171329
 31
0.0
  0
LINE
  5
25E
330
20A
100
AcDbEntity
  8
GR1-1
  6
CONTINUOUS
 62
     7
100
AcDbLine
 10
303.330483
 20
100.187034
 30
0.0
 11
301.971129
 21
101.002147
 31
0.0
  0
LINE
  5
25F
330
20A
100
AcDbEntity
  8
GR1-1
  6
CONTINUOUS
 62
     7
100
AcDbLine
 10
303.161301
 20
100.14469
 30
0.0
 11
302.013473
 21
100.832965
 31
0.0
  0
LINE
  5
260
330
20A
100
AcDbEntity
  8
GR1-1
  6
CONTINUOUS
 62
     7
100
AcDbLine
 10
302.992119
 20
100.102345
 30
0.0
 11
302.055817
 21
100.663782
 31
0.0
  0
LINE
  5
261
330
20A
100
AcDbEntity
  8
GR1-1
  6
CONTINUOUS
 62
     7
100
AcDbLine
 10
302.822937
 20
100.060001
 30
0.0
 11
302.098161
 21
100.4946
 31
0.0
  0
LINE
  5
262
330
20A
100
AcDbEntity
  8
GR1-1
  6
CONTINUOUS
 62
     7
100
AcDbLine
 10
302.653754
 20
100.017657
 30
0.0
 11
302.140505
 21
100.325418
 31
0.0
  0
LINE
  5
263
330
20A
100
AcDbEntity
  8
GR1-1
  6
CONTINUOUS
 62
     7
100
AcDbLine
 10
302.484572
 20
99.975313
 30
0.0
 11
302.18285
 21
100.156236
 31
0.0
  0
LINE
  5
264
330
20A
100
AcDbEntity
  8
GR1-1
  6
CONTINUOUS
 62
     7
100
AcDbLine
 10
302.31539
 20
99.932969
 30
0.0
 11
302.225194
 21
99.987054
 31
0.0
  0
ENDBLK
  5
20C
330
20A
100
AcDbEntity
  8
0
100
AcDbBlockEnd
  0
ENDSEC
  0
SECTION
  2
ENTITIES
  0
LINE
  5
A9
330
1F
100
AcDbEntity
  8
GR1-1
  6
CONTINUOUS
 62
     3
100
AcDbLine
 10
417.577239
 20
360.187447
 30
0.0
 11
347.577239
 21
360.187447
 31
0.0
  0
ARC
  5
AA
330
1F
100
AcDbEntity
  8
GR1-1
  6
CONTINUOUS
 62
     3
100
AcDbCircle
 10
347.577239
 20
350.187447
 30
0.0
 40
10.0
100
AcDbArc
 50
90.0
 51
180.0
  0
LINE
  5
AB
330
1F
100
AcDbEntity
  8
GR1-1
  6
CONTINUOUS
 62
     3
100
AcDbLine
 10
337.577239
 20
350.187447
 30
0.0
 11
337.577239
 21
280.187447
 31
0.0
  0
ARC
  5
AC
330
1F
100
AcDbEntity
  8
GR1-1
  6
CONTINUOUS
 62
     3
100
AcDbCircle
 10
347.577239
 20
280.187447
 30
0.0
 40
10.0
100
AcDbArc
 50
180.0
 51
270.0
  0
LINE
  5
AD
330
1F
100
AcDbEntity
  8
GR1-1
  6
CONTINUOUS
 62
     3
100
AcDbLine
 10
347.577239
 20
270.187447
 30
0.0
 11
417.577239
 21
270.187447
 31
0.0
  0
ARC
  5
AE
330
1F
100
AcDbEntity
  8
GR1-1
  6
CONTINUOUS
 62
     3
100
AcDbCircle
 10
417.577239
 20
280.187447
 30
0.0
 40
10.0
100
AcDbArc
 50
270.0
 51
360.0
  0
LINE
  5
AF
330
1F
100
AcDbEntity
  8
GR1-1
  6
CONTINUOUS
 62
     3
100
AcDbLine
 10
427.577239
 20
280.187447
 30
0.0
 11
427.577239
 21
350.187447
 31
0.0
  0
ARC
  5
B0
330
1F
100
AcDbEntity
  8
GR1-1
  6
CONTINUOUS
 62
     3
100
AcDbCircle
 10
417.577239
 20
350.187447
 30
0.0
 40
10.0
100
AcDbArc
 50
0.0
 51
90.0
  0
LINE
  5
B1
330
1F
100
AcDbEntity
  8
GR1-1
  6
CONTINUOUS
 62
     3
100
AcDbLine
 10
414.188152
 20
354.576535
 30
0.0
 11
412.464431
 21
352.839133
 31
0.0
  0
ARC
  5
B2
330
1F
100
AcDbEntity
  8
GR1-1
  6
CONTINUOUS
 62
     3
100
AcDbCircle
 10
416.577239
 20
349.187447
 30
0.0
 40
5.5
100
AcDbArc
 50
135.0
 51
315.0
  0
LINE
  5
B3
330
1F
100
AcDbEntity
  8
GR1-1
  6
CONTINUOUS
 62
     3
100
AcDbLine
 10
420.233483
 20
345.07869
 30
0.0
 11
421.966327
 21
346.79836
 31
0.0
  0
ARC
  5
B4
330
1F
100
AcDbEntity
  8
GR1-1
  6
CONTINUOUS
 62
     3
100
AcDbCircle
 10
418.077239
 20
350.687447
 30
0.0
 40
5.5
100
AcDbArc
 50
-45.0
 51
135.0
  0
CIRCLE
  5
B5
330
1F
100
AcDbEntity
  8
GR1-1
  6
CONTINUOUS
 62
     3
100
AcDbCircle
 10
382.577239
 20
315.187447
 30
0.0
 40
11.0
  0
LINE
  5
B6
330
1F
100
AcDbEntity
  8
GR1-1
  6
CONTINUOUS
 62
     3
100
AcDbLine
 10
412.464431
 20
277.535761
 30
0.0
 11
414.188152
 21
275.79836
 31
0.0
  0
ARC
  5
B7
330
1F
100
AcDbEntity
  8
GR1-1
  6
CONTINUOUS
 62
     3
100
AcDbCircle
 10
418.077239
 20
279.687447
 30
0.0
 40
5.5
100
AcDbArc
 50
-135.0
 51
45.0
  0
LINE
  5
B8
330
1F
100
AcDbEntity
  8
GR1-1
  6
CONTINUOUS
 62
     3
100
AcDbLine
 10
421.966327
 20
283.576535
 30
0.0
 11
420.233483
 21
285.296204
 31
0.0
  0
ARC
  5
B9
330
1F
100
AcDbEntity
  8
GR1-1
  6
CONTINUOUS
 62
     3
100
AcDbCircle
 10
416.577239
 20
281.187447
 30
0.0
 40
5.5
100
AcDbArc
 50
45.0
 51
225.0
  0
LINE
  5
BA
330
1F
100
AcDbEntity
  8
GR1-1
  6
CONTINUOUS
 62
     3
100
AcDbLine
 10
343.188152
 20
283.576535
 30
0.0
 11
344.920996
 21
285.296204
 31
0.0
  0
ARC
  5
BB
330
1F
100
AcDbEntity
  8
GR1-1
  6
CONTINUOUS
 62
     3
100
AcDbCircle
 10
347.077239
 20
279.687447
 30
0.0
 40
5.5
100
AcDbArc
 50
135.0
 51
315.0
  0
LINE
  5
BC
330
1F
100
AcDbEntity
  8
GR1-1
  6
CONTINUOUS
 62
     3
100
AcDbLine
 10
350.966327
 20
275.79836
 30
0.0
 11
352.690047
 21
277.535761
 31
0.0
  0
ARC
  5
BD
330
1F
100
AcDbEntity
  8
GR1-1
  6
CONTINUOUS
 62
     3
100
AcDbCircle
 10
348.577239
 20
281.187447
 30
0.0
 40
5.5
100
AcDbArc
 50
-45.0
 51
135.0
  0
LINE
  5
BE
330
1F
100
AcDbEntity
  8
GR1-1
  6
CONTINUOUS
 62
     3
100
AcDbLine
 10
337.577239
 20
289.587447
 30
0.0
 11
332.977239
 21
289.587447
 31
0.0
  0
LINE
  5
BF
330
1F
100
AcDbEntity
  8
GR1-1
  6
CONTINUOUS
 62
     3
100
AcDbLine
 10
332.977239
 20
289.587447
 30
0.0
 11
332.977239
 21
292.187447
 31
0.0
  0
LINE
  5
C0
330
1F
100
AcDbEntity
  8
GR1-1
  6
CONTINUOUS
 62
     3
100
AcDbLine
 10
332.977239
 20
292.187447
 30
0.0
 11
337.577239
 21
292.187447
 31
0.0
  0
CIRCLE
  5
C1
330
1F
100
AcDbEntity
  8
GR1-1
  6
CONTINUOUS
 62
     3
100
AcDbCircle
 10
347.577239
 20
113.187451
 30
0.0
 40
10.0
  0
LINE
  5
C2
330
1F
100
AcDbEntity
  8
GR1-1
  6
CONTINUOUS
 62
     3
100
AcDbLine
 10
332.977239
 20
338.187447
 30
0.0
 11
332.977239
 21
340.787447
 31
0.0
  0
LINE
  5
C3
330
1F
100
AcDbEntity
  8
GR1-1
  6
CONTINUOUS
 62
     3
100
AcDbLine
 10
332.977239
 20
340.787447
 30
0.0
 11
337.577239
 21
340.787447
 31
0.0
  0
LINE
  5
C4
330
1F
100
AcDbEntity
  8
GR1-1
  6
CONTINUOUS
 62
     3
100
AcDbLine
 10
337.577239
 20
338.187447
 30
0.0
 11
332.977239
 21
338.187447
 31
0.0
  0
LINE
  5
C5
330
1F
100
AcDbEntity
  8
GR1-1
  6
CONTINUOUS
 62
     3
100
AcDbLine
 10
343.188152
 20
346.79836
 30
0.0
 11
344.920996
 21
345.07869
 31
0.0
  0
ARC
  5
C6
330
1F
100
AcDbEntity
  8
GR1-1
  6
CONTINUOUS
 62
     3
100
AcDbCircle
 10
348.577239
 20
349.187447
 30
0.0
 40
5.5
100
AcDbArc
 50
-135.0
 51
45.0
  0
LINE
  5
C7
330
1F
100
AcDbEntity
  8
GR1-1
  6
CONTINUOUS
 62
     3
100
AcDbLine
 10
352.690047
 20
352.839133
 30
0.0
 11
350.966327
 21
354.576535
 31
0.0
  0
ARC
  5
C8
330
1F
100
AcDbEntity
  8
GR1-1
  6
CONTINUOUS
 62
     3
100
AcDbCircle
 10
347.077239
 20
350.687447
 30
0.0
 40
5.5
100
AcDbArc
 50
45.0
 51
225.0
  0
LINE
  5
C9
330
1F
100
AcDbEntity
  8
GR1-1
  6
CONTINUOUS
 62
     3
100
AcDbLine
 10
188.02244
 20
103.187451
 30
0.0
 11
191.52244
 21
103.187451
 31
0.0
  0
LINE
  5
CA
330
1F
100
AcDbEntity
  8
GR1-1
  6
CONTINUOUS
 62
     3
100
AcDbLine
 10
191.52244
 20
103.187451
 30
0.0
 11
193.02244
 21
105.187451
 31
0.0
  0
LINE
  5
CB
330
1F
100
AcDbEntity
  8
GR1-1
  6
CONTINUOUS
 62
     3
100
AcDbLine
 10
193.02244
 20
105.187451
 30
0.0
 11
193.02244
 21
121.187451
 31
0.0
  0
LINE
  5
CC
330
1F
100
AcDbEntity
  8
GR1-1
  6
CONTINUOUS
 62
     3
100
AcDbLine
 10
193.02244
 20
121.187451
 30
0.0
 11
191.52244
 21
123.187451
 31
0.0
  0
LINE
  5
CD
330
1F
100
AcDbEntity
  8
GR1-1
  6
CONTINUOUS
 62
     3
100
AcDbLine
 10
191.52244
 20
123.187451
 30
0.0
 11
188.02244
 21
123.187451
 31
0.0
  0
LINE
  5
CE
330
1F
100
AcDbEntity
  8
GR1-1
  6
CONTINUOUS
 62
     3
100
AcDbLine
 10
126.82244
 20
107.187451
 30
0.0
 11
126.02244
 21
107.187451
 31
0.0
  0
LINE
  5
CF
330
1F
100
AcDbEntity
  8
GR1-1
  6
CONTINUOUS
 62
     3
100
AcDbLine
 10
126.02244
 20
107.187451
 30
0.0
 11
125.02244
 21
108.187451
 31
0.0
  0
LINE
  5
D0
330
1F
100
AcDbEntity
  8
GR1-1
  6
CONTINUOUS
 62
     3
100
AcDbLine
 10
125.02244
 20
108.187451
 30
0.0
 11
125.02244
 21
118.187451
 31
0.0
  0
LINE
  5
D1
330
1F
100
AcDbEntity
  8
GR1-1
  6
CONTINUOUS
 62
     3
100
AcDbLine
 10
125.02244
 20
118.187451
 30
0.0
 11
126.02244
 21
119.187451
 31
0.0
  0
LINE
  5
D2
330
1F
100
AcDbEntity
  8
GR1-1
  6
CONTINUOUS
 62
     3
100
AcDbLine
 10
126.02244
 20
119.187451
 30
0.0
 11
126.82244
 21
119.187451
 31
0.0
  0
LINE
  5
D3
330
1F
100
AcDbEntity
  8
GR1-1
  6
CENTER
 62
     6
100
AcDbLine
 10
416.577239
 20
342.388789
 30
0.0
 11
416.577239
 21
356.711
 31
0.0
  0
LINE
  5
D4
330
1F
100
AcDbEntity
  8
GR1-1
  6
CENTER
 62
     6
100
AcDbLine
 10
410.689988
 20
350.687447
 30
0.0
 11
425.509498
 21
350.687447
 31
0.0
  0
LINE
  5
D5
330
1F
100
AcDbEntity
  8
GR1-1
  6
CENTER
 62
     6
100
AcDbLine
 10
424.017601
 20
349.187447
 30
0.0
 11
409.198091
 21
349.187447
 31
0.0
  0
LINE
  5
D6
330
1F
100
AcDbEntity
  8
GR1-1
  6
CENTER
 62
     6
100
AcDbLine
 10
418.077239
 20
357.307759
 30
0.0
 11
418.077239
 21
343.184467
 31
0.0
  0
LINE
  5
D7
330
1F
100
AcDbEntity
  8
GR1-1
  6
CONTINUOUS
 62
     6
100
AcDbLine
 10
191.52244
 20
123.187451
 30
0.0
 11
191.52244
 21
103.187451
 31
0.0
  0
LINE
  5
D8
330
1F
100
AcDbEntity
  8
GR1-1
  6
CONTINUOUS
 62
     6
100
AcDbLine
 10
125.02244
 20
117.687451
 30
0.0
 11
126.82244
 21
117.687451
 31
0.0
  0
LINE
  5
D9
330
1F
100
AcDbEntity
  8
GR1-1
  6
CONTINUOUS
 62
     6
100
AcDbLine
 10
126.02244
 20
119.187451
 30
0.0
 11
126.02244
 21
107.187451
 31
0.0
  0
LINE
  5
DA
330
1F
100
AcDbEntity
  8
GR1-1
  6
CONTINUOUS
 62
     6
100
AcDbLine
 10
126.82244
 20
108.687451
 30
0.0
 11
125.02244
 21
108.687451
 31
0.0
  0
LINE
  5
DB
330
1F
100
AcDbEntity
  8
GR1-1
  6
CENTER
 62
     6
100
AcDbLine
 10
382.577239
 20
66.442406
 30
0.0
 11
382.577239
 21
199.944652
 31
0.0
  0
LINE
  5
DC
330
1F
100
AcDbEntity
  8
GR1-1
  6
CENTER
 62
     6
100
AcDbLine
 10
429.640548
 20
315.187447
 30
0.0
 11
294.304793
 21
315.187447
 31
0.0
  0
LINE
  5
DD
330
1F
100
AcDbEntity
  8
GR1-1
  6
CENTER
 62
     6
100
AcDbLine
 10
382.577239
 20
268.061527
 30
0.0
 11
382.577239
 21
361.444811
 31
0.0
  0
CIRCLE
  5
DE
330
1F
100
AcDbEntity
  8
GR1-1
  6
CONTINUOUS
 62
     6
100
AcDbCircle
 10
382.577239
 20
315.187447
 30
0.0
 40
8.0
  0
CIRCLE
  5
DF
330
1F
100
AcDbEntity
  8
GR1-1
  6
CONTINUOUS
 62
     6
100
AcDbCircle
 10
382.577239
 20
315.187447
 30
0.0
 40
13.0
  0
CIRCLE
  5
E0
330
1F
100
AcDbEntity
  8
GR1-1
  6
CONTINUOUS
 62
     6
100
AcDbCircle
 10
382.577239
 20
315.187447
 30
0.0
 40
34.5
  0
CIRCLE
  5
E1
330
1F
100
AcDbEntity
  8
GR1-1
  6
CONTINUOUS
 62
     6
100
AcDbCircle
 10
382.577239
 20
315.187447
 30
0.0
 40
35.5
  0
LINE
  5
E2
330
1F
100
AcDbEntity
  8
GR1-1
  6
CENTER
 62
     6
100
AcDbLine
 10
400.409483
 20
113.187451
 30
0.0
 11
294.738362
 21
113.187451
 31
0.0
  0
CIRCLE
  5
E3
330
1F
100
AcDbEntity
  8
GR1-1
  6
CONTINUOUS
 62
     6
100
AcDbCircle
 10
347.577239
 20
113.187451
 30
0.0
 40
8.0
  0
LINE
  5
E4
330
1F
100
AcDbEntity
  8
GR1-1
  6
CENTER
 62
     6
100
AcDbLine
 10
347.577239
 20
136.902155
 30
0.0
 11
347.577239
 21
60.172531
 31
0.0
  0
LINE
  5
E5
330
1F
100
AcDbEntity
  8
GR1-1
  6
CONTINUOUS
 62
     3
100
AcDbLine
 10
207.268931
 20
195.187447
 30
0.0
 11
117.57595
 21
195.187447
 31
0.0
  0
LINE
  5
E6
330
1F
100
AcDbEntity
  8
GR1-1
  6
CONTINUOUS
 62
     3
100
AcDbLine
 10
117.57595
 20
195.187447
 30
0.0
 11
117.57595
 21
192.187447
 31
0.0
  0
LINE
  5
E7
330
1F
100
AcDbEntity
  8
GR1-1
  6
CONTINUOUS
 62
     3
100
AcDbLine
 10
117.57595
 20
192.187447
 30
0.0
 11
207.268931
 21
192.187447
 31
0.0
  0
LINE
  5
E8
330
1F
100
AcDbEntity
  8
GR1-1
  6
CONTINUOUS
 62
     3
100
AcDbLine
 10
207.268931
 20
192.187447
 30
0.0
 11
207.268931
 21
195.187447
 31
0.0
  0
LINE
  5
E9
330
1F
100
AcDbEntity
  8
GR1-1
  6
CONTINUOUS
 62
     3
100
AcDbLine
 10
197.764085
 20
190.223496
 30
0.0
 11
127.697863
 21
190.178938
 31
0.0
  0
ARC
  5
EA
330
1F
100
AcDbEntity
  8
GR1-1
  6
CONTINUOUS
 62
     3
100
AcDbCircle
 10
132.07244
 20
186.487447
 30
0.0
 40
5.0
100
AcDbArc
 50
132.402523
 51
180.0
  0
LINE
  5
EB
330
1F
100
AcDbEntity
  8
GR1-1
  6
CONTINUOUS
 62
     3
100
AcDbLine
 10
127.07244
 20
186.487447
 30
0.0
 11
127.07244
 21
181.846786
 31
0.0
  0
LINE
  5
EC
330
1F
100
AcDbEntity
  8
GR1-1
  6
CONTINUOUS
 62
     3
100
AcDbLine
 10
125.92244
 20
179.787447
 30
0.0
 11
126.456662
 21
178.787447
 31
0.0
  0
LINE
  5
ED
330
1F
100
AcDbEntity
  8
GR1-1
  6
CONTINUOUS
 62
     3
100
AcDbLine
 10
126.456662
 20
178.787447
 30
0.0
 11
198.388219
 21
178.787447
 31
0.0
  0
LINE
  5
EE
330
1F
100
AcDbEntity
  8
GR1-1
  6
CONTINUOUS
 62
     3
100
AcDbLine
 10
198.388219
 20
178.787447
 30
0.0
 11
198.92244
 21
179.787447
 31
0.0
  0
ARC
  5
EF
330
1F
100
AcDbEntity
  8
GR1-1
  6
CONTINUOUS
 62
     3
100
AcDbCircle
 10
202.589716
 20
183.186137
 30
0.0
 40
5.0
100
AcDbArc
 50
195.53757
 51
222.823172
  0
LINE
  5
F0
330
1F
100
AcDbEntity
  8
GR1-1
  6
CONTINUOUS
 62
     3
100
AcDbLine
 10
197.77244
 20
181.846786
 30
0.0
 11
197.77244
 21
186.487447
 31
0.0
  0
ARC
  5
F1
330
1F
100
AcDbEntity
  8
GR1-1
  6
CONTINUOUS
 62
     3
100
AcDbCircle
 10
192.77244
 20
186.487447
 30
0.0
 40
5.0
100
AcDbArc
 50
0.0
 51
48.330963
  0
ARC
  5
F2
330
1F
100
AcDbEntity
  8
GR1-1
  6
CONTINUOUS
 62
     3
100
AcDbCircle
 10
197.156003
 20
194.349569
 30
0.0
 40
4.17064044383066
100
AcDbArc
 50
255.603109
 51
328.774029
  0
LINE
  5
F3
330
1F
100
AcDbEntity
  8
GR1-1
  6
CONTINUOUS
 62
     3
100
AcDbLine
 10
195.82244
 20
178.684861
 30
0.0
 11
195.82244
 21
143.184861
 31
0.0
  0
LINE
  5
F4
330
1F
100
AcDbEntity
  8
GR1-1
  6
CONTINUOUS
 62
     3
100
AcDbLine
 10
185.42244
 20
99.121678
 30
0.0
 11
185.42244
 21
172.021678
 31
0.0
  0
ARC
  5
F5
330
1F
100
AcDbEntity
  8
GR1-1
  6
CONTINUOUS
 62
     3
100
AcDbCircle
 10
184.42244
 20
172.021678
 30
0.0
 40
1.0
100
AcDbArc
 50
0.0
 51
90.0
  0
LINE
  5
F6
330
1F
100
AcDbEntity
  8
GR1-1
  6
CONTINUOUS
 62
     3
100
AcDbLine
 10
184.42244
 20
173.021678
 30
0.0
 11
140.42244
 21
173.021678
 31
0.0
  0
ARC
  5
F7
330
1F
100
AcDbEntity
  8
GR1-1
  6
CONTINUOUS
 62
     3
100
AcDbCircle
 10
140.42244
 20
172.021678
 30
0.0
 40
1.0
100
AcDbArc
 50
90.0
 51
180.0
  0
LINE
  5
F8
330
1F
100
AcDbEntity
  8
GR1-1
  6
CONTINUOUS
 62
     3
100
AcDbLine
 10
139.42244
 20
172.021678
 30
0.0
 11
139.42244
 21
99.121678
 31
0.0
  0
LINE
  5
F9
330
1F
100
AcDbEntity
  8
GR1-1
  6
CONTINUOUS
 62
     3
100
AcDbLine
 10
139.42244
 20
99.121678
 30
0.0
 11
136.82244
 21
99.121678
 31
0.0
  0
LINE
  5
FA
330
1F
100
AcDbEntity
  8
GR1-1
  6
CONTINUOUS
 62
     3
100
AcDbLine
 10
136.82244
 20
99.121678
 30
0.0
 11
136.82244
 21
172.021678
 31
0.0
  0
LINE
  5
FB
330
1F
100
AcDbEntity
  8
GR1-1
  6
CONTINUOUS
 62
     3
100
AcDbLine
 10
140.42244
 20
175.621678
 30
0.0
 11
184.42244
 21
175.621678
 31
0.0
  0
LINE
  5
FC
330
1F
100
AcDbEntity
  8
GR1-1
  6
CONTINUOUS
 62
     3
100
AcDbLine
 10
188.02244
 20
172.021678
 30
0.0
 11
188.02244
 21
99.121678
 31
0.0
  0
LINE
  5
FD
330
1F
100
AcDbEntity
  8
GR1-1
  6
CONTINUOUS
 62
     3
100
AcDbLine
 10
188.02244
 20
99.121678
 30
0.0
 11
185.42244
 21
99.121678
 31
0.0
  0
ARC
  5
FE
330
1F
100
AcDbEntity
  8
GR1-1
  6
CONTINUOUS
 62
     3
100
AcDbCircle
 10
96.191811
 20
151.771923
 30
0.0
 40
100.0
100
AcDbArc
 50
343.107718
 51
355.073909
  0
ARC
  5
FF
330
1F
100
AcDbEntity
  8
GR1-1
  6
CONTINUOUS
 62
     3
100
AcDbCircle
 10
184.42244
 20
172.021678
 30
0.0
 40
3.6
100
AcDbArc
 50
0.0
 51
90.0
  0
CIRCLE
  5
100
330
1F
100
AcDbEntity
  8
GR1-1
  6
CONTINUOUS
 62
     3
100
AcDbCircle
 10
162.42244
 20
184.137447
 30
0.0
 40
2.15
  0
ARC
  5
101
330
1F
100
AcDbEntity
  8
GR1-1
  6
CONTINUOUS
 62
     6
100
AcDbCircle
 10
162.277579
 20
399.297316
 30
0.0
 40
221.6756850731445
100
AcDbArc
 50
264.12126
 51
275.87874
  0
LINE
  5
102
330
1F
100
AcDbEntity
  8
GR1-1
  6
CONTINUOUS
 62
     3
100
AcDbLine
 10
129.02244
 20
143.184861
 30
0.0
 11
129.02244
 21
178.684861
 31
0.0
  0
ARC
  5
103
330
1F
100
AcDbEntity
  8
GR1-1
  6
CONTINUOUS
 62
     3
100
AcDbCircle
 10
122.255165
 20
183.186137
 30
0.0
 40
5.0
100
AcDbArc
 50
317.176828
 51
344.46243
  0
ARC
  5
104
330
1F
100
AcDbEntity
  8
GR1-1
  6
CONTINUOUS
 62
     3
100
AcDbCircle
 10
127.688878
 20
194.349569
 30
0.0
 40
4.17064044383066
100
AcDbArc
 50
211.225971
 51
283.639725
  0
ARC
  5
105
330
1F
100
AcDbEntity
  8
GR1-1
  6
CONTINUOUS
 62
     3
100
AcDbCircle
 10
140.42244
 20
172.021678
 30
0.0
 40
3.6
100
AcDbArc
 50
90.0
 51
180.0
  0
ARC
  5
106
330
1F
100
AcDbEntity
  8
GR1-1
  6
CONTINUOUS
 62
     3
100
AcDbCircle
 10
228.65307
 20
151.771923
 30
0.0
 40
100.0
100
AcDbArc
 50
184.926091
 51
196.030449
  0
LINE
  5
107
330
1F
100
AcDbEntity
  8
LAYERGROUP-1
  6
CONTINUOUS
 62
     6
100
AcDbLine
 10
125.92244
 20
179.787447
 30
0.0
 11
198.92244
 21
179.787447
 31
0.0
  0
CIRCLE
  5
108
330
1F
100
AcDbEntity
  8
GR1-1
  6
CONTINUOUS
 62
     3
100
AcDbCircle
 10
400.027239
 20
184.137447
 30
0.0
 40
2.15
  0
LINE
  5
109
330
1F
100
AcDbEntity
  8
GR1-1
  6
CONTINUOUS
 62
     3
100
AcDbLine
 10
427.42373
 20
195.187447
 30
0.0
 11
427.42373
 21
192.187447
 31
0.0
  0
LINE
  5
10A
330
1F
100
AcDbEntity
  8
GR1-1
  6
CONTINUOUS
 62
     3
100
AcDbLine
 10
418.543018
 20
178.787447
 30
0.0
 11
419.077239
 21
179.787447
 31
0.0
  0
ARC
  5
10B
330
1F
100
AcDbEntity
  8
GR1-1
  6
CONTINUOUS
 62
     3
100
AcDbCircle
 10
417.310802
 20
194.349569
 30
0.0
 40
4.17064044383066
100
AcDbArc
 50
270.0
 51
328.774029
  0
LINE
  5
10C
330
1F
100
AcDbEntity
  8
GR1-1
  6
CONTINUOUS
 62
     3
100
AcDbLine
 10
427.42373
 20
195.187447
 30
0.0
 11
337.730749
 21
195.187447
 31
0.0
  0
ARC
  5
10D
330
1F
100
AcDbEntity
  8
GR1-1
  6
CONTINUOUS
 62
     3
100
AcDbCircle
 10
422.744514
 20
183.186137
 30
0.0
 40
5.0
100
AcDbArc
 50
195.53757
 51
222.823172
  0
ARC
  5
10E
330
1F
100
AcDbEntity
  8
GR1-1
  6
CONTINUOUS
 62
     3
100
AcDbCircle
 10
346.977239
 20
113.121678
 30
0.0
 40
14.0
100
AcDbArc
 50
174.039058
 51
329.185061
  0
LINE
  5
10F
330
1F
100
AcDbEntity
  8
GR1-1
  6
CONTINUOUS
 62
     3
100
AcDbLine
 10
359.000808
 20
105.949942
 30
0.0
 11
395.809909
 21
160.521678
 31
0.0
  0
LINE
  5
110
330
1F
100
AcDbEntity
  8
GR1-1
  6
CONTINUOUS
 62
     3
100
AcDbLine
 10
413.377239
 20
172.98672
 30
0.0
 11
415.977239
 21
172.98672
 31
0.0
  0
LINE
  5
111
330
1F
100
AcDbEntity
  8
GR1-1
  6
CONTINUOUS
 62
     3
100
AcDbLine
 10
415.977239
 20
172.98672
 30
0.0
 11
415.977239
 21
178.68672
 31
0.0
  0
ARC
  5
112
330
1F
100
AcDbEntity
  8
GR1-1
  6
CONTINUOUS
 62
     3
100
AcDbCircle
 10
411.477239
 20
178.68672
 30
0.0
 40
4.5
100
AcDbArc
 50
0.0
 51
1.282608
  0
ARC
  5
113
330
1F
100
AcDbEntity
  8
GR1-1
  6
CONTINUOUS
 62
     3
100
AcDbCircle
 10
421.238249
 20
143.296395
 30
0.0
 40
30.71336637456328
100
AcDbArc
 50
104.829737
 51
145.886094
  0
LINE
  5
114
330
1F
100
AcDbEntity
  8
GR1-1
  6
CONTINUOUS
 62
     3
100
AcDbLine
 10
347.677239
 20
175.621678
 30
0.0
 11
332.977239
 21
175.621678
 31
0.0
  0
LINE
  5
115
330
1F
100
AcDbEntity
  8
GR1-1
  6
CONTINUOUS
 62
     3
100
AcDbLine
 10
332.977239
 20
175.621678
 30
0.0
 11
332.977239
 21
173.021678
 31
0.0
  0
LINE
  5
116
330
1F
100
AcDbEntity
  8
GR1-1
  6
CONTINUOUS
 62
     3
100
AcDbLine
 10
332.977239
 20
173.021678
 30
0.0
 11
339.19587
 21
173.021678
 31
0.0
  0
LINE
  5
117
330
1F
100
AcDbEntity
  8
LAYERGROUP-1
  6
CONTINUOUS
 62
     3
100
AcDbLine
 10
339.469141
 20
175.621678
 30
0.0
 11
333.052938
 21
114.575585
 31
0.0
  0
LINE
  5
118
330
1F
100
AcDbEntity
  8
LAYERGROUP-1
  6
CONTINUOUS
 62
     3
100
AcDbLine
 10
427.42373
 20
192.187447
 30
0.0
 11
337.730749
 21
192.187447
 31
0.0
  0
LINE
  5
119
330
1F
100
AcDbEntity
  8
LAYERGROUP-1
  6
CONTINUOUS
 62
     3
100
AcDbLine
 10
417.310802
 20
190.178928
 30
0.0
 11
347.843676
 21
190.178928
 31
0.0
  0
LINE
  5
11A
330
1F
100
AcDbEntity
  8
LAYERGROUP-1
  6
CONTINUOUS
 62
     3
100
AcDbLine
 10
418.543018
 20
178.787447
 30
0.0
 11
346.61146
 21
178.787447
 31
0.0
  0
LINE
  5
11B
330
1F
100
AcDbEntity
  8
GR1-1
  6
CONTINUOUS
 62
     3
100
AcDbLine
 10
417.927239
 20
181.846786
 30
0.0
 11
417.927239
 21
186.487447
 31
0.0
  0
ARC
  5
11C
330
1F
100
AcDbEntity
  8
GR1-1
  6
CONTINUOUS
 62
     3
100
AcDbCircle
 10
412.927239
 20
186.487447
 30
0.0
 40
5.0
100
AcDbArc
 50
0.0
 51
47.586476
  0
LINE
  5
11D
330
1F
100
AcDbEntity
  8
LAYERGROUP-1
  6
CONTINUOUS
 62
     6
100
AcDbLine
 10
419.077239
 20
179.787447
 30
0.0
 11
346.077239
 21
179.787447
 31
0.0
  0
LINE
  5
11E
330
1F
100
AcDbEntity
  8
LAYERGROUP-1
  6
CENTER
 62
     6
100
AcDbLine
 10
396.610456
 20
184.137447
 30
0.0
 11
403.060844
 21
184.137447
 31
0.0
  0
LINE
  5
11F
330
1F
100
AcDbEntity
  8
LAYERGROUP-1
  6
CENTER
 62
     6
100
AcDbLine
 10
400.027239
 20
187.32535
 30
0.0
 11
400.027239
 21
180.958732
 31
0.0
  0
CIRCLE
  5
120
330
1F
100
AcDbEntity
  8
GR1-1
  6
CONTINUOUS
 62
     6
100
AcDbCircle
 10
347.577239
 20
113.187451
 30
0.0
 40
3.0
  0
ARC
  5
121
330
1F
100
AcDbEntity
  8
GR1-1
  6
CONTINUOUS
 62
     3
100
AcDbCircle
 10
435.577239
 20
315.187447
 30
0.0
 40
100.0
100
AcDbArc
 50
168.521659
 51
191.478341
  0
LINE
  5
122
330
1F
100
AcDbEntity
  8
GR1-1
  6
CENTER
 62
     6
100
AcDbLine
 10
348.577239
 20
342.388789
 30
0.0
 11
348.577239
 21
356.711
 31
0.0
  0
LINE
  5
123
330
1F
100
AcDbEntity
  8
GR1-1
  6
CENTER
 62
     6
100
AcDbLine
 10
354.464491
 20
350.687447
 30
0.0
 11
339.64498
 21
350.687447
 31
0.0
  0
LINE
  5
124
330
1F
100
AcDbEntity
  8
GR1-1
  6
CENTER
 62
     6
100
AcDbLine
 10
341.136877
 20
349.187447
 30
0.0
 11
355.956388
 21
349.187447
 31
0.0
  0
LINE
  5
125
330
1F
100
AcDbEntity
  8
GR1-1
  6
CENTER
 62
     6
100
AcDbLine
 10
347.077239
 20
357.307759
 30
0.0
 11
347.077239
 21
343.184467
 31
0.0
  0
LINE
  5
126
330
1F
100
AcDbEntity
  8
GR1-1
  6
CENTER
 62
     6
100
AcDbLine
 10
416.577239
 20
287.986106
 30
0.0
 11
416.577239
 21
273.663895
 31
0.0
  0
LINE
  5
127
330
1F
100
AcDbEntity
  8
GR1-1
  6
CENTER
 62
     6
100
AcDbLine
 10
410.689988
 20
279.687447
 30
0.0
 11
425.509498
 21
279.687447
 31
0.0
  0
LINE
  5
128
330
1F
100
AcDbEntity
  8
GR1-1
  6
CENTER
 62
     6
100
AcDbLine
 10
424.017601
 20
281.187447
 30
0.0
 11
409.198091
 21
281.187447
 31
0.0
  0
LINE
  5
129
330
1F
100
AcDbEntity
  8
GR1-1
  6
CENTER
 62
     6
100
AcDbLine
 10
418.077239
 20
273.067136
 30
0.0
 11
418.077239
 21
287.190427
 31
0.0
  0
LINE
  5
12A
330
1F
100
AcDbEntity
  8
GR1-1
  6
CENTER
 62
     6
100
AcDbLine
 10
348.577239
 20
287.986106
 30
0.0
 11
348.577239
 21
273.663895
 31
0.0
  0
LINE
  5
12B
330
1F
100
AcDbEntity
  8
GR1-1
  6
CENTER
 62
     6
100
AcDbLine
 10
354.464491
 20
279.687447
 30
0.0
 11
339.64498
 21
279.687447
 31
0.0
  0
LINE
  5
12C
330
1F
100
AcDbEntity
  8
GR1-1
  6
CENTER
 62
     6
100
AcDbLine
 10
341.136877
 20
281.187447
 30
0.0
 11
355.956388
 21
281.187447
 31
0.0
  0
LINE
  5
12D
330
1F
100
AcDbEntity
  8
GR1-1
  6
CENTER
 62
     6
100
AcDbLine
 10
347.077239
 20
273.067136
 30
0.0
 11
347.077239
 21
287.190427
 31
0.0
  0
LINE
  5
12E
330
1F
100
AcDbEntity
  8
GR1-1
  6
CONTINUOUS
 62
     3
100
AcDbLine
 10
337.730749
 20
195.187447
 30
0.0
 11
337.730749
 21
192.187447
 31
0.0
  0
LINE
  5
12F
330
1F
100
AcDbEntity
  8
GR1-1
  6
CONTINUOUS
 62
     3
100
AcDbLine
 10
346.61146
 20
178.787447
 30
0.0
 11
346.077239
 21
179.787447
 31
0.0
  0
ARC
  5
130
330
1F
100
AcDbEntity
  8
GR1-1
  6
CONTINUOUS
 62
     3
100
AcDbCircle
 10
347.843676
 20
194.349569
 30
0.0
 40
4.17064044383066
100
AcDbArc
 50
211.225971
 51
270.0
  0
ARC
  5
131
330
1F
100
AcDbEntity
  8
GR1-1
  6
CONTINUOUS
 62
     3
100
AcDbCircle
 10
342.409964
 20
183.186137
 30
0.0
 40
5.0
100
AcDbArc
 50
317.176828
 51
344.46243
  0
LINE
  5
132
330
1F
100
AcDbEntity
  8
GR1-1
  6
CONTINUOUS
 62
     3
100
AcDbLine
 10
347.227239
 20
181.846786
 30
0.0
 11
347.227239
 21
186.487447
 31
0.0
  0
ARC
  5
133
330
1F
100
AcDbEntity
  8
GR1-1
  6
CONTINUOUS
 62
     3
100
AcDbCircle
 10
352.227239
 20
186.487447
 30
0.0
 40
5.0
100
AcDbArc
 50
132.413524
 51
180.0
  0
ARC
  5
134
330
1F
100
AcDbEntity
  8
GR1-1
  6
CONTINUOUS
 62
     3
100
AcDbCircle
 10
347.677239
 20
177.121674
 30
0.0
 40
1.5
100
AcDbArc
 50
270.0
 51
360.0
  0
ARC
  5
135
330
1F
100
AcDbEntity
  8
LAYERGROUP-1
  6
CONTINUOUS
 62
     6
100
AcDbCircle
 10
356.210206
 20
180.621674
 30
0.0
 40
5.0
100
AcDbArc
 50
270.0
 51
330.856963
  0
LINE
  5
136
330
1F
100
AcDbEntity
  8
LAYERGROUP-1
  6
CONTINUOUS
 62
     6
100
AcDbLine
 10
356.210206
 20
175.621674
 30
0.0
 11
347.677239
 21
175.621674
 31
0.0
  0
LINE
  5
137
330
1F
100
AcDbEntity
  8
GR1-1
  6
CONTINUOUS
 62
     3
100
AcDbLine
 10
349.177239
 20
177.121674
 30
0.0
 11
349.177239
 21
178.68672
 31
0.0
  0
ARC
  5
138
330
1F
100
AcDbEntity
  8
GR1-1
  6
CONTINUOUS
 62
     3
100
AcDbCircle
 10
353.677239
 20
178.68672
 30
0.0
 40
4.5
100
AcDbArc
 50
178.717392
 51
180.0
  0
LINE
  5
139
330
1F
100
AcDbEntity
  8
LAYERGROUP-1
  6
CENTER
 62
     6
100
AcDbLine
 10
158.970365
 20
184.137447
 30
0.0
 11
165.500506
 21
184.137447
 31
0.0
  0
LINE
  5
13A
330
1F
100
AcDbEntity
  8
LAYERGROUP-1
  6
CONTINUOUS
 62
     3
100
AcDbLine
 10
139.92244
 20
119.187451
 30
0.0
 11
139.42244
 21
119.187451
 31
0.0
  0
LINE
  5
13B
330
1F
100
AcDbEntity
  8
LAYERGROUP-1
  6
CONTINUOUS
 62
     3
100
AcDbLine
 10
184.92244
 20
119.187451
 30
0.0
 11
185.42244
 21
119.187451
 31
0.0
  0
LINE
  5
13C
330
1F
100
AcDbEntity
  8
LAYERGROUP-1
  6
CONTINUOUS
 62
     3
100
AcDbLine
 10
139.42244
 20
107.187451
 30
0.0
 11
139.92244
 21
107.187451
 31
0.0
  0
LINE
  5
13D
330
1F
100
AcDbEntity
  8
LAYERGROUP-1
  6
CONTINUOUS
 62
     3
100
AcDbLine
 10
185.42244
 20
107.187451
 30
0.0
 11
184.92244
 21
107.187451
 31
0.0
  0
TEXT
  5
13E
330
1F
100
AcDbEntity
  8
}}ﾊﾊGG血CCТ
  6
CONTINUOUS
 62
     7
100
AcDbText
 10
329.0
 20
12.0
 30
0.0
 40
6.0
  1
ＳＪ－１００　ＮＢ
 41
0.792453
  7
FX_VECTOR
 72
     5
 11
365.0
 21
12.0
 31
0.0
100
AcDbText
  0
TEXT
  5
13F
330
1F
100
AcDbEntity
  8
LAYERGROUP-1
  6
CONTINUOUS
 62
     7
100
AcDbText
 10
429.0
 20
12.0
 30
0.0
 40
6.0
  1
S30A0QAA-C02
 41
0.7
  7
FX_VECTOR
 72
     5
 11
477.0
 21
12.0
 31
0.0
100
AcDbText
  0
LINE
  5
140
330
1F
100
AcDbEntity
  8
GR1-1
  6
CONTINUOUS
 62
     6
100
AcDbLine
 10
360.577239
 20
172.021678
 30
0.0
 11
360.577239
 21
116.184861
 31
0.0
  0
CIRCLE
  5
141
330
1F
100
AcDbEntity
  8
LAYERGROUP-1
  6
CONTINUOUS
 62
     3
100
AcDbCircle
 10
347.581985
 20
113.206755
 30
0.0
 40
10.0
  0
ARC
  5
142
330
1F
100
AcDbEntity
  8
LAYERGROUP-1
  6
CONTINUOUS
 62
     3
100
AcDbCircle
 10
347.581985
 20
113.206755
 30
0.0
 40
50.0
100
AcDbArc
 50
-259.03121
 51
40.306464
  0
TEXT
  5
143
330
1F
100
AcDbEntity
  8
GR1-1
  6
CONTINUOUS
 62
     7
100
AcDbText
 10
459.803288
 20
253.875737
 30
0.0
 40
4.0
  1
4-11
 50
45.0
 41
0.818182
  7
FX_VECTOR
 72
     5
 11
468.28857
 21
262.361018
 31
0.0
100
AcDbText
  0
LINE
  5
144
330
1F
100
AcDbEntity
  8
GR1-1
  6
CONTINUOUS
 62
     7
100
AcDbLine
 10
414.895259
 20
275.091253
 30
0.0
 11
449.455534
 21
240.530978
 31
0.0
  0
LINE
  5
145
330
1F
100
AcDbEntity
  8
GR1-1
  6
CONTINUOUS
 62
     7
100
AcDbLine
 10
422.673433
 20
282.869428
 30
0.0
 11
457.233709
 21
248.309152
 31
0.0
  0
LINE
  5
146
330
1F
100
AcDbEntity
  8
GR1-1
  6
CONTINUOUS
 62
     7
100
AcDbLine
 10
448.748428
 20
241.238084
 30
0.0
 11
456.526602
 21
249.016259
 31
0.0
  0
LINE
  5
147
330
1F
100
AcDbEntity
  8
GR1-1
  6
CONTINUOUS
 62
     7
100
AcDbLine
 10
470.772822
 20
263.262479
 30
0.0
 11
456.526602
 21
249.016259
 31
0.0
  0
INSERT
  5
148
330
1F
100
AcDbEntity
  8
GR1-1
  6
CONTINUOUS
 62
     7
100
AcDbBlockReference
  2
FXTIP_ARROW_E
 10
456.526602
 20
249.016259
 30
0.0
 41
4.0
 42
4.0
 50
225.0
  0
LINE
  5
149
330
1F
100
AcDbEntity
  8
GR1-1
  6
CONTINUOUS
 62
     7
100
AcDbLine
 10
444.505787
 20
236.995444
 30
0.0
 11
448.748428
 21
241.238084
 31
0.0
  0
INSERT
  5
14A
330
1F
100
AcDbEntity
  8
GR1-1
  6
CONTINUOUS
 62
     7
100
AcDbBlockReference
  2
FXTIP_ARROW_E
 10
448.748428
 20
241.238084
 30
0.0
 41
4.0
 42
4.0
 50
45.0
  0
TEXT
  5
14B
330
1F
100
AcDbEntity
  8
GR1-1
  6
CONTINUOUS
 62
     7
100
AcDbText
 10
436.689941
 20
151.187454
 30
0.0
 40
4.0
  1
82
 50
90.0
 41
0.851351
  7
FX_VECTOR
 72
     5
 11
436.689941
 21
157.187454
 31
0.0
100
AcDbText
  0
LINE
  5
14C
330
1F
100
AcDbEntity
  8
GR1-1
  6
CONTINUOUS
 62
     7
100
AcDbLine
 10
401.214822
 20
113.187451
 30
0.0
 11
438.689948
 21
113.187451
 31
0.0
  0
LINE
  5
14D
330
1F
100
AcDbEntity
  8
GR1-1
  6
CONTINUOUS
 62
     7
100
AcDbLine
 10
428.577239
 20
195.187447
 30
0.0
 11
448.518895
 21
195.187447
 31
0.0
  0
LINE
  5
14E
330
1F
100
AcDbEntity
  8
GR1-1
  6
CONTINUOUS
 62
     7
100
AcDbLine
 10
437.689948
 20
113.187451
 30
0.0
 11
437.689948
 21
195.187447
 31
0.0
  0
INSERT
  5
14F
330
1F
100
AcDbEntity
  8
GR1-1
  6
CONTINUOUS
 62
     7
100
AcDbBlockReference
  2
FXTIP_ARROW_S
 10
437.689948
 20
113.187451
 30
0.0
 41
4.0
 42
4.0
 50
270.0
  0
INSERT
  5
150
330
1F
100
AcDbEntity
  8
GR1-1
  6
CONTINUOUS
 62
     7
100
AcDbBlockReference
  2
FXTIP_ARROW_E
 10
437.689948
 20
195.187447
 30
0.0
 41
4.0
 42
4.0
 50
90.0
  0
TEXT
  5
151
330
1F
100
AcDbEntity
  8
GR1-1
  6
CONTINUOUS
 62
     7
100
AcDbText
 10
446.51889
 20
124.687454
 30
0.0
 40
4.0
  1
132
 50
90.0
 41
0.828947
  7
FX_VECTOR
 72
     5
 11
446.51889
 21
133.687454
 31
0.0
100
AcDbText
  0
LINE
  5
152
330
1F
100
AcDbEntity
  8
GR1-1
  6
CONTINUOUS
 62
     7
100
AcDbLine
 10
348.577239
 20
63.187447
 30
0.0
 11
448.518895
 21
63.187447
 31
0.0
  0
LINE
  5
153
330
1F
100
AcDbEntity
  8
GR1-1
  6
CONTINUOUS
 62
     7
100
AcDbLine
 10
447.518895
 20
63.187447
 30
0.0
 11
447.518895
 21
195.187447
 31
0.0
  0
INSERT
  5
154
330
1F
100
AcDbEntity
  8
GR1-1
  6
CONTINUOUS
 62
     7
100
AcDbBlockReference
  2
FXTIP_ARROW_S
 10
447.518895
 20
63.187447
 30
0.0
 41
4.0
 42
4.0
 50
270.0
  0
INSERT
  5
155
330
1F
100
AcDbEntity
  8
GR1-1
  6
CONTINUOUS
 62
     7
100
AcDbBlockReference
  2
FXTIP_ARROW_E
 10
447.518895
 20
195.187447
 30
0.0
 41
4.0
 42
4.0
 50
90.0
  0
TEXT
  5
156
330
1F
100
AcDbEntity
  8
GR1-1
  6
CONTINUOUS
 62
     7
100
AcDbText
 10
362.07724
 20
54.2201
 30
0.0
 40
4.0
  1
35
 41
0.851351
  7
FX_VECTOR
 72
     5
 11
368.07724
 21
54.2201
 31
0.0
100
AcDbText
  0
LINE
  5
157
330
1F
100
AcDbEntity
  8
GR1-1
  6
CONTINUOUS
 62
     7
100
AcDbLine
 10
347.577239
 20
59.536047
 30
0.0
 11
347.577239
 21
52.220102
 31
0.0
  0
LINE
  5
158
330
1F
100
AcDbEntity
  8
GR1-1
  6
CONTINUOUS
 62
     7
100
AcDbLine
 10
382.577239
 20
65.589539
 30
0.0
 11
382.577239
 21
52.220102
 31
0.0
  0
LINE
  5
159
330
1F
100
AcDbEntity
  8
GR1-1
  6
CONTINUOUS
 62
     7
100
AcDbLine
 10
347.577239
 20
53.220102
 30
0.0
 11
382.577239
 21
53.220102
 31
0.0
  0
INSERT
  5
15A
330
1F
100
AcDbEntity
  8
GR1-1
  6
CONTINUOUS
 62
     7
100
AcDbBlockReference
  2
FXTIP_ARROW_S
 10
347.577239
 20
53.220102
 30
0.0
 41
4.0
 42
4.0
 50
180.0
  0
INSERT
  5
15B
330
1F
100
AcDbEntity
  8
GR1-1
  6
CONTINUOUS
 62
     7
100
AcDbBlockReference
  2
FXTIP_ARROW_E
 10
382.577239
 20
53.220102
 30
0.0
 41
4.0
 42
4.0
 50
360.0
  0
TEXT
  5
15C
330
1F
100
AcDbEntity
  8
GR1-1
  6
CONTINUOUS
 62
     7
100
AcDbText
 10
436.576111
 20
312.187439
 30
0.0
 40
4.0
  1
68
 50
90.0
 41
0.851351
  7
FX_VECTOR
 72
     5
 11
436.576111
 21
318.187439
 31
0.0
100
AcDbText
  0
LINE
  5
15D
330
1F
100
AcDbEntity
  8
GR1-1
  6
CONTINUOUS
 62
     7
100
AcDbLine
 10
425.077239
 20
349.187447
 30
0.0
 11
438.576127
 21
349.187447
 31
0.0
  0
LINE
  5
15E
330
1F
100
AcDbEntity
  8
GR1-1
  6
CONTINUOUS
 62
     7
100
AcDbLine
 10
425.077239
 20
281.187447
 30
0.0
 11
438.576127
 21
281.187447
 31
0.0
  0
LINE
  5
15F
330
1F
100
AcDbEntity
  8
GR1-1
  6
CONTINUOUS
 62
     7
100
AcDbLine
 10
437.576127
 20
349.187447
 30
0.0
 11
437.576127
 21
281.187447
 31
0.0
  0
INSERT
  5
160
330
1F
100
AcDbEntity
  8
GR1-1
  6
CONTINUOUS
 62
     7
100
AcDbBlockReference
  2
FXTIP_ARROW_S
 10
437.576127
 20
349.187447
 30
0.0
 41
4.0
 42
4.0
 50
90.0
  0
INSERT
  5
161
330
1F
100
AcDbEntity
  8
GR1-1
  6
CONTINUOUS
 62
     7
100
AcDbBlockReference
  2
FXTIP_ARROW_E
 10
437.576127
 20
281.187447
 30
0.0
 41
4.0
 42
4.0
 50
270.0
  0
TEXT
  5
162
330
1F
100
AcDbEntity
  8
GR1-1
  6
CONTINUOUS
 62
     7
100
AcDbText
 10
446.576141
 20
312.187439
 30
0.0
 40
4.0
  1
71
 50
90.0
 41
1.016129
  7
FX_VECTOR
 72
     5
 11
446.576141
 21
318.187439
 31
0.0
100
AcDbText
  0
LINE
  5
163
330
1F
100
AcDbEntity
  8
GR1-1
  6
CONTINUOUS
 62
     7
100
AcDbLine
 10
426.577239
 20
350.687447
 30
0.0
 11
448.576127
 21
350.687447
 31
0.0
  0
LINE
  5
164
330
1F
100
AcDbEntity
  8
GR1-1
  6
CONTINUOUS
 62
     7
100
AcDbLine
 10
426.577239
 20
279.687447
 30
0.0
 11
448.576127
 21
279.687447
 31
0.0
  0
LINE
  5
165
330
1F
100
AcDbEntity
  8
GR1-1
  6
CONTINUOUS
 62
     7
100
AcDbLine
 10
447.576127
 20
350.687447
 30
0.0
 11
447.576127
 21
279.687447
 31
0.0
  0
INSERT
  5
166
330
1F
100
AcDbEntity
  8
GR1-1
  6
CONTINUOUS
 62
     7
100
AcDbBlockReference
  2
FXTIP_ARROW_S
 10
447.576127
 20
350.687447
 30
0.0
 41
4.0
 42
4.0
 50
90.0
  0
INSERT
  5
167
330
1F
100
AcDbEntity
  8
GR1-1
  6
CONTINUOUS
 62
     7
100
AcDbBlockReference
  2
FXTIP_ARROW_E
 10
447.576127
 20
279.687447
 30
0.0
 41
4.0
 42
4.0
 50
270.0
  0
TEXT
  5
168
330
1F
100
AcDbEntity
  8
GR1-1
  6
CONTINUOUS
 62
     7
100
AcDbText
 10
456.576141
 20
312.187439
 30
0.0
 40
4.0
  1
90
 50
90.0
 41
0.851351
  7
FX_VECTOR
 72
     5
 11
456.576141
 21
318.187439
 31
0.0
100
AcDbText
  0
LINE
  5
169
330
1F
100
AcDbEntity
  8
GR1-1
  6
CONTINUOUS
 62
     7
100
AcDbLine
 10
418.577239
 20
270.187447
 30
0.0
 11
458.576127
 21
270.187447
 31
0.0
  0
LINE
  5
16A
330
1F
100
AcDbEntity
  8
GR1-1
  6
CONTINUOUS
 62
     7
100
AcDbLine
 10
418.577239
 20
360.187447
 30
0.0
 11
458.576127
 21
360.187447
 31
0.0
  0
LINE
  5
16B
330
1F
100
AcDbEntity
  8
GR1-1
  6
CONTINUOUS
 62
     7
100
AcDbLine
 10
457.576127
 20
270.187447
 30
0.0
 11
457.576127
 21
360.187447
 31
0.0
  0
INSERT
  5
16C
330
1F
100
AcDbEntity
  8
GR1-1
  6
CONTINUOUS
 62
     7
100
AcDbBlockReference
  2
FXTIP_ARROW_S
 10
457.576127
 20
270.187447
 30
0.0
 41
4.0
 42
4.0
 50
270.0
  0
INSERT
  5
16D
330
1F
100
AcDbEntity
  8
GR1-1
  6
CONTINUOUS
 62
     7
100
AcDbBlockReference
  2
FXTIP_ARROW_E
 10
457.576127
 20
360.187447
 30
0.0
 41
4.0
 42
4.0
 50
90.0
  0
TEXT
  5
16E
330
1F
100
AcDbEntity
  8
GR1-1
  6
CONTINUOUS
 62
     7
100
AcDbText
 10
379.577209
 20
261.145538
 30
0.0
 40
4.0
  1
68
 41
0.851351
  7
FX_VECTOR
 72
     5
 11
385.577209
 21
261.145538
 31
0.0
100
AcDbText
  0
LINE
  5
16F
330
1F
100
AcDbEntity
  8
GR1-1
  6
CONTINUOUS
 62
     7
100
AcDbLine
 10
348.577239
 20
272.687447
 30
0.0
 11
348.577239
 21
259.145547
 31
0.0
  0
LINE
  5
170
330
1F
100
AcDbEntity
  8
GR1-1
  6
CONTINUOUS
 62
     7
100
AcDbLine
 10
416.577239
 20
272.687447
 30
0.0
 11
416.577239
 21
259.145547
 31
0.0
  0
LINE
  5
171
330
1F
100
AcDbEntity
  8
GR1-1
  6
CONTINUOUS
 62
     7
100
AcDbLine
 10
348.577239
 20
260.145547
 30
0.0
 11
416.577239
 21
260.145547
 31
0.0
  0
INSERT
  5
172
330
1F
100
AcDbEntity
  8
GR1-1
  6
CONTINUOUS
 62
     7
100
AcDbBlockReference
  2
FXTIP_ARROW_S
 10
348.577239
 20
260.145547
 30
0.0
 41
4.0
 42
4.0
 50
180.0
  0
INSERT
  5
173
330
1F
100
AcDbEntity
  8
GR1-1
  6
CONTINUOUS
 62
     7
100
AcDbBlockReference
  2
FXTIP_ARROW_E
 10
416.577239
 20
260.145547
 30
0.0
 41
4.0
 42
4.0
 50
360.0
  0
TEXT
  5
174
330
1F
100
AcDbEntity
  8
GR1-1
  6
CONTINUOUS
 62
     7
100
AcDbText
 10
379.57724
 20
251.145554
 30
0.0
 40
4.0
  1
71
 41
1.016129
  7
FX_VECTOR
 72
     5
 11
385.57724
 21
251.145554
 31
0.0
100
AcDbText
  0
LINE
  5
175
330
1F
100
AcDbEntity
  8
GR1-1
  6
CONTINUOUS
 62
     7
100
AcDbLine
 10
347.077239
 20
271.187447
 30
0.0
 11
347.077239
 21
249.145547
 31
0.0
  0
LINE
  5
176
330
1F
100
AcDbEntity
  8
GR1-1
  6
CONTINUOUS
 62
     7
100
AcDbLine
 10
418.077239
 20
271.187447
 30
0.0
 11
418.077239
 21
249.145547
 31
0.0
  0
LINE
  5
177
330
1F
100
AcDbEntity
  8
GR1-1
  6
CONTINUOUS
 62
     7
100
AcDbLine
 10
347.077239
 20
250.145547
 30
0.0
 11
418.077239
 21
250.145547
 31
0.0
  0
INSERT
  5
178
330
1F
100
AcDbEntity
  8
GR1-1
  6
CONTINUOUS
 62
     7
100
AcDbBlockReference
  2
FXTIP_ARROW_S
 10
347.077239
 20
250.145547
 30
0.0
 41
4.0
 42
4.0
 50
180.0
  0
INSERT
  5
179
330
1F
100
AcDbEntity
  8
GR1-1
  6
CONTINUOUS
 62
     7
100
AcDbBlockReference
  2
FXTIP_ARROW_E
 10
418.077239
 20
250.145547
 30
0.0
 41
4.0
 42
4.0
 50
360.0
  0
TEXT
  5
17A
330
1F
100
AcDbEntity
  8
GR1-1
  6
CONTINUOUS
 62
     7
100
AcDbText
 10
379.57724
 20
241.145554
 30
0.0
 40
4.0
  1
90
 41
0.851351
  7
FX_VECTOR
 72
     5
 11
385.57724
 21
241.145554
 31
0.0
100
AcDbText
  0
LINE
  5
17B
330
1F
100
AcDbEntity
  8
GR1-1
  6
CONTINUOUS
 62
     7
100
AcDbLine
 10
337.577239
 20
279.187447
 30
0.0
 11
337.577239
 21
239.145547
 31
0.0
  0
LINE
  5
17C
330
1F
100
AcDbEntity
  8
GR1-1
  6
CONTINUOUS
 62
     7
100
AcDbLine
 10
427.577239
 20
279.187447
 30
0.0
 11
427.577239
 21
239.145547
 31
0.0
  0
LINE
  5
17D
330
1F
100
AcDbEntity
  8
GR1-1
  6
CONTINUOUS
 62
     7
100
AcDbLine
 10
337.577239
 20
240.145547
 30
0.0
 11
427.577239
 21
240.145547
 31
0.0
  0
INSERT
  5
17E
330
1F
100
AcDbEntity
  8
GR1-1
  6
CONTINUOUS
 62
     7
100
AcDbBlockReference
  2
FXTIP_ARROW_S
 10
337.577239
 20
240.145547
 30
0.0
 41
4.0
 42
4.0
 50
180.0
  0
INSERT
  5
17F
330
1F
100
AcDbEntity
  8
GR1-1
  6
CONTINUOUS
 62
     7
100
AcDbBlockReference
  2
FXTIP_ARROW_E
 10
427.577239
 20
240.145547
 30
0.0
 41
4.0
 42
4.0
 50
360.0
  0
LINE
  5
180
330
1F
100
AcDbEntity
  8
GR1-1
  6
CENTER
 62
     6
100
AcDbLine
 10
196.373666
 20
113.187451
 30
0.0
 11
122.654566
 21
113.187451
 31
0.0
  0
LINE
  5
181
330
1F
100
AcDbEntity
  8
GR1-1
  6
CENTER
 62
     6
100
AcDbLine
 10
162.42244
 20
60.19266
 30
0.0
 11
162.42244
 21
200.657308
 31
0.0
  0
TEXT
  5
182
330
1F
100
AcDbEntity
  8
LAYERGROUP-1
  6
CONTINUOUS
 62
     7
100
AcDbText
 10
217.840271
 20
107.187454
 30
0.0
 40
4.0
  1
%%c100
 50
90.0
 41
0.828947
  7
FX_VECTOR
 72
     5
 11
217.840271
 21
119.187454
 31
0.0
100
AcDbText
  0
LINE
  5
183
330
1F
100
AcDbEntity
  8
LAYERGROUP-1
  6
CONTINUOUS
 62
     7
100
AcDbLine
 10
218.840264
 20
63.187451
 30
0.0
 11
218.840264
 21
163.187451
 31
0.0
  0
INSERT
  5
184
330
1F
100
AcDbEntity
  8
LAYERGROUP-1
  6
CONTINUOUS
 62
     7
100
AcDbBlockReference
  2
FXTIP_ARROW_S
 10
218.840264
 20
63.187451
 30
0.0
 41
4.0
 42
4.0
 50
270.0
  0
INSERT
  5
185
330
1F
100
AcDbEntity
  8
LAYERGROUP-1
  6
CONTINUOUS
 62
     7
100
AcDbBlockReference
  2
FXTIP_ARROW_E
 10
218.840264
 20
163.187451
 30
0.0
 41
4.0
 42
4.0
 50
90.0
  0
LINE
  5
186
330
1F
100
AcDbEntity
  8
LAYERGROUP-1
  6
CONTINUOUS
 62
     7
100
AcDbLine
 10
163.42244
 20
63.187451
 30
0.0
 11
219.840264
 21
63.187451
 31
0.0
  0
LINE
  5
187
330
1F
100
AcDbEntity
  8
LAYERGROUP-1
  6
CONTINUOUS
 62
     7
100
AcDbLine
 10
163.42244
 20
163.187451
 30
0.0
 11
219.840264
 21
163.187451
 31
0.0
  0
INSERT
  5
18B
330
1F
100
AcDbEntity
  8
0
100
AcDbBlockReference
  2
BLKF021
 10
0.0
 20
0.0
 30
0.0
  0
INSERT
  5
1B9
330
1F
100
AcDbEntity
  8
0
100
AcDbBlockReference
  2
BLKF024
 10
0.0
 20
0.0
 30
0.0
  0
ARC
  5
1E0
330
1F
100
AcDbEntity
  8
GR1-1
  6
CONTINUOUS
 62
     3
100
AcDbCircle
 10
136.32244
 20
123.187451
 30
0.0
 40
0.5
100
AcDbArc
 50
0.0
 51
90.0
  0
LINE
  5
1E1
330
1F
100
AcDbEntity
  8
GR1-1
  6
CONTINUOUS
 62
     3
100
AcDbLine
 10
136.32244
 20
123.687451
 30
0.0
 11
134.32244
 21
123.687451
 31
0.0
  0
ARC
  5
1E2
330
1F
100
AcDbEntity
  8
GR1-1
  6
CONTINUOUS
 62
     3
100
AcDbCircle
 10
134.32244
 20
123.187451
 30
0.0
 40
0.5
100
AcDbArc
 50
90.0
 51
180.0
  0
LINE
  5
1E3
330
1F
100
AcDbEntity
  8
GR1-1
  6
CONTINUOUS
 62
     3
100
AcDbLine
 10
133.82244
 20
123.187451
 30
0.0
 11
133.82244
 21
103.187451
 31
0.0
  0
ARC
  5
1E4
330
1F
100
AcDbEntity
  8
GR1-1
  6
CONTINUOUS
 62
     3
100
AcDbCircle
 10
134.32244
 20
103.187451
 30
0.0
 40
0.5
100
AcDbArc
 50
180.0
 51
270.0
  0
LINE
  5
1E5
330
1F
100
AcDbEntity
  8
GR1-1
  6
CONTINUOUS
 62
     3
100
AcDbLine
 10
134.32244
 20
102.687451
 30
0.0
 11
136.32244
 21
102.687451
 31
0.0
  0
ARC
  5
1E6
330
1F
100
AcDbEntity
  8
GR1-1
  6
CONTINUOUS
 62
     3
100
AcDbCircle
 10
136.32244
 20
103.187451
 30
0.0
 40
0.5
100
AcDbArc
 50
270.0
 51
360.0
  0
LINE
  5
1E7
330
1F
100
AcDbEntity
  8
GR1-1
  6
CONTINUOUS
 62
     3
100
AcDbLine
 10
132.57244
 20
102.217796
 30
0.0
 11
128.07244
 21
102.217796
 31
0.0
  0
ARC
  5
1E8
330
1F
100
AcDbEntity
  8
GR1-1
  6
CONTINUOUS
 62
     3
100
AcDbCircle
 10
130.189107
 20
104.96021
 30
0.0
 40
3.633333333332942
100
AcDbArc
 50
-49.007267
 51
49.007267
  0
LINE
  5
1E9
330
1F
100
AcDbEntity
  8
GR1-1
  6
CONTINUOUS
 62
     3
100
AcDbLine
 10
132.57244
 20
107.702623
 30
0.0
 11
128.07244
 21
107.702623
 31
0.0
  0
ARC
  5
1EA
330
1F
100
AcDbEntity
  8
GR1-1
  6
CONTINUOUS
 62
     3
100
AcDbCircle
 10
130.455774
 20
104.96021
 30
0.0
 40
3.633333333332979
100
AcDbArc
 50
130.992733
 51
229.007267
  0
LINE
  5
1EB
330
1F
100
AcDbEntity
  8
GR1-1
  6
CONTINUOUS
 62
     3
100
AcDbLine
 10
128.07244
 20
118.672278
 30
0.0
 11
132.57244
 21
118.672278
 31
0.0
  0
ARC
  5
1EC
330
1F
100
AcDbEntity
  8
GR1-1
  6
CONTINUOUS
 62
     3
100
AcDbCircle
 10
130.189107
 20
121.414692
 30
0.0
 40
3.633333333333
100
AcDbArc
 50
-49.007267
 51
49.007267
  0
LINE
  5
1ED
330
1F
100
AcDbEntity
  8
GR1-1
  6
CONTINUOUS
 62
     3
100
AcDbLine
 10
132.57244
 20
124.157106
 30
0.0
 11
128.07244
 21
124.157106
 31
0.0
  0
ARC
  5
1EE
330
1F
100
AcDbEntity
  8
GR1-1
  6
CONTINUOUS
 62
     3
100
AcDbCircle
 10
130.455774
 20
121.414692
 30
0.0
 40
3.633333333332883
100
AcDbArc
 50
130.992733
 51
229.007267
  0
ARC
  5
1EF
330
1F
100
AcDbEntity
  8
GR1-1
  6
CONTINUOUS
 62
     3
100
AcDbCircle
 10
139.480774
 20
113.187451
 30
0.0
 40
12.65833333333353
100
AcDbArc
 50
154.322973
 51
205.677027
  0
ARC
  5
1F0
330
1F
100
AcDbEntity
  8
GR1-1
  6
CONTINUOUS
 62
     3
100
AcDbCircle
 10
121.164107
 20
113.187451
 30
0.0
 40
12.65833333333325
100
AcDbArc
 50
-25.677027
 51
25.677027
  0
LINE
  5
1F1
330
1F
100
AcDbEntity
  8
GR1-1
  6
CONTINUOUS
 62
     3
100
AcDbLine
 10
126.82244
 20
104.960211
 30
0.0
 11
126.82244
 21
121.414692
 31
0.0
  0
LINE
  5
1F2
330
1F
100
AcDbEntity
  8
LAYERGROUP-1
  6
CONTINUOUS
 62
     6
100
AcDbLine
 10
140.42244
 20
121.687451
 30
0.0
 11
140.42244
 21
104.687451
 31
0.0
  0
LINE
  5
1F3
330
1F
100
AcDbEntity
  8
LAYERGROUP-1
  6
CONTINUOUS
 62
     6
100
AcDbLine
 10
184.42244
 20
104.687451
 30
0.0
 11
184.42244
 21
121.687451
 31
0.0
  0
DIMENSION
  5
1F4
330
1F
100
AcDbEntity
  8
GR1-1
100
AcDbDimension
  2
*D23
 10
184.92244
 20
33.975976
 30
0.0
 11
162.42244
 21
34.975952
 31
0.0
 70
    33
  3
FXDIMINFO
100
AcDbAlignedDimension
 13
139.92244
 23
105.187451
 33
0.0
 14
184.92244
 24
105.187451
 34
0.0
1001
ACAD
1000
DSTYLE
1002
{
1070
     7
1000
FXTIP_ARROW_E
1070
     6
1000
FXTIP_ARROW_S
1070
   173
1070
     1
1002
}
  0
DIMENSION
  5
1FE
330
1F
100
AcDbEntity
  8
GR1-1
100
AcDbDimension
  2
*D24
 10
178.42244
 20
48.127929
 30
0.0
 11
162.42244
 21
49.12793
 31
0.0
 70
    33
  3
FXDIMINFO
100
AcDbAlignedDimension
 13
146.42244
 23
65.899432
 33
0.0
 14
178.42244
 24
65.899432
 34
0.0
1001
ACAD
1000
DSTYLE
1002
{
1070
     7
1000
FXTIP_ARROW_E
1070
     6
1000
FXTIP_ARROW_S
1070
   173
1070
     1
1002
}
  0
ARC
  5
208
330
1F
100
AcDbEntity
  8
GR1-1
  6
CONTINUOUS
 62
     6
100
AcDbCircle
 10
347.577239
 20
113.187451
 30
0.0
 40
41.0
100
AcDbArc
 50
-255.154475
 51
36.749386
  0
ARC
  5
209
330
1F
100
AcDbEntity
  8
LAYERGROUP-1
  6
CONTINUOUS
 62
     6
100
AcDbCircle
 10
347.577239
 20
113.187451
 30
0.0
 40
20.50000000000006
100
AcDbArc
 50
-230.62666
 51
14.745754
  0
INSERT
  5
20D
330
1F
100
AcDbEntity
  8
0
100
AcDbBlockReference
  2
BLKF027
 10
0.0
 20
0.0
 30
0.0
  0
LINE
  5
265
330
1F
100
AcDbEntity
  8
GR1-1
  6
CONTINUOUS
 62
     3
100
AcDbLine
 10
305.832146
 20
100.813168
 30
0.0
 11
304.933891
 21
104.402064
 31
0.0
  0
LINE
  5
266
330
1F
100
AcDbEntity
  8
GR1-1
  6
CONTINUOUS
 62
     3
100
AcDbLine
 10
304.933891
 20
104.402064
 30
0.0
 11
301.344995
 21
103.50381
 31
0.0
  0
LINE
  5
267
330
1F
100
AcDbEntity
  8
GR1-1
  6
CONTINUOUS
 62
     3
100
AcDbLine
 10
301.344995
 20
103.50381
 30
0.0
 11
302.243249
 21
99.914913
 31
0.0
  0
LINE
  5
268
330
1F
100
AcDbEntity
  8
GR1-1
  6
CONTINUOUS
 62
     3
100
AcDbLine
 10
302.243249
 20
99.914913
 30
0.0
 11
305.832146
 21
100.813168
 31
0.0
  0
LINE
  5
269
330
1F
100
AcDbEntity
  8
GR1-1
  6
CONTINUOUS
 62
     3
100
AcDbLine
 10
304.012012
 20
100.466667
 30
0.0
 11
301.896748
 21
101.735047
 31
0.0
  0
LINE
  5
26A
330
1F
100
AcDbEntity
  8
GR1-1
  6
CONTINUOUS
 62
     3
100
AcDbLine
 10
301.896748
 20
101.735047
 30
0.0
 11
303.030597
 21
103.625953
 31
0.0
  0
LINE
  5
26B
330
1F
100
AcDbEntity
  8
GR1-1
  6
CONTINUOUS
 62
     3
100
AcDbLine
 10
303.030597
 20
103.625953
 30
0.0
 11
303.242318
 21
102.780042
 31
0.0
  0
LINE
  5
26C
330
1F
100
AcDbEntity
  8
GR1-1
  6
CONTINUOUS
 62
     3
100
AcDbLine
 10
303.242318
 20
102.780042
 30
0.0
 11
302.742659
 21
101.946768
 31
0.0
  0
LINE
  5
26D
330
1F
100
AcDbEntity
  8
GR1-1
  6
CONTINUOUS
 62
     3
100
AcDbLine
 10
302.742659
 20
101.946768
 30
0.0
 11
303.800291
 21
101.312578
 31
0.0
  0
LINE
  5
26E
330
1F
100
AcDbEntity
  8
GR1-1
  6
CONTINUOUS
 62
     3
100
AcDbLine
 10
303.800291
 20
101.312578
 30
0.0
 11
304.434482
 21
102.370209
 31
0.0
  0
LINE
  5
26F
330
1F
100
AcDbEntity
  8
GR1-1
  6
CONTINUOUS
 62
     3
100
AcDbLine
 10
304.434482
 20
102.370209
 30
0.0
 11
303.878447
 21
102.703626
 31
0.0
  0
ARC
  5
270
330
1F
100
AcDbEntity
  8
GR1-1
  6
CONTINUOUS
 62
     3
100
AcDbCircle
 10
303.846737
 20
102.650744
 30
0.0
 40
0.06166
100
AcDbArc
 50
59.051726
 51
194.051726
  0
LINE
  5
271
330
1F
100
AcDbEntity
  8
GR1-1
  6
CONTINUOUS
 62
     3
100
AcDbLine
 10
303.786922
 20
102.635774
 30
0.0
 11
303.887645
 21
102.233343
 31
0.0
  0
LINE
  5
272
330
1F
100
AcDbEntity
  8
GR1-1
  6
CONTINUOUS
 62
     3
100
AcDbLine
 10
303.887645
 20
102.233343
 30
0.0
 11
303.58857
 21
102.158489
 31
0.0
  0
LINE
  5
273
330
1F
100
AcDbEntity
  8
GR1-1
  6
CONTINUOUS
 62
     3
100
AcDbLine
 10
303.58857
 20
102.158489
 30
0.0
 11
303.165129
 21
103.850311
 31
0.0
  0
LINE
  5
274
330
1F
100
AcDbEntity
  8
GR1-1
  6
CONTINUOUS
 62
     3
100
AcDbLine
 10
303.165129
 20
103.850311
 30
0.0
 11
304.375975
 21
104.15337
 31
0.0
  0
LINE
  5
275
330
1F
100
AcDbEntity
  8
GR1-1
  6
CONTINUOUS
 62
     3
100
AcDbLine
 10
304.375975
 20
104.15337
 30
0.0
 11
304.525685
 21
103.555221
 31
0.0
  0
LINE
  5
276
330
1F
100
AcDbEntity
  8
GR1-1
  6
CONTINUOUS
 62
     3
100
AcDbLine
 10
304.525685
 20
103.555221
 30
0.0
 11
304.057394
 21
103.438013
 31
0.0
  0
ARC
  5
277
330
1F
100
AcDbEntity
  8
GR1-1
  6
CONTINUOUS
 62
     3
100
AcDbCircle
 10
304.072365
 20
103.378198
 30
0.0
 40
0.06166
100
AcDbArc
 50
104.051726
 51
239.051726
  0
LINE
  5
278
330
1F
100
AcDbEntity
  8
GR1-1
  6
CONTINUOUS
 62
     3
100
AcDbLine
 10
304.040655
 20
103.325317
 30
0.0
 11
305.280393
 21
102.58193
 31
0.0
  0
LINE
  5
279
330
1F
100
AcDbEntity
  8
GR1-1
  6
CONTINUOUS
 62
     3
100
AcDbLine
 10
305.280393
 20
102.58193
 30
0.0
 11
304.012012
 21
100.466667
 31
0.0
  0
TEXT
  5
27A
330
1F
100
AcDbEntity
  8
LAYERGROUP-1
  6
CONTINUOUS
 62
     7
100
AcDbText
 10
305.045898
 20
109.184082
 30
0.0
 40
5.331655
  1
G
 50
92.051727
 41
1.098276
  7
FX_VECTOR
 72
     5
 11
304.866206
 21
114.199975
 31
0.0
100
AcDbText
  0
TEXT
  5
27B
330
1F
100
AcDbEntity
  8
LAYERGROUP-1
  6
CONTINUOUS
 62
     7
100
AcDbText
 10
304.866058
 20
114.024475
 30
0.0
 40
5.331655
  1
O
 50
85.551727
 41
1.040472
  7
FX_VECTOR
 72
     5
 11
305.255336
 21
119.028467
 31
0.0
100
AcDbText
  0
TEXT
  5
27C
330
1F
100
AcDbEntity
  8
LAYERGROUP-1
  6
CONTINUOUS
 62
     7
100
AcDbText
 10
305.187561
 20
118.484375
 30
0.0
 40
5.331655
  1
L
 50
79.551727
 41
1.235561
  7
FX_VECTOR
 72
     5
 11
306.097766
 21
123.420264
 31
0.0
100
AcDbText
  0
TEXT
  5
27D
330
1F
100
AcDbEntity
  8
LAYERGROUP-1
  6
CONTINUOUS
 62
     7
100
AcDbText
 10
306.059662
 20
123.248993
 30
0.0
 40
5.331655
  1
D
 50
73.051727
 41
1.098276
  7
FX_VECTOR
 72
     5
 11
307.522774
 21
128.050116
 31
0.0
100
AcDbText
  0
TEXT
  5
27E
330
1F
100
AcDbEntity
  8
LAYERGROUP-1
  6
CONTINUOUS
 62
     7
100
AcDbText
 10
308.74231
 20
130.986084
 30
0.0
 40
5.331655
  1
C
 50
62.051723
 41
1.098276
  7
FX_VECTOR
 72
     5
 11
311.094638
 21
135.419821
 31
0.0
100
AcDbText
  0
TEXT
  5
27F
330
1F
100
AcDbEntity
  8
LAYERGROUP-1
  6
CONTINUOUS
 62
     7
100
AcDbText
 10
310.815521
 20
134.947968
 30
0.0
 40
5.331655
  1
A
 50
56.051723
 41
1.162881
  7
FX_VECTOR
 72
     5
 11
313.618415
 21
139.111531
 31
0.0
100
AcDbText
  0
TEXT
  5
280
330
1F
100
AcDbEntity
  8
LAYERGROUP-1
  6
CONTINUOUS
 62
     7
100
AcDbText
 10
313.515198
 20
138.969604
 30
0.0
 40
5.331655
  1
S
 50
49.551723
 41
1.162881
  7
FX_VECTOR
 72
     5
 11
316.771403
 21
142.789108
 31
0.0
100
AcDbText
  0
TEXT
  5
281
330
1F
100
AcDbEntity
  8
LAYERGROUP-1
  6
CONTINUOUS
 62
     7
100
AcDbText
 10
316.396729
 20
142.388794
 30
0.0
 40
5.331655
  1
T
 50
43.551723
 41
1.317931
  7
FX_VECTOR
 72
     5
 11
320.034343
 21
145.847007
 31
0.0
100
AcDbText
  0
TEXT
  5
282
330
1F
100
AcDbEntity
  8
LAYERGROUP-1
  6
CONTINUOUS
 62
     7
100
AcDbText
 10
319.339081
 20
145.242889
 30
0.0
 40
5.331655
  1
E
 50
38.051723
 41
1.162881
  7
FX_VECTOR
 72
     5
 11
323.291403
 21
148.336532
 31
0.0
100
AcDbText
  0
TEXT
  5
283
330
1F
100
AcDbEntity
  8
LAYERGROUP-1
  6
CONTINUOUS
 62
     7
100
AcDbText
 10
323.149414
 20
148.233459
 30
0.0
 40
5.331655
  1
R
 50
31.551723
 41
1.098276
  7
FX_VECTOR
 72
     5
 11
327.426541
 21
150.8598
 31
0.0
100
AcDbText
  0
TEXT
  5
284
330
1F
100
AcDbEntity
  8
LAYERGROUP-1
  6
CONTINUOUS
 62
     7
100
AcDbText
 10
390.22876
 20
110.652466
 30
0.0
 40
5.27711
  1
1
 50
263.551727
 41
1.701829
  7
FX_VECTOR
 72
     5
 11
389.70045
 21
105.97803
 31
0.0
100
AcDbText
  0
TEXT
  5
285
330
1F
100
AcDbEntity
  8
LAYERGROUP-1
  6
CONTINUOUS
 62
     7
100
AcDbText
 10
389.898376
 20
107.313904
 30
0.0
 40
5.27711
  1
0
 50
259.051727
 41
1.101184
  7
FX_VECTOR
 72
     5
 11
389.004943
 21
102.695328
 31
0.0
100
AcDbText
  0
TEXT
  5
286
330
1F
100
AcDbEntity
  8
LAYERGROUP-1
  6
CONTINUOUS
 62
     7
100
AcDbText
 10
389.052612
 20
102.922333
 30
0.0
 40
5.27711
  1
0
 50
253.051727
 41
1.101184
  7
FX_VECTOR
 72
     5
 11
387.6813
 21
98.422447
 31
0.0
100
AcDbText
  0
TEXT
  5
287
330
1F
100
AcDbEntity
  8
LAYERGROUP-1
  6
CONTINUOUS
 62
     7
100
AcDbText
 10
387.623962
 20
98.293152
 30
0.0
 40
5.27711
  1
X
 50
246.551727
 41
1.101184
  7
FX_VECTOR
 72
     5
 11
385.752064
 21
93.977429
 31
0.0
100
AcDbText
  0
TEXT
  5
288
330
1F
100
AcDbEntity
  8
LAYERGROUP-1
  6
CONTINUOUS
 62
     7
100
AcDbText
 10
385.847687
 20
94.188721
 30
0.0
 40
5.27711
  1
3
 50
240.551727
 41
1.101184
  7
FX_VECTOR
 72
     5
 11
383.534927
 21
90.092307
 31
0.0
100
AcDbText
  0
TEXT
  5
289
330
1F
100
AcDbEntity
  8
LAYERGROUP-1
  6
CONTINUOUS
 62
     7
100
AcDbText
 10
383.6521
 20
90.29245
 30
0.0
 40
5.27711
  1
2
 50
234.551727
 41
1.101184
  7
FX_VECTOR
 72
     5
 11
380.923817
 21
86.460226
 31
0.0
100
AcDbText
  0
ARC
  5
28A
330
1F
100
AcDbEntity
  8
GR1-1
  6
CONTINUOUS
 62
     3
100
AcDbCircle
 10
437.577239
 20
315.187447
 30
0.0
 40
140.0
100
AcDbArc
 50
174.177368
 51
185.822632
  0
LINE
  5
28B
330
1F
100
AcDbEntity
  8
LAYERGROUP-1
  6
CONTINUOUS
 62
     3
100
AcDbLine
 10
328.755439
 20
294.187447
 30
0.0
 11
337.577239
 21
294.187447
 31
0.0
  0
LINE
  5
28C
330
1F
100
AcDbEntity
  8
LAYERGROUP-1
  6
CONTINUOUS
 62
     3
100
AcDbLine
 10
326.195604
 20
299.187447
 30
0.0
 11
326.785823
 21
295.840151
 31
0.0
  0
ARC
  5
28D
330
1F
100
AcDbEntity
  8
LAYERGROUP-1
  6
CONTINUOUS
 62
     3
100
AcDbCircle
 10
328.755439
 20
296.187447
 30
0.0
 40
2.0
100
AcDbArc
 50
190.0
 51
270.0
  0
ARC
  5
28E
330
1F
100
AcDbEntity
  8
LAYERGROUP-1
  6
CONTINUOUS
 62
     3
100
AcDbCircle
 10
300.289221
 20
301.187447
 30
0.0
 40
2.0
100
AcDbArc
 50
185.822632
 51
270.0
  0
LINE
  5
28F
330
1F
100
AcDbEntity
  8
LAYERGROUP-1
  6
CONTINUOUS
 62
     3
100
AcDbLine
 10
300.289221
 20
299.187447
 30
0.0
 11
304.667402
 21
299.187447
 31
0.0
  0
LINE
  5
290
330
1F
100
AcDbEntity
  8
LAYERGROUP-1
  6
CONTINUOUS
 62
     3
100
AcDbLine
 10
304.667402
 20
299.187447
 30
0.0
 11
336.865538
 21
299.187447
 31
0.0
  0
LINE
  5
291
330
1F
100
AcDbEntity
  8
LAYERGROUP-1
  6
CONTINUOUS
 62
     3
100
AcDbLine
 10
328.755439
 20
336.187447
 30
0.0
 11
337.577239
 21
336.187447
 31
0.0
  0
LINE
  5
292
330
1F
100
AcDbEntity
  8
LAYERGROUP-1
  6
CONTINUOUS
 62
     3
100
AcDbLine
 10
326.195604
 20
331.187447
 30
0.0
 11
326.785823
 21
334.534744
 31
0.0
  0
ARC
  5
293
330
1F
100
AcDbEntity
  8
LAYERGROUP-1
  6
CONTINUOUS
 62
     3
100
AcDbCircle
 10
328.755439
 20
334.187447
 30
0.0
 40
2.0
100
AcDbArc
 50
90.0
 51
170.0
  0
ARC
  5
294
330
1F
100
AcDbEntity
  8
LAYERGROUP-1
  6
CONTINUOUS
 62
     3
100
AcDbCircle
 10
300.289221
 20
329.187447
 30
0.0
 40
2.0
100
AcDbArc
 50
90.0
 51
174.177368
  0
LINE
  5
295
330
1F
100
AcDbEntity
  8
LAYERGROUP-1
  6
CONTINUOUS
 62
     3
100
AcDbLine
 10
300.289221
 20
331.187447
 30
0.0
 11
304.667402
 21
331.187447
 31
0.0
  0
LINE
  5
296
330
1F
100
AcDbEntity
  8
LAYERGROUP-1
  6
CONTINUOUS
 62
     3
100
AcDbLine
 10
304.667402
 20
331.187447
 30
0.0
 11
336.865538
 21
331.187447
 31
0.0
  0
ENDSEC
  0
SECTION
  2
OBJECTS
  0
DICTIONARY
  5
C
330
0
100
AcDbDictionary
  3
ACAD_GROUP
350
D
  3
ACAD_LAYOUT
350
1A
  3
ACAD_MLINESTYLE
350
17
  3
ACAD_PLOTSETTINGS
350
19
  3
ACDBHEADERROUNDTRIPXREC
350
297
  0
DICTIONARY
  5
D
102
{ACAD_REACTORS
330
C
102
}
330
C
100
AcDbDictionary
  0
DICTIONARY
  5
1A
102
{ACAD_REACTORS
330
C
102
}
330
C
100
AcDbDictionary
  0
DICTIONARY
  5
17
102
{ACAD_REACTORS
330
C
102
}
330
C
100
AcDbDictionary
  3
STANDARD
350
18
  0
DICTIONARY
  5
19
102
{ACAD_REACTORS
330
C
102
}
330
C
100
AcDbDictionary
  0
DICTIONARY
  5
297
102
{ACAD_REACTORS
330
C
102
}
330
C
100
AcDbDictionary
  3
CEPSNTYPE
350
2A0
  3
DIMSTYLEDATA
350
2B6
  3
FINGERPRINTGUID
350
2A1
  3
HYPERLINKBASE
350
29A
  3
INSUNITS
350
29F
  3
LAYOUTDICT
350
29C
  3
LWETCUNION
350
29E
  3
PLOTSETDICT
350
29D
  3
PSVPSCALE
350
2A3
  3
PUCSBASE
350
2A6
  3
PUCSORGBACK
350
2AC
  3
PUCSORGBOTTOM
350
2A8
  3
PUCSORGFRONT
350
2AB
  3
PUCSORGLEFT
350
2A9
  3
PUCSORGRIGHT
350
2AA
  3
PUCSORGTOP
350
2A7
  3
PUCSORTHOREF
350
2A4
  3
PUCSORTHOVIEW
350
2A5
  3
STYLESHEET
350
29B
  3
TSTACKALIGN
350
298
  3
TSTACKSIZE
350
299
  3
UCSBASE
350
2AF
  3
UCSORGBACK
350
2B5
  3
UCSORGBOTTOM
350
2B1
  3
UCSORGFRONT
350
2B4
  3
UCSORGLEFT
350
2B2
  3
UCSORGRIGHT
350
2B3
  3
UCSORGTOP
350
2B0
  3
UCSORTHOREF
350
2AD
  3
UCSORTHOVIEW
350
2AE
  3
VERSIONGUID
350
2A2
  0
MLINESTYLE
  5
18
102
{ACAD_REACTORS
330
17
102
}
330
17
100
AcDbMlineStyle
  2
Standard
 70
     0
  3

 62
   256
 51
90.0
 52
90.0
 71
     2
 49
0.5
 62
   256
  6
BYLAYER
 49
-0.5
 62
   256
  6
BYLAYER
  0
XRECORD
  5
2A0
102
{ACAD_REACTORS
330
297
102
}
330
297
100
AcDbXrecord
 90
        0
  0
XRECORD
  5
2B6
102
{ACAD_REACTORS
330
297
102
}
330
297
100
AcDbXrecord
1000
DSTYLE
1002
{
1070
   179
 70
     2
1070
   171
 70
     3
1070
   143
 40
0.03937
1070
   274
 70
     3
1070
    41
 40
4.0
1070
   343
340
41
1070
   344
340
47
1070
   141
 40
2.5
1070
   176
 70
     7
1070
   177
 70
     7
1070
   178
 70
     7
1070
   271
 70
     2
1070
    46
 40
6.0
1070
    43
 40
10.0
1070
    44
 40
1.0
1070
    42
 40
1.0
1070
   147
 40
1.0
1070
   341
340
41
1070
   173
 70
     1
1070
    77
 70
     1
1070
   272
 70
     2
1070
    73
 70
     0
1070
   172
 70
     1
1070
    74
 70
     0
1070
   283
 70
     0
1070
   340
340
3F
1070
   140
 40
4.0
1070
   284
 70
     8
1070
    78
 70
     8
1002
}
  0
XRECORD
  5
2A1
102
{ACAD_REACTORS
330
297
102
}
330
297
100
AcDbXrecord
  1
{8799A509-DA61-4A2D-B6D9-AE17FAFD03C4}
  0
XRECORD
  5
29A
102
{ACAD_REACTORS
330
297
102
}
330
297
100
AcDbXrecord
  1

  0
XRECORD
  5
29F
102
{ACAD_REACTORS
330
297
102
}
330
297
100
AcDbXrecord
 90
        1
  0
XRECORD
  5
29C
102
{ACAD_REACTORS
330
297
102
}
330
297
100
AcDbXrecord
340
1A
  0
XRECORD
  5
29E
102
{ACAD_REACTORS
330
297
102
}
330
297
100
AcDbXrecord
 90
    10781
  0
XRECORD
  5
29D
102
{ACAD_REACTORS
330
297
102
}
330
297
100
AcDbXrecord
340
19
  0
XRECORD
  5
2A3
102
{ACAD_REACTORS
330
297
102
}
330
297
100
AcDbXrecord
 40
0.0
  0
XRECORD
  5
2A6
102
{ACAD_REACTORS
330
297
102
}
330
297
100
AcDbXrecord
340
0
  0
XRECORD
  5
2AC
102
{ACAD_REACTORS
330
297
102
}
330
297
100
AcDbXrecord
 10
0.0
 20
0.0
 30
0.0
  0
XRECORD
  5
2A8
102
{ACAD_REACTORS
330
297
102
}
330
297
100
AcDbXrecord
 10
0.0
 20
0.0
 30
0.0
  0
XRECORD
  5
2AB
102
{ACAD_REACTORS
330
297
102
}
330
297
100
AcDbXrecord
 10
0.0
 20
0.0
 30
0.0
  0
XRECORD
  5
2A9
102
{ACAD_REACTORS
330
297
102
}
330
297
100
AcDbXrecord
 10
0.0
 20
0.0
 30
0.0
  0
XRECORD
  5
2AA
102
{ACAD_REACTORS
330
297
102
}
330
297
100
AcDbXrecord
 10
0.0
 20
0.0
 30
0.0
  0
XRECORD
  5
2A7
102
{ACAD_REACTORS
330
297
102
}
330
297
100
AcDbXrecord
 10
0.0
 20
0.0
 30
0.0
  0
XRECORD
  5
2A4
102
{ACAD_REACTORS
330
297
102
}
330
297
100
AcDbXrecord
340
0
  0
XRECORD
  5
2A5
102
{ACAD_REACTORS
330
297
102
}
330
297
100
AcDbXrecord
 70
     0
  0
XRECORD
  5
29B
102
{ACAD_REACTORS
330
297
102
}
330
297
100
AcDbXrecord
  1

  0
XRECORD
  5
298
102
{ACAD_REACTORS
330
297
102
}
330
297
100
AcDbXrecord
 90
        1
  0
XRECORD
  5
299
102
{ACAD_REACTORS
330
297
102
}
330
297
100
AcDbXrecord
 90
       70
  0
XRECORD
  5
2AF
102
{ACAD_REACTORS
330
297
102
}
330
297
100
AcDbXrecord
340
0
  0
XRECORD
  5
2B5
102
{ACAD_REACTORS
330
297
102
}
330
297
100
AcDbXrecord
 10
0.0
 20
0.0
 30
0.0
  0
XRECORD
  5
2B1
102
{ACAD_REACTORS
330
297
102
}
330
297
100
AcDbXrecord
 10
0.0
 20
0.0
 30
0.0
  0
XRECORD
  5
2B4
102
{ACAD_REACTORS
330
297
102
}
330
297
100
AcDbXrecord
 10
0.0
 20
0.0
 30
0.0
  0
XRECORD
  5
2B2
102
{ACAD_REACTORS
330
297
102
}
330
297
100
AcDbXrecord
 10
0.0
 20
0.0
 30
0.0
  0
XRECORD
  5
2B3
102
{ACAD_REACTORS
330
297
102
}
330
297
100
AcDbXrecord
 10
0.0
 20
0.0
 30
0.0
  0
XRECORD
  5
2B0
102
{ACAD_REACTORS
330
297
102
}
330
297
100
AcDbXrecord
 10
0.0
 20
0.0
 30
0.0
  0
XRECORD
  5
2AD
102
{ACAD_REACTORS
330
297
102
}
330
297
100
AcDbXrecord
340
0
  0
XRECORD
  5
2AE
102
{ACAD_REACTORS
330
297
102
}
330
297
100
AcDbXrecord
 70
     0
  0
XRECORD
  5
2A2
102
{ACAD_REACTORS
330
297
102
}
330
297
100
AcDbXrecord
  1
{FAEB1C32-E019-11D5-929B-00C0DF256EC4}
  0
ENDSEC
  0
EOF
