  0
SECTION
  2
HEADER
  9
$ACADVER
  1
AC1014
  9
$ACADMAINTVER
 70
     9
  9
$DWGCODEPAGE
  3
ANSI_932
  9
$INSBASE
 10
0.0
 20
0.0
 30
0.0
  9
$EXTMIN
 10
0.0
 20
0.0
 30
0.0
  9
$EXTMAX
 10
594.0
 20
420.0
 30
0.0
  9
$LIMMIN
 10
0.0
 20
0.0
  9
$LIMMAX
 10
594.0
 20
420.0
  9
$ORTHOMODE
 70
     0
  9
$REGENMODE
 70
     1
  9
$FILLMODE
 70
     1
  9
$QTEXTMODE
 70
     0
  9
$MIRRTEXT
 70
     1
  9
$DRAGMODE
 70
     2
  9
$LTSCALE
 40
1.0
  9
$OSMODE
 70
    37
  9
$ATTMODE
 70
     1
  9
$TEXTSIZE
 40
0.2
  9
$TRACEWID
 40
0.05
  9
$TEXTSTYLE
  7
STYLE1
  9
$CLAYER
  8
0
  9
$CELTYPE
  6
BYLAYER
  9
$CECOLOR
 62
   256
  9
$CELTSCALE
 40
1.0
  9
$DELOBJ
 70
     1
  9
$DISPSILH
 70
     0
  9
$DIMSCALE
 40
1.0
  9
$DIMASZ
 40
4.0
  9
$DIMEXO
 40
1.0
  9
$DIMDLI
 40
10.0
  9
$DIMRND
 40
0.0
  9
$DIMDLE
 40
6.0
  9
$DIMEXE
 40
1.0
  9
$DIMTP
 40
0.0
  9
$DIMTM
 40
0.0
  9
$DIMTXT
 40
4.0
  9
$DIMCEN
 40
2.5
  9
$DIMTSZ
 40
0.0
  9
$DIMTOL
 70
     0
  9
$DIMLIM
 70
     0
  9
$DIMTIH
 70
     0
  9
$DIMTOH
 70
     0
  9
$DIMSE1
 70
     0
  9
$DIMSE2
 70
     0
  9
$DIMTAD
 70
     1
  9
$DIMZIN
 70
     8
  9
$DIMBLK
  1

  9
$DIMASO
 70
     1
  9
$DIMSHO
 70
     1
  9
$DIMPOST
  1

  9
$DIMAPOST
  1

  9
$DIMALT
 70
     0
  9
$DIMALTD
 70
     3
  9
$DIMALTF
 40
0.03937
  9
$DIMLFAC
 40
1.0
  9
$DIMTOFL
 70
     1
  9
$DIMTVP
 40
0.0
  9
$DIMTIX
 70
     0
  9
$DIMSOXD
 70
     0
  9
$DIMSAH
 70
     1
  9
$DIMBLK1
  1

  9
$DIMBLK2
  1
FXTIP_ARROW_E
  9
$DIMSTYLE
  2
FXDIMINFO
  9
$DIMCLRD
 70
     7
  9
$DIMCLRE
 70
     7
  9
$DIMCLRT
 70
     7
  9
$DIMTFAC
 40
1.0
  9
$DIMGAP
 40
1.0
  9
$DIMJUST
 70
     0
  9
$DIMSD1
 70
     0
  9
$DIMSD2
 70
     0
  9
$DIMTOLJ
 70
     0
  9
$DIMTZIN
 70
     8
  9
$DIMALTZ
 70
     0
  9
$DIMALTTZ
 70
     0
  9
$DIMFIT
 70
     3
  9
$DIMUPT
 70
     0
  9
$DIMUNIT
 70
     2
  9
$DIMDEC
 70
     2
  9
$DIMTDEC
 70
     2
  9
$DIMALTU
 70
     2
  9
$DIMALTTD
 70
     3
  9
$DIMTXSTY
  7
STYLE1
  9
$DIMAUNIT
 70
     0
  9
$LUNITS
 70
     2
  9
$LUPREC
 70
     4
  9
$SKETCHINC
 40
0.1
  9
$FILLETRAD
 40
0.5
  9
$AUNITS
 70
     0
  9
$AUPREC
 70
     0
  9
$MENU
  1
.
  9
$ELEVATION
 40
0.0
  9
$PELEVATION
 40
0.0
  9
$THICKNESS
 40
0.0
  9
$LIMCHECK
 70
     0
  9
$CHAMFERA
 40
0.5
  9
$CHAMFERB
 40
0.5
  9
$CHAMFERC
 40
1.0
  9
$CHAMFERD
 40
0.0
  9
$SKPOLY
 70
     0
  9
$TDCREATE
 40
2455307.682208275
  9
$TDUPDATE
 40
2455307.682208287
  9
$TDINDWG
 40
0.0000000116
  9
$TDUSRTIMER
 40
0.0000000116
  9
$USRTIMER
 70
     1
  9
$ANGBASE
 50
0.0
  9
$ANGDIR
 70
     0
  9
$PDMODE
 70
     0
  9
$PDSIZE
 40
0.0
  9
$PLINEWID
 40
0.0
  9
$COORDS
 70
     1
  9
$SPLFRAME
 70
     0
  9
$SPLINETYPE
 70
     6
  9
$SPLINESEGS
 70
     8
  9
$ATTDIA
 70
     0
  9
$ATTREQ
 70
     1
  9
$HANDLING
 70
     1
  9
$HANDSEED
  5
3D0
  9
$SURFTAB1
 70
     6
  9
$SURFTAB2
 70
     6
  9
$SURFTYPE
 70
     6
  9
$SURFU
 70
     6
  9
$SURFV
 70
     6
  9
$UCSNAME
  2

  9
$UCSORG
 10
0.0
 20
0.0
 30
0.0
  9
$UCSXDIR
 10
1.0
 20
0.0
 30
0.0
  9
$UCSYDIR
 10
0.0
 20
1.0
 30
0.0
  9
$PUCSNAME
  2

  9
$PUCSORG
 10
0.0
 20
0.0
 30
0.0
  9
$PUCSXDIR
 10
1.0
 20
0.0
 30
0.0
  9
$PUCSYDIR
 10
0.0
 20
1.0
 30
0.0
  9
$USERI1
 70
     0
  9
$USERI2
 70
     0
  9
$USERI3
 70
     0
  9
$USERI4
 70
     0
  9
$USERI5
 70
     0
  9
$USERR1
 40
0.0
  9
$USERR2
 40
0.0
  9
$USERR3
 40
0.0
  9
$USERR4
 40
0.0
  9
$USERR5
 40
0.0
  9
$WORLDVIEW
 70
     1
  9
$SHADEDGE
 70
     3
  9
$SHADEDIF
 70
    70
  9
$TILEMODE
 70
     1
  9
$MAXACTVP
 70
    64
  9
$PINSBASE
 10
0.0
 20
0.0
 30
0.0
  9
$PLIMCHECK
 70
     0
  9
$PEXTMIN
 10
1.000000E+20
 20
1.000000E+20
 30
1.000000E+20
  9
$PEXTMAX
 10
-1.000000E+20
 20
-1.000000E+20
 30
-1.000000E+20
  9
$PLIMMIN
 10
0.0
 20
0.0
  9
$PLIMMAX
 10
12.0
 20
9.0
  9
$UNITMODE
 70
     0
  9
$VISRETAIN
 70
     1
  9
$PLINEGEN
 70
     0
  9
$PSLTSCALE
 70
     1
  9
$TREEDEPTH
 70
  3020
  9
$PICKSTYLE
 70
     1
  9
$CMLSTYLE
  2
STANDARD
  9
$CMLJUST
 70
     0
  9
$CMLSCALE
 40
1.0
  9
$PROXYGRAPHICS
 70
     1
  9
$MEASUREMENT
 70
     0
  0
ENDSEC
  0
SECTION
  2
CLASSES
  0
CLASS
  1
ACDBDICTIONARYWDFLT
  2
AcDbDictionaryWithDefault
  3
ObjectDBX Classes
 90
        0
280
     0
281
     0
  0
CLASS
  1
XRECORD
  2
AcDbXrecord
  3
AutoCAD 2000
 90
        0
280
     0
281
     0
  0
CLASS
  1
LWPOLYLINE
  2
AcDbPolyline
  3
AutoCAD 2000
 90
        0
280
     0
281
     1
  0
CLASS
  1
HATCH
  2
AcDbHatch
  3
AutoCAD 2000
 90
        0
280
     0
281
     1
  0
CLASS
  1
ACDBPLACEHOLDER
  2
AcDbPlaceHolder
  3
ObjectDBX Classes
 90
        0
280
     0
281
     0
  0
CLASS
  1
LAYOUT
  2
AcDbLayout
  3
ObjectDBX Classes
 90
        0
280
     0
281
     0
  0
ENDSEC
  0
SECTION
  2
TABLES
  0
TABLE
  2
VPORT
  5
8
330
0
100
AcDbSymbolTable
 70
     1
  0
VPORT
  5
29
330
8
100
AcDbSymbolTableRecord
100
AcDbViewportTableRecord
  2
*ACTIVE
 70
     0
 10
0.0
 20
0.0
 11
1.0
 21
1.0
 12
297.0
 22
210.0
 13
0.0
 23
0.0
 14
0.5
 24
0.5
 15
0.5
 25
0.5
 16
0.0
 26
0.0
 36
1.0
 17
0.0
 27
0.0
 37
0.0
 40
420.0
 41
1.414286
 42
50.0
 43
0.0
 44
0.0
 50
0.0
 51
0.0
 71
     0
 72
   100
 73
     1
 74
     3
 75
     0
 76
     0
 77
     0
 78
     0
  0
ENDTAB
  0
TABLE
  2
LTYPE
  5
5
330
0
100
AcDbSymbolTable
 70
     4
  0
LTYPE
  5
14
330
5
100
AcDbSymbolTableRecord
100
AcDbLinetypeTableRecord
  2
BYBLOCK
 70
     0
  3

 72
    65
 73
     0
 40
0.0
  0
LTYPE
  5
15
330
5
100
AcDbSymbolTableRecord
100
AcDbLinetypeTableRecord
  2
BYLAYER
 70
     0
  3

 72
    65
 73
     0
 40
0.0
  0
LTYPE
  5
16
330
5
100
AcDbSymbolTableRecord
100
AcDbLinetypeTableRecord
  2
CONTINUOUS
 70
     0
  3
--------------------
 72
    65
 73
     0
 40
0.0
  0
LTYPE
  5
2A
330
5
100
AcDbSymbolTableRecord
100
AcDbLinetypeTableRecord
  2
CENTER
 70
     0
  3
Center ____ _ ____ _ ____ _ ____ _ ____ _ ____
 72
    65
 73
     4
 40
13.0
 49
10.0
 74
     0
 49
-1.0
 74
     0
 49
1.0
 74
     0
 49
-1.0
 74
     0
  0
ENDTAB
  0
TABLE
  2
LAYER
  5
2
330
0
100
AcDbSymbolTable
 70
    20
  0
LAYER
  5
10
330
2
100
AcDbSymbolTableRecord
100
AcDbLayerTableRecord
  2
0
 70
     0
 62
     7
  6
CONTINUOUS
  0
LAYER
  5
2D
330
2
100
AcDbSymbolTableRecord
100
AcDbLayerTableRecord
  2
LAYERGROUP-1
 70
     0
 62
     3
  6
CONTINUOUS
  0
LAYER
  5
3D
330
2
100
AcDbSymbolTableRecord
100
AcDbLayerTableRecord
  2
}}ﾊﾊGG血CCТ
 70
     0
 62
     3
  6
CONTINUOUS
  0
LAYER
  5
A9
330
2
100
AcDbSymbolTableRecord
100
AcDbLayerTableRecord
  2
GR1-1
 70
     0
 62
     7
  6
CONTINUOUS
  0
LAYER
  5
392
330
2
100
AcDbSymbolTableRecord
100
AcDbLayerTableRecord
  2
0-1
 70
     0
 62
     7
  6
CONTINUOUS
  0
ENDTAB
  0
TABLE
  2
STYLE
  5
3
330
0
100
AcDbSymbolTable
 70
     4
  0
STYLE
  5
11
330
3
100
AcDbSymbolTableRecord
100
AcDbTextStyleTableRecord
  2
STANDARD
 70
     0
 40
0.0
 41
1.0
 50
0.0
 71
     0
 42
0.2
  3
txt
  4

  0
STYLE
  5
3F
330
3
100
AcDbSymbolTableRecord
100
AcDbTextStyleTableRecord
  2
STYLE1
 70
     0
 40
0.0
 41
1.0
 50
0.0
 71
     0
 42
0.2
  3
MONOTXT.SHX
  4
extfont.shx
  0
STYLE
  5
40
330
3
100
AcDbSymbolTableRecord
100
AcDbTextStyleTableRecord
  2
FX_VECTOR
 70
     0
 40
0.0
 41
1.0
 50
0.0
 71
     0
 42
0.2
  3
MONOTXT.SHX
  4
BIGFONT.SHX
  0
ENDTAB
  0
TABLE
  2
VIEW
  5
6
330
0
100
AcDbSymbolTable
 70
     0
  0
ENDTAB
  0
TABLE
  2
UCS
  5
7
330
0
100
AcDbSymbolTable
 70
     0
  0
ENDTAB
  0
TABLE
  2
APPID
  5
9
330
0
100
AcDbSymbolTable
 70
     1
  0
APPID
  5
12
330
9
100
AcDbSymbolTableRecord
100
AcDbRegAppTableRecord
  2
ACAD
 70
     0
  0
ENDTAB
  0
TABLE
  2
DIMSTYLE
  5
A
330
0
100
AcDbSymbolTable
 70
     2
  0
DIMSTYLE
105
27
330
A
100
AcDbSymbolTableRecord
100
AcDbDimStyleTableRecord
  2
STANDARD
 70
     0
  3

  4

  5

  6

  7

 40
1.0
 41
0.18
 42
0.0625
 43
0.38
 44
0.18
 45
0.0
 46
0.0
 47
0.0
 48
0.0
140
0.18
141
0.09
142
0.0
143
25.4
144
1.0
145
0.0
146
1.0
147
0.09
 71
     0
 72
     0
 73
     1
 74
     1
 75
     0
 76
     0
 77
     0
 78
     0
170
     0
171
     2
172
     0
173
     0
174
     0
175
     0
176
     0
177
     0
178
     0
270
     2
271
     4
272
     4
273
     2
274
     2
340
11
275
     0
280
     0
281
     0
282
     0
283
     1
284
     0
285
     0
286
     0
287
     3
288
     0
  0
DIMSTYLE
105
A7
102
{ACAD_REACTORS
330
A8
330
B3
330
BD
330
C7
330
D1
330
DB
330
E5
330
EF
330
24B
330
255
330
2FB
330
317
330
364
330
36E
102
}
330
A
100
AcDbSymbolTableRecord
100
AcDbDimStyleTableRecord
  2
FXDIMINFO
 70
     0
  3

  4

  5

  6

  7
FXTIP_ARROW_E
 40
1.0
 41
4.0
 42
1.0
 43
10.0
 44
1.0
 45
0.0
 46
6.0
 47
0.0
 48
0.0
140
4.0
141
2.5
142
0.0
143
0.03937
144
1.0
145
0.0
146
1.0
147
1.0
 71
     0
 72
     0
 73
     0
 74
     0
 75
     0
 76
     0
 77
     1
 78
     8
170
     0
171
     3
172
     1
173
     1
174
     0
175
     0
176
     7
177
     7
178
     7
179
     2
270
     2
271
     2
272
     2
273
     2
274
     3
340
3F
275
     0
280
     0
281
     0
282
     0
283
     0
284
     8
285
     0
286
     0
287
     3
288
     0
  0
ENDTAB
  0
TABLE
  2
BLOCK_RECORD
  5
1
330
0
100
AcDbSymbolTable
 70
    40
  0
BLOCK_RECORD
  5
1F
330
1
100
AcDbSymbolTableRecord
100
AcDbBlockTableRecord
  2
*MODEL_SPACE
  0
BLOCK_RECORD
  5
1B
330
1
100
AcDbSymbolTableRecord
100
AcDbBlockTableRecord
  2
*PAPER_SPACE
  0
BLOCK_RECORD
  5
41
330
1
100
AcDbSymbolTableRecord
100
AcDbBlockTableRecord
  2
FXTIP_ARROW_S
  0
BLOCK_RECORD
  5
47
330
1
100
AcDbSymbolTableRecord
100
AcDbBlockTableRecord
  2
FXTIP_ARROW_E
  0
BLOCK_RECORD
  5
4D
330
1
100
AcDbSymbolTableRecord
100
AcDbBlockTableRecord
  2
FXTIP_BLACKDOT_S
  0
BLOCK_RECORD
  5
53
330
1
100
AcDbSymbolTableRecord
100
AcDbBlockTableRecord
  2
FXTIP_BLACKDOT_E
  0
BLOCK_RECORD
  5
59
330
1
100
AcDbSymbolTableRecord
100
AcDbBlockTableRecord
  2
FXTIP_TRIANGLE_S
  0
BLOCK_RECORD
  5
60
330
1
100
AcDbSymbolTableRecord
100
AcDbBlockTableRecord
  2
FXTIP_TRIANGLE_E
  0
BLOCK_RECORD
  5
67
330
1
100
AcDbSymbolTableRecord
100
AcDbBlockTableRecord
  2
FXTIP_ARCHITECT_S
  0
BLOCK_RECORD
  5
6D
330
1
100
AcDbSymbolTableRecord
100
AcDbBlockTableRecord
  2
FXTIP_ARCHITECT_E
  0
BLOCK_RECORD
  5
73
330
1
100
AcDbSymbolTableRecord
100
AcDbBlockTableRecord
  2
FXTIP_CIVIL_S
  0
BLOCK_RECORD
  5
79
330
1
100
AcDbSymbolTableRecord
100
AcDbBlockTableRecord
  2
FXTIP_CIVIL_E
  0
BLOCK_RECORD
  5
7F
330
1
100
AcDbSymbolTableRecord
100
AcDbBlockTableRecord
  2
FXTIP_WHITEDOT_S
  0
BLOCK_RECORD
  5
84
330
1
100
AcDbSymbolTableRecord
100
AcDbBlockTableRecord
  2
FXTIP_WHITEDOT_E
  0
BLOCK_RECORD
  5
89
330
1
100
AcDbSymbolTableRecord
100
AcDbBlockTableRecord
  2
FXTIP_UPARROW_S
  0
BLOCK_RECORD
  5
8E
330
1
100
AcDbSymbolTableRecord
100
AcDbBlockTableRecord
  2
FXTIP_UPARROW_E
  0
BLOCK_RECORD
  5
93
330
1
100
AcDbSymbolTableRecord
100
AcDbBlockTableRecord
  2
FXTIP_DOWNARROW_S
  0
BLOCK_RECORD
  5
98
330
1
100
AcDbSymbolTableRecord
100
AcDbBlockTableRecord
  2
FXTIP_DOWNARROW_E
  0
BLOCK_RECORD
  5
9D
330
1
100
AcDbSymbolTableRecord
100
AcDbBlockTableRecord
  2
FXTIP_BLACKTRIANGLE_S
  0
BLOCK_RECORD
  5
A2
330
1
100
AcDbSymbolTableRecord
100
AcDbBlockTableRecord
  2
FXTIP_BLACKTRIANGLE_E
  0
BLOCK_RECORD
  5
AA
330
1
100
AcDbSymbolTableRecord
100
AcDbBlockTableRecord
  2
*D19
  0
BLOCK_RECORD
  5
B4
330
1
100
AcDbSymbolTableRecord
100
AcDbBlockTableRecord
  2
*D20
  0
BLOCK_RECORD
  5
BE
330
1
100
AcDbSymbolTableRecord
100
AcDbBlockTableRecord
  2
*D21
  0
BLOCK_RECORD
  5
C8
330
1
100
AcDbSymbolTableRecord
100
AcDbBlockTableRecord
  2
*D22
  0
BLOCK_RECORD
  5
D2
330
1
100
AcDbSymbolTableRecord
100
AcDbBlockTableRecord
  2
*D23
  0
BLOCK_RECORD
  5
DC
330
1
100
AcDbSymbolTableRecord
100
AcDbBlockTableRecord
  2
*D24
  0
BLOCK_RECORD
  5
E6
330
1
100
AcDbSymbolTableRecord
100
AcDbBlockTableRecord
  2
*D25
  0
BLOCK_RECORD
  5
F0
330
1
100
AcDbSymbolTableRecord
100
AcDbBlockTableRecord
  2
*D26
  0
BLOCK_RECORD
  5
146
330
1
100
AcDbSymbolTableRecord
100
AcDbBlockTableRecord
  2
BLKF029
  0
BLOCK_RECORD
  5
150
330
1
100
AcDbSymbolTableRecord
100
AcDbBlockTableRecord
  2
BLKF030
  0
BLOCK_RECORD
  5
15A
330
1
100
AcDbSymbolTableRecord
100
AcDbBlockTableRecord
  2
BLKF031
  0
BLOCK_RECORD
  5
24C
330
1
100
AcDbSymbolTableRecord
100
AcDbBlockTableRecord
  2
*D30
  0
BLOCK_RECORD
  5
256
330
1
100
AcDbSymbolTableRecord
100
AcDbBlockTableRecord
  2
*D31
  0
BLOCK_RECORD
  5
268
330
1
100
AcDbSymbolTableRecord
100
AcDbBlockTableRecord
  2
BLKF034
  0
BLOCK_RECORD
  5
2FC
330
1
100
AcDbSymbolTableRecord
100
AcDbBlockTableRecord
  2
*D33
  0
BLOCK_RECORD
  5
318
330
1
100
AcDbSymbolTableRecord
100
AcDbBlockTableRecord
  2
*D34
  0
BLOCK_RECORD
  5
365
330
1
100
AcDbSymbolTableRecord
100
AcDbBlockTableRecord
  2
*D35
  0
BLOCK_RECORD
  5
36F
330
1
100
AcDbSymbolTableRecord
100
AcDbBlockTableRecord
  2
*D36
  0
BLOCK_RECORD
  5
382
330
1
100
AcDbSymbolTableRecord
100
AcDbBlockTableRecord
  2
BLKF039
  0
BLOCK_RECORD
  5
38E
330
1
100
AcDbSymbolTableRecord
100
AcDbBlockTableRecord
  2
BLKF040
  0
BLOCK_RECORD
  5
397
330
1
100
AcDbSymbolTableRecord
100
AcDbBlockTableRecord
  2
BLKF041
  0
ENDTAB
  0
ENDSEC
  0
SECTION
  2
BLOCKS
  0
BLOCK
  5
20
330
1F
100
AcDbEntity
  8
0
100
AcDbBlockBegin
  2
*MODEL_SPACE
 70
     0
 71
     0
 10
0.0
 20
0.0
 30
0.0
  3
*MODEL_SPACE
  1

  0
ENDBLK
  5
21
330
1F
100
AcDbEntity
  8
0
100
AcDbBlockEnd
  0
BLOCK
  5
1C
330
1B
100
AcDbEntity
 67
     1
  8
0
100
AcDbBlockBegin
  2
*PAPER_SPACE
 70
     0
 71
     0
 10
0.0
 20
0.0
 30
0.0
  3
*PAPER_SPACE
  1

  0
ENDBLK
  5
1D
330
1B
100
AcDbEntity
 67
     1
  8
0
100
AcDbBlockEnd
  0
BLOCK
  5
42
330
41
100
AcDbEntity
  8
0
100
AcDbBlockBegin
  2
FXTIP_ARROW_S
 70
     0
 71
     0
 10
0.0
 20
0.0
 30
0.0
  3
FXTIP_ARROW_S
  1

  0
LINE
  5
44
330
41
100
AcDbEntity
  8
0
  6
CONTINUOUS
 62
     0
100
AcDbLine
 10
0.0
 20
0.0
 30
0.0
 11
-1.0
 21
0.0
 31
0.0
  0
LINE
  5
45
330
41
100
AcDbEntity
  8
0
  6
CONTINUOUS
 62
     0
100
AcDbLine
 10
0.0
 20
0.0
 30
0.0
 11
-0.965926
 21
-0.258819
 31
0.0
  0
LINE
  5
46
330
41
100
AcDbEntity
  8
0
  6
CONTINUOUS
 62
     0
100
AcDbLine
 10
0.0
 20
0.0
 30
0.0
 11
-0.965926
 21
0.258819
 31
0.0
  0
ENDBLK
  5
43
330
41
100
AcDbEntity
  8
0
100
AcDbBlockEnd
  0
BLOCK
  5
48
330
47
100
AcDbEntity
  8
0
100
AcDbBlockBegin
  2
FXTIP_ARROW_E
 70
     0
 71
     0
 10
0.0
 20
0.0
 30
0.0
  3
FXTIP_ARROW_E
  1

  0
LINE
  5
4A
330
47
100
AcDbEntity
  8
0
  6
CONTINUOUS
 62
     0
100
AcDbLine
 10
0.0
 20
0.0
 30
0.0
 11
-1.0
 21
0.0
 31
0.0
  0
LINE
  5
4B
330
47
100
AcDbEntity
  8
0
  6
CONTINUOUS
 62
     0
100
AcDbLine
 10
0.0
 20
0.0
 30
0.0
 11
-0.965926
 21
0.258819
 31
0.0
  0
LINE
  5
4C
330
47
100
AcDbEntity
  8
0
  6
CONTINUOUS
 62
     0
100
AcDbLine
 10
0.0
 20
0.0
 30
0.0
 11
-0.965926
 21
-0.258819
 31
0.0
  0
ENDBLK
  5
49
330
47
100
AcDbEntity
  8
0
100
AcDbBlockEnd
  0
BLOCK
  5
4E
330
4D
100
AcDbEntity
  8
0
100
AcDbBlockBegin
  2
FXTIP_BLACKDOT_S
 70
     0
 71
     0
 10
0.0
 20
0.0
 30
0.0
  3
FXTIP_BLACKDOT_S
  1

  0
LINE
  5
50
330
4D
100
AcDbEntity
  8
0
  6
CONTINUOUS
 62
     0
100
AcDbLine
 10
0.0
 20
0.0
 30
0.0
 11
-1.0
 21
0.0
 31
0.0
  0
LWPOLYLINE
  5
51
330
4D
100
AcDbEntity
  8
0
  6
CONTINUOUS
 62
     0
100
AcDbPolyline
 90
        2
 70
     1
 10
-0.25
 20
0.0
 40
0.5
 41
0.5
 42
1.0
 10
0.25
 20
0.0
 40
0.5
 41
0.5
 42
1.0
  0
CIRCLE
  5
52
330
4D
100
AcDbEntity
  8
0
  6
CONTINUOUS
 62
     0
100
AcDbCircle
 10
0.0
 20
0.0
 30
0.0
 40
0.5
  0
ENDBLK
  5
4F
330
4D
100
AcDbEntity
  8
0
100
AcDbBlockEnd
  0
BLOCK
  5
54
330
53
100
AcDbEntity
  8
0
100
AcDbBlockBegin
  2
FXTIP_BLACKDOT_E
 70
     0
 71
     0
 10
0.0
 20
0.0
 30
0.0
  3
FXTIP_BLACKDOT_E
  1

  0
LINE
  5
56
330
53
100
AcDbEntity
  8
0
  6
CONTINUOUS
 62
     0
100
AcDbLine
 10
0.0
 20
0.0
 30
0.0
 11
-1.0
 21
0.0
 31
0.0
  0
LWPOLYLINE
  5
57
330
53
100
AcDbEntity
  8
0
  6
CONTINUOUS
 62
     0
100
AcDbPolyline
 90
        2
 70
     1
 10
-0.25
 20
0.0
 40
0.5
 41
0.5
 42
1.0
 10
0.25
 20
0.0
 40
0.5
 41
0.5
 42
1.0
  0
CIRCLE
  5
58
330
53
100
AcDbEntity
  8
0
  6
CONTINUOUS
 62
     0
100
AcDbCircle
 10
0.0
 20
0.0
 30
0.0
 40
0.5
  0
ENDBLK
  5
55
330
53
100
AcDbEntity
  8
0
100
AcDbBlockEnd
  0
BLOCK
  5
5A
330
59
100
AcDbEntity
  8
0
100
AcDbBlockBegin
  2
FXTIP_TRIANGLE_S
 70
     0
 71
     0
 10
0.0
 20
0.0
 30
0.0
  3
FXTIP_TRIANGLE_S
  1

  0
LINE
  5
5C
330
59
100
AcDbEntity
  8
0
  6
CONTINUOUS
 62
     0
100
AcDbLine
 10
0.0
 20
0.0
 30
0.0
 11
-1.0
 21
0.0
 31
0.0
  0
LINE
  5
5D
330
59
100
AcDbEntity
  8
0
  6
CONTINUOUS
 62
     0
100
AcDbLine
 10
0.0
 20
0.0
 30
0.0
 11
-0.965926
 21
-0.258819
 31
0.0
  0
LINE
  5
5E
330
59
100
AcDbEntity
  8
0
  6
CONTINUOUS
 62
     0
100
AcDbLine
 10
0.0
 20
0.0
 30
0.0
 11
-0.965926
 21
0.258819
 31
0.0
  0
LINE
  5
5F
330
59
100
AcDbEntity
  8
0
  6
CONTINUOUS
 62
     0
100
AcDbLine
 10
-0.965926
 20
-0.258819
 30
0.0
 11
-0.965926
 21
0.258819
 31
0.0
  0
ENDBLK
  5
5B
330
59
100
AcDbEntity
  8
0
100
AcDbBlockEnd
  0
BLOCK
  5
61
330
60
100
AcDbEntity
  8
0
100
AcDbBlockBegin
  2
FXTIP_TRIANGLE_E
 70
     0
 71
     0
 10
0.0
 20
0.0
 30
0.0
  3
FXTIP_TRIANGLE_E
  1

  0
LINE
  5
63
330
60
100
AcDbEntity
  8
0
  6
CONTINUOUS
 62
     0
100
AcDbLine
 10
0.0
 20
0.0
 30
0.0
 11
-1.0
 21
0.0
 31
0.0
  0
LINE
  5
64
330
60
100
AcDbEntity
  8
0
  6
CONTINUOUS
 62
     0
100
AcDbLine
 10
0.0
 20
0.0
 30
0.0
 11
-0.965926
 21
0.258819
 31
0.0
  0
LINE
  5
65
330
60
100
AcDbEntity
  8
0
  6
CONTINUOUS
 62
     0
100
AcDbLine
 10
0.0
 20
0.0
 30
0.0
 11
-0.965926
 21
-0.258819
 31
0.0
  0
LINE
  5
66
330
60
100
AcDbEntity
  8
0
  6
CONTINUOUS
 62
     0
100
AcDbLine
 10
-0.965926
 20
0.258819
 30
0.0
 11
-0.965926
 21
-0.258819
 31
0.0
  0
ENDBLK
  5
62
330
60
100
AcDbEntity
  8
0
100
AcDbBlockEnd
  0
BLOCK
  5
68
330
67
100
AcDbEntity
  8
0
100
AcDbBlockBegin
  2
FXTIP_ARCHITECT_S
 70
     0
 71
     0
 10
0.0
 20
0.0
 30
0.0
  3
FXTIP_ARCHITECT_S
  1

  0
LINE
  5
6A
330
67
100
AcDbEntity
  8
0
  6
CONTINUOUS
 62
     0
100
AcDbLine
 10
0.0
 20
0.0
 30
0.0
 11
-1.0
 21
0.0
 31
0.0
  0
LINE
  5
6B
330
67
100
AcDbEntity
  8
0
  6
CONTINUOUS
 62
     0
100
AcDbLine
 10
0.0
 20
0.0
 30
0.0
 11
-0.707107
 21
-0.707107
 31
0.0
  0
LINE
  5
6C
330
67
100
AcDbEntity
  8
0
  6
CONTINUOUS
 62
     0
100
AcDbLine
 10
0.0
 20
0.0
 30
0.0
 11
0.707107
 21
0.707107
 31
0.0
  0
ENDBLK
  5
69
330
67
100
AcDbEntity
  8
0
100
AcDbBlockEnd
  0
BLOCK
  5
6E
330
6D
100
AcDbEntity
  8
0
100
AcDbBlockBegin
  2
FXTIP_ARCHITECT_E
 70
     0
 71
     0
 10
0.0
 20
0.0
 30
0.0
  3
FXTIP_ARCHITECT_E
  1

  0
LINE
  5
70
330
6D
100
AcDbEntity
  8
0
  6
CONTINUOUS
 62
     0
100
AcDbLine
 10
0.0
 20
0.0
 30
0.0
 11
-1.0
 21
0.0
 31
0.0
  0
LINE
  5
71
330
6D
100
AcDbEntity
  8
0
  6
CONTINUOUS
 62
     0
100
AcDbLine
 10
0.0
 20
0.0
 30
0.0
 11
0.707107
 21
0.707107
 31
0.0
  0
LINE
  5
72
330
6D
100
AcDbEntity
  8
0
  6
CONTINUOUS
 62
     0
100
AcDbLine
 10
0.0
 20
0.0
 30
0.0
 11
-0.707107
 21
-0.707107
 31
0.0
  0
ENDBLK
  5
6F
330
6D
100
AcDbEntity
  8
0
100
AcDbBlockEnd
  0
BLOCK
  5
74
330
73
100
AcDbEntity
  8
0
100
AcDbBlockBegin
  2
FXTIP_CIVIL_S
 70
     0
 71
     0
 10
0.0
 20
0.0
 30
0.0
  3
FXTIP_CIVIL_S
  1

  0
LINE
  5
76
330
73
100
AcDbEntity
  8
0
  6
CONTINUOUS
 62
     0
100
AcDbLine
 10
0.0
 20
0.0
 30
0.0
 11
-1.0
 21
0.0
 31
0.0
  0
LINE
  5
77
330
73
100
AcDbEntity
  8
0
  6
CONTINUOUS
 62
     0
100
AcDbLine
 10
0.0
 20
-0.0625
 30
0.0
 11
-1.0
 21
-0.0625
 31
0.0
  0
LINE
  5
78
330
73
100
AcDbEntity
  8
0
  6
CONTINUOUS
 62
     0
100
AcDbLine
 10
0.0
 20
-0.125
 30
0.0
 11
-1.0
 21
-0.125
 31
0.0
  0
ENDBLK
  5
75
330
73
100
AcDbEntity
  8
0
100
AcDbBlockEnd
  0
BLOCK
  5
7A
330
79
100
AcDbEntity
  8
0
100
AcDbBlockBegin
  2
FXTIP_CIVIL_E
 70
     0
 71
     0
 10
0.0
 20
0.0
 30
0.0
  3
FXTIP_CIVIL_E
  1

  0
LINE
  5
7C
330
79
100
AcDbEntity
  8
0
  6
CONTINUOUS
 62
     0
100
AcDbLine
 10
0.0
 20
0.0
 30
0.0
 11
-1.0
 21
0.0
 31
0.0
  0
LINE
  5
7D
330
79
100
AcDbEntity
  8
0
  6
CONTINUOUS
 62
     0
100
AcDbLine
 10
0.0
 20
0.0625
 30
0.0
 11
-1.0
 21
0.0625
 31
0.0
  0
LINE
  5
7E
330
79
100
AcDbEntity
  8
0
  6
CONTINUOUS
 62
     0
100
AcDbLine
 10
0.0
 20
0.125
 30
0.0
 11
-1.0
 21
0.125
 31
0.0
  0
ENDBLK
  5
7B
330
79
100
AcDbEntity
  8
0
100
AcDbBlockEnd
  0
BLOCK
  5
80
330
7F
100
AcDbEntity
  8
0
100
AcDbBlockBegin
  2
FXTIP_WHITEDOT_S
 70
     0
 71
     0
 10
0.0
 20
0.0
 30
0.0
  3
FXTIP_WHITEDOT_S
  1

  0
LINE
  5
82
330
7F
100
AcDbEntity
  8
0
  6
CONTINUOUS
 62
     0
100
AcDbLine
 10
0.0
 20
0.0
 30
0.0
 11
-1.0
 21
0.0
 31
0.0
  0
CIRCLE
  5
83
330
7F
100
AcDbEntity
  8
0
  6
CONTINUOUS
 62
     0
100
AcDbCircle
 10
0.0
 20
0.0
 30
0.0
 40
0.5
  0
ENDBLK
  5
81
330
7F
100
AcDbEntity
  8
0
100
AcDbBlockEnd
  0
BLOCK
  5
85
330
84
100
AcDbEntity
  8
0
100
AcDbBlockBegin
  2
FXTIP_WHITEDOT_E
 70
     0
 71
     0
 10
0.0
 20
0.0
 30
0.0
  3
FXTIP_WHITEDOT_E
  1

  0
LINE
  5
87
330
84
100
AcDbEntity
  8
0
  6
CONTINUOUS
 62
     0
100
AcDbLine
 10
0.0
 20
0.0
 30
0.0
 11
-1.0
 21
0.0
 31
0.0
  0
CIRCLE
  5
88
330
84
100
AcDbEntity
  8
0
  6
CONTINUOUS
 62
     0
100
AcDbCircle
 10
0.0
 20
0.0
 30
0.0
 40
0.5
  0
ENDBLK
  5
86
330
84
100
AcDbEntity
  8
0
100
AcDbBlockEnd
  0
BLOCK
  5
8A
330
89
100
AcDbEntity
  8
0
100
AcDbBlockBegin
  2
FXTIP_UPARROW_S
 70
     0
 71
     0
 10
0.0
 20
0.0
 30
0.0
  3
FXTIP_UPARROW_S
  1

  0
LINE
  5
8C
330
89
100
AcDbEntity
  8
0
  6
CONTINUOUS
 62
     0
100
AcDbLine
 10
0.0
 20
0.0
 30
0.0
 11
-1.0
 21
0.0
 31
0.0
  0
LINE
  5
8D
330
89
100
AcDbEntity
  8
0
  6
CONTINUOUS
 62
     0
100
AcDbLine
 10
0.0
 20
0.0
 30
0.0
 11
-0.965926
 21
-0.258819
 31
0.0
  0
ENDBLK
  5
8B
330
89
100
AcDbEntity
  8
0
100
AcDbBlockEnd
  0
BLOCK
  5
8F
330
8E
100
AcDbEntity
  8
0
100
AcDbBlockBegin
  2
FXTIP_UPARROW_E
 70
     0
 71
     0
 10
0.0
 20
0.0
 30
0.0
  3
FXTIP_UPARROW_E
  1

  0
LINE
  5
91
330
8E
100
AcDbEntity
  8
0
  6
CONTINUOUS
 62
     0
100
AcDbLine
 10
0.0
 20
0.0
 30
0.0
 11
-1.0
 21
0.0
 31
0.0
  0
LINE
  5
92
330
8E
100
AcDbEntity
  8
0
  6
CONTINUOUS
 62
     0
100
AcDbLine
 10
0.0
 20
0.0
 30
0.0
 11
-0.965926
 21
0.258819
 31
0.0
  0
ENDBLK
  5
90
330
8E
100
AcDbEntity
  8
0
100
AcDbBlockEnd
  0
BLOCK
  5
94
330
93
100
AcDbEntity
  8
0
100
AcDbBlockBegin
  2
FXTIP_DOWNARROW_S
 70
     0
 71
     0
 10
0.0
 20
0.0
 30
0.0
  3
FXTIP_DOWNARROW_S
  1

  0
LINE
  5
96
330
93
100
AcDbEntity
  8
0
  6
CONTINUOUS
 62
     0
100
AcDbLine
 10
0.0
 20
0.0
 30
0.0
 11
-1.0
 21
0.0
 31
0.0
  0
LINE
  5
97
330
93
100
AcDbEntity
  8
0
  6
CONTINUOUS
 62
     0
100
AcDbLine
 10
0.0
 20
0.0
 30
0.0
 11
-0.965926
 21
0.258819
 31
0.0
  0
ENDBLK
  5
95
330
93
100
AcDbEntity
  8
0
100
AcDbBlockEnd
  0
BLOCK
  5
99
330
98
100
AcDbEntity
  8
0
100
AcDbBlockBegin
  2
FXTIP_DOWNARROW_E
 70
     0
 71
     0
 10
0.0
 20
0.0
 30
0.0
  3
FXTIP_DOWNARROW_E
  1

  0
LINE
  5
9B
330
98
100
AcDbEntity
  8
0
  6
CONTINUOUS
 62
     0
100
AcDbLine
 10
0.0
 20
0.0
 30
0.0
 11
-1.0
 21
0.0
 31
0.0
  0
LINE
  5
9C
330
98
100
AcDbEntity
  8
0
  6
CONTINUOUS
 62
     0
100
AcDbLine
 10
0.0
 20
0.0
 30
0.0
 11
-0.965926
 21
-0.258819
 31
0.0
  0
ENDBLK
  5
9A
330
98
100
AcDbEntity
  8
0
100
AcDbBlockEnd
  0
BLOCK
  5
9E
330
9D
100
AcDbEntity
  8
0
100
AcDbBlockBegin
  2
FXTIP_BLACKTRIANGLE_S
 70
     0
 71
     0
 10
0.0
 20
0.0
 30
0.0
  3
FXTIP_BLACKTRIANGLE_S
  1

  0
LINE
  5
A0
330
9D
100
AcDbEntity
  8
0
  6
CONTINUOUS
 62
     0
100
AcDbLine
 10
0.0
 20
0.0
 30
0.0
 11
-1.0
 21
0.0
 31
0.0
  0
SOLID
  5
A1
330
9D
100
AcDbEntity
  8
0
  6
CONTINUOUS
 62
     0
100
AcDbTrace
 10
0.0
 20
0.0
 30
0.0
 11
-0.965926
 21
-0.258819
 31
0.0
 12
-0.965926
 22
0.258819
 32
0.0
 13
-0.965926
 23
0.258819
 33
0.0
  0
ENDBLK
  5
9F
330
9D
100
AcDbEntity
  8
0
100
AcDbBlockEnd
  0
BLOCK
  5
A3
330
A2
100
AcDbEntity
  8
0
100
AcDbBlockBegin
  2
FXTIP_BLACKTRIANGLE_E
 70
     0
 71
     0
 10
0.0
 20
0.0
 30
0.0
  3
FXTIP_BLACKTRIANGLE_E
  1

  0
LINE
  5
A5
330
A2
100
AcDbEntity
  8
0
  6
CONTINUOUS
 62
     0
100
AcDbLine
 10
0.0
 20
0.0
 30
0.0
 11
-1.0
 21
0.0
 31
0.0
  0
SOLID
  5
A6
330
A2
100
AcDbEntity
  8
0
  6
CONTINUOUS
 62
     0
100
AcDbTrace
 10
0.0
 20
0.0
 30
0.0
 11
-0.965926
 21
0.258819
 31
0.0
 12
-0.965926
 22
-0.258819
 32
0.0
 13
-0.965926
 23
-0.258819
 33
0.0
  0
ENDBLK
  5
A4
330
A2
100
AcDbEntity
  8
0
100
AcDbBlockEnd
  0
BLOCK
  5
AB
330
AA
100
AcDbEntity
  8
0
100
AcDbBlockBegin
  2
*D19
 70
     1
 71
     0
 10
0.0
 20
0.0
 30
0.0
  3
*D19
  1

  0
TEXT
  5
AD
330
AA
100
AcDbEntity
  8
GR1-1
  6
CONTINUOUS
 62
     7
100
AcDbText
 10
409.322598
 20
273.663296
 30
0.0
 40
4.740659
  1
4-11
 50
45.0
 41
0.405087
  7
FX_VECTOR
 72
     5
 11
414.301609
 21
278.642307
 31
0.0
100
AcDbText
  0
LINE
  5
AE
330
AA
100
AcDbEntity
  8
GR1-1
  6
CONTINUOUS
 62
     7
100
AcDbLine
 10
385.458495
 20
294.262385
 30
0.0
 11
409.060274
 21
270.660606
 31
0.0
  0
LINE
  5
AF
330
AA
100
AcDbEntity
  8
GR1-1
  6
CONTINUOUS
 62
     7
100
AcDbLine
 10
393.519512
 20
302.323402
 30
0.0
 11
417.121291
 21
278.721623
 31
0.0
  0
LINE
  5
B0
330
AA
100
AcDbEntity
  8
GR1-1
  6
CONTINUOUS
 62
     7
100
AcDbLine
 10
408.353167
 20
271.367712
 30
0.0
 11
416.414184
 21
279.42873
 31
0.0
  0
INSERT
  5
B1
330
AA
100
AcDbEntity
  8
GR1-1
  6
CONTINUOUS
 62
     7
100
AcDbBlockReference
  2
FXTIP_ARROW_S
 10
408.353167
 20
271.367712
 30
0.0
 41
4.0
 42
4.0
 50
225.0
  0
INSERT
  5
B2
330
AA
100
AcDbEntity
  8
GR1-1
  6
CONTINUOUS
 62
     7
100
AcDbBlockReference
  2
FXTIP_ARROW_E
 10
416.414184
 20
279.42873
 30
0.0
 41
4.0
 42
4.0
 50
45.0
  0
ENDBLK
  5
AC
330
AA
100
AcDbEntity
  8
0
100
AcDbBlockEnd
  0
BLOCK
  5
B5
330
B4
100
AcDbEntity
  8
0
100
AcDbBlockBegin
  2
*D20
 70
     1
 71
     0
 10
0.0
 20
0.0
 30
0.0
  3
*D20
  1

  0
TEXT
  5
B7
330
B4
100
AcDbEntity
  8
GR1-1
  6
CONTINUOUS
 62
     7
100
AcDbText
 10
344.281891
 20
258.93335
 30
0.0
 40
4.0
  1
102
 41
0.828947
  7
FX_VECTOR
 72
     5
 11
353.281891
 21
258.93335
 31
0.0
100
AcDbText
  0
LINE
  5
B8
330
B4
100
AcDbEntity
  8
GR1-1
  6
CONTINUOUS
 62
     7
100
AcDbLine
 10
297.781897
 20
297.0
 30
0.0
 11
297.781897
 21
256.933352
 31
0.0
  0
LINE
  5
B9
330
B4
100
AcDbEntity
  8
GR1-1
  6
CONTINUOUS
 62
     7
100
AcDbLine
 10
399.781897
 20
297.0
 30
0.0
 11
399.781897
 21
256.933352
 31
0.0
  0
LINE
  5
BA
330
B4
100
AcDbEntity
  8
GR1-1
  6
CONTINUOUS
 62
     7
100
AcDbLine
 10
297.781897
 20
257.933352
 30
0.0
 11
399.781897
 21
257.933352
 31
0.0
  0
INSERT
  5
BB
330
B4
100
AcDbEntity
  8
GR1-1
  6
CONTINUOUS
 62
     7
100
AcDbBlockReference
  2
FXTIP_ARROW_S
 10
297.781897
 20
257.933352
 30
0.0
 41
4.0
 42
4.0
 50
180.0
  0
INSERT
  5
BC
330
B4
100
AcDbEntity
  8
GR1-1
  6
CONTINUOUS
 62
     7
100
AcDbBlockReference
  2
FXTIP_ARROW_E
 10
399.781897
 20
257.933352
 30
0.0
 41
4.0
 42
4.0
 50
360.0
  0
ENDBLK
  5
B6
330
B4
100
AcDbEntity
  8
0
100
AcDbBlockEnd
  0
BLOCK
  5
BF
330
BE
100
AcDbEntity
  8
0
100
AcDbBlockBegin
  2
*D21
 70
     1
 71
     0
 10
0.0
 20
0.0
 30
0.0
  3
*D21
  1

  0
TEXT
  5
C1
330
BE
100
AcDbEntity
  8
GR1-1
  6
CONTINUOUS
 62
     7
100
AcDbText
 10
345.783936
 20
268.93335
 30
0.0
 40
4.0
  1
80
 41
0.851351
  7
FX_VECTOR
 72
     5
 11
351.783936
 21
268.93335
 31
0.0
100
AcDbText
  0
LINE
  5
C2
330
BE
100
AcDbEntity
  8
GR1-1
  6
CONTINUOUS
 62
     7
100
AcDbLine
 10
308.781897
 20
288.995935
 30
0.0
 11
308.781897
 21
266.933352
 31
0.0
  0
LINE
  5
C3
330
BE
100
AcDbEntity
  8
GR1-1
  6
CONTINUOUS
 62
     7
100
AcDbLine
 10
388.785961
 20
288.995935
 30
0.0
 11
388.785961
 21
266.933352
 31
0.0
  0
LINE
  5
C4
330
BE
100
AcDbEntity
  8
GR1-1
  6
CONTINUOUS
 62
     7
100
AcDbLine
 10
308.781897
 20
267.933352
 30
0.0
 11
388.785961
 21
267.933352
 31
0.0
  0
INSERT
  5
C5
330
BE
100
AcDbEntity
  8
GR1-1
  6
CONTINUOUS
 62
     7
100
AcDbBlockReference
  2
FXTIP_ARROW_S
 10
308.781897
 20
267.933352
 30
0.0
 41
4.0
 42
4.0
 50
180.0
  0
INSERT
  5
C6
330
BE
100
AcDbEntity
  8
GR1-1
  6
CONTINUOUS
 62
     7
100
AcDbBlockReference
  2
FXTIP_ARROW_E
 10
388.785961
 20
267.933352
 30
0.0
 41
4.0
 42
4.0
 50
360.0
  0
ENDBLK
  5
C0
330
BE
100
AcDbEntity
  8
0
100
AcDbBlockEnd
  0
BLOCK
  5
C9
330
C8
100
AcDbEntity
  8
0
100
AcDbBlockBegin
  2
*D22
 70
     1
 71
     0
 10
0.0
 20
0.0
 30
0.0
  3
*D22
  1

  0
TEXT
  5
CB
330
C8
100
AcDbEntity
  8
GR1-1
  6
CONTINUOUS
 62
     7
100
AcDbText
 10
345.783936
 20
278.93335
 30
0.0
 40
4.0
  1
75
 41
0.851351
  7
FX_VECTOR
 72
     5
 11
351.783936
 21
278.93335
 31
0.0
100
AcDbText
  0
LINE
  5
CC
330
C8
100
AcDbEntity
  8
GR1-1
  6
CONTINUOUS
 62
     7
100
AcDbLine
 10
311.281897
 20
291.495935
 30
0.0
 11
311.281897
 21
276.933352
 31
0.0
  0
LINE
  5
CD
330
C8
100
AcDbEntity
  8
GR1-1
  6
CONTINUOUS
 62
     7
100
AcDbLine
 10
386.285961
 20
291.495935
 30
0.0
 11
386.285961
 21
276.933352
 31
0.0
  0
LINE
  5
CE
330
C8
100
AcDbEntity
  8
GR1-1
  6
CONTINUOUS
 62
     7
100
AcDbLine
 10
311.281897
 20
277.933352
 30
0.0
 11
386.285961
 21
277.933352
 31
0.0
  0
INSERT
  5
CF
330
C8
100
AcDbEntity
  8
GR1-1
  6
CONTINUOUS
 62
     7
100
AcDbBlockReference
  2
FXTIP_ARROW_S
 10
311.281897
 20
277.933352
 30
0.0
 41
4.0
 42
4.0
 50
180.0
  0
INSERT
  5
D0
330
C8
100
AcDbEntity
  8
GR1-1
  6
CONTINUOUS
 62
     7
100
AcDbBlockReference
  2
FXTIP_ARROW_E
 10
386.285961
 20
277.933352
 30
0.0
 41
4.0
 42
4.0
 50
360.0
  0
ENDBLK
  5
CA
330
C8
100
AcDbEntity
  8
0
100
AcDbBlockEnd
  0
BLOCK
  5
D3
330
D2
100
AcDbEntity
  8
0
100
AcDbBlockBegin
  2
*D23
 70
     1
 71
     0
 10
0.0
 20
0.0
 30
0.0
  3
*D23
  1

  0
TEXT
  5
D5
330
D2
100
AcDbEntity
  8
GR1-1
  6
CONTINUOUS
 62
     7
100
AcDbText
 10
428.717438
 20
334.5
 30
0.0
 40
4.0
  1
102
 50
90.0
 41
0.828947
  7
FX_VECTOR
 72
     5
 11
428.717438
 21
343.5
 31
0.0
100
AcDbText
  0
LINE
  5
D6
330
D2
100
AcDbEntity
  8
GR1-1
  6
CONTINUOUS
 62
     7
100
AcDbLine
 10
390.781897
 20
288.0
 30
0.0
 11
430.71743
 21
288.0
 31
0.0
  0
LINE
  5
D7
330
D2
100
AcDbEntity
  8
GR1-1
  6
CONTINUOUS
 62
     7
100
AcDbLine
 10
390.781897
 20
390.0
 30
0.0
 11
430.71743
 21
390.0
 31
0.0
  0
LINE
  5
D8
330
D2
100
AcDbEntity
  8
GR1-1
  6
CONTINUOUS
 62
     7
100
AcDbLine
 10
429.71743
 20
288.0
 30
0.0
 11
429.71743
 21
390.0
 31
0.0
  0
INSERT
  5
D9
330
D2
100
AcDbEntity
  8
GR1-1
  6
CONTINUOUS
 62
     7
100
AcDbBlockReference
  2
FXTIP_ARROW_S
 10
429.71743
 20
288.0
 30
0.0
 41
4.0
 42
4.0
 50
270.0
  0
INSERT
  5
DA
330
D2
100
AcDbEntity
  8
GR1-1
  6
CONTINUOUS
 62
     7
100
AcDbBlockReference
  2
FXTIP_ARROW_E
 10
429.71743
 20
390.0
 30
0.0
 41
4.0
 42
4.0
 50
90.0
  0
ENDBLK
  5
D4
330
D2
100
AcDbEntity
  8
0
100
AcDbBlockEnd
  0
BLOCK
  5
DD
330
DC
100
AcDbEntity
  8
0
100
AcDbBlockBegin
  2
*D24
 70
     1
 71
     0
 10
0.0
 20
0.0
 30
0.0
  3
*D24
  1

  0
TEXT
  5
DF
330
DC
100
AcDbEntity
  8
GR1-1
  6
CONTINUOUS
 62
     7
100
AcDbText
 10
418.717438
 20
336.0
 30
0.0
 40
4.0
  1
80
 50
90.0
 41
0.851351
  7
FX_VECTOR
 72
     5
 11
418.717438
 21
342.0
 31
0.0
100
AcDbText
  0
LINE
  5
E0
330
DC
100
AcDbEntity
  8
GR1-1
  6
CONTINUOUS
 62
     7
100
AcDbLine
 10
398.785961
 20
299.0
 30
0.0
 11
420.71743
 21
299.0
 31
0.0
  0
LINE
  5
E1
330
DC
100
AcDbEntity
  8
GR1-1
  6
CONTINUOUS
 62
     7
100
AcDbLine
 10
398.785961
 20
379.0
 30
0.0
 11
420.71743
 21
379.0
 31
0.0
  0
LINE
  5
E2
330
DC
100
AcDbEntity
  8
GR1-1
  6
CONTINUOUS
 62
     7
100
AcDbLine
 10
419.71743
 20
299.0
 30
0.0
 11
419.71743
 21
379.0
 31
0.0
  0
INSERT
  5
E3
330
DC
100
AcDbEntity
  8
GR1-1
  6
CONTINUOUS
 62
     7
100
AcDbBlockReference
  2
FXTIP_ARROW_S
 10
419.71743
 20
299.0
 30
0.0
 41
4.0
 42
4.0
 50
270.0
  0
INSERT
  5
E4
330
DC
100
AcDbEntity
  8
GR1-1
  6
CONTINUOUS
 62
     7
100
AcDbBlockReference
  2
FXTIP_ARROW_E
 10
419.71743
 20
379.0
 30
0.0
 41
4.0
 42
4.0
 50
90.0
  0
ENDBLK
  5
DE
330
DC
100
AcDbEntity
  8
0
100
AcDbBlockEnd
  0
BLOCK
  5
E7
330
E6
100
AcDbEntity
  8
0
100
AcDbBlockBegin
  2
*D25
 70
     1
 71
     0
 10
0.0
 20
0.0
 30
0.0
  3
*D25
  1

  0
TEXT
  5
E9
330
E6
100
AcDbEntity
  8
GR1-1
  6
CONTINUOUS
 62
     7
100
AcDbText
 10
408.717438
 20
336.0
 30
0.0
 40
4.0
  1
75
 50
90.0
 41
0.851351
  7
FX_VECTOR
 72
     5
 11
408.717438
 21
342.0
 31
0.0
100
AcDbText
  0
LINE
  5
EA
330
E6
100
AcDbEntity
  8
GR1-1
  6
CONTINUOUS
 62
     7
100
AcDbLine
 10
396.285961
 20
376.5
 30
0.0
 11
410.71743
 21
376.5
 31
0.0
  0
LINE
  5
EB
330
E6
100
AcDbEntity
  8
GR1-1
  6
CONTINUOUS
 62
     7
100
AcDbLine
 10
396.285961
 20
301.5
 30
0.0
 11
410.71743
 21
301.5
 31
0.0
  0
LINE
  5
EC
330
E6
100
AcDbEntity
  8
GR1-1
  6
CONTINUOUS
 62
     7
100
AcDbLine
 10
409.71743
 20
376.5
 30
0.0
 11
409.71743
 21
301.5
 31
0.0
  0
INSERT
  5
ED
330
E6
100
AcDbEntity
  8
GR1-1
  6
CONTINUOUS
 62
     7
100
AcDbBlockReference
  2
FXTIP_ARROW_S
 10
409.71743
 20
376.5
 30
0.0
 41
4.0
 42
4.0
 50
90.0
  0
INSERT
  5
EE
330
E6
100
AcDbEntity
  8
GR1-1
  6
CONTINUOUS
 62
     7
100
AcDbBlockReference
  2
FXTIP_ARROW_E
 10
409.71743
 20
301.5
 30
0.0
 41
4.0
 42
4.0
 50
270.0
  0
ENDBLK
  5
E8
330
E6
100
AcDbEntity
  8
0
100
AcDbBlockEnd
  0
BLOCK
  5
F1
330
F0
100
AcDbEntity
  8
0
100
AcDbBlockBegin
  2
*D26
 70
     1
 71
     0
 10
0.0
 20
0.0
 30
0.0
  3
*D26
  1

  0
TEXT
  5
F3
330
F0
100
AcDbEntity
  8
GR1-1
  6
CONTINUOUS
 62
     7
100
AcDbText
 10
290.814392
 20
401.427185
 30
0.0
 40
4.0
  1
108
 41
0.828947
  7
FX_VECTOR
 72
     5
 11
299.814392
 21
401.427185
 31
0.0
100
AcDbText
  0
LINE
  5
F4
330
F0
100
AcDbEntity
  8
GR1-1
  6
CONTINUOUS
 62
     7
100
AcDbLine
 10
241.844834
 20
362.0
 30
0.0
 11
241.844834
 21
401.427179
 31
0.0
  0
LINE
  5
F5
330
F0
100
AcDbEntity
  8
GR1-1
  6
CONTINUOUS
 62
     7
100
AcDbLine
 10
348.783929
 20
394.739606
 30
0.0
 11
348.783929
 21
401.427179
 31
0.0
  0
LINE
  5
F6
330
F0
100
AcDbEntity
  8
GR1-1
  6
CONTINUOUS
 62
     7
100
AcDbLine
 10
241.844834
 20
400.427179
 30
0.0
 11
348.783929
 21
400.427179
 31
0.0
  0
INSERT
  5
F7
330
F0
100
AcDbEntity
  8
GR1-1
  6
CONTINUOUS
 62
     7
100
AcDbBlockReference
  2
FXTIP_ARROW_S
 10
241.844834
 20
400.427179
 30
0.0
 41
4.0
 42
4.0
 50
180.0
  0
INSERT
  5
F8
330
F0
100
AcDbEntity
  8
GR1-1
  6
CONTINUOUS
 62
     7
100
AcDbBlockReference
  2
FXTIP_ARROW_E
 10
348.783929
 20
400.427179
 30
0.0
 41
4.0
 42
4.0
 50
360.0
  0
ENDBLK
  5
F2
330
F0
100
AcDbEntity
  8
0
100
AcDbBlockEnd
  0
BLOCK
  5
147
330
146
100
AcDbEntity
  8
0
100
AcDbBlockBegin
  2
BLKF029
 70
     0
 71
     0
 10
0.0
 20
0.0
 30
0.0
  3
BLKF029
  1

  0
LINE
  5
14A
330
146
100
AcDbEntity
  8
GR1-1
  6
CONTINUOUS
 62
     7
100
AcDbLine
 10
127.224715
 20
231.10084
 30
0.0
 11
129.67913
 21
228.646425
 31
0.0
  0
LINE
  5
14B
330
146
100
AcDbEntity
  8
GR1-1
  6
CONTINUOUS
 62
     7
100
AcDbLine
 10
127.648979
 20
231.10084
 30
0.0
 11
129.67913
 21
229.070689
 31
0.0
  0
LINE
  5
14C
330
146
100
AcDbEntity
  8
GR1-1
  6
CONTINUOUS
 62
     7
100
AcDbLine
 10
128.073243
 20
231.10084
 30
0.0
 11
129.67913
 21
229.494953
 31
0.0
  0
LINE
  5
14D
330
146
100
AcDbEntity
  8
GR1-1
  6
CONTINUOUS
 62
     7
100
AcDbLine
 10
128.497507
 20
231.10084
 30
0.0
 11
129.67913
 21
229.919217
 31
0.0
  0
LINE
  5
14E
330
146
100
AcDbEntity
  8
GR1-1
  6
CONTINUOUS
 62
     7
100
AcDbLine
 10
128.921771
 20
231.10084
 30
0.0
 11
129.67913
 21
230.343481
 31
0.0
  0
LINE
  5
14F
330
146
100
AcDbEntity
  8
GR1-1
  6
CONTINUOUS
 62
     7
100
AcDbLine
 10
129.346035
 20
231.10084
 30
0.0
 11
129.67913
 21
230.767745
 31
0.0
  0
ENDBLK
  5
148
330
146
100
AcDbEntity
  8
0
100
AcDbBlockEnd
  0
BLOCK
  5
151
330
150
100
AcDbEntity
  8
0
100
AcDbBlockBegin
  2
BLKF030
 70
     0
 71
     0
 10
0.0
 20
0.0
 30
0.0
  3
BLKF030
  1

  0
LINE
  5
154
330
150
100
AcDbEntity
  8
GR1-1
  6
CONTINUOUS
 62
     7
100
AcDbLine
 10
160.033546
 20
231.10084
 30
0.0
 11
157.57913
 21
228.646425
 31
0.0
  0
LINE
  5
155
330
150
100
AcDbEntity
  8
GR1-1
  6
CONTINUOUS
 62
     7
100
AcDbLine
 10
159.609282
 20
231.10084
 30
0.0
 11
157.57913
 21
229.070689
 31
0.0
  0
LINE
  5
156
330
150
100
AcDbEntity
  8
GR1-1
  6
CONTINUOUS
 62
     7
100
AcDbLine
 10
159.185018
 20
231.10084
 30
0.0
 11
157.57913
 21
229.494953
 31
0.0
  0
LINE
  5
157
330
150
100
AcDbEntity
  8
GR1-1
  6
CONTINUOUS
 62
     7
100
AcDbLine
 10
158.760754
 20
231.10084
 30
0.0
 11
157.57913
 21
229.919217
 31
0.0
  0
LINE
  5
158
330
150
100
AcDbEntity
  8
GR1-1
  6
CONTINUOUS
 62
     7
100
AcDbLine
 10
158.33649
 20
231.10084
 30
0.0
 11
157.57913
 21
230.343481
 31
0.0
  0
LINE
  5
159
330
150
100
AcDbEntity
  8
GR1-1
  6
CONTINUOUS
 62
     7
100
AcDbLine
 10
157.912226
 20
231.10084
 30
0.0
 11
157.57913
 21
230.767745
 31
0.0
  0
ENDBLK
  5
152
330
150
100
AcDbEntity
  8
0
100
AcDbBlockEnd
  0
BLOCK
  5
15B
330
15A
100
AcDbEntity
  8
0
100
AcDbBlockBegin
  2
BLKF031
 70
     0
 71
     0
 10
0.0
 20
0.0
 30
0.0
  3
BLKF031
  1

  0
LINE
  5
15E
330
15A
100
AcDbEntity
  8
GR1-1
  6
CONTINUOUS
 62
     7
100
AcDbLine
 10
304.360283
 20
228.798515
 30
0.0
 11
305.293794
 21
229.732026
 31
0.0
  0
LINE
  5
15F
330
15A
100
AcDbEntity
  8
GR1-1
  6
CONTINUOUS
 62
     7
100
AcDbLine
 10
304.132175
 20
228.994671
 30
0.0
 11
304.238345
 21
229.10084
 31
0.0
  0
LINE
  5
160
330
15A
100
AcDbEntity
  8
GR1-1
  6
CONTINUOUS
 62
     7
100
AcDbLine
 10
304.533929
 20
229.396425
 30
0.0
 11
306.238345
 21
231.10084
 31
0.0
  0
LINE
  5
161
330
15A
100
AcDbEntity
  8
GR1-1
  6
CONTINUOUS
 62
     7
100
AcDbLine
 10
304.533929
 20
229.820689
 30
0.0
 11
305.814081
 21
231.10084
 31
0.0
  0
LINE
  5
162
330
15A
100
AcDbEntity
  8
GR1-1
  6
CONTINUOUS
 62
     7
100
AcDbLine
 10
304.533929
 20
230.244953
 30
0.0
 11
305.389816
 21
231.10084
 31
0.0
  0
LINE
  5
163
330
15A
100
AcDbEntity
  8
GR1-1
  6
CONTINUOUS
 62
     7
100
AcDbLine
 10
304.533929
 20
230.669217
 30
0.0
 11
304.965552
 21
231.10084
 31
0.0
  0
LINE
  5
164
330
15A
100
AcDbEntity
  8
GR1-1
  6
CONTINUOUS
 62
     7
100
AcDbLine
 10
304.533929
 20
231.093481
 30
0.0
 11
304.541288
 21
231.10084
 31
0.0
  0
ENDBLK
  5
15C
330
15A
100
AcDbEntity
  8
0
100
AcDbBlockEnd
  0
BLOCK
  5
24D
330
24C
100
AcDbEntity
  8
0
100
AcDbBlockBegin
  2
*D30
 70
     1
 71
     0
 10
0.0
 20
0.0
 30
0.0
  3
*D30
  1

  0
TEXT
  5
24F
330
24C
100
AcDbEntity
  8
GR1-1
  6
CONTINUOUS
 62
     7
100
AcDbText
 10
418.747589
 20
146.600845
 30
0.0
 40
4.0
  1
168
 50
90.0
 41
0.828947
  7
FX_VECTOR
 72
     5
 11
418.747589
 21
155.600845
 31
0.0
100
AcDbText
  0
LINE
  5
250
330
24C
100
AcDbEntity
  8
GR1-1
  6
CONTINUOUS
 62
     7
100
AcDbLine
 10
400.783929
 20
235.10084
 30
0.0
 11
420.747563
 21
235.10084
 31
0.0
  0
LINE
  5
251
330
24C
100
AcDbEntity
  8
GR1-1
  6
CONTINUOUS
 62
     7
100
AcDbLine
 10
311.783929
 20
67.10084
 30
0.0
 11
420.747563
 21
67.10084
 31
0.0
  0
LINE
  5
252
330
24C
100
AcDbEntity
  8
GR1-1
  6
CONTINUOUS
 62
     7
100
AcDbLine
 10
419.747563
 20
235.10084
 30
0.0
 11
419.747563
 21
67.10084
 31
0.0
  0
INSERT
  5
253
330
24C
100
AcDbEntity
  8
GR1-1
  6
CONTINUOUS
 62
     7
100
AcDbBlockReference
  2
FXTIP_ARROW_S
 10
419.747563
 20
235.10084
 30
0.0
 41
4.0
 42
4.0
 50
90.0
  0
INSERT
  5
254
330
24C
100
AcDbEntity
  8
GR1-1
  6
CONTINUOUS
 62
     7
100
AcDbBlockReference
  2
FXTIP_ARROW_E
 10
419.747563
 20
67.10084
 30
0.0
 41
4.0
 42
4.0
 50
270.0
  0
ENDBLK
  5
24E
330
24C
100
AcDbEntity
  8
0
100
AcDbBlockEnd
  0
BLOCK
  5
257
330
256
100
AcDbEntity
  8
0
100
AcDbBlockBegin
  2
*D31
 70
     1
 71
     0
 10
0.0
 20
0.0
 30
0.0
  3
*D31
  1

  0
TEXT
  5
259
330
256
100
AcDbEntity
  8
GR1-1
  6
CONTINUOUS
 62
     7
100
AcDbText
 10
408.747589
 20
174.850845
 30
0.0
 40
4.0
  1
105.5
 50
90.0
 41
0.905172
  7
FX_VECTOR
 72
     5
 11
408.747589
 21
189.850845
 31
0.0
100
AcDbText
  0
LINE
  5
25A
330
256
100
AcDbEntity
  8
GR1-1
  6
CONTINUOUS
 62
     7
100
AcDbLine
 10
381.661691
 20
129.60084
 30
0.0
 11
410.747563
 21
129.60084
 31
0.0
  0
LINE
  5
25B
330
256
100
AcDbEntity
  8
GR1-1
  6
CONTINUOUS
 62
     7
100
AcDbLine
 10
409.747563
 20
235.10084
 30
0.0
 11
409.747563
 21
129.60084
 31
0.0
  0
INSERT
  5
25C
330
256
100
AcDbEntity
  8
GR1-1
  6
CONTINUOUS
 62
     7
100
AcDbBlockReference
  2
FXTIP_ARROW_S
 10
409.747563
 20
235.10084
 30
0.0
 41
4.0
 42
4.0
 50
90.0
  0
INSERT
  5
25D
330
256
100
AcDbEntity
  8
GR1-1
  6
CONTINUOUS
 62
     7
100
AcDbBlockReference
  2
FXTIP_ARROW_E
 10
409.747563
 20
129.60084
 30
0.0
 41
4.0
 42
4.0
 50
270.0
  0
ENDBLK
  5
258
330
256
100
AcDbEntity
  8
0
100
AcDbBlockEnd
  0
BLOCK
  5
269
330
268
100
AcDbEntity
  8
0
100
AcDbBlockBegin
  2
BLKF034
 70
     0
 71
     0
 10
0.0
 20
0.0
 30
0.0
  3
BLKF034
  1

  0
LINE
  5
26C
330
268
100
AcDbEntity
  8
GR1-1
  6
CONTINUOUS
 62
     7
100
AcDbLine
 10
274.973592
 20
93.89016
 30
0.0
 11
274.57414
 21
93.869225
 31
0.0
  0
LINE
  5
26D
330
268
100
AcDbEntity
  8
GR1-1
  6
CONTINUOUS
 62
     7
100
AcDbLine
 10
275.183785
 20
93.700901
 30
0.0
 11
274.384881
 21
93.659032
 31
0.0
  0
LINE
  5
26E
330
268
100
AcDbEntity
  8
GR1-1
  6
CONTINUOUS
 62
     7
100
AcDbLine
 10
275.393978
 20
93.511642
 30
0.0
 11
274.195623
 21
93.448839
 31
0.0
  0
LINE
  5
26F
330
268
100
AcDbEntity
  8
GR1-1
  6
CONTINUOUS
 62
     7
100
AcDbLine
 10
275.604171
 20
93.322384
 30
0.0
 11
274.006364
 21
93.238646
 31
0.0
  0
LINE
  5
270
330
268
100
AcDbEntity
  8
GR1-1
  6
CONTINUOUS
 62
     7
100
AcDbLine
 10
275.814364
 20
93.133125
 30
0.0
 11
274.436436
 21
93.060911
 31
0.0
  0
LINE
  5
271
330
268
100
AcDbEntity
  8
GR1-1
  6
CONTINUOUS
 62
     7
100
AcDbLine
 10
274.059413
 20
93.041152
 30
0.0
 11
273.817105
 21
93.028453
 31
0.0
  0
LINE
  5
272
330
268
100
AcDbEntity
  8
GR1-1
  6
CONTINUOUS
 62
     7
100
AcDbLine
 10
276.024558
 20
92.943866
 30
0.0
 11
274.646629
 21
92.871652
 31
0.0
  0
LINE
  5
273
330
268
100
AcDbEntity
  8
GR1-1
  6
CONTINUOUS
 62
     7
100
AcDbLine
 10
273.870155
 20
92.830959
 30
0.0
 11
273.627847
 21
92.81826
 31
0.0
  0
LINE
  5
274
330
268
100
AcDbEntity
  8
GR1-1
  6
CONTINUOUS
 62
     7
100
AcDbLine
 10
276.234751
 20
92.754607
 30
0.0
 11
274.856823
 21
92.682393
 31
0.0
  0
LINE
  5
275
330
268
100
AcDbEntity
  8
GR1-1
  6
CONTINUOUS
 62
     7
100
AcDbLine
 10
273.680896
 20
92.620766
 30
0.0
 11
273.438588
 21
92.608067
 31
0.0
  0
LINE
  5
276
330
268
100
AcDbEntity
  8
GR1-1
  6
CONTINUOUS
 62
     7
100
AcDbLine
 10
276.444944
 20
92.565349
 30
0.0
 11
274.903913
 21
92.484587
 31
0.0
  0
LINE
  5
277
330
268
100
AcDbEntity
  8
GR1-1
  6
CONTINUOUS
 62
     7
100
AcDbLine
 10
273.491637
 20
92.410573
 30
0.0
 11
273.249329
 21
92.397874
 31
0.0
  0
LINE
  5
278
330
268
100
AcDbEntity
  8
GR1-1
  6
CONTINUOUS
 62
     7
100
AcDbLine
 10
276.655137
 20
92.37609
 30
0.0
 11
274.714654
 21
92.274394
 31
0.0
  0
LINE
  5
279
330
268
100
AcDbEntity
  8
GR1-1
  6
CONTINUOUS
 62
     7
100
AcDbLine
 10
273.302379
 20
92.200379
 30
0.0
 11
273.06007
 21
92.187681
 31
0.0
  0
LINE
  5
27A
330
268
100
AcDbEntity
  8
GR1-1
  6
CONTINUOUS
 62
     7
100
AcDbLine
 10
276.86533
 20
92.186831
 30
0.0
 11
274.525395
 21
92.064201
 31
0.0
  0
LINE
  5
27B
330
268
100
AcDbEntity
  8
GR1-1
  6
CONTINUOUS
 62
     7
100
AcDbLine
 10
273.11312
 20
91.990186
 30
0.0
 11
272.870812
 21
91.977487
 31
0.0
  0
LINE
  5
27C
330
268
100
AcDbEntity
  8
GR1-1
  6
CONTINUOUS
 62
     7
100
AcDbLine
 10
277.075523
 20
91.997573
 30
0.0
 11
274.452843
 21
91.860124
 31
0.0
  0
LINE
  5
27D
330
268
100
AcDbEntity
  8
GR1-1
  6
CONTINUOUS
 62
     7
100
AcDbLine
 10
272.923861
 20
91.779993
 30
0.0
 11
272.681553
 21
91.767294
 31
0.0
  0
LINE
  5
27E
330
268
100
AcDbEntity
  8
GR1-1
  6
CONTINUOUS
 62
     7
100
AcDbLine
 10
277.285716
 20
91.808314
 30
0.0
 11
276.886264
 21
91.787379
 31
0.0
  0
LINE
  5
27F
330
268
100
AcDbEntity
  8
GR1-1
  6
CONTINUOUS
 62
     7
100
AcDbLine
 10
273.04889
 20
91.586271
 30
0.0
 11
272.492294
 21
91.557101
 31
0.0
  0
LINE
  5
280
330
268
100
AcDbEntity
  8
GR1-1
  6
CONTINUOUS
 62
     7
100
AcDbLine
 10
277.495909
 20
91.619055
 30
0.0
 11
276.896731
 21
91.587654
 31
0.0
  0
LINE
  5
281
330
268
100
AcDbEntity
  8
GR1-1
  6
CONTINUOUS
 62
     7
100
AcDbLine
 10
273.259083
 20
91.397013
 30
0.0
 11
272.303036
 21
91.346908
 31
0.0
  0
LINE
  5
282
330
268
100
AcDbEntity
  8
GR1-1
  6
CONTINUOUS
 62
     7
100
AcDbLine
 10
277.706102
 20
91.429796
 30
0.0
 11
276.907199
 21
91.387928
 31
0.0
  0
LINE
  5
283
330
268
100
AcDbEntity
  8
GR1-1
  6
CONTINUOUS
 62
     7
100
AcDbLine
 10
273.469276
 20
91.207754
 30
0.0
 11
273.045593
 21
91.18555
 31
0.0
  0
LINE
  5
284
330
268
100
AcDbEntity
  8
GR1-1
  6
CONTINUOUS
 62
     7
100
AcDbLine
 10
272.912681
 20
91.178584
 30
0.0
 11
272.113777
 21
91.136715
 31
0.0
  0
LINE
  5
285
330
268
100
AcDbEntity
  8
GR1-1
  6
CONTINUOUS
 62
     7
100
AcDbLine
 10
277.916295
 20
91.240538
 30
0.0
 11
276.917666
 21
91.188202
 31
0.0
  0
LINE
  5
286
330
268
100
AcDbEntity
  8
GR1-1
  6
CONTINUOUS
 62
     7
100
AcDbLine
 10
273.679469
 20
91.018495
 30
0.0
 11
273.255786
 21
90.996291
 31
0.0
  0
LINE
  5
287
330
268
100
AcDbEntity
  8
GR1-1
  6
CONTINUOUS
 62
     7
100
AcDbLine
 10
272.923148
 20
90.978858
 30
0.0
 11
271.924518
 21
90.926522
 31
0.0
  0
LINE
  5
288
330
268
100
AcDbEntity
  8
GR1-1
  6
CONTINUOUS
 62
     7
100
AcDbLine
 10
278.126488
 20
91.051279
 30
0.0
 11
276.928133
 21
90.988476
 31
0.0
  0
LINE
  5
289
330
268
100
AcDbEntity
  8
GR1-1
  6
CONTINUOUS
 62
     7
100
AcDbLine
 10
273.889662
 20
90.829236
 30
0.0
 11
273.46598
 21
90.807032
 31
0.0
  0
LINE
  5
28A
330
268
100
AcDbEntity
  8
GR1-1
  6
CONTINUOUS
 62
     7
100
AcDbLine
 10
272.933615
 20
90.779132
 30
0.0
 11
271.735259
 21
90.716329
 31
0.0
  0
LINE
  5
28B
330
268
100
AcDbEntity
  8
GR1-1
  6
CONTINUOUS
 62
     7
100
AcDbLine
 10
278.336682
 20
90.86202
 30
0.0
 11
276.9386
 21
90.78875
 31
0.0
  0
LINE
  5
28C
330
268
100
AcDbEntity
  8
GR1-1
  6
CONTINUOUS
 62
     7
100
AcDbLine
 10
275.939971
 20
90.736414
 30
0.0
 11
274.808138
 21
90.677097
 31
0.0
  0
LINE
  5
28D
330
268
100
AcDbEntity
  8
GR1-1
  6
CONTINUOUS
 62
     7
100
AcDbLine
 10
274.099855
 20
90.639978
 30
0.0
 11
273.676173
 21
90.617773
 31
0.0
  0
LINE
  5
28E
330
268
100
AcDbEntity
  8
GR1-1
  6
CONTINUOUS
 62
     7
100
AcDbLine
 10
272.944082
 20
90.579406
 30
0.0
 11
271.546001
 21
90.506136
 31
0.0
  0
LINE
  5
28F
330
268
100
AcDbEntity
  8
GR1-1
  6
CONTINUOUS
 62
     7
100
AcDbLine
 10
278.546875
 20
90.672762
 30
0.0
 11
276.949067
 21
90.589024
 31
0.0
  0
LINE
  5
290
330
268
100
AcDbEntity
  8
GR1-1
  6
CONTINUOUS
 62
     7
100
AcDbLine
 10
275.950438
 20
90.536688
 30
0.0
 11
275.016186
 21
90.487726
 31
0.0
  0
LINE
  5
291
330
268
100
AcDbEntity
  8
GR1-1
  6
CONTINUOUS
 62
     7
100
AcDbLine
 10
274.310048
 20
90.450719
 30
0.0
 11
273.886366
 21
90.428515
 31
0.0
  0
LINE
  5
292
330
268
100
AcDbEntity
  8
GR1-1
  6
CONTINUOUS
 62
     7
100
AcDbLine
 10
272.954549
 20
90.37968
 30
0.0
 11
271.356742
 21
90.295943
 31
0.0
  0
LINE
  5
293
330
268
100
AcDbEntity
  8
GR1-1
  6
CONTINUOUS
 62
     7
100
AcDbLine
 10
278.757068
 20
90.483503
 30
0.0
 11
276.959535
 21
90.389298
 31
0.0
  0
LINE
  5
294
330
268
100
AcDbEntity
  8
GR1-1
  6
CONTINUOUS
 62
     7
100
AcDbLine
 10
275.960905
 20
90.336962
 30
0.0
 11
275.226379
 21
90.298467
 31
0.0
  0
LINE
  5
295
330
268
100
AcDbEntity
  8
GR1-1
  6
CONTINUOUS
 62
     7
100
AcDbLine
 10
274.520241
 20
90.26146
 30
0.0
 11
273.963646
 21
90.23229
 31
0.0
  0
LINE
  5
296
330
268
100
AcDbEntity
  8
GR1-1
  6
CONTINUOUS
 62
     7
100
AcDbLine
 10
272.965016
 20
90.179954
 30
0.0
 11
271.167483
 21
90.08575
 31
0.0
  0
LINE
  5
297
330
268
100
AcDbEntity
  8
GR1-1
  6
CONTINUOUS
 62
     7
100
AcDbLine
 10
278.967261
 20
90.294244
 30
0.0
 11
276.970002
 21
90.189572
 31
0.0
  0
LINE
  5
298
330
268
100
AcDbEntity
  8
GR1-1
  6
CONTINUOUS
 62
     7
100
AcDbLine
 10
275.971372
 20
90.137236
 30
0.0
 11
275.215051
 21
90.097599
 31
0.0
  0
LINE
  5
299
330
268
100
AcDbEntity
  8
GR1-1
  6
CONTINUOUS
 62
     7
100
AcDbLine
 10
274.730435
 20
90.072201
 30
0.0
 11
273.974113
 21
90.032564
 31
0.0
  0
LINE
  5
29A
330
268
100
AcDbEntity
  8
GR1-1
  6
CONTINUOUS
 62
     7
100
AcDbLine
 10
272.975484
 20
89.980228
 30
0.0
 11
270.978225
 21
89.875557
 31
0.0
  0
LINE
  5
29B
330
268
100
AcDbEntity
  8
GR1-1
  6
CONTINUOUS
 62
     7
100
AcDbLine
 10
279.177454
 20
90.104985
 30
0.0
 11
276.980469
 21
89.989846
 31
0.0
  0
LINE
  5
29C
330
268
100
AcDbEntity
  8
GR1-1
  6
CONTINUOUS
 62
     7
100
AcDbLine
 10
275.981839
 20
89.93751
 30
0.0
 11
275.025792
 21
89.887406
 31
0.0
  0
LINE
  5
29D
330
268
100
AcDbEntity
  8
GR1-1
  6
CONTINUOUS
 62
     7
100
AcDbLine
 10
274.940628
 20
89.882943
 30
0.0
 11
273.98458
 21
89.832838
 31
0.0
  0
LINE
  5
29E
330
268
100
AcDbEntity
  8
GR1-1
  6
CONTINUOUS
 62
     7
100
AcDbLine
 10
272.985951
 20
89.780503
 30
0.0
 11
270.788966
 21
89.665363
 31
0.0
  0
LINE
  5
29F
330
268
100
AcDbEntity
  8
GR1-1
  6
CONTINUOUS
 62
     7
100
AcDbLine
 10
279.07336
 20
89.899256
 30
0.0
 11
276.990936
 21
89.79012
 31
0.0
  0
LINE
  5
2A0
330
268
100
AcDbEntity
  8
GR1-1
  6
CONTINUOUS
 62
     7
100
AcDbLine
 10
275.992307
 20
89.737784
 30
0.0
 11
273.995048
 21
89.633113
 31
0.0
  0
LINE
  5
2A1
330
268
100
AcDbEntity
  8
GR1-1
  6
CONTINUOUS
 62
     7
100
AcDbLine
 10
272.996418
 20
89.580777
 30
0.0
 11
270.913994
 21
89.471641
 31
0.0
  0
LINE
  5
2A2
330
268
100
AcDbEntity
  8
GR1-1
  6
CONTINUOUS
 62
     7
100
AcDbLine
 10
278.884101
 20
89.689063
 30
0.0
 11
277.001403
 21
89.590395
 31
0.0
  0
LINE
  5
2A3
330
268
100
AcDbEntity
  8
GR1-1
  6
CONTINUOUS
 62
     7
100
AcDbLine
 10
276.002774
 20
89.538059
 30
0.0
 11
274.005515
 21
89.433387
 31
0.0
  0
LINE
  5
2A4
330
268
100
AcDbEntity
  8
GR1-1
  6
CONTINUOUS
 62
     7
100
AcDbLine
 10
273.006885
 20
89.381051
 30
0.0
 11
271.124188
 21
89.282383
 31
0.0
  0
LINE
  5
2A5
330
268
100
AcDbEntity
  8
GR1-1
  6
CONTINUOUS
 62
     7
100
AcDbLine
 10
278.694842
 20
89.478869
 30
0.0
 11
277.011871
 21
89.390669
 31
0.0
  0
LINE
  5
2A6
330
268
100
AcDbEntity
  8
GR1-1
  6
CONTINUOUS
 62
     7
100
AcDbLine
 10
276.013241
 20
89.338333
 30
0.0
 11
274.015982
 21
89.233661
 31
0.0
  0
LINE
  5
2A7
330
268
100
AcDbEntity
  8
GR1-1
  6
CONTINUOUS
 62
     7
100
AcDbLine
 10
273.017352
 20
89.181325
 30
0.0
 11
271.334381
 21
89.093124
 31
0.0
  0
LINE
  5
2A8
330
268
100
AcDbEntity
  8
GR1-1
  6
CONTINUOUS
 62
     7
100
AcDbLine
 10
278.505584
 20
89.268676
 30
0.0
 11
277.022338
 21
89.190943
 31
0.0
  0
LINE
  5
2A9
330
268
100
AcDbEntity
  8
GR1-1
  6
CONTINUOUS
 62
     7
100
AcDbLine
 10
276.023708
 20
89.138607
 30
0.0
 11
274.026449
 21
89.033935
 31
0.0
  0
LINE
  5
2AA
330
268
100
AcDbEntity
  8
GR1-1
  6
CONTINUOUS
 62
     7
100
AcDbLine
 10
273.02782
 20
88.981599
 30
0.0
 11
271.544574
 21
88.903865
 31
0.0
  0
LINE
  5
2AB
330
268
100
AcDbEntity
  8
GR1-1
  6
CONTINUOUS
 62
     7
100
AcDbLine
 10
278.316325
 20
89.058483
 30
0.0
 11
277.032805
 21
88.991217
 31
0.0
  0
LINE
  5
2AC
330
268
100
AcDbEntity
  8
GR1-1
  6
CONTINUOUS
 62
     7
100
AcDbLine
 10
276.034175
 20
88.938881
 30
0.0
 11
274.036916
 21
88.834209
 31
0.0
  0
LINE
  5
2AD
330
268
100
AcDbEntity
  8
GR1-1
  6
CONTINUOUS
 62
     7
100
AcDbLine
 10
273.038287
 20
88.781873
 30
0.0
 11
271.754767
 21
88.714607
 31
0.0
  0
LINE
  5
2AE
330
268
100
AcDbEntity
  8
GR1-1
  6
CONTINUOUS
 62
     7
100
AcDbLine
 10
278.127066
 20
88.84829
 30
0.0
 11
277.043272
 21
88.791491
 31
0.0
  0
LINE
  5
2AF
330
268
100
AcDbEntity
  8
GR1-1
  6
CONTINUOUS
 62
     7
100
AcDbLine
 10
273.048754
 20
88.582147
 30
0.0
 11
271.96496
 21
88.525348
 31
0.0
  0
LINE
  5
2B0
330
268
100
AcDbEntity
  8
GR1-1
  6
CONTINUOUS
 62
     7
100
AcDbLine
 10
277.937807
 20
88.638097
 30
0.0
 11
277.053739
 21
88.591765
 31
0.0
  0
LINE
  5
2B1
330
268
100
AcDbEntity
  8
GR1-1
  6
CONTINUOUS
 62
     7
100
AcDbLine
 10
273.059221
 20
88.382421
 30
0.0
 11
272.175153
 21
88.336089
 31
0.0
  0
LINE
  5
2B2
330
268
100
AcDbEntity
  8
GR1-1
  6
CONTINUOUS
 62
     7
100
AcDbLine
 10
277.748549
 20
88.427904
 30
0.0
 11
277.064207
 21
88.392039
 31
0.0
  0
LINE
  5
2B3
330
268
100
AcDbEntity
  8
GR1-1
  6
CONTINUOUS
 62
     7
100
AcDbLine
 10
273.069688
 20
88.182695
 30
0.0
 11
272.385346
 21
88.14683
 31
0.0
  0
LINE
  5
2B4
330
268
100
AcDbEntity
  8
GR1-1
  6
CONTINUOUS
 62
     7
100
AcDbLine
 10
277.55929
 20
88.217711
 30
0.0
 11
277.074674
 21
88.192313
 31
0.0
  0
LINE
  5
2B5
330
268
100
AcDbEntity
  8
GR1-1
  6
CONTINUOUS
 62
     7
100
AcDbLine
 10
273.080156
 20
87.982969
 30
0.0
 11
272.595539
 21
87.957572
 31
0.0
  0
LINE
  5
2B6
330
268
100
AcDbEntity
  8
GR1-1
  6
CONTINUOUS
 62
     7
100
AcDbLine
 10
277.370031
 20
88.007518
 30
0.0
 11
277.085141
 21
87.992587
 31
0.0
  0
LINE
  5
2B7
330
268
100
AcDbEntity
  8
GR1-1
  6
CONTINUOUS
 62
     7
100
AcDbLine
 10
273.090623
 20
87.783243
 30
0.0
 11
272.805732
 21
87.768313
 31
0.0
  0
LINE
  5
2B8
330
268
100
AcDbEntity
  8
GR1-1
  6
CONTINUOUS
 62
     7
100
AcDbLine
 10
277.180773
 20
87.797325
 30
0.0
 11
273.015925
 21
87.579054
 31
0.0
  0
LINE
  5
2B9
330
268
100
AcDbEntity
  8
GR1-1
  6
CONTINUOUS
 62
     7
100
AcDbLine
 10
276.991514
 20
87.587132
 30
0.0
 11
273.226119
 21
87.389796
 31
0.0
  0
LINE
  5
2BA
330
268
100
AcDbEntity
  8
GR1-1
  6
CONTINUOUS
 62
     7
100
AcDbLine
 10
276.802255
 20
87.376938
 30
0.0
 11
273.436312
 21
87.200537
 31
0.0
  0
LINE
  5
2BB
330
268
100
AcDbEntity
  8
GR1-1
  6
CONTINUOUS
 62
     7
100
AcDbLine
 10
276.612996
 20
87.166745
 30
0.0
 11
273.646505
 21
87.011278
 31
0.0
  0
LINE
  5
2BC
330
268
100
AcDbEntity
  8
GR1-1
  6
CONTINUOUS
 62
     7
100
AcDbLine
 10
276.423738
 20
86.956552
 30
0.0
 11
273.856698
 21
86.822019
 31
0.0
  0
LINE
  5
2BD
330
268
100
AcDbEntity
  8
GR1-1
  6
CONTINUOUS
 62
     7
100
AcDbLine
 10
276.234479
 20
86.746359
 30
0.0
 11
274.066891
 21
86.632761
 31
0.0
  0
LINE
  5
2BE
330
268
100
AcDbEntity
  8
GR1-1
  6
CONTINUOUS
 62
     7
100
AcDbLine
 10
276.04522
 20
86.536166
 30
0.0
 11
274.277084
 21
86.443502
 31
0.0
  0
LINE
  5
2BF
330
268
100
AcDbEntity
  8
GR1-1
  6
CONTINUOUS
 62
     7
100
AcDbLine
 10
275.855962
 20
86.325973
 30
0.0
 11
274.487277
 21
86.254243
 31
0.0
  0
LINE
  5
2C0
330
268
100
AcDbEntity
  8
GR1-1
  6
CONTINUOUS
 62
     7
100
AcDbLine
 10
275.666703
 20
86.11578
 30
0.0
 11
274.69747
 21
86.064985
 31
0.0
  0
LINE
  5
2C1
330
268
100
AcDbEntity
  8
GR1-1
  6
CONTINUOUS
 62
     7
100
AcDbLine
 10
275.477444
 20
85.905587
 30
0.0
 11
274.907663
 21
85.875726
 31
0.0
  0
LINE
  5
2C2
330
268
100
AcDbEntity
  8
GR1-1
  6
CONTINUOUS
 62
     7
100
AcDbLine
 10
275.288185
 20
85.695394
 30
0.0
 11
275.117856
 21
85.686467
 31
0.0
  0
ENDBLK
  5
26A
330
268
100
AcDbEntity
  8
0
100
AcDbBlockEnd
  0
BLOCK
  5
2FD
330
2FC
100
AcDbEntity
  8
0
100
AcDbBlockBegin
  2
*D33
 70
     1
 71
     0
 10
0.0
 20
0.0
 30
0.0
  3
*D33
  1

  0
TEXT
  5
2FF
330
2FC
100
AcDbEntity
  8
LAYERGROUP-1
  6
CONTINUOUS
 62
     7
100
AcDbText
 10
326.783936
 20
48.059128
 30
0.0
 40
4.0
  1
38
 41
0.851351
  7
FX_VECTOR
 72
     5
 11
332.783936
 21
48.059128
 31
0.0
100
AcDbText
  0
LINE
  5
300
330
2FC
100
AcDbEntity
  8
LAYERGROUP-1
  6
CONTINUOUS
 62
     7
100
AcDbLine
 10
310.783929
 20
47.059126
 30
0.0
 11
348.783929
 21
47.059126
 31
0.0
  0
INSERT
  5
301
330
2FC
100
AcDbEntity
  8
LAYERGROUP-1
  6
CONTINUOUS
 62
     7
100
AcDbBlockReference
  2
FXTIP_ARROW_S
 10
310.783929
 20
47.059126
 30
0.0
 41
4.0
 42
4.0
 50
180.0
  0
INSERT
  5
302
330
2FC
100
AcDbEntity
  8
LAYERGROUP-1
  6
CONTINUOUS
 62
     7
100
AcDbBlockReference
  2
FXTIP_ARROW_E
 10
348.783929
 20
47.059126
 30
0.0
 41
4.0
 42
4.0
 50
360.0
  0
LINE
  5
303
330
2FC
100
AcDbEntity
  8
LAYERGROUP-1
  6
CONTINUOUS
 62
     7
100
AcDbLine
 10
310.783929
 20
63.281126
 30
0.0
 11
310.783929
 21
46.059126
 31
0.0
  0
LINE
  5
304
330
2FC
100
AcDbEntity
  8
LAYERGROUP-1
  6
CONTINUOUS
 62
     7
100
AcDbLine
 10
348.783929
 20
143.21796
 30
0.0
 11
348.783929
 21
46.059126
 31
0.0
  0
ENDBLK
  5
2FE
330
2FC
100
AcDbEntity
  8
0
100
AcDbBlockEnd
  0
BLOCK
  5
319
330
318
100
AcDbEntity
  8
0
100
AcDbBlockBegin
  2
*D34
 70
     1
 71
     0
 10
0.0
 20
0.0
 30
0.0
  3
*D34
  1

  0
TEXT
  5
31B
330
318
100
AcDbEntity
  8
LAYERGROUP-1
  6
CONTINUOUS
 62
     7
100
AcDbText
 10
140.629135
 20
58.100842
 30
0.0
 40
4.0
  1
38
 41
0.851351
  7
FX_VECTOR
 72
     5
 11
146.629135
 21
58.100842
 31
0.0
100
AcDbText
  0
LINE
  5
31C
330
318
100
AcDbEntity
  8
LAYERGROUP-1
  6
CONTINUOUS
 62
     7
100
AcDbLine
 10
124.62913
 20
57.10084
 30
0.0
 11
162.62913
 21
57.10084
 31
0.0
  0
INSERT
  5
31D
330
318
100
AcDbEntity
  8
LAYERGROUP-1
  6
CONTINUOUS
 62
     7
100
AcDbBlockReference
  2
FXTIP_ARROW_S
 10
124.62913
 20
57.10084
 30
0.0
 41
4.0
 42
4.0
 50
180.0
  0
INSERT
  5
31E
330
318
100
AcDbEntity
  8
LAYERGROUP-1
  6
CONTINUOUS
 62
     7
100
AcDbBlockReference
  2
FXTIP_ARROW_E
 10
162.62913
 20
57.10084
 30
0.0
 41
4.0
 42
4.0
 50
360.0
  0
LINE
  5
31F
330
318
100
AcDbEntity
  8
LAYERGROUP-1
  6
CONTINUOUS
 62
     7
100
AcDbLine
 10
124.62913
 20
80.60084
 30
0.0
 11
124.62913
 21
56.10084
 31
0.0
  0
LINE
  5
320
330
318
100
AcDbEntity
  8
LAYERGROUP-1
  6
CONTINUOUS
 62
     7
100
AcDbLine
 10
162.62913
 20
80.60084
 30
0.0
 11
162.62913
 21
56.10084
 31
0.0
  0
ENDBLK
  5
31A
330
318
100
AcDbEntity
  8
0
100
AcDbBlockEnd
  0
BLOCK
  5
366
330
365
100
AcDbEntity
  8
0
100
AcDbBlockBegin
  2
*D35
 70
     1
 71
     0
 10
0.0
 20
0.0
 30
0.0
  3
*D35
  1

  0
TEXT
  5
368
330
365
100
AcDbEntity
  8
LAYERGROUP-1
  6
CONTINUOUS
 62
     7
100
AcDbText
 10
140.62912
 20
48.059128
 30
0.0
 40
4.0
  1
55
 41
0.851351
  7
FX_VECTOR
 72
     5
 11
146.62912
 21
48.059128
 31
0.0
100
AcDbText
  0
LINE
  5
369
330
365
100
AcDbEntity
  8
LAYERGROUP-1
  6
CONTINUOUS
 62
     7
100
AcDbLine
 10
116.12913
 20
47.059126
 30
0.0
 11
171.12913
 21
47.059126
 31
0.0
  0
INSERT
  5
36A
330
365
100
AcDbEntity
  8
LAYERGROUP-1
  6
CONTINUOUS
 62
     7
100
AcDbBlockReference
  2
FXTIP_ARROW_S
 10
116.12913
 20
47.059126
 30
0.0
 41
4.0
 42
4.0
 50
180.0
  0
INSERT
  5
36B
330
365
100
AcDbEntity
  8
LAYERGROUP-1
  6
CONTINUOUS
 62
     7
100
AcDbBlockReference
  2
FXTIP_ARROW_E
 10
171.12913
 20
47.059126
 30
0.0
 41
4.0
 42
4.0
 50
360.0
  0
LINE
  5
36C
330
365
100
AcDbEntity
  8
LAYERGROUP-1
  6
CONTINUOUS
 62
     7
100
AcDbLine
 10
116.12913
 20
113.05084
 30
0.0
 11
116.12913
 21
46.059126
 31
0.0
  0
LINE
  5
36D
330
365
100
AcDbEntity
  8
LAYERGROUP-1
  6
CONTINUOUS
 62
     7
100
AcDbLine
 10
171.12913
 20
113.05084
 30
0.0
 11
171.12913
 21
46.059126
 31
0.0
  0
ENDBLK
  5
367
330
365
100
AcDbEntity
  8
0
100
AcDbBlockEnd
  0
BLOCK
  5
370
330
36F
100
AcDbEntity
  8
0
100
AcDbBlockBegin
  2
*D36
 70
     1
 71
     0
 10
0.0
 20
0.0
 30
0.0
  3
*D36
  1

  0
TEXT
  5
372
330
36F
100
AcDbEntity
  8
LAYERGROUP-1
  6
CONTINUOUS
 62
     7
100
AcDbText
 10
200.917603
 20
123.600845
 30
0.0
 40
4.0
  1
%%c125
 50
90.0
 41
0.828947
  7
FX_VECTOR
 72
     5
 11
200.917603
 21
135.600845
 31
0.0
100
AcDbText
  0
LINE
  5
373
330
36F
100
AcDbEntity
  8
LAYERGROUP-1
  6
CONTINUOUS
 62
     7
100
AcDbLine
 10
201.917608
 20
67.10084
 30
0.0
 11
201.917608
 21
192.10084
 31
0.0
  0
INSERT
  5
374
330
36F
100
AcDbEntity
  8
LAYERGROUP-1
  6
CONTINUOUS
 62
     7
100
AcDbBlockReference
  2
FXTIP_ARROW_S
 10
201.917608
 20
67.10084
 30
0.0
 41
4.0
 42
4.0
 50
270.0
  0
INSERT
  5
375
330
36F
100
AcDbEntity
  8
LAYERGROUP-1
  6
CONTINUOUS
 62
     7
100
AcDbBlockReference
  2
FXTIP_ARROW_E
 10
201.917608
 20
192.10084
 30
0.0
 41
4.0
 42
4.0
 50
90.0
  0
LINE
  5
376
330
36F
100
AcDbEntity
  8
LAYERGROUP-1
  6
CONTINUOUS
 62
     7
100
AcDbLine
 10
144.62913
 20
67.10084
 30
0.0
 11
202.917608
 21
67.10084
 31
0.0
  0
LINE
  5
377
330
36F
100
AcDbEntity
  8
LAYERGROUP-1
  6
CONTINUOUS
 62
     7
100
AcDbLine
 10
144.62913
 20
192.10084
 30
0.0
 11
202.917608
 21
192.10084
 31
0.0
  0
ENDBLK
  5
371
330
36F
100
AcDbEntity
  8
0
100
AcDbBlockEnd
  0
BLOCK
  5
383
330
382
100
AcDbEntity
  8
0
100
AcDbBlockBegin
  2
BLKF039
 70
     0
 71
     0
 10
0.0
 20
0.0
 30
0.0
  3
BLKF039
  1

  0
LINE
  5
386
330
382
100
AcDbEntity
  8
}}ﾊﾊGG血CCТ
  6
CONTINUOUS
 62
     7
100
AcDbLine
 10
10.0
 20
10.0
 30
0.0
 11
584.0
 21
10.0
 31
0.0
  0
LINE
  5
387
330
382
100
AcDbEntity
  8
}}ﾊﾊGG血CCТ
  6
CONTINUOUS
 62
     7
100
AcDbLine
 10
10.0
 20
10.0
 30
0.0
 11
10.0
 21
410.0
 31
0.0
  0
LINE
  5
388
330
382
100
AcDbEntity
  8
}}ﾊﾊGG血CCТ
  6
CONTINUOUS
 62
     7
100
AcDbLine
 10
10.0
 20
410.0
 30
0.0
 11
584.0
 21
410.0
 31
0.0
  0
LINE
  5
389
330
382
100
AcDbEntity
  8
}}ﾊﾊGG血CCТ
  6
CONTINUOUS
 62
     7
100
AcDbLine
 10
584.0
 20
410.0
 30
0.0
 11
584.0
 21
10.0
 31
0.0
  0
LINE
  5
38A
330
382
100
AcDbEntity
  8
}}ﾊﾊGG血CCТ
  6
CONTINUOUS
 62
     7
100
AcDbLine
 10
327.0
 20
10.0
 30
0.0
 11
327.0
 21
20.0
 31
0.0
  0
TEXT
  5
38B
330
382
100
AcDbEntity
  8
}}ﾊﾊGG血CCТ
  6
CONTINUOUS
 62
     7
100
AcDbText
 10
311.738831
 20
11.596879
 30
0.0
 40
6.648749
  1
品名
 41
1.083413
  7
FX_VECTOR
 72
     5
 11
323.058371
 21
11.596879
 31
0.0
100
AcDbText
  0
LINE
  5
38C
330
382
100
AcDbEntity
  8
}}ﾊﾊGG血CCТ
  6
CONTINUOUS
 62
     7
100
AcDbLine
 10
407.0
 20
20.0
 30
0.0
 11
407.0
 21
10.0
 31
0.0
  0
LINE
  5
38D
330
382
100
AcDbEntity
  8
}}ﾊﾊGG血CCТ
  6
CONTINUOUS
 62
     7
100
AcDbLine
 10
307.0
 20
20.0
 30
0.0
 11
584.0
 21
20.0
 31
0.0
  0
INSERT
  5
391
330
382
100
AcDbEntity
  8
0
100
AcDbBlockReference
  2
BLKF040
 10
0.0
 20
0.0
 30
0.0
  0
INSERT
  5
39A
330
382
100
AcDbEntity
  8
0
100
AcDbBlockReference
  2
BLKF041
 10
0.0
 20
0.0
 30
0.0
  0
HATCH
  5
3AA
330
382
100
AcDbEntity
  8
GR1-1
  6
CONTINUOUS
 62
     7
100
AcDbHatch
 10
0.0
 20
0.0
 30
0.0
210
0.0
220
0.0
230
1.0
  2

 70
     0
 71
     1
 91
        2
 92
        0
 93
        4
 72
     1
 10
512.8018997861325
 20
17.91346152
 11
518.8018997861325
 21
17.91346152
 72
     1
 10
518.8018997861325
 20
17.91346152
 11
518.8018997861325
 21
11.91346152
 72
     1
 10
518.8018997861325
 20
11.91346152
 11
512.8018997861325
 21
11.91346152
 72
     1
 10
512.8018997861325
 20
11.91346152
 11
512.8018997861325
 21
17.91346152
 97
        0
 92
        0
 93
       15
 72
     1
 10
515.8018997861325
 20
17.76923076000002
 11
512.9461305461325
 21
14.91346152
 72
     1
 10
512.9461305461325
 20
14.91346152
 11
515.8018997861325
 21
12.05769228000001
 72
     1
 10
515.8018997861325
 20
12.05769228000001
 11
517.3595920661326
 21
13.61538462
 72
     1
 10
517.3595920661326
 20
13.61538462
 11
517.3595920661326
 21
12.98076924
 72
     1
 10
517.3595920661326
 20
12.98076924
 11
518.2249766861326
 21
12.98076924
 72
     1
 10
518.2249766861326
 20
12.98076924
 11
518.2249766861326
 21
15.00000000000001
 72
     1
 10
518.2249766861326
 20
15.00000000000001
 11
515.8018997861325
 21
15.00000000000001
 72
     1
 10
515.8018997861325
 20
15.00000000000001
 11
515.8018997861325
 21
14.13461538000001
 72
     1
 10
515.8018997861325
 20
14.13461538000001
 11
516.2461305461325
 21
14.13461538000001
 72
     1
 10
516.2461305461325
 20
14.13461538000001
 11
515.8018997861325
 21
13.69038462
 72
     1
 10
515.8018997861325
 20
13.69038462
 11
514.5788228861325
 21
14.91346152
 72
     1
 10
514.5788228861325
 20
14.91346152
 11
515.8018997861325
 21
16.13653842000003
 72
     1
 10
515.8018997861325
 20
16.13653842000003
 11
516.5922844061325
 21
15.3461538
 72
     1
 10
516.5922844061325
 20
15.3461538
 11
518.2249766861326
 21
15.3461538
 72
     1
 10
518.2249766861326
 20
15.3461538
 11
515.8018997861325
 21
17.76923076000002
 97
        0
 75
     0
 76
     0
 52
45.0
 41
0.05
 77
     0
 78
     1
 53
45.0
 43
0.0
 44
0.0
 45
-0.0353553390593274
 46
0.0353553390593274
 79
     0
 98
        0
  0
TEXT
  5
3AB
330
382
100
AcDbEntity
  8
}}ﾊﾊGG血CCТ
  6
CONTINUOUS
 62
     7
100
AcDbText
 10
523.225769
 20
11.461285
 30
0.0
 40
7.170908
  1
GOLD CASTER
 41
0.63978
  7
FX_VECTOR
 72
     5
 11
569.977636
 21
11.461285
 31
0.0
100
AcDbText
  0
LINE
  5
3AC
330
382
100
AcDbEntity
  8
}}ﾊﾊGG血CCТ
  6
CONTINUOUS
 62
     7
100
AcDbLine
 10
427.0
 20
10.0
 30
0.0
 11
427.0
 21
20.0
 31
0.0
  0
TEXT
  5
3AD
330
382
100
AcDbEntity
  8
}}ﾊﾊGG血CCТ
  6
CONTINUOUS
 62
     7
100
AcDbText
 10
411.738831
 20
11.596879
 30
0.0
 40
6.648749
  1
図番
 41
1.083413
  7
FX_VECTOR
 72
     5
 11
423.058371
 21
11.596879
 31
0.0
100
AcDbText
  0
LINE
  5
3AE
330
382
100
AcDbEntity
  8
}}ﾊﾊGG血CCТ
  6
CONTINUOUS
 62
     7
100
AcDbLine
 10
507.0
 20
20.0
 30
0.0
 11
507.0
 21
10.0
 31
0.0
  0
LINE
  5
3AF
330
382
100
AcDbEntity
  8
}}ﾊﾊGG血CCТ
  6
CONTINUOUS
 62
     7
100
AcDbLine
 10
307.0
 20
20.0
 30
0.0
 11
307.0
 21
10.0
 31
0.0
  0
ENDBLK
  5
384
330
382
100
AcDbEntity
  8
0
100
AcDbBlockEnd
  0
BLOCK
  5
38F
330
38E
100
AcDbEntity
  8
0
100
AcDbBlockBegin
  2
BLKF040
 70
     0
 71
     0
 10
0.0
 20
0.0
 30
0.0
  3
BLKF040
  1

  0
LINE
  5
393
330
38E
100
AcDbEntity
  8
0-1
  6
CONTINUOUS
 62
     7
100
AcDbLine
 10
518.8019
 20
17.913462
 30
0.0
 11
512.8019
 21
17.913462
 31
0.0
  0
LINE
  5
394
330
38E
100
AcDbEntity
  8
0-1
  6
CONTINUOUS
 62
     7
100
AcDbLine
 10
512.8019
 20
17.913462
 30
0.0
 11
512.8019
 21
11.913462
 31
0.0
  0
LINE
  5
395
330
38E
100
AcDbEntity
  8
0-1
  6
CONTINUOUS
 62
     7
100
AcDbLine
 10
512.8019
 20
11.913462
 30
0.0
 11
518.8019
 21
11.913462
 31
0.0
  0
LINE
  5
396
330
38E
100
AcDbEntity
  8
0-1
  6
CONTINUOUS
 62
     7
100
AcDbLine
 10
518.8019
 20
11.913462
 30
0.0
 11
518.8019
 21
17.913462
 31
0.0
  0
ENDBLK
  5
390
330
38E
100
AcDbEntity
  8
0
100
AcDbBlockEnd
  0
BLOCK
  5
398
330
397
100
AcDbEntity
  8
0
100
AcDbBlockBegin
  2
BLKF041
 70
     0
 71
     0
 10
0.0
 20
0.0
 30
0.0
  3
BLKF041
  1

  0
LINE
  5
39B
330
397
100
AcDbEntity
  8
0-1
  6
CONTINUOUS
 62
     7
100
AcDbLine
 10
518.224977
 20
15.346154
 30
0.0
 11
515.8019
 21
17.769231
 31
0.0
  0
LINE
  5
39C
330
397
100
AcDbEntity
  8
0-1
  6
CONTINUOUS
 62
     7
100
AcDbLine
 10
515.8019
 20
17.769231
 30
0.0
 11
512.946131
 21
14.913462
 31
0.0
  0
LINE
  5
39D
330
397
100
AcDbEntity
  8
0-1
  6
CONTINUOUS
 62
     7
100
AcDbLine
 10
512.946131
 20
14.913462
 30
0.0
 11
515.8019
 21
12.057692
 31
0.0
  0
LINE
  5
39E
330
397
100
AcDbEntity
  8
0-1
  6
CONTINUOUS
 62
     7
100
AcDbLine
 10
515.8019
 20
12.057692
 30
0.0
 11
517.359592
 21
13.615385
 31
0.0
  0
LINE
  5
39F
330
397
100
AcDbEntity
  8
0-1
  6
CONTINUOUS
 62
     7
100
AcDbLine
 10
517.359592
 20
13.615385
 30
0.0
 11
517.359592
 21
12.980769
 31
0.0
  0
LINE
  5
3A0
330
397
100
AcDbEntity
  8
0-1
  6
CONTINUOUS
 62
     7
100
AcDbLine
 10
517.359592
 20
12.980769
 30
0.0
 11
518.224977
 21
12.980769
 31
0.0
  0
LINE
  5
3A1
330
397
100
AcDbEntity
  8
0-1
  6
CONTINUOUS
 62
     7
100
AcDbLine
 10
518.224977
 20
12.980769
 30
0.0
 11
518.224977
 21
15.0
 31
0.0
  0
LINE
  5
3A2
330
397
100
AcDbEntity
  8
0-1
  6
CONTINUOUS
 62
     7
100
AcDbLine
 10
518.224977
 20
15.0
 30
0.0
 11
515.8019
 21
15.0
 31
0.0
  0
LINE
  5
3A3
330
397
100
AcDbEntity
  8
0-1
  6
CONTINUOUS
 62
     7
100
AcDbLine
 10
515.8019
 20
15.0
 30
0.0
 11
515.8019
 21
14.134615
 31
0.0
  0
LINE
  5
3A4
330
397
100
AcDbEntity
  8
0-1
  6
CONTINUOUS
 62
     7
100
AcDbLine
 10
515.8019
 20
14.134615
 30
0.0
 11
516.246131
 21
14.134615
 31
0.0
  0
LINE
  5
3A5
330
397
100
AcDbEntity
  8
0-1
  6
CONTINUOUS
 62
     7
100
AcDbLine
 10
516.246131
 20
14.134615
 30
0.0
 11
515.8019
 21
13.690385
 31
0.0
  0
LINE
  5
3A6
330
397
100
AcDbEntity
  8
0-1
  6
CONTINUOUS
 62
     7
100
AcDbLine
 10
515.8019
 20
13.690385
 30
0.0
 11
514.578823
 21
14.913462
 31
0.0
  0
LINE
  5
3A7
330
397
100
AcDbEntity
  8
0-1
  6
CONTINUOUS
 62
     7
100
AcDbLine
 10
514.578823
 20
14.913462
 30
0.0
 11
515.8019
 21
16.136538
 31
0.0
  0
LINE
  5
3A8
330
397
100
AcDbEntity
  8
0-1
  6
CONTINUOUS
 62
     7
100
AcDbLine
 10
515.8019
 20
16.136538
 30
0.0
 11
516.592284
 21
15.346154
 31
0.0
  0
LINE
  5
3A9
330
397
100
AcDbEntity
  8
0-1
  6
CONTINUOUS
 62
     7
100
AcDbLine
 10
516.592284
 20
15.346154
 30
0.0
 11
518.224977
 21
15.346154
 31
0.0
  0
ENDBLK
  5
399
330
397
100
AcDbEntity
  8
0
100
AcDbBlockEnd
  0
ENDSEC
  0
SECTION
  2
ENTITIES
  0
DIMENSION
  5
A8
330
1F
100
AcDbEntity
  8
GR1-1
100
AcDbDimension
  2
*D19
 10
416.414184
 20
279.42873
 30
0.0
 11
411.812103
 21
276.152802
 31
0.0
 70
    33
  3
FXDIMINFO
100
AcDbAlignedDimension
 13
384.751388
 23
294.969491
 33
0.0
 14
392.812405
 24
303.030509
 34
0.0
1001
ACAD
1000
DSTYLE
1002
{
1070
     7
1000
FXTIP_ARROW_E
1070
     6
1000
FXTIP_ARROW_S
1070
   173
1070
     1
1002
}
  0
DIMENSION
  5
B3
330
1F
100
AcDbEntity
  8
GR1-1
100
AcDbDimension
  2
*D20
 10
399.781897
 20
257.933352
 30
0.0
 11
348.781891
 21
258.93335
 31
0.0
 70
    33
  3
FXDIMINFO
100
AcDbAlignedDimension
 13
297.781897
 23
298.0
 33
0.0
 14
399.781897
 24
298.0
 34
0.0
1001
ACAD
1000
DSTYLE
1002
{
1070
     7
1000
FXTIP_ARROW_E
1070
     6
1000
FXTIP_ARROW_S
1070
   173
1070
     1
1002
}
  0
DIMENSION
  5
BD
330
1F
100
AcDbEntity
  8
GR1-1
100
AcDbDimension
  2
*D21
 10
388.785961
 20
267.933352
 30
0.0
 11
348.783936
 21
268.93335
 31
0.0
 70
    33
  3
FXDIMINFO
100
AcDbAlignedDimension
 13
308.781897
 23
289.995935
 33
0.0
 14
388.785961
 24
289.995935
 34
0.0
1001
ACAD
1000
DSTYLE
1002
{
1070
     7
1000
FXTIP_ARROW_E
1070
     6
1000
FXTIP_ARROW_S
1070
   173
1070
     1
1002
}
  0
DIMENSION
  5
C7
330
1F
100
AcDbEntity
  8
GR1-1
100
AcDbDimension
  2
*D22
 10
386.285961
 20
277.933352
 30
0.0
 11
348.783936
 21
278.93335
 31
0.0
 70
    33
  3
FXDIMINFO
100
AcDbAlignedDimension
 13
311.281897
 23
292.495935
 33
0.0
 14
386.285961
 24
292.495935
 34
0.0
1001
ACAD
1000
DSTYLE
1002
{
1070
     7
1000
FXTIP_ARROW_E
1070
     6
1000
FXTIP_ARROW_S
1070
   173
1070
     1
1002
}
  0
DIMENSION
  5
D1
330
1F
100
AcDbEntity
  8
GR1-1
100
AcDbDimension
  2
*D23
 10
429.71743
 20
390.0
 30
0.0
 11
428.717438
 21
339.0
 31
0.0
 70
    33
  3
FXDIMINFO
100
AcDbAlignedDimension
 13
389.781897
 23
288.0
 33
0.0
 14
389.781897
 24
390.0
 34
0.0
1001
ACAD
1000
DSTYLE
1002
{
1070
     7
1000
FXTIP_ARROW_E
1070
     6
1000
FXTIP_ARROW_S
1070
   173
1070
     1
1002
}
  0
DIMENSION
  5
DB
330
1F
100
AcDbEntity
  8
GR1-1
100
AcDbDimension
  2
*D24
 10
419.71743
 20
379.0
 30
0.0
 11
418.717438
 21
339.0
 31
0.0
 70
    33
  3
FXDIMINFO
100
AcDbAlignedDimension
 13
397.785961
 23
299.0
 33
0.0
 14
397.785961
 24
379.0
 34
0.0
1001
ACAD
1000
DSTYLE
1002
{
1070
     7
1000
FXTIP_ARROW_E
1070
     6
1000
FXTIP_ARROW_S
1070
   173
1070
     1
1002
}
  0
DIMENSION
  5
E5
330
1F
100
AcDbEntity
  8
GR1-1
100
AcDbDimension
  2
*D25
 10
409.71743
 20
301.5
 30
0.0
 11
408.717438
 21
339.0
 31
0.0
 70
    33
  3
FXDIMINFO
100
AcDbAlignedDimension
 13
395.285961
 23
376.5
 33
0.0
 14
395.285961
 24
301.5
 34
0.0
1001
ACAD
1000
DSTYLE
1002
{
1070
     7
1000
FXTIP_ARROW_E
1070
     6
1000
FXTIP_ARROW_S
1070
   173
1070
     1
1002
}
  0
DIMENSION
  5
EF
330
1F
100
AcDbEntity
  8
GR1-1
100
AcDbDimension
  2
*D26
 10
348.783929
 20
400.427179
 30
0.0
 11
295.314392
 21
401.427185
 31
0.0
 70
    32
  3
FXDIMINFO
100
AcDbAlignedDimension
 13
241.844834
 23
361.0
 33
0.0
 14
348.783929
 24
393.739606
 34
0.0
 50
180.0
100
AcDbRotatedDimension
1001
ACAD
1000
DSTYLE
1002
{
1070
     7
1000
FXTIP_ARROW_E
1070
     6
1000
FXTIP_ARROW_S
1070
   173
1070
     1
1002
}
  0
LINE
  5
F9
330
1F
100
AcDbEntity
  8
GR1-1
  6
CONTINUOUS
 62
     3
100
AcDbLine
 10
389.781897
 20
288.0
 30
0.0
 11
307.781897
 21
288.0
 31
0.0
  0
LINE
  5
FA
330
1F
100
AcDbEntity
  8
GR1-1
  6
CONTINUOUS
 62
     3
100
AcDbLine
 10
312.812405
 20
294.969491
 30
0.0
 11
315.312405
 21
297.469491
 31
0.0
  0
ARC
  5
FB
330
1F
100
AcDbEntity
  8
GR1-1
  6
CONTINUOUS
 62
     3
100
AcDbCircle
 10
311.281897
 20
301.5
 30
0.0
 40
5.7
100
AcDbArc
 50
-45.0
 51
135.0
  0
LINE
  5
FC
330
1F
100
AcDbEntity
  8
GR1-1
  6
CONTINUOUS
 62
     3
100
AcDbLine
 10
307.251388
 20
305.530509
 30
0.0
 11
304.751388
 21
303.030509
 31
0.0
  0
ARC
  5
FD
330
1F
100
AcDbEntity
  8
GR1-1
  6
CONTINUOUS
 62
     3
100
AcDbCircle
 10
308.781897
 20
299.0
 30
0.0
 40
5.7
100
AcDbArc
 50
135.0
 51
315.0
  0
ARC
  5
FE
330
1F
100
AcDbEntity
  8
GR1-1
  6
CONTINUOUS
 62
     3
100
AcDbCircle
 10
307.781897
 20
298.0
 30
0.0
 40
10.0
100
AcDbArc
 50
180.0
 51
270.0
  0
LINE
  5
FF
330
1F
100
AcDbEntity
  8
GR1-1
  6
CONTINUOUS
 62
     3
100
AcDbLine
 10
297.781897
 20
298.0
 30
0.0
 11
297.781897
 21
380.0
 31
0.0
  0
LINE
  5
100
330
1F
100
AcDbEntity
  8
GR1-1
  6
CONTINUOUS
 62
     3
100
AcDbLine
 10
304.751388
 20
374.969491
 30
0.0
 11
307.251388
 21
372.469491
 31
0.0
  0
ARC
  5
101
330
1F
100
AcDbEntity
  8
GR1-1
  6
CONTINUOUS
 62
     3
100
AcDbCircle
 10
311.281897
 20
376.5
 30
0.0
 40
5.7
100
AcDbArc
 50
-135.0
 51
45.0
  0
LINE
  5
102
330
1F
100
AcDbEntity
  8
GR1-1
  6
CONTINUOUS
 62
     3
100
AcDbLine
 10
315.312405
 20
380.530509
 30
0.0
 11
312.812405
 21
383.030509
 31
0.0
  0
ARC
  5
103
330
1F
100
AcDbEntity
  8
GR1-1
  6
CONTINUOUS
 62
     3
100
AcDbCircle
 10
308.781897
 20
379.0
 30
0.0
 40
5.7
100
AcDbArc
 50
45.0
 51
225.0
  0
LINE
  5
104
330
1F
100
AcDbEntity
  8
GR1-1
  6
CONTINUOUS
 62
     3
100
AcDbLine
 10
297.781897
 20
366.0
 30
0.0
 11
272.719854
 21
366.0
 31
0.0
  0
ARC
  5
105
330
1F
100
AcDbEntity
  8
GR1-1
  6
CONTINUOUS
 62
     3
100
AcDbCircle
 10
272.719854
 20
365.5
 30
0.0
 40
0.5
100
AcDbArc
 50
90.0
 51
173.62063
  0
ARC
  5
106
330
1F
100
AcDbEntity
  8
GR1-1
  6
CONTINUOUS
 62
     3
100
AcDbCircle
 10
262.590864
 20
364.0
 30
0.0
 40
2.0
100
AcDbArc
 50
19.471221
 51
90.0
  0
LINE
  5
107
330
1F
100
AcDbEntity
  8
GR1-1
  6
CONTINUOUS
 62
     3
100
AcDbLine
 10
262.590864
 20
366.0
 30
0.0
 11
246.844834
 21
366.0
 31
0.0
  0
ARC
  5
108
330
1F
100
AcDbEntity
  8
GR1-1
  6
CONTINUOUS
 62
     3
100
AcDbCircle
 10
246.844834
 20
361.0
 30
0.0
 40
5.0
100
AcDbArc
 50
90.0
 51
180.0
  0
LINE
  5
109
330
1F
100
AcDbEntity
  8
GR1-1
  6
CONTINUOUS
 62
     3
100
AcDbLine
 10
241.844834
 20
361.0
 30
0.0
 11
241.844834
 21
317.0
 31
0.0
  0
ARC
  5
10A
330
1F
100
AcDbEntity
  8
GR1-1
  6
CONTINUOUS
 62
     3
100
AcDbCircle
 10
246.844834
 20
317.0
 30
0.0
 40
5.0
100
AcDbArc
 50
180.0
 51
270.0
  0
LINE
  5
10B
330
1F
100
AcDbEntity
  8
GR1-1
  6
CONTINUOUS
 62
     3
100
AcDbLine
 10
246.844834
 20
312.0
 30
0.0
 11
262.590864
 21
312.0
 31
0.0
  0
ARC
  5
10C
330
1F
100
AcDbEntity
  8
GR1-1
  6
CONTINUOUS
 62
     3
100
AcDbCircle
 10
262.590864
 20
314.0
 30
0.0
 40
2.0
100
AcDbArc
 50
270.0
 51
340.528779
  0
ARC
  5
10D
330
1F
100
AcDbEntity
  8
GR1-1
  6
CONTINUOUS
 62
     3
100
AcDbCircle
 10
268.247718
 20
312.0
 30
0.0
 40
4.0
100
AcDbArc
 50
6.37937
 51
160.528779
  0
ARC
  5
10E
330
1F
100
AcDbEntity
  8
GR1-1
  6
CONTINUOUS
 62
     3
100
AcDbCircle
 10
272.719854
 20
312.5
 30
0.0
 40
0.5
100
AcDbArc
 50
186.37937
 51
270.0
  0
LINE
  5
10F
330
1F
100
AcDbEntity
  8
GR1-1
  6
CONTINUOUS
 62
     3
100
AcDbLine
 10
272.719854
 20
312.0
 30
0.0
 11
297.781897
 21
312.0
 31
0.0
  0
LINE
  5
110
330
1F
100
AcDbEntity
  8
GR1-1
  6
CONTINUOUS
 62
     3
100
AcDbLine
 10
297.781897
 20
315.2
 30
0.0
 11
296.822353
 21
315.2
 31
0.0
  0
ARC
  5
111
330
1F
100
AcDbEntity
  8
GR1-1
  6
CONTINUOUS
 62
     3
100
AcDbCircle
 10
2593.164922
 20
339.0
 30
0.0
 40
2296.465901317911
100
AcDbArc
 50
180.348048
 51
180.673653
  0
LINE
  5
112
330
1F
100
AcDbEntity
  8
GR1-1
  6
CONTINUOUS
 62
     3
100
AcDbLine
 10
297.781897
 20
325.05
 30
0.0
 11
282.033929
 21
325.05
 31
0.0
  0
LINE
  5
113
330
1F
100
AcDbEntity
  8
GR1-1
  6
CONTINUOUS
 62
     3
100
AcDbLine
 10
282.033929
 20
325.05
 30
0.0
 11
282.033929
 21
352.95
 31
0.0
  0
LINE
  5
114
330
1F
100
AcDbEntity
  8
GR1-1
  6
CONTINUOUS
 62
     3
100
AcDbLine
 10
282.033929
 20
352.95
 30
0.0
 11
297.781897
 21
352.95
 31
0.0
  0
LINE
  5
115
330
1F
100
AcDbEntity
  8
GR1-1
  6
CONTINUOUS
 62
     3
100
AcDbLine
 10
297.781897
 20
362.8
 30
0.0
 11
296.822353
 21
362.8
 31
0.0
  0
ARC
  5
116
330
1F
100
AcDbEntity
  8
GR1-1
  6
CONTINUOUS
 62
     3
100
AcDbCircle
 10
2593.164922
 20
339.0
 30
0.0
 40
2296.465901317911
100
AcDbArc
 50
179.326347
 51
179.625754
  0
ARC
  5
117
330
1F
100
AcDbEntity
  8
GR1-1
  6
CONTINUOUS
 62
     3
100
AcDbCircle
 10
268.247718
 20
366.0
 30
0.0
 40
4.0
100
AcDbArc
 50
199.471221
 51
353.62063
  0
ARC
  5
118
330
1F
100
AcDbEntity
  8
GR1-1
  6
CONTINUOUS
 62
     3
100
AcDbCircle
 10
248.634251
 20
361.0
 30
0.0
 40
5.0
100
AcDbArc
 50
90.0
 51
180.0
  0
LINE
  5
119
330
1F
100
AcDbEntity
  8
GR1-1
  6
CONTINUOUS
 62
     3
100
AcDbLine
 10
243.634251
 20
361.0
 30
0.0
 11
243.634251
 21
317.0
 31
0.0
  0
ARC
  5
11A
330
1F
100
AcDbEntity
  8
GR1-1
  6
CONTINUOUS
 62
     3
100
AcDbCircle
 10
248.634251
 20
317.0
 30
0.0
 40
5.0
100
AcDbArc
 50
180.0
 51
270.0
  0
LINE
  5
11B
330
1F
100
AcDbEntity
  8
GR1-1
  6
CONTINUOUS
 62
     3
100
AcDbLine
 10
307.781897
 20
390.0
 30
0.0
 11
389.781897
 21
390.0
 31
0.0
  0
LINE
  5
11C
330
1F
100
AcDbEntity
  8
GR1-1
  6
CONTINUOUS
 62
     3
100
AcDbLine
 10
384.751388
 20
383.030509
 30
0.0
 11
382.251388
 21
380.530509
 31
0.0
  0
ARC
  5
11D
330
1F
100
AcDbEntity
  8
GR1-1
  6
CONTINUOUS
 62
     3
100
AcDbCircle
 10
386.281897
 20
376.5
 30
0.0
 40
5.7
100
AcDbArc
 50
135.0
 51
315.0
  0
LINE
  5
11E
330
1F
100
AcDbEntity
  8
GR1-1
  6
CONTINUOUS
 62
     3
100
AcDbLine
 10
390.312405
 20
372.469491
 30
0.0
 11
392.812405
 21
374.969491
 31
0.0
  0
ARC
  5
11F
330
1F
100
AcDbEntity
  8
GR1-1
  6
CONTINUOUS
 62
     3
100
AcDbCircle
 10
388.781897
 20
379.0
 30
0.0
 40
5.7
100
AcDbArc
 50
-45.0
 51
135.0
  0
LINE
  5
120
330
1F
100
AcDbEntity
  8
GR1-1
  6
CONTINUOUS
 62
     3
100
AcDbLine
 10
399.781897
 20
380.0
 30
0.0
 11
399.781897
 21
298.0
 31
0.0
  0
LINE
  5
121
330
1F
100
AcDbEntity
  8
GR1-1
  6
CONTINUOUS
 62
     3
100
AcDbLine
 10
392.812405
 20
303.030509
 30
0.0
 11
390.312405
 21
305.530509
 31
0.0
  0
ARC
  5
122
330
1F
100
AcDbEntity
  8
GR1-1
  6
CONTINUOUS
 62
     3
100
AcDbCircle
 10
386.281897
 20
301.5
 30
0.0
 40
5.7
100
AcDbArc
 50
45.0
 51
225.0
  0
LINE
  5
123
330
1F
100
AcDbEntity
  8
GR1-1
  6
CONTINUOUS
 62
     3
100
AcDbLine
 10
382.251388
 20
297.469491
 30
0.0
 11
384.751388
 21
294.969491
 31
0.0
  0
ARC
  5
124
330
1F
100
AcDbEntity
  8
GR1-1
  6
CONTINUOUS
 62
     3
100
AcDbCircle
 10
388.781897
 20
299.0
 30
0.0
 40
5.7
100
AcDbArc
 50
-135.0
 51
45.0
  0
ARC
  5
125
330
1F
100
AcDbEntity
  8
GR1-1
  6
CONTINUOUS
 62
     3
100
AcDbCircle
 10
389.781897
 20
298.0
 30
0.0
 40
10.0
100
AcDbArc
 50
270.0
 51
360.0
  0
CIRCLE
  5
126
330
1F
100
AcDbEntity
  8
GR1-1
  6
CONTINUOUS
 62
     3
100
AcDbCircle
 10
348.781897
 20
339.0
 30
0.0
 40
13.0
  0
ARC
  5
127
330
1F
100
AcDbEntity
  8
GR1-1
  6
CONTINUOUS
 62
     3
100
AcDbCircle
 10
389.781897
 20
380.0
 30
0.0
 40
10.0
100
AcDbArc
 50
0.0
 51
90.0
  0
ARC
  5
128
330
1F
100
AcDbEntity
  8
GR1-1
  6
CONTINUOUS
 62
     3
100
AcDbCircle
 10
307.781897
 20
380.0
 30
0.0
 40
10.0
100
AcDbArc
 50
90.0
 51
180.0
  0
LINE
  5
129
330
1F
100
AcDbEntity
  8
GR1-1
  6
CENTER
 62
     6
100
AcDbLine
 10
348.783929
 20
284.509252
 30
0.0
 11
348.783929
 21
393.739606
 31
0.0
  0
LINE
  5
12A
330
1F
100
AcDbEntity
  8
GR1-1
  6
CONTINUOUS
 62
     6
100
AcDbLine
 10
296.74801
 20
354.0
 30
0.0
 11
277.071911
 21
354.0
 31
0.0
  0
ARC
  5
12B
330
1F
100
AcDbEntity
  8
GR1-1
  6
CONTINUOUS
 62
     6
100
AcDbCircle
 10
277.071911
 20
353.0
 30
0.0
 40
1.0
100
AcDbArc
 50
90.0
 51
180.0
  0
LINE
  5
12C
330
1F
100
AcDbEntity
  8
GR1-1
  6
CONTINUOUS
 62
     6
100
AcDbLine
 10
276.071911
 20
353.0
 30
0.0
 11
276.071911
 21
325.0
 31
0.0
  0
ARC
  5
12D
330
1F
100
AcDbEntity
  8
GR1-1
  6
CONTINUOUS
 62
     6
100
AcDbCircle
 10
277.071911
 20
325.0
 30
0.0
 40
1.0
100
AcDbArc
 50
180.0
 51
270.0
  0
LINE
  5
12E
330
1F
100
AcDbEntity
  8
GR1-1
  6
CONTINUOUS
 62
     6
100
AcDbLine
 10
277.071911
 20
324.0
 30
0.0
 11
296.74801
 21
324.0
 31
0.0
  0
LINE
  5
12F
330
1F
100
AcDbEntity
  8
GR1-1
  6
CENTER
 62
     6
100
AcDbLine
 10
289.383929
 20
333.035394
 30
0.0
 11
289.383929
 21
345.627831
 31
0.0
  0
LINE
  5
130
330
1F
100
AcDbEntity
  8
GR1-1
  6
CONTINUOUS
 62
     6
100
AcDbLine
 10
282.033929
 20
347.313625
 30
0.0
 11
276.348218
 21
353.690123
 31
0.0
  0
ARC
  5
131
330
1F
100
AcDbEntity
  8
GR1-1
  6
CONTINUOUS
 62
     6
100
AcDbCircle
 10
258.722736
 20
357.727405
 30
0.0
 40
2.072594999999922
100
AcDbArc
 50
0.0
 51
180.0
  0
LINE
  5
132
330
1F
100
AcDbEntity
  8
GR1-1
  6
CONTINUOUS
 62
     6
100
AcDbLine
 10
256.650141
 20
357.727405
 30
0.0
 11
256.650141
 21
320.272595
 31
0.0
  0
ARC
  5
133
330
1F
100
AcDbEntity
  8
GR1-1
  6
CONTINUOUS
 62
     6
100
AcDbCircle
 10
258.722736
 20
320.272595
 30
0.0
 40
2.072594999999922
100
AcDbArc
 50
180.0
 51
360.0
  0
LINE
  5
134
330
1F
100
AcDbEntity
  8
GR1-1
  6
CONTINUOUS
 62
     6
100
AcDbLine
 10
260.795331
 20
320.272595
 30
0.0
 11
260.795331
 21
357.727405
 31
0.0
  0
LINE
  5
135
330
1F
100
AcDbEntity
  8
GR1-1
  6
CONTINUOUS
 62
     6
100
AcDbLine
 10
261.328285
 20
366.0
 30
0.0
 11
261.328285
 21
312.0
 31
0.0
  0
LINE
  5
136
330
1F
100
AcDbEntity
  8
GR1-1
  6
CONTINUOUS
 62
     6
100
AcDbLine
 10
252.504955
 20
320.272595
 30
0.0
 11
252.504955
 21
357.727405
 31
0.0
  0
ARC
  5
137
330
1F
100
AcDbEntity
  8
GR1-1
  6
CONTINUOUS
 62
     6
100
AcDbCircle
 10
250.43236
 20
357.727405
 30
0.0
 40
2.072594999999922
100
AcDbArc
 50
0.0
 51
180.0
  0
LINE
  5
138
330
1F
100
AcDbEntity
  8
GR1-1
  6
CONTINUOUS
 62
     6
100
AcDbLine
 10
248.359765
 20
357.727405
 30
0.0
 11
248.359765
 21
320.272595
 31
0.0
  0
ARC
  5
139
330
1F
100
AcDbEntity
  8
GR1-1
  6
CONTINUOUS
 62
     6
100
AcDbCircle
 10
250.43236
 20
320.272595
 30
0.0
 40
2.072594999999922
100
AcDbArc
 50
180.0
 51
360.0
  0
LINE
  5
13A
330
1F
100
AcDbEntity
  8
GR1-1
  6
CENTER
 62
     6
100
AcDbLine
 10
229.648693
 20
339.0
 30
0.0
 11
402.154311
 21
339.0
 31
0.0
  0
CIRCLE
  5
13B
330
1F
100
AcDbEntity
  8
GR1-1
  6
CONTINUOUS
 62
     6
100
AcDbCircle
 10
348.781897
 20
339.0
 30
0.0
 40
42.5
  0
CIRCLE
  5
13C
330
1F
100
AcDbEntity
  8
GR1-1
  6
CONTINUOUS
 62
     6
100
AcDbCircle
 10
348.781897
 20
339.0
 30
0.0
 40
38.0
  0
CIRCLE
  5
13D
330
1F
100
AcDbEntity
  8
GR1-1
  6
CONTINUOUS
 62
     6
100
AcDbCircle
 10
348.781897
 20
339.0
 30
0.0
 40
13.40000000000002
  0
CIRCLE
  5
13E
330
1F
100
AcDbEntity
  8
GR1-1
  6
CONTINUOUS
 62
     6
100
AcDbCircle
 10
348.781897
 20
339.0
 30
0.0
 40
8.009445438332094
  0
LINE
  5
13F
330
1F
100
AcDbEntity
  8
GR1-1
  6
CENTER
 62
     6
100
AcDbLine
 10
386.285961
 20
369.418617
 30
0.0
 11
386.285961
 21
384.539176
 31
0.0
  0
LINE
  5
140
330
1F
100
AcDbEntity
  8
GR1-1
  6
CENTER
 62
     6
100
AcDbLine
 10
380.731164
 20
379.0
 30
0.0
 11
397.062836
 21
379.0
 31
0.0
  0
LINE
  5
141
330
1F
100
AcDbEntity
  8
GR1-1
  6
CENTER
 62
     6
100
AcDbLine
 10
394.750712
 20
376.5
 30
0.0
 11
379.226449
 21
376.5
 31
0.0
  0
LINE
  5
142
330
1F
100
AcDbEntity
  8
GR1-1
  6
CENTER
 62
     6
100
AcDbLine
 10
388.785961
 20
385.86039
 30
0.0
 11
388.785961
 21
370.923333
 31
0.0
  0
CIRCLE
  5
143
330
1F
100
AcDbEntity
  8
GR1-1
  6
CONTINUOUS
 62
     3
100
AcDbCircle
 10
289.383929
 20
339.0
 30
0.0
 40
4.0
  0
LINE
  5
144
330
1F
100
AcDbEntity
  8
GR1-1
  6
CONTINUOUS
 62
     6
100
AcDbLine
 10
282.033929
 20
330.821867
 30
0.0
 11
276.227405
 21
324.309877
 31
0.0
  0
LINE
  5
145
330
1F
100
AcDbEntity
  8
GR1-1
  6
CONTINUOUS
 62
     6
100
AcDbLine
 10
272.105599
 20
364.943235
 30
0.0
 11
272.105599
 21
313.056765
 31
0.0
  0
INSERT
  5
149
330
1F
100
AcDbEntity
  8
0
100
AcDbBlockReference
  2
BLKF029
 10
0.0
 20
0.0
 30
0.0
  0
INSERT
  5
153
330
1F
100
AcDbEntity
  8
0
100
AcDbBlockReference
  2
BLKF030
 10
0.0
 20
0.0
 30
0.0
  0
INSERT
  5
15D
330
1F
100
AcDbEntity
  8
0
100
AcDbBlockReference
  2
BLKF031
 10
0.0
 20
0.0
 30
0.0
  0
LINE
  5
165
330
1F
100
AcDbEntity
  8
GR1-1
  6
CONTINUOUS
 62
     3
100
AcDbLine
 10
399.783929
 20
231.10084
 30
0.0
 11
399.783929
 21
235.10084
 31
0.0
  0
LINE
  5
166
330
1F
100
AcDbEntity
  8
GR1-1
  6
CONTINUOUS
 62
     3
100
AcDbLine
 10
399.783929
 20
235.10084
 30
0.0
 11
348.783929
 21
235.10084
 31
0.0
  0
LINE
  5
167
330
1F
100
AcDbEntity
  8
GR1-1
  6
CONTINUOUS
 62
     3
100
AcDbLine
 10
284.033929
 20
229.10084
 30
0.0
 11
304.533929
 21
229.10084
 31
0.0
  0
LINE
  5
168
330
1F
100
AcDbEntity
  8
GR1-1
  6
CONTINUOUS
 62
     3
100
AcDbLine
 10
304.533929
 20
229.10084
 30
0.0
 11
304.533929
 21
231.10084
 31
0.0
  0
LINE
  5
169
330
1F
100
AcDbEntity
  8
GR1-1
  6
CONTINUOUS
 62
     3
100
AcDbLine
 10
306.283929
 20
231.10084
 30
0.0
 11
306.283929
 21
230.60084
 31
0.0
  0
LINE
  5
16A
330
1F
100
AcDbEntity
  8
GR1-1
  6
CONTINUOUS
 62
     3
100
AcDbLine
 10
306.283929
 20
231.10084
 30
0.0
 11
284.533929
 21
231.10084
 31
0.0
  0
ARC
  5
16B
330
1F
100
AcDbEntity
  8
GR1-1
  6
CONTINUOUS
 62
     3
100
AcDbCircle
 10
284.533929
 20
228.60084
 30
0.0
 40
2.5
100
AcDbArc
 50
90.0
 51
180.0
  0
LINE
  5
16C
330
1F
100
AcDbEntity
  8
GR1-1
  6
CONTINUOUS
 62
     3
100
AcDbLine
 10
282.033929
 20
228.60084
 30
0.0
 11
282.033929
 21
216.10084
 31
0.0
  0
ARC
  5
16D
330
1F
100
AcDbEntity
  8
GR1-1
  6
CONTINUOUS
 62
     3
100
AcDbCircle
 10
284.533929
 20
216.10084
 30
0.0
 40
2.5
100
AcDbArc
 50
180.0
 51
270.0
  0
LINE
  5
16E
330
1F
100
AcDbEntity
  8
GR1-1
  6
CONTINUOUS
 62
     3
100
AcDbLine
 10
284.533929
 20
213.60084
 30
0.0
 11
286.383929
 21
213.60084
 31
0.0
  0
ARC
  5
16F
330
1F
100
AcDbEntity
  8
GR1-1
  6
CONTINUOUS
 62
     3
100
AcDbCircle
 10
286.938189
 20
203.59991
 30
0.0
 40
10.0
100
AcDbArc
 50
92.923717
 51
115.222894
  0
LINE
  5
170
330
1F
100
AcDbEntity
  8
GR1-1
  6
CONTINUOUS
 62
     3
100
AcDbLine
 10
282.676781
 20
212.646479
 30
0.0
 11
277.625861
 21
210.267231
 31
0.0
  0
LINE
  5
171
330
1F
100
AcDbEntity
  8
GR1-1
  6
CONTINUOUS
 62
     3
100
AcDbLine
 10
277.625861
 20
210.267231
 30
0.0
 11
272.517625
 21
210.445615
 31
0.0
  0
ARC
  5
172
330
1F
100
AcDbEntity
  8
GR1-1
  6
CONTINUOUS
 62
     3
100
AcDbCircle
 10
272.098831
 20
198.452925
 30
0.0
 40
12.0
100
AcDbArc
 50
88.0
 51
103.0
  0
LINE
  5
173
330
1F
100
AcDbEntity
  8
GR1-1
  6
CONTINUOUS
 62
     3
100
AcDbLine
 10
269.399419
 20
210.145365
 30
0.0
 11
261.04404
 21
208.216374
 31
0.0
  0
LINE
  5
174
330
1F
100
AcDbEntity
  8
GR1-1
  6
CONTINUOUS
 62
     3
100
AcDbLine
 10
261.04404
 20
208.216374
 30
0.0
 11
260.795329
 21
208.384132
 31
0.0
  0
ARC
  5
175
330
1F
100
AcDbEntity
  8
GR1-1
  6
CONTINUOUS
 62
     3
100
AcDbCircle
 10
257.977145
 20
208.676731
 30
0.0
 40
2.833333333333313
100
AcDbArc
 50
-5.927513
 51
117.927513
  0
LINE
  5
176
330
1F
100
AcDbEntity
  8
GR1-1
  6
CONTINUOUS
 62
     3
100
AcDbLine
 10
260.795329
 20
208.384132
 30
0.0
 11
243.634251
 21
219.959425
 31
0.0
  0
ARC
  5
177
330
1F
100
AcDbEntity
  8
GR1-1
  6
CONTINUOUS
 62
     3
100
AcDbCircle
 10
249.686769
 20
214.26866
 30
0.0
 40
2.833333333333276
100
AcDbArc
 50
-5.927513
 51
117.927513
  0
LINE
  5
178
330
1F
100
AcDbEntity
  8
GR1-1
  6
CONTINUOUS
 62
     3
100
AcDbLine
 10
243.634251
 20
219.959425
 30
0.0
 11
241.844834
 21
217.306505
 31
0.0
  0
ARC
  5
179
330
1F
100
AcDbEntity
  8
GR1-1
  6
CONTINUOUS
 62
     3
100
AcDbCircle
 10
262.395317
 20
215.507209
 30
0.0
 40
10.0
100
AcDbArc
 50
258.558585
 51
283.0
  0
LINE
  5
17A
330
1F
100
AcDbEntity
  8
GR1-1
  6
CONTINUOUS
 62
     3
100
AcDbLine
 10
264.644827
 20
205.763508
 30
0.0
 11
270.615155
 21
207.141867
 31
0.0
  0
LINE
  5
17B
330
1F
100
AcDbEntity
  8
GR1-1
  6
CONTINUOUS
 62
     3
100
AcDbLine
 10
298.783929
 20
211.55084
 30
0.0
 11
298.783929
 21
208.55084
 31
0.0
  0
LINE
  5
17C
330
1F
100
AcDbEntity
  8
GR1-1
  6
CONTINUOUS
 62
     3
100
AcDbLine
 10
298.783929
 20
208.55084
 30
0.0
 11
301.683311
 21
208.55084
 31
0.0
  0
ARC
  5
17D
330
1F
100
AcDbEntity
  8
GR1-1
  6
CONTINUOUS
 62
     3
100
AcDbCircle
 10
308.783929
 20
215.55084
 30
0.0
 40
4.0
100
AcDbArc
 50
270.0
 51
360.0
  0
LINE
  5
17E
330
1F
100
AcDbEntity
  8
GR1-1
  6
CONTINUOUS
 62
     3
100
AcDbLine
 10
308.783929
 20
211.55084
 30
0.0
 11
298.783929
 21
211.55084
 31
0.0
  0
LINE
  5
17F
330
1F
100
AcDbEntity
  8
GR1-1
  6
CONTINUOUS
 62
     3
100
AcDbLine
 10
296.699021
 20
213.60362
 30
0.0
 11
296.96489
 21
206.890251
 31
0.0
  0
ARC
  5
180
330
1F
100
AcDbEntity
  8
GR1-1
  6
CONTINUOUS
 62
     3
100
AcDbCircle
 10
297.464585
 20
206.872802
 30
0.0
 40
0.5
100
AcDbArc
 50
178.0
 51
268.0
  0
LINE
  5
181
330
1F
100
AcDbEntity
  8
GR1-1
  6
CONTINUOUS
 62
     3
100
AcDbLine
 10
348.783929
 20
217.50084
 30
0.0
 11
386.383929
 21
217.50084
 31
0.0
  0
LINE
  5
182
330
1F
100
AcDbEntity
  8
GR1-1
  6
CONTINUOUS
 62
     3
100
AcDbLine
 10
386.383929
 20
217.50084
 30
0.0
 11
387.383929
 21
217.85296
 31
0.0
  0
LINE
  5
183
330
1F
100
AcDbEntity
  8
GR1-1
  6
CONTINUOUS
 62
     3
100
AcDbLine
 10
384.783929
 20
217.50084
 30
0.0
 11
384.783929
 21
209.25084
 31
0.0
  0
LINE
  5
184
330
1F
100
AcDbEntity
  8
GR1-1
  6
CONTINUOUS
 62
     3
100
AcDbLine
 10
296.699021
 20
213.60362
 30
0.0
 11
286.428121
 21
213.599717
 31
0.0
  0
ARC
  5
185
330
1F
100
AcDbEntity
  8
GR1-1
  6
CONTINUOUS
 62
     3
100
AcDbCircle
 10
270.623803
 20
205.604407
 30
0.0
 40
1.5
100
AcDbArc
 50
3.087943
 51
103.0
  0
ARC
  5
186
330
1F
100
AcDbEntity
  8
GR1-1
  6
CONTINUOUS
 62
     3
100
AcDbCircle
 10
290.095489
 20
206.654847
 30
0.0
 40
18.0
100
AcDbArc
 50
183.087943
 51
256.277485
  0
ARC
  5
187
330
1F
100
AcDbEntity
  8
GR1-1
  6
CONTINUOUS
 62
     3
100
AcDbCircle
 10
303.733929
 20
228.30084
 30
0.0
 40
0.8
100
AcDbArc
 50
-55.532303
 51
90.0
  0
LINE
  5
188
330
1F
100
AcDbEntity
  8
GR1-1
  6
CONTINUOUS
 62
     3
100
AcDbLine
 10
304.475549
 20
228.60084
 30
0.0
 11
306.283929
 21
231.10084
 31
0.0
  0
CIRCLE
  5
189
330
1F
100
AcDbEntity
  8
GR1-1
  6
CONTINUOUS
 62
     3
100
AcDbCircle
 10
367.533929
 20
222.60084
 30
0.0
 40
2.1
  0
LINE
  5
18A
330
1F
100
AcDbEntity
  8
GR1-1
  6
CONTINUOUS
 62
     3
100
AcDbLine
 10
386.283929
 20
220.80084
 30
0.0
 11
386.283929
 21
227.10084
 31
0.0
  0
ARC
  5
18B
330
1F
100
AcDbEntity
  8
GR1-1
  6
CONTINUOUS
 62
     3
100
AcDbCircle
 10
382.283929
 20
227.10084
 30
0.0
 40
4.0
100
AcDbArc
 50
0.0
 51
25.104612
  0
ARC
  5
18C
330
1F
100
AcDbEntity
  8
GR1-1
  6
CONTINUOUS
 62
     3
100
AcDbCircle
 10
387.69527
 20
233.270962
 30
0.0
 40
4.473032676673776
100
AcDbArc
 50
270.0
 51
323.349108
  0
LINE
  5
18D
330
1F
100
AcDbEntity
  8
GR1-1
  6
CONTINUOUS
 62
     3
100
AcDbLine
 10
391.283929
 20
230.60084
 30
0.0
 11
391.283929
 21
231.10084
 31
0.0
  0
LINE
  5
18E
330
1F
100
AcDbEntity
  8
GR1-1
  6
CONTINUOUS
 62
     3
100
AcDbLine
 10
387.69527
 20
228.79793
 30
0.0
 11
348.783929
 21
228.79793
 31
0.0
  0
LINE
  5
18F
330
1F
100
AcDbEntity
  8
GR1-1
  6
CONTINUOUS
 62
     3
100
AcDbLine
 10
348.783929
 20
231.10084
 30
0.0
 11
399.783929
 21
231.10084
 31
0.0
  0
ARC
  5
190
330
1F
100
AcDbEntity
  8
GR1-1
  6
CONTINUOUS
 62
     3
100
AcDbCircle
 10
390.783929
 20
220.80084
 30
0.0
 40
4.5
100
AcDbArc
 50
180.0
 51
220.926063
  0
ARC
  5
191
330
1F
100
AcDbEntity
  8
GR1-1
  6
CONTINUOUS
 62
     3
100
AcDbCircle
 10
116.62913
 20
208.05084
 30
0.0
 40
0.5
100
AcDbArc
 50
90.0
 51
180.0
  0
LINE
  5
192
330
1F
100
AcDbEntity
  8
GR1-1
  6
CONTINUOUS
 62
     3
100
AcDbLine
 10
116.62913
 20
205.507209
 30
0.0
 11
170.62913
 21
205.507209
 31
0.0
  0
ARC
  5
193
330
1F
100
AcDbEntity
  8
GR1-1
  6
CONTINUOUS
 62
     3
100
AcDbCircle
 10
170.12913
 20
207.55084
 30
0.0
 40
4.0
100
AcDbArc
 50
0.0
 51
82.819244
  0
ARC
  5
194
330
1F
100
AcDbEntity
  8
GR1-1
  6
CONTINUOUS
 62
     3
100
AcDbCircle
 10
166.62913
 20
213.306505
 30
0.0
 40
4.0
100
AcDbArc
 50
0.0
 51
90.0
  0
LINE
  5
195
330
1F
100
AcDbEntity
  8
GR1-1
  6
CONTINUOUS
 62
     3
100
AcDbLine
 10
166.62913
 20
217.306505
 30
0.0
 11
120.62913
 21
217.306505
 31
0.0
  0
ARC
  5
196
330
1F
100
AcDbEntity
  8
GR1-1
  6
CONTINUOUS
 62
     3
100
AcDbCircle
 10
120.62913
 20
213.306505
 30
0.0
 40
4.0
100
AcDbArc
 50
90.0
 51
180.0
  0
ARC
  5
197
330
1F
100
AcDbEntity
  8
GR1-1
  6
CONTINUOUS
 62
     3
100
AcDbCircle
 10
117.12913
 20
207.55084
 30
0.0
 40
4.0
100
AcDbArc
 50
97.180756
 51
180.0
  0
LINE
  5
198
330
1F
100
AcDbEntity
  8
GR1-1
  6
CONTINUOUS
 62
     3
100
AcDbLine
 10
107.62913
 20
160.990398
 30
0.0
 11
107.62913
 21
217.50084
 31
0.0
  0
LINE
  5
199
330
1F
100
AcDbEntity
  8
GR1-1
  6
CONTINUOUS
 62
     3
100
AcDbLine
 10
106.02913
 20
217.50084
 30
0.0
 11
117.118815
 21
217.50084
 31
0.0
  0
LINE
  5
19A
330
1F
100
AcDbEntity
  8
GR1-1
  6
CONTINUOUS
 62
     3
100
AcDbLine
 10
116.62913
 20
215.459425
 30
0.0
 11
116.62913
 21
177.305186
 31
0.0
  0
LINE
  5
19B
330
1F
100
AcDbEntity
  8
GR1-1
  6
CONTINUOUS
 62
     3
100
AcDbLine
 10
116.62913
 20
177.305186
 30
0.0
 11
119.82913
 21
177.305186
 31
0.0
  0
LINE
  5
19C
330
1F
100
AcDbEntity
  8
GR1-1
  6
CONTINUOUS
 62
     3
100
AcDbLine
 10
119.82913
 20
177.305186
 30
0.0
 11
119.82913
 21
205.507209
 31
0.0
  0
LINE
  5
19D
330
1F
100
AcDbEntity
  8
GR1-1
  6
CONTINUOUS
 62
     3
100
AcDbLine
 10
119.82913
 20
202.10084
 30
0.0
 11
128.52913
 21
202.10084
 31
0.0
  0
LINE
  5
19E
330
1F
100
AcDbEntity
  8
GR1-1
  6
CONTINUOUS
 62
     3
100
AcDbLine
 10
128.52913
 20
202.75084
 30
0.0
 11
128.52913
 21
195.45084
 31
0.0
  0
ARC
  5
19F
330
1F
100
AcDbEntity
  8
GR1-1
  6
CONTINUOUS
 62
     3
100
AcDbCircle
 10
129.12913
 20
195.45084
 30
0.0
 40
0.5999999999999801
100
AcDbArc
 50
-180.0
 51
0.0
  0
LINE
  5
1A0
330
1F
100
AcDbEntity
  8
GR1-1
  6
CONTINUOUS
 62
     3
100
AcDbLine
 10
129.72913
 20
195.45084
 30
0.0
 11
129.72913
 21
202.75084
 31
0.0
  0
ARC
  5
1A1
330
1F
100
AcDbEntity
  8
GR1-1
  6
CONTINUOUS
 62
     3
100
AcDbCircle
 10
129.12913
 20
202.75084
 30
0.0
 40
0.5999999999999801
100
AcDbArc
 50
0.0
 51
180.0
  0
LINE
  5
1A2
330
1F
100
AcDbEntity
  8
GR1-1
  6
CONTINUOUS
 62
     3
100
AcDbLine
 10
129.72913
 20
202.10084
 30
0.0
 11
156.52913
 21
202.10084
 31
0.0
  0
LINE
  5
1A3
330
1F
100
AcDbEntity
  8
GR1-1
  6
CONTINUOUS
 62
     3
100
AcDbLine
 10
156.52913
 20
202.75084
 30
0.0
 11
156.52913
 21
195.45084
 31
0.0
  0
ARC
  5
1A4
330
1F
100
AcDbEntity
  8
GR1-1
  6
CONTINUOUS
 62
     3
100
AcDbCircle
 10
157.12913
 20
195.45084
 30
0.0
 40
0.5999999999999801
100
AcDbArc
 50
-180.0
 51
0.0
  0
LINE
  5
1A5
330
1F
100
AcDbEntity
  8
GR1-1
  6
CONTINUOUS
 62
     3
100
AcDbLine
 10
157.72913
 20
195.45084
 30
0.0
 11
157.72913
 21
202.75084
 31
0.0
  0
ARC
  5
1A6
330
1F
100
AcDbEntity
  8
GR1-1
  6
CONTINUOUS
 62
     3
100
AcDbCircle
 10
157.12913
 20
202.75084
 30
0.0
 40
0.5999999999999801
100
AcDbArc
 50
0.0
 51
180.0
  0
LINE
  5
1A7
330
1F
100
AcDbEntity
  8
GR1-1
  6
CONTINUOUS
 62
     3
100
AcDbLine
 10
157.72913
 20
202.10084
 30
0.0
 11
167.42913
 21
202.10084
 31
0.0
  0
LINE
  5
1A8
330
1F
100
AcDbEntity
  8
GR1-1
  6
CONTINUOUS
 62
     3
100
AcDbLine
 10
170.62913
 20
202.10084
 30
0.0
 11
171.12913
 21
202.10084
 31
0.0
  0
LINE
  5
1A9
330
1F
100
AcDbEntity
  8
GR1-1
  6
CONTINUOUS
 62
     3
100
AcDbLine
 10
167.42913
 20
205.507209
 30
0.0
 11
167.42913
 21
177.305186
 31
0.0
  0
LINE
  5
1AA
330
1F
100
AcDbEntity
  8
GR1-1
  6
CONTINUOUS
 62
     3
100
AcDbLine
 10
167.42913
 20
177.305186
 30
0.0
 11
170.62913
 21
177.305186
 31
0.0
  0
LINE
  5
1AB
330
1F
100
AcDbEntity
  8
GR1-1
  6
CONTINUOUS
 62
     3
100
AcDbLine
 10
170.62913
 20
177.305186
 30
0.0
 11
170.62913
 21
215.459425
 31
0.0
  0
ARC
  5
1AC
330
1F
100
AcDbEntity
  8
GR1-1
  6
CONTINUOUS
 62
     3
100
AcDbCircle
 10
166.12913
 20
215.459425
 30
0.0
 40
4.5
100
AcDbArc
 50
0.0
 51
90.0
  0
LINE
  5
1AD
330
1F
100
AcDbEntity
  8
GR1-1
  6
CONTINUOUS
 62
     3
100
AcDbLine
 10
166.12913
 20
219.959425
 30
0.0
 11
121.12913
 21
219.959425
 31
0.0
  0
ARC
  5
1AE
330
1F
100
AcDbEntity
  8
GR1-1
  6
CONTINUOUS
 62
     3
100
AcDbCircle
 10
121.12913
 20
215.459425
 30
0.0
 40
4.5
100
AcDbArc
 50
90.0
 51
180.0
  0
LINE
  5
1AF
330
1F
100
AcDbEntity
  8
GR1-1
  6
CONTINUOUS
 62
     3
100
AcDbLine
 10
106.02913
 20
217.50084
 30
0.0
 11
105.02913
 21
217.85296
 31
0.0
  0
ARC
  5
1B0
330
1F
100
AcDbEntity
  8
GR1-1
  6
CONTINUOUS
 62
     3
100
AcDbCircle
 10
101.62913
 20
220.80084
 30
0.0
 40
4.5
100
AcDbArc
 50
319.073937
 51
360.0
  0
LINE
  5
1B1
330
1F
100
AcDbEntity
  8
GR1-1
  6
CONTINUOUS
 62
     3
100
AcDbLine
 10
106.12913
 20
220.80084
 30
0.0
 11
106.12913
 21
227.10084
 31
0.0
  0
ARC
  5
1B2
330
1F
100
AcDbEntity
  8
GR1-1
  6
CONTINUOUS
 62
     3
100
AcDbCircle
 10
110.12913
 20
227.10084
 30
0.0
 40
4.0
100
AcDbArc
 50
154.895388
 51
180.0
  0
LINE
  5
1B3
330
1F
100
AcDbEntity
  8
GR1-1
  6
CONTINUOUS
 62
     3
100
AcDbLine
 10
104.717789
 20
228.79793
 30
0.0
 11
129.482041
 21
228.79793
 31
0.0
  0
LINE
  5
1B4
330
1F
100
AcDbEntity
  8
GR1-1
  6
CONTINUOUS
 62
     3
100
AcDbLine
 10
129.67913
 20
228.60084
 30
0.0
 11
127.17913
 21
231.10084
 31
0.0
  0
LINE
  5
1B5
330
1F
100
AcDbEntity
  8
GR1-1
  6
CONTINUOUS
 62
     3
100
AcDbLine
 10
129.67913
 20
231.10084
 30
0.0
 11
129.67913
 21
219.959425
 31
0.0
  0
LINE
  5
1B6
330
1F
100
AcDbEntity
  8
GR1-1
  6
CONTINUOUS
 62
     3
100
AcDbLine
 10
113.12913
 20
203.50084
 30
0.0
 11
112.62913
 21
203.50084
 31
0.0
  0
ARC
  5
1B7
330
1F
100
AcDbEntity
  8
GR1-1
  6
CONTINUOUS
 62
     3
100
AcDbCircle
 10
112.62913
 20
202.50084
 30
0.0
 40
1.0
100
AcDbArc
 50
90.0
 51
180.0
  0
LINE
  5
1B8
330
1F
100
AcDbEntity
  8
GR1-1
  6
CONTINUOUS
 62
     3
100
AcDbLine
 10
111.62913
 20
202.50084
 30
0.0
 11
111.62913
 21
195.70084
 31
0.0
  0
ARC
  5
1B9
330
1F
100
AcDbEntity
  8
GR1-1
  6
CONTINUOUS
 62
     3
100
AcDbCircle
 10
112.62913
 20
195.70084
 30
0.0
 40
1.0
100
AcDbArc
 50
180.0
 51
270.0
  0
LINE
  5
1BA
330
1F
100
AcDbEntity
  8
GR1-1
  6
CONTINUOUS
 62
     3
100
AcDbLine
 10
112.62913
 20
194.70084
 30
0.0
 11
113.12913
 21
194.70084
 31
0.0
  0
LINE
  5
1BB
330
1F
100
AcDbEntity
  8
GR1-1
  6
CONTINUOUS
 62
     3
100
AcDbLine
 10
116.12913
 20
195.30084
 30
0.0
 11
116.62913
 21
195.30084
 31
0.0
  0
LINE
  5
1BC
330
1F
100
AcDbEntity
  8
GR1-1
  6
CONTINUOUS
 62
     3
100
AcDbLine
 10
119.82913
 20
195.30084
 30
0.0
 11
124.882182
 21
195.30084
 31
0.0
  0
ARC
  5
1BD
330
1F
100
AcDbEntity
  8
GR1-1
  6
CONTINUOUS
 62
     3
100
AcDbCircle
 10
129.12913
 20
194.823463
 30
0.0
 40
4.249999999999986
100
AcDbArc
 50
175.692716
 51
346.947752
  0
LINE
  5
1BE
330
1F
100
AcDbEntity
  8
GR1-1
  6
CONTINUOUS
 62
     3
100
AcDbLine
 10
129.72913
 20
189.977632
 30
0.0
 11
129.72913
 21
188.65084
 31
0.0
  0
LINE
  5
1BF
330
1F
100
AcDbEntity
  8
GR1-1
  6
CONTINUOUS
 62
     3
100
AcDbLine
 10
129.72913
 20
189.30084
 30
0.0
 11
131.239007
 21
189.30084
 31
0.0
  0
LINE
  5
1C0
330
1F
100
AcDbEntity
  8
GR1-1
  6
CONTINUOUS
 62
     3
100
AcDbLine
 10
128.52913
 20
189.30084
 30
0.0
 11
119.82913
 21
189.30084
 31
0.0
  0
LINE
  5
1C1
330
1F
100
AcDbEntity
  8
GR1-1
  6
CONTINUOUS
 62
     3
100
AcDbLine
 10
116.62913
 20
189.30084
 30
0.0
 11
116.12913
 21
189.30084
 31
0.0
  0
LINE
  5
1C2
330
1F
100
AcDbEntity
  8
GR1-1
  6
CONTINUOUS
 62
     3
100
AcDbLine
 10
119.82913
 20
196.10084
 30
0.0
 11
128.52913
 21
196.10084
 31
0.0
  0
LINE
  5
1C3
330
1F
100
AcDbEntity
  8
GR1-1
  6
CONTINUOUS
 62
     3
100
AcDbLine
 10
129.72913
 20
196.10084
 30
0.0
 11
156.52913
 21
196.10084
 31
0.0
  0
LINE
  5
1C4
330
1F
100
AcDbEntity
  8
GR1-1
  6
CONTINUOUS
 62
     3
100
AcDbLine
 10
157.72913
 20
196.10084
 30
0.0
 11
167.42913
 21
196.10084
 31
0.0
  0
LINE
  5
1C5
330
1F
100
AcDbEntity
  8
GR1-1
  6
CONTINUOUS
 62
     3
100
AcDbLine
 10
167.42913
 20
195.30084
 30
0.0
 11
161.376079
 21
195.30084
 31
0.0
  0
ARC
  5
1C6
330
1F
100
AcDbEntity
  8
GR1-1
  6
CONTINUOUS
 62
     3
100
AcDbCircle
 10
157.12913
 20
196.100256
 30
0.0
 40
4.249999999999986
100
AcDbArc
 50
-152.002234
 51
0.007876
  0
ARC
  5
1C7
330
1F
100
AcDbEntity
  8
GR1-1
  6
CONTINUOUS
 62
     3
100
AcDbCircle
 10
157.12913
 20
197.970279
 30
0.0
 40
3.049999999999997
100
AcDbArc
 50
217.801716
 51
322.198284
  0
ARC
  5
1C8
330
1F
100
AcDbEntity
  8
GR1-1
  6
CONTINUOUS
 62
     3
100
AcDbCircle
 10
157.12913
 20
196.738653
 30
0.0
 40
4.249999999999986
100
AcDbArc
 50
222.726684
 51
351.368453
  0
ARC
  5
1C9
330
1F
100
AcDbEntity
  8
GR1-1
  6
CONTINUOUS
 62
     3
100
AcDbCircle
 10
157.12913
 20
195.461859
 30
0.0
 40
4.249999999999986
100
AcDbArc
 50
-162.611359
 51
4.307284
  0
LINE
  5
1CA
330
1F
100
AcDbEntity
  8
GR1-1
  6
CONTINUOUS
 62
     3
100
AcDbLine
 10
157.72913
 20
189.977632
 30
0.0
 11
157.72913
 21
188.65084
 31
0.0
  0
ARC
  5
1CB
330
1F
100
AcDbEntity
  8
GR1-1
  6
CONTINUOUS
 62
     3
100
AcDbCircle
 10
157.12913
 20
188.65084
 30
0.0
 40
0.5999999999999943
100
AcDbArc
 50
231.016619
 51
360.0
  0
LINE
  5
1CC
330
1F
100
AcDbEntity
  8
GR1-1
  6
CONTINUOUS
 62
     3
100
AcDbLine
 10
157.72913
 20
189.30084
 30
0.0
 11
167.42913
 21
189.30084
 31
0.0
  0
LINE
  5
1CD
330
1F
100
AcDbEntity
  8
GR1-1
  6
CONTINUOUS
 62
     3
100
AcDbLine
 10
170.62913
 20
189.30084
 30
0.0
 11
171.12913
 21
189.30084
 31
0.0
  0
ARC
  5
1CE
330
1F
100
AcDbEntity
  8
GR1-1
  6
CONTINUOUS
 62
     3
100
AcDbCircle
 10
168.986273
 20
199.10084
 30
0.0
 40
7.242857142857156
100
AcDbArc
 50
-44.76027
 51
44.76027
  0
ARC
  5
1CF
330
1F
100
AcDbEntity
  8
GR1-1
  6
CONTINUOUS
 62
     3
100
AcDbCircle
 10
170.62913
 20
208.05084
 30
0.0
 40
0.5
100
AcDbArc
 50
0.0
 51
90.0
  0
LINE
  5
1D0
330
1F
100
AcDbEntity
  8
GR1-1
  6
CONTINUOUS
 62
     3
100
AcDbLine
 10
170.139445
 20
217.50084
 30
0.0
 11
181.22913
 21
217.50084
 31
0.0
  0
LINE
  5
1D1
330
1F
100
AcDbEntity
  8
GR1-1
  6
CONTINUOUS
 62
     3
100
AcDbLine
 10
181.22913
 20
217.50084
 30
0.0
 11
182.22913
 21
217.85296
 31
0.0
  0
LINE
  5
1D2
330
1F
100
AcDbEntity
  8
GR1-1
  6
CONTINUOUS
 62
     3
100
AcDbLine
 10
179.62913
 20
217.50084
 30
0.0
 11
179.62913
 21
160.990398
 31
0.0
  0
ARC
  5
1D3
330
1F
100
AcDbEntity
  8
GR1-1
  6
CONTINUOUS
 62
     3
100
AcDbCircle
 10
129.12913
 20
188.65084
 30
0.0
 40
0.5999999999999943
100
AcDbArc
 50
180.0
 51
360.0
  0
LINE
  5
1D4
330
1F
100
AcDbEntity
  8
GR1-1
  6
CONTINUOUS
 62
     3
100
AcDbLine
 10
128.52913
 20
188.65084
 30
0.0
 11
128.52913
 21
189.977632
 31
0.0
  0
ARC
  5
1D5
330
1F
100
AcDbEntity
  8
GR1-1
  6
CONTINUOUS
 62
     3
100
AcDbCircle
 10
129.12913
 20
196.100256
 30
0.0
 40
4.249999999999986
100
AcDbArc
 50
-42.325164
 51
0.007876
  0
LINE
  5
1D6
330
1F
100
AcDbEntity
  8
GR1-1
  6
CONTINUOUS
 62
     3
100
AcDbLine
 10
133.376079
 20
195.30084
 30
0.0
 11
152.882182
 21
195.30084
 31
0.0
  0
ARC
  5
1D7
330
1F
100
AcDbEntity
  8
GR1-1
  6
CONTINUOUS
 62
     3
100
AcDbCircle
 10
157.12913
 20
194.823463
 30
0.0
 40
4.249999999999986
100
AcDbArc
 50
175.692716
 51
187.372899
  0
ARC
  5
1D8
330
1F
100
AcDbEntity
  8
GR1-1
  6
CONTINUOUS
 62
     3
100
AcDbCircle
 10
157.12913
 20
194.185066
 30
0.0
 40
4.249999999999986
100
AcDbArc
 50
175.692716
 51
179.030422
  0
ARC
  5
1D9
330
1F
100
AcDbEntity
  8
GR1-1
  6
CONTINUOUS
 62
     3
100
AcDbCircle
 10
157.12913
 20
195.461859
 30
0.0
 40
4.249999999999986
100
AcDbArc
 50
175.692716
 51
197.388641
  0
ARC
  5
1DA
330
1F
100
AcDbEntity
  8
GR1-1
  6
CONTINUOUS
 62
     3
100
AcDbCircle
 10
157.12913
 20
197.377049
 30
0.0
 40
4.249999999999986
100
AcDbArc
 50
197.476182
 51
342.517051
  0
ARC
  5
1DB
330
1F
100
AcDbEntity
  8
GR1-1
  6
CONTINUOUS
 62
     3
100
AcDbCircle
 10
157.12913
 20
194.823463
 30
0.0
 40
4.249999999999986
100
AcDbArc
 50
-175.692716
 51
4.307284
  0
ARC
  5
1DC
330
1F
100
AcDbEntity
  8
GR1-1
  6
CONTINUOUS
 62
     3
100
AcDbCircle
 10
157.12913
 20
194.185066
 30
0.0
 40
4.249999999999986
100
AcDbArc
 50
-184.307284
 51
4.307284
  0
ARC
  5
1DD
330
1F
100
AcDbEntity
  8
GR1-1
  6
CONTINUOUS
 62
     3
100
AcDbCircle
 10
157.12913
 20
197.999228
 30
0.0
 40
4.249999999999986
100
AcDbArc
 50
206.661909
 51
333.338091
  0
ARC
  5
1DE
330
1F
100
AcDbEntity
  8
GR1-1
  6
CONTINUOUS
 62
     3
100
AcDbCircle
 10
157.12913
 20
196.738653
 30
0.0
 40
4.249999999999986
100
AcDbArc
 50
188.639153
 51
222.726684
  0
ARC
  5
1DF
330
1F
100
AcDbEntity
  8
GR1-1
  6
CONTINUOUS
 62
     3
100
AcDbCircle
 10
157.12913
 20
196.100256
 30
0.0
 40
4.249999999999986
100
AcDbArc
 50
180.0
 51
207.997766
  0
LINE
  5
1E0
330
1F
100
AcDbEntity
  8
GR1-1
  6
CONTINUOUS
 62
     3
100
AcDbLine
 10
170.62913
 20
195.30084
 30
0.0
 11
171.12913
 21
195.30084
 31
0.0
  0
LINE
  5
1E1
330
1F
100
AcDbEntity
  8
GR1-1
  6
CONTINUOUS
 62
     3
100
AcDbLine
 10
171.12913
 20
196.10084
 30
0.0
 11
170.62913
 21
196.10084
 31
0.0
  0
ARC
  5
1E2
330
1F
100
AcDbEntity
  8
GR1-1
  6
CONTINUOUS
 62
     3
100
AcDbCircle
 10
174.486273
 20
192.30084
 30
0.0
 40
7.242857142857156
100
AcDbArc
 50
-44.76027
 51
44.76027
  0
ARC
  5
1E3
330
1F
100
AcDbEntity
  8
GR1-1
  6
CONTINUOUS
 62
     3
100
AcDbCircle
 10
185.62913
 20
220.80084
 30
0.0
 40
4.5
100
AcDbArc
 50
180.0
 51
220.926063
  0
LINE
  5
1E4
330
1F
100
AcDbEntity
  8
GR1-1
  6
CONTINUOUS
 62
     3
100
AcDbLine
 10
181.12913
 20
220.80084
 30
0.0
 11
181.12913
 21
227.10084
 31
0.0
  0
ARC
  5
1E5
330
1F
100
AcDbEntity
  8
GR1-1
  6
CONTINUOUS
 62
     3
100
AcDbCircle
 10
177.12913
 20
227.10084
 30
0.0
 40
4.0
100
AcDbArc
 50
0.0
 51
25.104612
  0
ARC
  5
1E6
330
1F
100
AcDbEntity
  8
GR1-1
  6
CONTINUOUS
 62
     3
100
AcDbCircle
 10
182.540472
 20
233.270962
 30
0.0
 40
4.473032676673776
100
AcDbArc
 50
270.0
 51
323.349108
  0
LINE
  5
1E7
330
1F
100
AcDbEntity
  8
GR1-1
  6
CONTINUOUS
 62
     3
100
AcDbLine
 10
186.12913
 20
230.60084
 30
0.0
 11
186.12913
 21
231.10084
 31
0.0
  0
LINE
  5
1E8
330
1F
100
AcDbEntity
  8
GR1-1
  6
CONTINUOUS
 62
     3
100
AcDbLine
 10
182.540472
 20
228.79793
 30
0.0
 11
157.77622
 21
228.79793
 31
0.0
  0
LINE
  5
1E9
330
1F
100
AcDbEntity
  8
GR1-1
  6
CONTINUOUS
 62
     3
100
AcDbLine
 10
157.57913
 20
228.60084
 30
0.0
 11
160.07913
 21
231.10084
 31
0.0
  0
LINE
  5
1EA
330
1F
100
AcDbEntity
  8
GR1-1
  6
CONTINUOUS
 62
     3
100
AcDbLine
 10
157.57913
 20
231.10084
 30
0.0
 11
157.57913
 21
219.959425
 31
0.0
  0
ARC
  5
1EB
330
1F
100
AcDbEntity
  8
GR1-1
  6
CONTINUOUS
 62
     3
100
AcDbCircle
 10
129.12913
 20
194.185066
 30
0.0
 40
4.249999999999986
100
AcDbArc
 50
-3.711351
 51
4.307284
  0
ARC
  5
1EC
330
1F
100
AcDbEntity
  8
GR1-1
  6
CONTINUOUS
 62
     3
100
AcDbCircle
 10
129.12913
 20
194.823463
 30
0.0
 40
4.249999999999986
100
AcDbArc
 50
-13.052248
 51
4.307284
  0
ARC
  5
1ED
330
1F
100
AcDbEntity
  8
GR1-1
  6
CONTINUOUS
 62
     3
100
AcDbCircle
 10
129.12913
 20
195.461859
 30
0.0
 40
4.249999999999986
100
AcDbArc
 50
-64.528517
 51
4.307284
  0
ARC
  5
1EE
330
1F
100
AcDbEntity
  8
GR1-1
  6
CONTINUOUS
 62
     3
100
AcDbCircle
 10
129.12913
 20
197.970279
 30
0.0
 40
3.049999999999997
100
AcDbArc
 50
217.801716
 51
322.198284
  0
ARC
  5
1EF
330
1F
100
AcDbEntity
  8
GR1-1
  6
CONTINUOUS
 62
     3
100
AcDbCircle
 10
129.12913
 20
197.999228
 30
0.0
 40
4.249999999999986
100
AcDbArc
 50
206.661909
 51
333.338091
  0
ARC
  5
1F0
330
1F
100
AcDbEntity
  8
GR1-1
  6
CONTINUOUS
 62
     3
100
AcDbCircle
 10
129.12913
 20
197.377049
 30
0.0
 40
4.249999999999986
100
AcDbArc
 50
197.476182
 51
342.517051
  0
ARC
  5
1F1
330
1F
100
AcDbEntity
  8
GR1-1
  6
CONTINUOUS
 62
     3
100
AcDbCircle
 10
129.12913
 20
196.738653
 30
0.0
 40
4.249999999999986
100
AcDbArc
 50
188.639153
 51
351.368453
  0
ARC
  5
1F2
330
1F
100
AcDbEntity
  8
GR1-1
  6
CONTINUOUS
 62
     3
100
AcDbCircle
 10
129.12913
 20
195.461859
 30
0.0
 40
4.249999999999986
100
AcDbArc
 50
175.692716
 51
295.471483
  0
ARC
  5
1F3
330
1F
100
AcDbEntity
  8
GR1-1
  6
CONTINUOUS
 62
     3
100
AcDbCircle
 10
129.12913
 20
194.185066
 30
0.0
 40
4.249999999999986
100
AcDbArc
 50
175.692716
 51
356.288649
  0
ARC
  5
1F4
330
1F
100
AcDbEntity
  8
GR1-1
  6
CONTINUOUS
 62
     3
100
AcDbCircle
 10
129.12913
 20
196.100256
 30
0.0
 40
4.249999999999986
100
AcDbArc
 50
180.0
 51
317.674836
  0
LINE
  5
1F5
330
1F
100
AcDbEntity
  8
GR1-1
  6
CONTINUOUS
 62
     3
100
AcDbLine
 10
107.62913
 20
201.20084
 30
0.0
 11
105.62913
 21
201.20084
 31
0.0
  0
LINE
  5
1F6
330
1F
100
AcDbEntity
  8
GR1-1
  6
CONTINUOUS
 62
     3
100
AcDbLine
 10
105.62913
 20
201.20084
 30
0.0
 11
105.62913
 21
183.40084
 31
0.0
  0
LINE
  5
1F7
330
1F
100
AcDbEntity
  8
GR1-1
  6
CONTINUOUS
 62
     3
100
AcDbLine
 10
105.62913
 20
183.40084
 30
0.0
 11
107.62913
 21
183.40084
 31
0.0
  0
LINE
  5
1F8
330
1F
100
AcDbEntity
  8
GR1-1
  6
CONTINUOUS
 62
     3
100
AcDbLine
 10
105.62913
 20
187.90084
 30
0.0
 11
105.12913
 21
187.90084
 31
0.0
  0
LINE
  5
1F9
330
1F
100
AcDbEntity
  8
GR1-1
  6
CONTINUOUS
 62
     3
100
AcDbLine
 10
104.12913
 20
188.90084
 30
0.0
 11
104.12913
 21
195.70084
 31
0.0
  0
ARC
  5
1FA
330
1F
100
AcDbEntity
  8
GR1-1
  6
CONTINUOUS
 62
     3
100
AcDbCircle
 10
105.12913
 20
195.70084
 30
0.0
 40
1.0
100
AcDbArc
 50
90.0
 51
180.0
  0
LINE
  5
1FB
330
1F
100
AcDbEntity
  8
GR1-1
  6
CONTINUOUS
 62
     3
100
AcDbLine
 10
105.12913
 20
196.70084
 30
0.0
 11
105.62913
 21
196.70084
 31
0.0
  0
ARC
  5
1FC
330
1F
100
AcDbEntity
  8
GR1-1
  6
CONTINUOUS
 62
     3
100
AcDbCircle
 10
105.12913
 20
188.90084
 30
0.0
 40
1.0
100
AcDbArc
 50
180.0
 51
270.0
  0
LINE
  5
1FD
330
1F
100
AcDbEntity
  8
GR1-1
  6
CONTINUOUS
 62
     3
100
AcDbLine
 10
101.12913
 20
230.60084
 30
0.0
 11
101.12913
 21
231.10084
 31
0.0
  0
ARC
  5
1FE
330
1F
100
AcDbEntity
  8
GR1-1
  6
CONTINUOUS
 62
     3
100
AcDbCircle
 10
104.717789
 20
233.270962
 30
0.0
 40
4.473032676673776
100
AcDbArc
 50
216.650892
 51
270.0
  0
LINE
  5
1FF
330
1F
100
AcDbEntity
  8
GR1-1
  6
CONTINUOUS
 62
     3
100
AcDbLine
 10
92.62913
 20
231.10084
 30
0.0
 11
92.62913
 21
235.10084
 31
0.0
  0
LINE
  5
200
330
1F
100
AcDbEntity
  8
GR1-1
  6
CONTINUOUS
 62
     3
100
AcDbLine
 10
92.62913
 20
235.10084
 30
0.0
 11
194.62913
 21
235.10084
 31
0.0
  0
LINE
  5
201
330
1F
100
AcDbEntity
  8
GR1-1
  6
CONTINUOUS
 62
     3
100
AcDbLine
 10
194.62913
 20
235.10084
 30
0.0
 11
194.62913
 21
231.10084
 31
0.0
  0
LINE
  5
202
330
1F
100
AcDbEntity
  8
GR1-1
  6
CONTINUOUS
 62
     3
100
AcDbLine
 10
194.62913
 20
231.10084
 30
0.0
 11
92.62913
 21
231.10084
 31
0.0
  0
LINE
  5
203
330
1F
100
AcDbEntity
  8
GR1-1
  6
CENTER
 62
     6
100
AcDbLine
 10
157.12913
 20
194.508483
 30
0.0
 11
157.12913
 21
203.527031
 31
0.0
  0
ARC
  5
204
330
1F
100
AcDbEntity
  8
GR1-1
  6
CONTINUOUS
 62
     6
100
AcDbCircle
 10
162.26048
 20
207.792409
 30
0.0
 40
1.118650000000017
100
AcDbArc
 50
-90.0
 51
90.0
  0
LINE
  5
205
330
1F
100
AcDbEntity
  8
GR1-1
  6
CONTINUOUS
 62
     6
100
AcDbLine
 10
162.26243
 20
208.911058
 30
0.0
 11
124.995831
 21
208.911058
 31
0.0
  0
ARC
  5
206
330
1F
100
AcDbEntity
  8
GR1-1
  6
CONTINUOUS
 62
     6
100
AcDbCircle
 10
124.99778
 20
207.792409
 30
0.0
 40
1.118650000000017
100
AcDbArc
 50
90.0
 51
270.0
  0
LINE
  5
207
330
1F
100
AcDbEntity
  8
GR1-1
  6
CONTINUOUS
 62
     6
100
AcDbLine
 10
124.99778
 20
206.673759
 30
0.0
 11
162.26048
 21
206.673759
 31
0.0
  0
LINE
  5
208
330
1F
100
AcDbEntity
  8
GR1-1
  6
CONTINUOUS
 62
     6
100
AcDbLine
 10
163.37282
 20
207.673759
 30
0.0
 11
123.88544
 21
207.673759
 31
0.0
  0
LINE
  5
209
330
1F
100
AcDbEntity
  8
GR1-1
  6
CONTINUOUS
 62
     6
100
AcDbLine
 10
124.96889
 20
212.323472
 30
0.0
 11
162.289371
 21
212.323472
 31
0.0
  0
ARC
  5
20A
330
1F
100
AcDbEntity
  8
GR1-1
  6
CONTINUOUS
 62
     6
100
AcDbCircle
 10
162.289371
 20
213.413232
 30
0.0
 40
1.089759531636872
100
AcDbArc
 50
270.0
 51
355.291384
  0
LINE
  5
20B
330
1F
100
AcDbEntity
  8
GR1-1
  6
CONTINUOUS
 62
     6
100
AcDbLine
 10
163.375427
 20
213.323472
 30
0.0
 11
123.882833
 21
213.323472
 31
0.0
  0
ARC
  5
20C
330
1F
100
AcDbEntity
  8
GR1-1
  6
CONTINUOUS
 62
     6
100
AcDbCircle
 10
124.96889
 20
213.413232
 30
0.0
 40
1.089759531636872
100
AcDbArc
 50
184.708616
 51
270.0
  0
ARC
  5
20D
330
1F
100
AcDbEntity
  8
GR1-1
  6
CONTINUOUS
 62
     6
100
AcDbCircle
 10
124.968885
 20
213.413232
 30
0.0
 40
1.089754999999968
100
AcDbArc
 50
90.0
 51
180.0
  0
LINE
  5
20E
330
1F
100
AcDbEntity
  8
GR1-1
  6
CONTINUOUS
 62
     6
100
AcDbLine
 10
124.968885
 20
214.502987
 30
0.0
 11
162.289375
 21
214.502987
 31
0.0
  0
ARC
  5
20F
330
1F
100
AcDbEntity
  8
GR1-1
  6
CONTINUOUS
 62
     6
100
AcDbCircle
 10
162.289375
 20
213.413232
 30
0.0
 40
1.089754999999968
100
AcDbArc
 50
0.0
 51
90.0
  0
LINE
  5
210
330
1F
100
AcDbEntity
  8
GR1-1
  6
CONTINUOUS
 62
     6
100
AcDbLine
 10
169.939772
 20
217.85296
 30
0.0
 11
182.22913
 21
217.85296
 31
0.0
  0
LINE
  5
211
330
1F
100
AcDbEntity
  8
GR1-1
  6
CENTER
 62
     6
100
AcDbLine
 10
178.304791
 20
199.10084
 30
0.0
 11
109.701057
 21
199.10084
 31
0.0
  0
LINE
  5
212
330
1F
100
AcDbEntity
  8
GR1-1
  6
CENTER
 62
     6
100
AcDbLine
 10
102.231328
 20
192.30084
 30
0.0
 11
183.366077
 21
192.30084
 31
0.0
  0
LINE
  5
213
330
1F
100
AcDbEntity
  8
GR1-1
  6
CENTER
 62
     6
100
AcDbLine
 10
143.62913
 20
42.248523
 30
0.0
 11
143.62913
 21
239.440669
 31
0.0
  0
LINE
  5
214
330
1F
100
AcDbEntity
  8
GR1-1
  6
CONTINUOUS
 62
     6
100
AcDbLine
 10
117.318488
 20
217.85296
 30
0.0
 11
105.02913
 21
217.85296
 31
0.0
  0
LINE
  5
215
330
1F
100
AcDbEntity
  8
GR1-1
  6
CENTER
 62
     6
100
AcDbLine
 10
129.12913
 20
203.527031
 30
0.0
 11
129.12913
 21
194.508483
 31
0.0
  0
LINE
  5
216
330
1F
100
AcDbEntity
  8
GR1-1
  6
CONTINUOUS
 62
     3
100
AcDbLine
 10
241.844834
 20
217.306505
 30
0.0
 11
256.803388
 21
207.216833
 31
0.0
  0
ARC
  5
217
330
1F
100
AcDbEntity
  8
GR1-1
  6
CONTINUOUS
 62
     3
100
AcDbCircle
 10
262.395317
 20
215.507209
 30
0.0
 40
10.0
100
AcDbArc
 50
236.0
 51
258.558585
  0
LINE
  5
218
330
1F
100
AcDbEntity
  8
GR1-1
  6
CENTER
 62
     6
100
AcDbLine
 10
289.383929
 20
234.157306
 30
0.0
 11
289.383929
 21
207.505915
 31
0.0
  0
LINE
  5
219
330
1F
100
AcDbEntity
  8
GR1-1
  6
CENTER
 62
     6
100
AcDbLine
 10
348.783929
 20
239.078379
 30
0.0
 11
348.783929
 21
50.023527
 31
0.0
  0
LINE
  5
21A
330
1F
100
AcDbEntity
  8
GR1-1
  6
CONTINUOUS
 62
     6
100
AcDbLine
 10
329.659338
 20
136.937136
 30
0.0
 11
329.659338
 21
211.471825
 31
0.0
  0
LINE
  5
21B
330
1F
100
AcDbEntity
  8
GR1-1
  6
CONTINUOUS
 62
     6
100
AcDbLine
 10
348.783929
 20
217.85296
 30
0.0
 11
387.383929
 21
217.85296
 31
0.0
  0
LINE
  5
21C
330
1F
100
AcDbEntity
  8
GR1-1
  6
CENTER
 62
     6
100
AcDbLine
 10
370.790876
 20
222.60084
 30
0.0
 11
364.0552
 21
222.60084
 31
0.0
  0
LINE
  5
21D
330
1F
100
AcDbEntity
  8
GR1-1
  6
CENTER
 62
     6
100
AcDbLine
 10
367.533929
 20
226.040773
 30
0.0
 11
367.533929
 21
219.03567
 31
0.0
  0
LINE
  5
21E
330
1F
100
AcDbEntity
  8
GR1-1
  6
CENTER
 62
     6
100
AcDbLine
 10
311.281897
 20
369.418617
 30
0.0
 11
311.281897
 21
384.539176
 31
0.0
  0
LINE
  5
21F
330
1F
100
AcDbEntity
  8
GR1-1
  6
CENTER
 62
     6
100
AcDbLine
 10
316.836694
 20
379.0
 30
0.0
 11
300.505022
 21
379.0
 31
0.0
  0
LINE
  5
220
330
1F
100
AcDbEntity
  8
GR1-1
  6
CENTER
 62
     6
100
AcDbLine
 10
302.817146
 20
376.5
 30
0.0
 11
318.341409
 21
376.5
 31
0.0
  0
LINE
  5
221
330
1F
100
AcDbEntity
  8
GR1-1
  6
CENTER
 62
     6
100
AcDbLine
 10
308.781897
 20
385.86039
 30
0.0
 11
308.781897
 21
370.923333
 31
0.0
  0
LINE
  5
222
330
1F
100
AcDbEntity
  8
GR1-1
  6
CENTER
 62
     6
100
AcDbLine
 10
386.285961
 20
308.581383
 30
0.0
 11
386.285961
 21
293.460824
 31
0.0
  0
LINE
  5
223
330
1F
100
AcDbEntity
  8
GR1-1
  6
CENTER
 62
     6
100
AcDbLine
 10
380.731164
 20
299.0
 30
0.0
 11
397.062836
 21
299.0
 31
0.0
  0
LINE
  5
224
330
1F
100
AcDbEntity
  8
GR1-1
  6
CENTER
 62
     6
100
AcDbLine
 10
394.750712
 20
301.5
 30
0.0
 11
379.226449
 21
301.5
 31
0.0
  0
LINE
  5
225
330
1F
100
AcDbEntity
  8
GR1-1
  6
CENTER
 62
     6
100
AcDbLine
 10
388.785961
 20
292.13961
 30
0.0
 11
388.785961
 21
307.076667
 31
0.0
  0
LINE
  5
226
330
1F
100
AcDbEntity
  8
GR1-1
  6
CENTER
 62
     6
100
AcDbLine
 10
311.281897
 20
308.581383
 30
0.0
 11
311.281897
 21
293.460824
 31
0.0
  0
LINE
  5
227
330
1F
100
AcDbEntity
  8
GR1-1
  6
CENTER
 62
     6
100
AcDbLine
 10
316.836694
 20
299.0
 30
0.0
 11
300.505022
 21
299.0
 31
0.0
  0
LINE
  5
228
330
1F
100
AcDbEntity
  8
GR1-1
  6
CENTER
 62
     6
100
AcDbLine
 10
302.817146
 20
301.5
 30
0.0
 11
318.341409
 21
301.5
 31
0.0
  0
LINE
  5
229
330
1F
100
AcDbEntity
  8
GR1-1
  6
CENTER
 62
     6
100
AcDbLine
 10
308.781897
 20
292.13961
 30
0.0
 11
308.781897
 21
307.076667
 31
0.0
  0
LINE
  5
22A
330
1F
100
AcDbEntity
  8
LAYERGROUP-1
  6
CONTINUOUS
 62
     3
100
AcDbLine
 10
272.121625
 20
205.685211
 30
0.0
 11
272.121625
 21
208.848494
 31
0.0
  0
ARC
  5
22B
330
1F
100
AcDbEntity
  8
LAYERGROUP-1
  6
CONTINUOUS
 62
     3
100
AcDbCircle
 10
270.621625
 20
208.848494
 30
0.0
 40
1.5
100
AcDbArc
 50
0.0
 51
98.087562
  0
LINE
  5
22C
330
1F
100
AcDbEntity
  8
GR1-1
  6
CONTINUOUS
 62
     3
100
AcDbLine
 10
297.783929
 20
231.10084
 30
0.0
 11
297.783929
 21
235.10084
 31
0.0
  0
LINE
  5
22D
330
1F
100
AcDbEntity
  8
GR1-1
  6
CONTINUOUS
 62
     3
100
AcDbLine
 10
297.783929
 20
235.10084
 30
0.0
 11
348.783929
 21
235.10084
 31
0.0
  0
LINE
  5
22E
330
1F
100
AcDbEntity
  8
GR1-1
  6
CONTINUOUS
 62
     3
100
AcDbLine
 10
348.783929
 20
217.50084
 30
0.0
 11
311.183929
 21
217.50084
 31
0.0
  0
LINE
  5
22F
330
1F
100
AcDbEntity
  8
GR1-1
  6
CONTINUOUS
 62
     3
100
AcDbLine
 10
311.183929
 20
217.50084
 30
0.0
 11
310.183929
 21
217.85296
 31
0.0
  0
LINE
  5
230
330
1F
100
AcDbEntity
  8
GR1-1
  6
CONTINUOUS
 62
     3
100
AcDbLine
 10
311.283929
 20
220.80084
 30
0.0
 11
311.283929
 21
227.10084
 31
0.0
  0
ARC
  5
231
330
1F
100
AcDbEntity
  8
GR1-1
  6
CONTINUOUS
 62
     3
100
AcDbCircle
 10
315.283929
 20
227.10084
 30
0.0
 40
4.0
100
AcDbArc
 50
154.895388
 51
180.0
  0
ARC
  5
232
330
1F
100
AcDbEntity
  8
GR1-1
  6
CONTINUOUS
 62
     3
100
AcDbCircle
 10
309.872588
 20
233.270962
 30
0.0
 40
4.473032676673776
100
AcDbArc
 50
216.650892
 51
270.0
  0
LINE
  5
233
330
1F
100
AcDbEntity
  8
GR1-1
  6
CONTINUOUS
 62
     3
100
AcDbLine
 10
306.283929
 20
230.60084
 30
0.0
 11
306.283929
 21
231.10084
 31
0.0
  0
LINE
  5
234
330
1F
100
AcDbEntity
  8
GR1-1
  6
CONTINUOUS
 62
     3
100
AcDbLine
 10
309.872588
 20
228.79793
 30
0.0
 11
348.783929
 21
228.79793
 31
0.0
  0
LINE
  5
235
330
1F
100
AcDbEntity
  8
GR1-1
  6
CONTINUOUS
 62
     3
100
AcDbLine
 10
348.783929
 20
231.10084
 30
0.0
 11
297.783929
 21
231.10084
 31
0.0
  0
ARC
  5
236
330
1F
100
AcDbEntity
  8
GR1-1
  6
CONTINUOUS
 62
     3
100
AcDbCircle
 10
306.783929
 20
220.80084
 30
0.0
 40
4.5
100
AcDbArc
 50
319.073937
 51
360.0
  0
LINE
  5
237
330
1F
100
AcDbEntity
  8
GR1-1
  6
CONTINUOUS
 62
     6
100
AcDbLine
 10
348.783929
 20
217.85296
 30
0.0
 11
310.183929
 21
217.85296
 31
0.0
  0
LINE
  5
238
330
1F
100
AcDbEntity
  8
LAYERGROUP-1
  6
CONTINUOUS
 62
     3
100
AcDbLine
 10
312.783929
 20
215.55084
 30
0.0
 11
312.783929
 21
217.50084
 31
0.0
  0
ARC
  5
239
330
1F
100
AcDbEntity
  8
GR1-1
  6
CONTINUOUS
 62
     3
100
AcDbCircle
 10
347.983929
 20
192.30084
 30
0.0
 40
3.05
100
AcDbArc
 50
-72.470402
 51
72.470402
  0
ARC
  5
23A
330
1F
100
AcDbEntity
  8
GR1-1
  6
CONTINUOUS
 62
     3
100
AcDbCircle
 10
341.983929
 20
192.30084
 30
0.0
 40
3.05
100
AcDbArc
 50
139.218724
 51
220.781276
  0
LINE
  5
23B
330
1F
100
AcDbEntity
  8
GR1-1
  6
CENTER
 62
     6
100
AcDbLine
 10
329.484084
 20
199.10084
 30
0.0
 11
317.328167
 21
199.10084
 31
0.0
  0
LINE
  5
23C
330
1F
100
AcDbEntity
  8
GR1-1
  6
CENTER
 62
     6
100
AcDbLine
 10
323.283929
 20
205.080154
 30
0.0
 11
323.283929
 21
193.257627
 31
0.0
  0
LINE
  5
23D
330
1F
100
AcDbEntity
  8
GR1-1
  6
CENTER
 62
     6
100
AcDbLine
 10
336.985157
 20
192.30084
 30
0.0
 11
352.559458
 21
192.30084
 31
0.0
  0
LINE
  5
23E
330
1F
100
AcDbEntity
  8
GR1-1
  6
CENTER
 62
     6
100
AcDbLine
 10
344.53178
 20
186.107198
 30
0.0
 11
344.53178
 21
198.744149
 31
0.0
  0
LINE
  5
23F
330
1F
100
AcDbEntity
  8
GR1-1
  6
CONTINUOUS
 62
     3
100
AcDbLine
 10
298.898104
 20
185.976447
 30
0.0
 11
285.825531
 21
189.168639
 31
0.0
  0
LINE
  5
240
330
1F
100
AcDbEntity
  8
GR1-1
  6
CONTINUOUS
 62
     3
100
AcDbLine
 10
284.533929
 20
213.60084
 30
0.0
 11
295.683929
 21
213.60084
 31
0.0
  0
LINE
  5
241
330
1F
100
AcDbEntity
  8
GR1-1
  6
CONTINUOUS
 62
     3
100
AcDbLine
 10
295.683929
 20
213.60084
 30
0.0
 11
295.683929
 21
215.60084
 31
0.0
  0
LINE
  5
242
330
1F
100
AcDbEntity
  8
GR1-1
  6
CONTINUOUS
 62
     3
100
AcDbLine
 10
295.683929
 20
215.60084
 30
0.0
 11
285.028916
 21
215.60084
 31
0.0
  0
ARC
  5
243
330
1F
100
AcDbEntity
  8
GR1-1
  6
CONTINUOUS
 62
     3
100
AcDbCircle
 10
285.028916
 20
216.60084
 30
0.0
 40
1.0
100
AcDbArc
 50
185.73917
 51
270.0
  0
LINE
  5
244
330
1F
100
AcDbEntity
  8
GR1-1
  6
CONTINUOUS
 62
     3
100
AcDbLine
 10
284.033929
 20
216.50084
 30
0.0
 11
296.233929
 21
216.50084
 31
0.0
  0
ARC
  5
245
330
1F
100
AcDbEntity
  8
GR1-1
  6
CONTINUOUS
 62
     3
100
AcDbCircle
 10
315.505513
 20
211.152376
 30
0.0
 40
20.0
100
AcDbArc
 50
124.467697
 51
164.48901
  0
LINE
  5
246
330
1F
100
AcDbEntity
  8
LAYERGROUP-1
  6
CONTINUOUS
 62
     6
100
AcDbLine
 10
284.033929
 20
228.60084
 30
0.0
 11
284.033929
 21
217.00084
 31
0.0
  0
LINE
  5
247
330
1F
100
AcDbEntity
  8
LAYERGROUP-1
  6
CONTINUOUS
 62
     3
100
AcDbLine
 10
297.447135
 20
206.373106
 30
0.0
 11
301.510417
 21
206.373106
 31
0.0
  0
CIRCLE
  5
248
330
1F
100
AcDbEntity
  8
LAYERGROUP-1
  6
CONTINUOUS
 62
     3
100
AcDbCircle
 10
323.283929
 20
199.10084
 30
0.0
 40
5.25
  0
CIRCLE
  5
249
330
1F
100
AcDbEntity
  8
LAYERGROUP-1
  6
CONTINUOUS
 62
     3
100
AcDbCircle
 10
344.53178
 20
192.30084
 30
0.0
 40
5.25
  0
TEXT
  5
24A
330
1F
100
AcDbEntity
  8
}}ﾊﾊGG血CCТ
  6
CONTINUOUS
 62
     7
100
AcDbText
 10
329.922729
 20
12.0
 30
0.0
 40
6.0
  1
ＳＪ－１２５　ＫＦ　ＲＢ
 41
0.788732
  7
FX_VECTOR
 72
     5
 11
377.922729
 21
12.0
 31
0.0
100
AcDbText
  0
DIMENSION
  5
24B
330
1F
100
AcDbEntity
  8
GR1-1
100
AcDbDimension
  2
*D30
 10
419.747563
 20
67.10084
 30
0.0
 11
418.747589
 21
151.100845
 31
0.0
 70
    32
  3
FXDIMINFO
100
AcDbAlignedDimension
 13
399.783929
 23
235.10084
 33
0.0
 14
310.783929
 24
67.10084
 34
0.0
 50
90.0
100
AcDbRotatedDimension
1001
ACAD
1000
DSTYLE
1002
{
1070
     7
1000
FXTIP_ARROW_E
1070
     6
1000
FXTIP_ARROW_S
1070
   173
1070
     1
1002
}
  0
DIMENSION
  5
255
330
1F
100
AcDbEntity
  8
GR1-1
100
AcDbDimension
  2
*D31
 10
409.747563
 20
129.60084
 30
0.0
 11
408.747589
 21
182.350845
 31
0.0
 70
    33
  3
FXDIMINFO
100
AcDbAlignedDimension
 13
380.661691
 23
235.10084
 33
0.0
 14
380.661691
 24
129.60084
 34
0.0
1001
ACAD
1000
DSTYLE
1002
{
1070
     7
1000
FXTIP_ARROW_E
1070
     6
1000
FXTIP_ARROW_S
1070
   173
1070
     1
1002
}
  0
LINE
  5
25E
330
1F
100
AcDbEntity
  8
GR1-1
  6
CONTINUOUS
 62
     3
100
AcDbLine
 10
369.270508
 20
198.25084
 30
0.0
 11
327.460278
 21
122.82319
 31
0.0
  0
CIRCLE
  5
25F
330
1F
100
AcDbEntity
  8
GR1-1
  6
CONTINUOUS
 62
     3
100
AcDbCircle
 10
310.783929
 20
129.60084
 30
0.0
 40
10.5
  0
ARC
  5
260
330
1F
100
AcDbEntity
  8
GR1-1
  6
CONTINUOUS
 62
     3
100
AcDbCircle
 10
312.583929
 20
131.05084
 30
0.0
 40
17.0
100
AcDbArc
 50
175.460699
 51
330.945631
  0
ARC
  5
261
330
1F
100
AcDbEntity
  8
GR1-1
  6
CONTINUOUS
 62
     3
100
AcDbCircle
 10
395.46485
 20
181.070115
 30
0.0
 40
31.32604184452368
100
AcDbArc
 50
115.895221
 51
146.73935
  0
LINE
  5
262
330
1F
100
AcDbEntity
  8
GR1-1
  6
CONTINUOUS
 62
     3
100
AcDbLine
 10
381.783929
 20
209.25084
 30
0.0
 11
384.783929
 21
209.25084
 31
0.0
  0
CIRCLE
  5
263
330
1F
100
AcDbEntity
  8
GR1-1
  6
CONTINUOUS
 62
     6
100
AcDbCircle
 10
310.783929
 20
129.60084
 30
0.0
 40
8.5
  0
CIRCLE
  5
264
330
1F
100
AcDbEntity
  8
GR1-1
  6
CONTINUOUS
 62
     6
100
AcDbCircle
 10
310.783929
 20
129.60084
 30
0.0
 40
3.0
  0
LINE
  5
265
330
1F
100
AcDbEntity
  8
GR1-1
  6
CENTER
 62
     6
100
AcDbLine
 10
310.783929
 20
64.281126
 30
0.0
 11
310.783929
 21
150.566531
 31
0.0
  0
CIRCLE
  5
266
330
1F
100
AcDbEntity
  8
GR1-1
  6
CONTINUOUS
 62
     3
100
AcDbCircle
 10
310.783929
 20
129.600844
 30
0.0
 40
2.0
  0
LINE
  5
267
330
1F
100
AcDbEntity
  8
GR1-1
  6
CONTINUOUS
 62
     3
100
AcDbLine
 10
295.637253
 20
132.39627
 30
0.0
 11
301.921487
 21
211.55084
 31
0.0
  0
INSERT
  5
26B
330
1F
100
AcDbEntity
  8
0
100
AcDbBlockReference
  2
BLKF034
 10
0.0
 20
0.0
 30
0.0
  0
CIRCLE
  5
2C3
330
1F
100
AcDbEntity
  8
GR1-1
  6
CONTINUOUS
 62
     3
100
AcDbCircle
 10
277.283929
 20
129.60084
 30
0.0
 40
5.0
  0
ARC
  5
2C4
330
1F
100
AcDbEntity
  8
GR1-1
  6
CONTINUOUS
 62
     3
100
AcDbCircle
 10
310.783929
 20
129.60084
 30
0.0
 40
62.5
100
AcDbArc
 50
-249.939552
 51
44.384875
  0
CIRCLE
  5
2C5
330
1F
100
AcDbEntity
  8
GR1-1
  6
CONTINUOUS
 62
     3
100
AcDbCircle
 10
334.472006
 20
105.912763
 30
0.0
 40
5.0
  0
CIRCLE
  5
2C6
330
1F
100
AcDbEntity
  8
GR1-1
  6
CONTINUOUS
 62
     3
100
AcDbCircle
 10
344.283929
 20
129.60084
 30
0.0
 40
5.0
  0
CIRCLE
  5
2C7
330
1F
100
AcDbEntity
  8
GR1-1
  6
CONTINUOUS
 62
     3
100
AcDbCircle
 10
310.783929
 20
96.10084
 30
0.0
 40
5.0
  0
CIRCLE
  5
2C8
330
1F
100
AcDbEntity
  8
GR1-1
  6
CONTINUOUS
 62
     3
100
AcDbCircle
 10
298.038256
 20
98.620049
 30
0.0
 40
2.0
  0
CIRCLE
  5
2C9
330
1F
100
AcDbEntity
  8
GR1-1
  6
CONTINUOUS
 62
     3
100
AcDbCircle
 10
287.095852
 20
105.912763
 30
0.0
 40
5.0
  0
CIRCLE
  5
2CA
330
1F
100
AcDbEntity
  8
GR1-1
  6
CONTINUOUS
 62
     3
100
AcDbCircle
 10
287.095852
 20
153.288918
 30
0.0
 40
5.0
  0
ARC
  5
2CB
330
1F
100
AcDbEntity
  8
GR1-1
  6
CONTINUOUS
 62
     3
100
AcDbCircle
 10
310.783929
 20
129.60084
 30
0.0
 40
48.0
100
AcDbArc
 50
-255.926257
 51
39.141265
  0
TEXT
  5
2CC
330
1F
100
AcDbEntity
  8
GR1-1
  6
CONTINUOUS
 62
     7
100
AcDbText
 10
269.939545
 20
100.454445
 30
0.0
 40
7.27538
  1
G
 50
122.0
 41
1.053374
  7
FX_VECTOR
 72
     5
 11
266.458567
 21
106.025174
 31
0.0
100
AcDbText
  0
TEXT
  5
2CD
330
1F
100
AcDbEntity
  8
GR1-1
  6
CONTINUOUS
 62
     7
100
AcDbText
 10
266.28064
 20
106.422554
 30
0.0
 40
7.27538
  1
O
 50
114.0
 41
0.997933
  7
FX_VECTOR
 72
     5
 11
263.608834
 21
112.423527
 31
0.0
100
AcDbText
  0
TEXT
  5
2CE
330
1F
100
AcDbEntity
  8
GR1-1
  6
CONTINUOUS
 62
     7
100
AcDbText
 10
263.487946
 20
112.841805
 30
0.0
 40
7.27538
  1
L
 50
106.0
 41
1.185046
  7
FX_VECTOR
 72
     5
 11
261.677316
 21
119.15622
 31
0.0
100
AcDbText
  0
TEXT
  5
2CF
330
1F
100
AcDbEntity
  8
GR1-1
  6
CONTINUOUS
 62
     7
100
AcDbText
 10
261.615814
 20
119.587227
 30
0.0
 40
7.27538
  1
D
 50
98.0
 41
1.053374
  7
FX_VECTOR
 72
     5
 11
260.701602
 21
126.092182
 31
0.0
100
AcDbText
  0
TEXT
  5
2D0
330
1F
100
AcDbEntity
  8
GR1-1
  6
CONTINUOUS
 62
     7
100
AcDbText
 10
260.760376
 20
133.527695
 30
0.0
 40
7.27538
  1
C
 50
82.0
 41
1.053374
  7
FX_VECTOR
 72
     5
 11
261.674588
 21
140.03265
 31
0.0
100
AcDbText
  0
TEXT
  5
2D1
330
1F
100
AcDbEntity
  8
GR1-1
  6
CONTINUOUS
 62
     7
100
AcDbText
 10
261.793732
 20
140.451431
 30
0.0
 40
7.27538
  1
A
 50
74.0
 41
1.115337
  7
FX_VECTOR
 72
     5
 11
263.604361
 21
146.765847
 31
0.0
100
AcDbText
  0
TEXT
  5
2D2
330
1F
100
AcDbEntity
  8
GR1-1
  6
CONTINUOUS
 62
     7
100
AcDbText
 10
263.780609
 20
147.163956
 30
0.0
 40
7.27538
  1
S
 50
66.0
 41
1.115337
  7
FX_VECTOR
 72
     5
 11
266.452415
 21
153.164929
 31
0.0
100
AcDbText
  0
TEXT
  5
2D3
330
1F
100
AcDbEntity
  8
GR1-1
  6
CONTINUOUS
 62
     7
100
AcDbText
 10
266.682343
 20
153.534622
 30
0.0
 40
7.27538
  1
T
 50
58.0
 41
1.264049
  7
FX_VECTOR
 72
     5
 11
270.16332
 21
159.105351
 31
0.0
100
AcDbText
  0
TEXT
  5
2D4
330
1F
100
AcDbEntity
  8
GR1-1
  6
CONTINUOUS
 62
     7
100
AcDbText
 10
270.442474
 20
159.439438
 30
0.0
 40
7.27538
  1
E
 50
50.0
 41
1.115337
  7
FX_VECTOR
 72
     5
 11
274.664871
 21
164.471494
 31
0.0
100
AcDbText
  0
TEXT
  5
2D5
330
1F
100
AcDbEntity
  8
GR1-1
  6
CONTINUOUS
 62
     7
100
AcDbText
 10
274.987793
 20
164.763504
 30
0.0
 40
7.27538
  1
R
 50
42.0
 41
1.053374
  7
FX_VECTOR
 72
     5
 11
279.869424
 21
169.158945
 31
0.0
100
AcDbText
  0
TEXT
  5
2D6
330
1F
100
AcDbEntity
  8
GR1-1
  6
CONTINUOUS
 62
     7
100
AcDbText
 10
356.026672
 20
151.495499
 30
0.0
 40
7.241241
  1
1
 50
291.25
 41
2.106545
  7
FX_VECTOR
 72
     5
 11
358.922621
 21
144.04858
 31
0.0
100
AcDbText
  0
TEXT
  5
2D7
330
1F
100
AcDbEntity
  8
GR1-1
  6
CONTINUOUS
 62
     7
100
AcDbText
 10
358.765991
 20
144.567703
 30
0.0
 40
7.241241
  1
2
 50
282.75
 41
1.363058
  7
FX_VECTOR
 72
     5
 11
360.529405
 21
136.774534
 31
0.0
100
AcDbText
  0
TEXT
  5
2D8
330
1F
100
AcDbEntity
  8
GR1-1
  6
CONTINUOUS
 62
     7
100
AcDbText
 10
360.451172
 20
137.311111
 30
0.0
 40
7.241241
  1
5
 50
274.25
 41
1.363058
  7
FX_VECTOR
 72
     5
 11
361.043313
 21
129.342894
 31
0.0
100
AcDbText
  0
TEXT
  5
2D9
330
1F
100
AcDbEntity
  8
GR1-1
  6
CONTINUOUS
 62
     7
100
AcDbText
 10
361.045288
 20
129.885147
 30
0.0
 40
7.241241
  1
X
 50
265.75
 41
1.363058
  7
FX_VECTOR
 72
     5
 11
360.453147
 21
121.91693
 31
0.0
100
AcDbText
  0
TEXT
  5
2DA
330
1F
100
AcDbEntity
  8
GR1-1
  6
CONTINUOUS
 62
     7
100
AcDbText
 10
360.535217
 20
122.452919
 30
0.0
 40
7.241241
  1
3
 50
257.25
 41
1.363058
  7
FX_VECTOR
 72
     5
 11
358.771803
 21
114.65975
 31
0.0
100
AcDbText
  0
TEXT
  5
2DB
330
1F
100
AcDbEntity
  8
GR1-1
  6
CONTINUOUS
 62
     7
100
AcDbText
 10
358.93219
 20
115.177711
 30
0.0
 40
7.241241
  1
8
 50
248.75
 41
1.363058
  7
FX_VECTOR
 72
     5
 11
356.036242
 21
107.730793
 31
0.0
100
AcDbText
  0
LINE
  5
2DC
330
1F
100
AcDbEntity
  8
GR1-1
  6
CONTINUOUS
 62
     7
100
AcDbLine
 10
270.748615
 20
89.62055
 30
0.0
 11
274.763399
 21
94.079418
 31
0.0
  0
LINE
  5
2DD
330
1F
100
AcDbEntity
  8
GR1-1
  6
CONTINUOUS
 62
     7
100
AcDbLine
 10
274.763399
 20
94.079418
 30
0.0
 11
279.222268
 21
90.064635
 31
0.0
  0
LINE
  5
2DE
330
1F
100
AcDbEntity
  8
GR1-1
  6
CONTINUOUS
 62
     7
100
AcDbLine
 10
279.222268
 20
90.064635
 30
0.0
 11
275.207484
 21
85.605766
 31
0.0
  0
LINE
  5
2DF
330
1F
100
AcDbEntity
  8
GR1-1
  6
CONTINUOUS
 62
     7
100
AcDbLine
 10
275.207484
 20
85.605766
 30
0.0
 11
270.748615
 21
89.62055
 31
0.0
  0
LINE
  5
2E0
330
1F
100
AcDbEntity
  8
GR1-1
  6
CONTINUOUS
 62
     7
100
AcDbLine
 10
272.905715
 20
91.311497
 30
0.0
 11
273.092854
 21
87.740661
 31
0.0
  0
LINE
  5
2E1
330
1F
100
AcDbEntity
  8
GR1-1
  6
CONTINUOUS
 62
     7
100
AcDbLine
 10
273.092854
 20
87.740661
 30
0.0
 11
277.087373
 21
87.950005
 31
0.0
  0
LINE
  5
2E2
330
1F
100
AcDbEntity
  8
GR1-1
  6
CONTINUOUS
 62
     7
100
AcDbLine
 10
277.087373
 20
87.950005
 30
0.0
 11
276.878029
 21
91.944523
 31
0.0
  0
LINE
  5
2E3
330
1F
100
AcDbEntity
  8
GR1-1
  6
CONTINUOUS
 62
     7
100
AcDbLine
 10
276.878029
 20
91.944523
 30
0.0
 11
274.536877
 21
91.821829
 31
0.0
  0
LINE
  5
2E4
330
1F
100
AcDbEntity
  8
GR1-1
  6
CONTINUOUS
 62
     7
100
AcDbLine
 10
274.457328
 20
91.988605
 30
0.0
 11
274.98119
 21
92.570412
 31
0.0
  0
LINE
  5
2E5
330
1F
100
AcDbEntity
  8
GR1-1
  6
CONTINUOUS
 62
     7
100
AcDbLine
 10
274.98119
 20
92.570412
 30
0.0
 11
274.238045
 21
93.239543
 31
0.0
  0
LINE
  5
2E6
330
1F
100
AcDbEntity
  8
GR1-1
  6
CONTINUOUS
 62
     7
100
AcDbLine
 10
274.238045
 20
93.239543
 30
0.0
 11
272.883511
 21
91.735179
 31
0.0
  0
LINE
  5
2E7
330
1F
100
AcDbEntity
  8
GR1-1
  6
CONTINUOUS
 62
     7
100
AcDbLine
 10
272.883511
 20
91.735179
 30
0.0
 11
274.985442
 21
89.842592
 31
0.0
  0
LINE
  5
2E8
330
1F
100
AcDbEntity
  8
GR1-1
  6
CONTINUOUS
 62
     7
100
AcDbLine
 10
274.985442
 20
89.842592
 30
0.0
 11
275.320007
 21
90.214165
 31
0.0
  0
LINE
  5
2E9
330
1F
100
AcDbEntity
  8
GR1-1
  6
CONTINUOUS
 62
     7
100
AcDbLine
 10
275.320007
 20
90.214165
 30
0.0
 11
274.820025
 21
90.66435
 31
0.0
  0
LINE
  5
2EA
330
1F
100
AcDbEntity
  8
GR1-1
  6
CONTINUOUS
 62
     7
100
AcDbLine
 10
274.881704
 20
90.838528
 30
0.0
 11
275.931735
 21
90.893558
 31
0.0
  0
LINE
  5
2EB
330
1F
100
AcDbEntity
  8
GR1-1
  6
CONTINUOUS
 62
     7
100
AcDbLine
 10
275.931735
 20
90.893558
 30
0.0
 11
276.036407
 21
88.896299
 31
0.0
  0
LINE
  5
2EC
330
1F
100
AcDbEntity
  8
GR1-1
  6
CONTINUOUS
 62
     7
100
AcDbLine
 10
276.036407
 20
88.896299
 30
0.0
 11
274.039148
 21
88.791627
 31
0.0
  0
LINE
  5
2ED
330
1F
100
AcDbEntity
  8
GR1-1
  6
CONTINUOUS
 62
     7
100
AcDbLine
 10
274.039148
 20
88.791627
 30
0.0
 11
273.95668
 21
90.365203
 31
0.0
  0
LINE
  5
2EE
330
1F
100
AcDbEntity
  8
GR1-1
  6
CONTINUOUS
 62
     7
100
AcDbLine
 10
273.95668
 20
90.365203
 30
0.0
 11
272.905715
 21
91.311497
 31
0.0
  0
ARC
  5
2EF
330
1F
100
AcDbEntity
  8
GR1-1
  6
CONTINUOUS
 62
     7
100
AcDbCircle
 10
274.531643
 20
91.921692
 30
0.0
 40
0.1
100
AcDbArc
 50
138.0
 51
273.0
  0
ARC
  5
2F0
330
1F
100
AcDbEntity
  8
GR1-1
  6
CONTINUOUS
 62
     7
100
AcDbCircle
 10
274.886938
 20
90.738665
 30
0.0
 40
0.1
100
AcDbArc
 50
93.0
 51
228.0
  0
LINE
  5
2F1
330
1F
100
AcDbEntity
  8
GR1-1
  6
CENTER
 62
     6
100
AcDbLine
 10
327.430638
 20
112.954131
 30
0.0
 11
341.504097
 21
98.880672
 31
0.0
  0
CIRCLE
  5
2F2
330
1F
100
AcDbEntity
  8
GR1-1
  6
CONTINUOUS
 62
     6
100
AcDbCircle
 10
334.472006
 20
105.912763
 30
0.0
 40
7.25
  0
LINE
  5
2F3
330
1F
100
AcDbEntity
  8
GR1-1
  6
CENTER
 62
     6
100
AcDbLine
 10
300.198588
 20
103.83555
 30
0.0
 11
295.85759
 21
93.355456
 31
0.0
  0
CIRCLE
  5
2F4
330
1F
100
AcDbEntity
  8
GR1-1
  6
CONTINUOUS
 62
     6
100
AcDbCircle
 10
287.095852
 20
105.912763
 30
0.0
 40
7.25
  0
LINE
  5
2F5
330
1F
100
AcDbEntity
  8
GR1-1
  6
CENTER
 62
     6
100
AcDbLine
 10
294.13722
 20
112.954131
 30
0.0
 11
280.063761
 21
98.880672
 31
0.0
  0
ARC
  5
2F6
330
1F
100
AcDbEntity
  8
GR1-1
  6
CONTINUOUS
 62
     6
100
AcDbCircle
 10
310.783929
 20
129.60084
 30
0.0
 40
25.0
100
AcDbArc
 50
-236.745894
 51
15.368818
  0
LINE
  5
2F7
330
1F
100
AcDbEntity
  8
GR1-1
  6
CENTER
 62
     6
100
AcDbLine
 10
294.13722
 20
146.247549
 30
0.0
 11
280.063761
 21
160.321009
 31
0.0
  0
CIRCLE
  5
2F8
330
1F
100
AcDbEntity
  8
GR1-1
  6
CONTINUOUS
 62
     6
100
AcDbCircle
 10
287.095852
 20
153.288918
 30
0.0
 40
7.25
  0
ARC
  5
2F9
330
1F
100
AcDbEntity
  8
GR1-1
  6
CENTER
 62
     6
100
AcDbCircle
 10
310.783929
 20
129.60084
 30
0.0
 40
33.50000000000003
100
AcDbArc
 50
-247.324642
 51
28.75961
  0
ARC
  5
2FA
330
1F
100
AcDbEntity
  8
GR1-1
  6
CONTINUOUS
 62
     6
100
AcDbCircle
 10
310.783929
 20
129.60084
 30
0.0
 40
44.50000000000003
100
AcDbArc
 50
-254.401528
 51
37.321571
  0
DIMENSION
  5
2FB
330
1F
100
AcDbEntity
  8
LAYERGROUP-1
100
AcDbDimension
  2
*D33
 10
348.783929
 20
47.059126
 30
0.0
 11
329.783936
 21
48.059128
 31
0.0
 70
    32
  3
FXDIMINFO
100
AcDbAlignedDimension
 13
310.783929
 23
64.281126
 33
0.0
 14
348.783929
 24
144.21796
 34
0.0
 50
180.0
100
AcDbRotatedDimension
1001
ACAD
1000
DSTYLE
1002
{
1070
     7
1000
FXTIP_ARROW_E
1070
     6
1000
FXTIP_ARROW_S
1070
   173
1070
     1
1002
}
  0
LINE
  5
305
330
1F
100
AcDbEntity
  8
GR1-1
  6
CENTER
 62
     6
100
AcDbLine
 10
242.329683
 20
129.60084
 30
0.0
 11
380.661691
 21
129.60084
 31
0.0
  0
LINE
  5
306
330
1F
100
AcDbEntity
  8
GR1-1
  6
CONTINUOUS
 62
     3
100
AcDbLine
 10
113.12913
 20
114.05084
 30
0.0
 11
116.12913
 21
114.05084
 31
0.0
  0
LINE
  5
307
330
1F
100
AcDbEntity
  8
GR1-1
  6
CONTINUOUS
 62
     3
100
AcDbLine
 10
116.12913
 20
114.05084
 30
0.0
 11
116.12913
 21
208.05084
 31
0.0
  0
LINE
  5
308
330
1F
100
AcDbEntity
  8
GR1-1
  6
CONTINUOUS
 62
     3
100
AcDbLine
 10
171.12913
 20
208.05084
 30
0.0
 11
171.12913
 21
114.05084
 31
0.0
  0
LINE
  5
309
330
1F
100
AcDbEntity
  8
GR1-1
  6
CONTINUOUS
 62
     3
100
AcDbLine
 10
171.12913
 20
114.05084
 30
0.0
 11
174.12913
 21
114.05084
 31
0.0
  0
LINE
  5
30A
330
1F
100
AcDbEntity
  8
GR1-1
  6
CONTINUOUS
 62
     3
100
AcDbLine
 10
174.12913
 20
114.05084
 30
0.0
 11
174.12913
 21
207.55084
 31
0.0
  0
LINE
  5
30B
330
1F
100
AcDbEntity
  8
GR1-1
  6
CONTINUOUS
 62
     3
100
AcDbLine
 10
113.12913
 20
207.55084
 30
0.0
 11
113.12913
 21
114.05084
 31
0.0
  0
ARC
  5
30C
330
1F
100
AcDbEntity
  8
GR1-1
  6
CONTINUOUS
 62
     3
100
AcDbCircle
 10
203.548016
 20
169.54267
 30
0.0
 40
89.46156784938876
100
AcDbArc
 50
167.240654
 51
167.732682
  0
ARC
  5
30D
330
1F
100
AcDbEntity
  8
GR1-1
  6
CONTINUOUS
 62
     3
100
AcDbCircle
 10
242.587763
 20
170.518707
 30
0.0
 40
135.2945721841073
100
AcDbArc
 50
184.038478
 51
192.341618
  0
LINE
  5
30E
330
1F
100
AcDbEntity
  8
GR1-1
  6
CONTINUOUS
 62
     3
100
AcDbLine
 10
178.12913
 20
140.10084
 30
0.0
 11
179.62913
 21
138.10084
 31
0.0
  0
LINE
  5
30F
330
1F
100
AcDbEntity
  8
GR1-1
  6
CONTINUOUS
 62
     3
100
AcDbLine
 10
179.62913
 20
138.10084
 30
0.0
 11
179.62913
 21
121.10084
 31
0.0
  0
LINE
  5
310
330
1F
100
AcDbEntity
  8
GR1-1
  6
CONTINUOUS
 62
     3
100
AcDbLine
 10
179.62913
 20
121.10084
 30
0.0
 11
178.12913
 21
119.10084
 31
0.0
  0
LINE
  5
311
330
1F
100
AcDbEntity
  8
GR1-1
  6
CONTINUOUS
 62
     3
100
AcDbLine
 10
178.12913
 20
119.10084
 30
0.0
 11
174.12913
 21
119.10084
 31
0.0
  0
LINE
  5
312
330
1F
100
AcDbEntity
  8
GR1-1
  6
CONTINUOUS
 62
     3
100
AcDbLine
 10
174.12913
 20
140.10084
 30
0.0
 11
178.12913
 21
140.10084
 31
0.0
  0
ARC
  5
313
330
1F
100
AcDbEntity
  8
GR1-1
  6
CONTINUOUS
 62
     3
100
AcDbCircle
 10
44.670497
 20
170.518707
 30
0.0
 40
135.2945721841073
100
AcDbArc
 50
347.007297
 51
355.961522
  0
ARC
  5
314
330
1F
100
AcDbEntity
  8
GR1-1
  6
CONTINUOUS
 62
     3
100
AcDbCircle
 10
83.710245
 20
169.54267
 30
0.0
 40
89.46156784938876
100
AcDbArc
 50
12.267318
 51
12.759346
  0
LINE
  5
315
330
1F
100
AcDbEntity
  8
GR1-1
  6
CENTER
 62
     6
100
AcDbLine
 10
96.852203
 20
129.60084
 30
0.0
 11
184.931069
 21
129.60084
 31
0.0
  0
LINE
  5
316
330
1F
100
AcDbEntity
  8
GR1-1
  6
CONTINUOUS
 62
     6
100
AcDbLine
 10
178.12913
 20
119.10084
 30
0.0
 11
178.12913
 21
140.10084
 31
0.0
  0
DIMENSION
  5
317
330
1F
100
AcDbEntity
  8
LAYERGROUP-1
100
AcDbDimension
  2
*D34
 10
162.62913
 20
57.10084
 30
0.0
 11
143.629135
 21
58.100842
 31
0.0
 70
    33
  3
FXDIMINFO
100
AcDbAlignedDimension
 13
124.62913
 23
81.60084
 33
0.0
 14
162.62913
 24
81.60084
 34
0.0
1001
ACAD
1000
DSTYLE
1002
{
1070
     7
1000
FXTIP_ARROW_E
1070
     6
1000
FXTIP_ARROW_S
1070
   173
1070
     1
1002
}
  0
LINE
  5
321
330
1F
100
AcDbEntity
  8
GR1-1
  6
CONTINUOUS
 62
     3
100
AcDbLine
 10
100.12913
 20
124.54784
 30
0.0
 11
100.12913
 21
134.65384
 31
0.0
  0
LINE
  5
322
330
1F
100
AcDbEntity
  8
GR1-1
  6
CONTINUOUS
 62
     3
100
AcDbLine
 10
100.12913
 20
134.65384
 30
0.0
 11
101.12913
 21
135.60084
 31
0.0
  0
LINE
  5
323
330
1F
100
AcDbEntity
  8
GR1-1
  6
CONTINUOUS
 62
     3
100
AcDbLine
 10
101.12913
 20
135.60084
 30
0.0
 11
102.62913
 21
135.60084
 31
0.0
  0
LINE
  5
324
330
1F
100
AcDbEntity
  8
GR1-1
  6
CONTINUOUS
 62
     3
100
AcDbLine
 10
103.87913
 20
135.085668
 30
0.0
 11
108.37913
 21
135.085668
 31
0.0
  0
ARC
  5
325
330
1F
100
AcDbEntity
  8
GR1-1
  6
CONTINUOUS
 62
     3
100
AcDbCircle
 10
105.995797
 20
137.828082
 30
0.0
 40
3.633333333333
100
AcDbArc
 50
-49.007267
 51
49.007267
  0
LINE
  5
326
330
1F
100
AcDbEntity
  8
GR1-1
  6
CONTINUOUS
 62
     3
100
AcDbLine
 10
108.37913
 20
140.570495
 30
0.0
 11
103.87913
 21
140.570495
 31
0.0
  0
ARC
  5
327
330
1F
100
AcDbEntity
  8
GR1-1
  6
CONTINUOUS
 62
     3
100
AcDbCircle
 10
106.262464
 20
137.828082
 30
0.0
 40
3.633333333332883
100
AcDbArc
 50
130.992733
 51
229.007267
  0
ARC
  5
328
330
1F
100
AcDbEntity
  8
GR1-1
  6
CONTINUOUS
 62
     3
100
AcDbCircle
 10
115.287464
 20
129.60084
 30
0.0
 40
12.65833333333353
100
AcDbArc
 50
154.322973
 51
205.677027
  0
LINE
  5
329
330
1F
100
AcDbEntity
  8
GR1-1
  6
CONTINUOUS
 62
     3
100
AcDbLine
 10
103.87913
 20
124.116013
 30
0.0
 11
108.37913
 21
124.116013
 31
0.0
  0
ARC
  5
32A
330
1F
100
AcDbEntity
  8
GR1-1
  6
CONTINUOUS
 62
     3
100
AcDbCircle
 10
96.970797
 20
129.60084
 30
0.0
 40
12.65833333333325
100
AcDbArc
 50
-25.677027
 51
25.677027
  0
LINE
  5
32B
330
1F
100
AcDbEntity
  8
GR1-1
  6
CONTINUOUS
 62
     3
100
AcDbLine
 10
109.62913
 20
141.10084
 30
0.0
 11
109.62913
 21
118.10084
 31
0.0
  0
ARC
  5
32C
330
1F
100
AcDbEntity
  8
GR1-1
  6
CONTINUOUS
 62
     3
100
AcDbCircle
 10
110.12913
 20
118.10084
 30
0.0
 40
0.5
100
AcDbArc
 50
180.0
 51
270.0
  0
LINE
  5
32D
330
1F
100
AcDbEntity
  8
GR1-1
  6
CONTINUOUS
 62
     3
100
AcDbLine
 10
110.12913
 20
117.60084
 30
0.0
 11
112.62913
 21
117.60084
 31
0.0
  0
ARC
  5
32E
330
1F
100
AcDbEntity
  8
GR1-1
  6
CONTINUOUS
 62
     3
100
AcDbCircle
 10
112.62913
 20
118.10084
 30
0.0
 40
0.5
100
AcDbArc
 50
270.0
 51
360.0
  0
LINE
  5
32F
330
1F
100
AcDbEntity
  8
GR1-1
  6
CONTINUOUS
 62
     3
100
AcDbLine
 10
108.37913
 20
118.631185
 30
0.0
 11
103.87913
 21
118.631185
 31
0.0
  0
ARC
  5
330
330
1F
100
AcDbEntity
  8
GR1-1
  6
CONTINUOUS
 62
     3
100
AcDbCircle
 10
105.995797
 20
121.373599
 30
0.0
 40
3.633333333332942
100
AcDbArc
 50
-49.007267
 51
49.007267
  0
ARC
  5
331
330
1F
100
AcDbEntity
  8
GR1-1
  6
CONTINUOUS
 62
     3
100
AcDbCircle
 10
106.262464
 20
121.373599
 30
0.0
 40
3.633333333332979
100
AcDbArc
 50
130.992733
 51
229.007267
  0
LINE
  5
332
330
1F
100
AcDbEntity
  8
GR1-1
  6
CONTINUOUS
 62
     3
100
AcDbLine
 10
102.62913
 20
123.60084
 30
0.0
 11
101.12913
 21
123.60084
 31
0.0
  0
LINE
  5
333
330
1F
100
AcDbEntity
  8
GR1-1
  6
CONTINUOUS
 62
     3
100
AcDbLine
 10
101.12913
 20
123.60084
 30
0.0
 11
100.12913
 21
124.54784
 31
0.0
  0
LINE
  5
334
330
1F
100
AcDbEntity
  8
GR1-1
  6
CONTINUOUS
 62
     3
100
AcDbLine
 10
124.62913
 20
129.60084
 30
0.0
 11
124.62913
 21
177.60084
 31
0.0
  0
LINE
  5
335
330
1F
100
AcDbEntity
  8
GR1-1
  6
CONTINUOUS
 62
     3
100
AcDbLine
 10
124.62913
 20
177.60084
 30
0.0
 11
125.228715
 21
177.60084
 31
0.0
  0
ARC
  5
336
330
1F
100
AcDbEntity
  8
GR1-1
  6
CONTINUOUS
 62
     3
100
AcDbCircle
 10
125.228715
 20
179.60084
 30
0.0
 40
2.0
100
AcDbArc
 50
270.0
 51
340.0
  0
LINE
  5
337
330
1F
100
AcDbEntity
  8
GR1-1
  6
CONTINUOUS
 62
     3
100
AcDbLine
 10
127.1081
 20
178.9168
 30
0.0
 11
130.317511
 21
187.734584
 31
0.0
  0
ARC
  5
338
330
1F
100
AcDbEntity
  8
GR1-1
  6
CONTINUOUS
 62
     3
100
AcDbCircle
 10
135.015974
 20
186.024483
 30
0.0
 40
5.0
100
AcDbArc
 50
104.246268
 51
160.0
  0
LINE
  5
339
330
1F
100
AcDbEntity
  8
GR1-1
  6
CONTINUOUS
 62
     3
100
AcDbLine
 10
110.12913
 20
141.60084
 30
0.0
 11
112.62913
 21
141.60084
 31
0.0
  0
ARC
  5
33A
330
1F
100
AcDbEntity
  8
GR1-1
  6
CONTINUOUS
 62
     3
100
AcDbCircle
 10
112.62913
 20
141.10084
 30
0.0
 40
0.5
100
AcDbArc
 50
0.0
 51
90.0
  0
ARC
  5
33B
330
1F
100
AcDbEntity
  8
GR1-1
  6
CONTINUOUS
 62
     3
100
AcDbCircle
 10
110.12913
 20
141.10084
 30
0.0
 40
0.5
100
AcDbArc
 50
90.0
 51
180.0
  0
LINE
  5
33C
330
1F
100
AcDbEntity
  8
GR1-1
  6
CONTINUOUS
 62
     3
100
AcDbLine
 10
116.12913
 20
137.60084
 30
0.0
 11
116.62913
 21
138.10084
 31
0.0
  0
LINE
  5
33D
330
1F
100
AcDbEntity
  8
GR1-1
  6
CONTINUOUS
 62
     3
100
AcDbLine
 10
116.62913
 20
138.10084
 30
0.0
 11
124.62913
 21
138.10084
 31
0.0
  0
ARC
  5
33E
330
1F
100
AcDbEntity
  8
GR1-1
  6
CONTINUOUS
 62
     3
100
AcDbCircle
 10
143.62913
 20
152.10084
 30
0.0
 40
40.0
100
AcDbArc
 50
75.753732
 51
104.246268
  0
LINE
  5
33F
330
1F
100
AcDbEntity
  8
GR1-1
  6
CONTINUOUS
 62
     6
100
AcDbLine
 10
131.18413
 20
129.60084
 30
0.0
 11
131.18413
 21
189.236487
 31
0.0
  0
LINE
  5
340
330
1F
100
AcDbEntity
  8
GR1-1
  6
CONTINUOUS
 62
     6
100
AcDbLine
 10
125.228715
 20
177.60084
 30
0.0
 11
125.228715
 21
129.60084
 31
0.0
  0
LINE
  5
341
330
1F
100
AcDbEntity
  8
GR1-1
  6
CONTINUOUS
 62
     6
100
AcDbLine
 10
116.62913
 20
121.10084
 30
0.0
 11
116.62913
 21
138.10084
 31
0.0
  0
LINE
  5
342
330
1F
100
AcDbEntity
  8
GR1-1
  6
CONTINUOUS
 62
     7
100
AcDbLine
 10
109.62913
 20
137.828082
 30
0.0
 11
109.62913
 21
121.3736
 31
0.0
  0
LINE
  5
343
330
1F
100
AcDbEntity
  8
GR1-1
  6
CONTINUOUS
 62
     3
100
AcDbLine
 10
102.62913
 20
121.3736
 30
0.0
 11
102.62913
 21
137.828082
 31
0.0
  0
LINE
  5
344
330
1F
100
AcDbEntity
  8
GR1-1
  6
CONTINUOUS
 62
     6
100
AcDbLine
 10
101.12913
 20
135.60084
 30
0.0
 11
101.12913
 21
123.60084
 31
0.0
  0
LINE
  5
345
330
1F
100
AcDbEntity
  8
GR1-1
  6
CONTINUOUS
 62
     6
100
AcDbLine
 10
102.62913
 20
124.54784
 30
0.0
 11
100.12913
 21
124.54784
 31
0.0
  0
LINE
  5
346
330
1F
100
AcDbEntity
  8
GR1-1
  6
CONTINUOUS
 62
     6
100
AcDbLine
 10
102.62913
 20
134.65384
 30
0.0
 11
100.12913
 21
134.65384
 31
0.0
  0
LINE
  5
347
330
1F
100
AcDbEntity
  8
GR1-1
  6
CONTINUOUS
 62
     3
100
AcDbLine
 10
124.62913
 20
129.60084
 30
0.0
 11
124.62913
 21
81.60084
 31
0.0
  0
LINE
  5
348
330
1F
100
AcDbEntity
  8
GR1-1
  6
CONTINUOUS
 62
     3
100
AcDbLine
 10
124.62913
 20
81.60084
 30
0.0
 11
125.228715
 21
81.60084
 31
0.0
  0
ARC
  5
349
330
1F
100
AcDbEntity
  8
GR1-1
  6
CONTINUOUS
 62
     3
100
AcDbCircle
 10
125.228715
 20
79.60084
 30
0.0
 40
2.0
100
AcDbArc
 50
20.0
 51
90.0
  0
LINE
  5
34A
330
1F
100
AcDbEntity
  8
GR1-1
  6
CONTINUOUS
 62
     3
100
AcDbLine
 10
127.1081
 20
80.284881
 30
0.0
 11
130.317511
 21
71.467097
 31
0.0
  0
ARC
  5
34B
330
1F
100
AcDbEntity
  8
GR1-1
  6
CONTINUOUS
 62
     3
100
AcDbCircle
 10
135.015974
 20
73.177197
 30
0.0
 40
5.0
100
AcDbArc
 50
200.0
 51
255.753732
  0
LINE
  5
34C
330
1F
100
AcDbEntity
  8
GR1-1
  6
CONTINUOUS
 62
     3
100
AcDbLine
 10
116.12913
 20
121.60084
 30
0.0
 11
116.62913
 21
121.10084
 31
0.0
  0
LINE
  5
34D
330
1F
100
AcDbEntity
  8
GR1-1
  6
CONTINUOUS
 62
     3
100
AcDbLine
 10
116.62913
 20
121.10084
 30
0.0
 11
124.62913
 21
121.10084
 31
0.0
  0
ARC
  5
34E
330
1F
100
AcDbEntity
  8
GR1-1
  6
CONTINUOUS
 62
     3
100
AcDbCircle
 10
143.62913
 20
107.10084
 30
0.0
 40
40.0
100
AcDbArc
 50
255.753732
 51
284.246268
  0
LINE
  5
34F
330
1F
100
AcDbEntity
  8
GR1-1
  6
CONTINUOUS
 62
     6
100
AcDbLine
 10
131.18413
 20
129.60084
 30
0.0
 11
131.18413
 21
69.965193
 31
0.0
  0
LINE
  5
350
330
1F
100
AcDbEntity
  8
GR1-1
  6
CONTINUOUS
 62
     6
100
AcDbLine
 10
125.228715
 20
81.60084
 30
0.0
 11
125.228715
 21
129.60084
 31
0.0
  0
LINE
  5
351
330
1F
100
AcDbEntity
  8
GR1-1
  6
CONTINUOUS
 62
     3
100
AcDbLine
 10
162.62913
 20
129.60084
 30
0.0
 11
162.62913
 21
177.60084
 31
0.0
  0
LINE
  5
352
330
1F
100
AcDbEntity
  8
GR1-1
  6
CONTINUOUS
 62
     3
100
AcDbLine
 10
162.62913
 20
177.60084
 30
0.0
 11
162.029545
 21
177.60084
 31
0.0
  0
ARC
  5
353
330
1F
100
AcDbEntity
  8
GR1-1
  6
CONTINUOUS
 62
     3
100
AcDbCircle
 10
162.029545
 20
179.60084
 30
0.0
 40
2.0
100
AcDbArc
 50
200.0
 51
270.0
  0
LINE
  5
354
330
1F
100
AcDbEntity
  8
GR1-1
  6
CONTINUOUS
 62
     3
100
AcDbLine
 10
160.15016
 20
178.9168
 30
0.0
 11
156.940749
 21
187.734584
 31
0.0
  0
ARC
  5
355
330
1F
100
AcDbEntity
  8
GR1-1
  6
CONTINUOUS
 62
     3
100
AcDbCircle
 10
152.242286
 20
186.024483
 30
0.0
 40
5.0
100
AcDbArc
 50
20.0
 51
75.753732
  0
LINE
  5
356
330
1F
100
AcDbEntity
  8
GR1-1
  6
CONTINUOUS
 62
     3
100
AcDbLine
 10
171.12913
 20
137.60084
 30
0.0
 11
170.62913
 21
138.10084
 31
0.0
  0
LINE
  5
357
330
1F
100
AcDbEntity
  8
GR1-1
  6
CONTINUOUS
 62
     3
100
AcDbLine
 10
170.62913
 20
138.10084
 30
0.0
 11
162.62913
 21
138.10084
 31
0.0
  0
LINE
  5
358
330
1F
100
AcDbEntity
  8
GR1-1
  6
CONTINUOUS
 62
     6
100
AcDbLine
 10
156.07413
 20
129.60084
 30
0.0
 11
156.07413
 21
189.236487
 31
0.0
  0
LINE
  5
359
330
1F
100
AcDbEntity
  8
GR1-1
  6
CONTINUOUS
 62
     6
100
AcDbLine
 10
162.029545
 20
177.60084
 30
0.0
 11
162.029545
 21
129.60084
 31
0.0
  0
LINE
  5
35A
330
1F
100
AcDbEntity
  8
GR1-1
  6
CONTINUOUS
 62
     6
100
AcDbLine
 10
170.62913
 20
121.10084
 30
0.0
 11
170.62913
 21
138.10084
 31
0.0
  0
LINE
  5
35B
330
1F
100
AcDbEntity
  8
GR1-1
  6
CONTINUOUS
 62
     3
100
AcDbLine
 10
162.62913
 20
129.60084
 30
0.0
 11
162.62913
 21
81.60084
 31
0.0
  0
LINE
  5
35C
330
1F
100
AcDbEntity
  8
GR1-1
  6
CONTINUOUS
 62
     3
100
AcDbLine
 10
162.62913
 20
81.60084
 30
0.0
 11
162.029545
 21
81.60084
 31
0.0
  0
ARC
  5
35D
330
1F
100
AcDbEntity
  8
GR1-1
  6
CONTINUOUS
 62
     3
100
AcDbCircle
 10
162.029545
 20
79.60084
 30
0.0
 40
2.0
100
AcDbArc
 50
90.0
 51
160.0
  0
LINE
  5
35E
330
1F
100
AcDbEntity
  8
GR1-1
  6
CONTINUOUS
 62
     3
100
AcDbLine
 10
160.15016
 20
80.284881
 30
0.0
 11
156.940749
 21
71.467097
 31
0.0
  0
ARC
  5
35F
330
1F
100
AcDbEntity
  8
GR1-1
  6
CONTINUOUS
 62
     3
100
AcDbCircle
 10
152.242286
 20
73.177197
 30
0.0
 40
5.0
100
AcDbArc
 50
284.246268
 51
340.0
  0
LINE
  5
360
330
1F
100
AcDbEntity
  8
GR1-1
  6
CONTINUOUS
 62
     3
100
AcDbLine
 10
171.12913
 20
121.60084
 30
0.0
 11
170.62913
 21
121.10084
 31
0.0
  0
LINE
  5
361
330
1F
100
AcDbEntity
  8
GR1-1
  6
CONTINUOUS
 62
     3
100
AcDbLine
 10
170.62913
 20
121.10084
 30
0.0
 11
162.62913
 21
121.10084
 31
0.0
  0
LINE
  5
362
330
1F
100
AcDbEntity
  8
GR1-1
  6
CONTINUOUS
 62
     6
100
AcDbLine
 10
156.07413
 20
129.60084
 30
0.0
 11
156.07413
 21
69.965193
 31
0.0
  0
LINE
  5
363
330
1F
100
AcDbEntity
  8
GR1-1
  6
CONTINUOUS
 62
     6
100
AcDbLine
 10
162.029545
 20
81.60084
 30
0.0
 11
162.029545
 21
129.60084
 31
0.0
  0
DIMENSION
  5
364
330
1F
100
AcDbEntity
  8
LAYERGROUP-1
100
AcDbDimension
  2
*D35
 10
171.12913
 20
47.059126
 30
0.0
 11
143.62912
 21
48.059128
 31
0.0
 70
    33
  3
FXDIMINFO
100
AcDbAlignedDimension
 13
116.12913
 23
114.05084
 33
0.0
 14
171.12913
 24
114.05084
 34
0.0
1001
ACAD
1000
DSTYLE
1002
{
1070
     7
1000
FXTIP_ARROW_E
1070
     6
1000
FXTIP_ARROW_S
1070
   173
1070
     1
1002
}
  0
DIMENSION
  5
36E
330
1F
100
AcDbEntity
  8
LAYERGROUP-1
100
AcDbDimension
  2
*D36
 10
201.917608
 20
192.10084
 30
0.0
 11
200.917603
 21
129.600845
 31
0.0
 70
    33
  3
FXDIMINFO
100
AcDbAlignedDimension
 13
143.62913
 23
67.10084
 33
0.0
 14
143.62913
 24
192.10084
 34
0.0
1001
ACAD
1000
DSTYLE
1002
{
1070
     7
1000
FXTIP_ARROW_E
1070
     6
1000
FXTIP_ARROW_S
1070
   173
1070
     1
1002
}
  0
LINE
  5
378
330
1F
100
AcDbEntity
  8
GR1-1
  6
CONTINUOUS
 62
     3
100
AcDbLine
 10
297.784999
 20
369.5
 30
0.0
 11
295.584999
 21
369.5
 31
0.0
  0
LINE
  5
379
330
1F
100
AcDbEntity
  8
GR1-1
  6
CONTINUOUS
 62
     3
100
AcDbLine
 10
295.584999
 20
369.5
 30
0.0
 11
295.584999
 21
366.5
 31
0.0
  0
LINE
  5
37A
330
1F
100
AcDbEntity
  8
GR1-1
  6
CONTINUOUS
 62
     3
100
AcDbLine
 10
295.584999
 20
366.5
 30
0.0
 11
297.784999
 21
366.5
 31
0.0
  0
LINE
  5
37B
330
1F
100
AcDbEntity
  8
GR1-1
  6
CONTINUOUS
 62
     3
100
AcDbLine
 10
297.784999
 20
311.5
 30
0.0
 11
295.584999
 21
311.5
 31
0.0
  0
LINE
  5
37C
330
1F
100
AcDbEntity
  8
GR1-1
  6
CONTINUOUS
 62
     3
100
AcDbLine
 10
295.584999
 20
311.5
 30
0.0
 11
295.584999
 21
308.5
 31
0.0
  0
LINE
  5
37D
330
1F
100
AcDbEntity
  8
GR1-1
  6
CONTINUOUS
 62
     3
100
AcDbLine
 10
295.584999
 20
308.5
 30
0.0
 11
297.784999
 21
308.5
 31
0.0
  0
LINE
  5
37E
330
1F
100
AcDbEntity
  8
GR1-1
  6
CONTINUOUS
 62
     3
100
AcDbLine
 10
157.72913
 20
189.977632
 30
0.0
 11
157.72913
 21
188.65084
 31
0.0
  0
ARC
  5
37F
330
1F
100
AcDbEntity
  8
GR1-1
  6
CONTINUOUS
 62
     3
100
AcDbCircle
 10
157.12913
 20
188.65084
 30
0.0
 40
0.5999999999999943
100
AcDbArc
 50
180.0
 51
185.493589
  0
LINE
  5
380
330
1F
100
AcDbEntity
  8
GR1-1
  6
CONTINUOUS
 62
     3
100
AcDbLine
 10
156.52913
 20
188.65084
 30
0.0
 11
156.52913
 21
189.977632
 31
0.0
  0
TEXT
  5
381
330
1F
100
AcDbEntity
  8
LAYERGROUP-1
  6
CONTINUOUS
 62
     7
100
AcDbText
 10
429.161255
 20
12.0
 30
0.0
 40
6.0
  1
S35AC0AAA-C02
 41
0.708171
  7
FX_VECTOR
 72
     5
 11
481.161255
 21
12.0
 31
0.0
100
AcDbText
  0
INSERT
  5
385
330
1F
100
AcDbEntity
  8
0
100
AcDbBlockReference
  2
BLKF039
 10
0.0
 20
0.0
 30
0.0
  0
ENDSEC
  0
SECTION
  2
OBJECTS
  0
DICTIONARY
  5
C
330
0
100
AcDbDictionary
  3
ACAD_GROUP
350
D
  3
ACAD_LAYOUT
350
1A
  3
ACAD_MLINESTYLE
350
17
  3
ACAD_PLOTSETTINGS
350
19
  3
ACDBHEADERROUNDTRIPXREC
350
3B0
  0
DICTIONARY
  5
D
102
{ACAD_REACTORS
330
C
102
}
330
C
100
AcDbDictionary
  0
DICTIONARY
  5
1A
102
{ACAD_REACTORS
330
C
102
}
330
C
100
AcDbDictionary
  0
DICTIONARY
  5
17
102
{ACAD_REACTORS
330
C
102
}
330
C
100
AcDbDictionary
  3
STANDARD
350
18
  0
DICTIONARY
  5
19
102
{ACAD_REACTORS
330
C
102
}
330
C
100
AcDbDictionary
  0
DICTIONARY
  5
3B0
102
{ACAD_REACTORS
330
C
102
}
330
C
100
AcDbDictionary
  3
CEPSNTYPE
350
3B9
  3
DIMSTYLEDATA
350
3CF
  3
FINGERPRINTGUID
350
3BA
  3
HYPERLINKBASE
350
3B3
  3
INSUNITS
350
3B8
  3
LAYOUTDICT
350
3B5
  3
LWETCUNION
350
3B7
  3
PLOTSETDICT
350
3B6
  3
PSVPSCALE
350
3BC
  3
PUCSBASE
350
3BF
  3
PUCSORGBACK
350
3C5
  3
PUCSORGBOTTOM
350
3C1
  3
PUCSORGFRONT
350
3C4
  3
PUCSORGLEFT
350
3C2
  3
PUCSORGRIGHT
350
3C3
  3
PUCSORGTOP
350
3C0
  3
PUCSORTHOREF
350
3BD
  3
PUCSORTHOVIEW
350
3BE
  3
STYLESHEET
350
3B4
  3
TSTACKALIGN
350
3B1
  3
TSTACKSIZE
350
3B2
  3
UCSBASE
350
3C8
  3
UCSORGBACK
350
3CE
  3
UCSORGBOTTOM
350
3CA
  3
UCSORGFRONT
350
3CD
  3
UCSORGLEFT
350
3CB
  3
UCSORGRIGHT
350
3CC
  3
UCSORGTOP
350
3C9
  3
UCSORTHOREF
350
3C6
  3
UCSORTHOVIEW
350
3C7
  3
VERSIONGUID
350
3BB
  0
MLINESTYLE
  5
18
102
{ACAD_REACTORS
330
17
102
}
330
17
100
AcDbMlineStyle
  2
Standard
 70
     0
  3

 62
   256
 51
90.0
 52
90.0
 71
     2
 49
0.5
 62
   256
  6
BYLAYER
 49
-0.5
 62
   256
  6
BYLAYER
  0
XRECORD
  5
3B9
102
{ACAD_REACTORS
330
3B0
102
}
330
3B0
100
AcDbXrecord
 90
        0
  0
XRECORD
  5
3CF
102
{ACAD_REACTORS
330
3B0
102
}
330
3B0
100
AcDbXrecord
1000
DSTYLE
1002
{
1070
   179
 70
     2
1070
   171
 70
     3
1070
   143
 40
0.03937
1070
   274
 70
     3
1070
    41
 40
4.0
1070
   344
340
47
1070
   141
 40
2.5
1070
   176
 70
     7
1070
   177
 70
     7
1070
   178
 70
     7
1070
   271
 70
     2
1070
    46
 40
6.0
1070
    43
 40
10.0
1070
    44
 40
1.0
1070
    42
 40
1.0
1070
   147
 40
1.0
1070
   173
 70
     1
1070
    77
 70
     1
1070
   272
 70
     2
1070
    73
 70
     0
1070
   172
 70
     1
1070
    74
 70
     0
1070
   283
 70
     0
1070
   340
340
3F
1070
   140
 40
4.0
1070
   284
 70
     8
1070
    78
 70
     8
1002
}
  0
XRECORD
  5
3BA
102
{ACAD_REACTORS
330
3B0
102
}
330
3B0
100
AcDbXrecord
  1
{93BB1E92-79C1-4469-A228-575C8AA4D24B}
  0
XRECORD
  5
3B3
102
{ACAD_REACTORS
330
3B0
102
}
330
3B0
100
AcDbXrecord
  1

  0
XRECORD
  5
3B8
102
{ACAD_REACTORS
330
3B0
102
}
330
3B0
100
AcDbXrecord
 90
        1
  0
XRECORD
  5
3B5
102
{ACAD_REACTORS
330
3B0
102
}
330
3B0
100
AcDbXrecord
340
1A
  0
XRECORD
  5
3B7
102
{ACAD_REACTORS
330
3B0
102
}
330
3B0
100
AcDbXrecord
 90
    10781
  0
XRECORD
  5
3B6
102
{ACAD_REACTORS
330
3B0
102
}
330
3B0
100
AcDbXrecord
340
19
  0
XRECORD
  5
3BC
102
{ACAD_REACTORS
330
3B0
102
}
330
3B0
100
AcDbXrecord
 40
0.0
  0
XRECORD
  5
3BF
102
{ACAD_REACTORS
330
3B0
102
}
330
3B0
100
AcDbXrecord
340
0
  0
XRECORD
  5
3C5
102
{ACAD_REACTORS
330
3B0
102
}
330
3B0
100
AcDbXrecord
 10
0.0
 20
0.0
 30
0.0
  0
XRECORD
  5
3C1
102
{ACAD_REACTORS
330
3B0
102
}
330
3B0
100
AcDbXrecord
 10
0.0
 20
0.0
 30
0.0
  0
XRECORD
  5
3C4
102
{ACAD_REACTORS
330
3B0
102
}
330
3B0
100
AcDbXrecord
 10
0.0
 20
0.0
 30
0.0
  0
XRECORD
  5
3C2
102
{ACAD_REACTORS
330
3B0
102
}
330
3B0
100
AcDbXrecord
 10
0.0
 20
0.0
 30
0.0
  0
XRECORD
  5
3C3
102
{ACAD_REACTORS
330
3B0
102
}
330
3B0
100
AcDbXrecord
 10
0.0
 20
0.0
 30
0.0
  0
XRECORD
  5
3C0
102
{ACAD_REACTORS
330
3B0
102
}
330
3B0
100
AcDbXrecord
 10
0.0
 20
0.0
 30
0.0
  0
XRECORD
  5
3BD
102
{ACAD_REACTORS
330
3B0
102
}
330
3B0
100
AcDbXrecord
340
0
  0
XRECORD
  5
3BE
102
{ACAD_REACTORS
330
3B0
102
}
330
3B0
100
AcDbXrecord
 70
     0
  0
XRECORD
  5
3B4
102
{ACAD_REACTORS
330
3B0
102
}
330
3B0
100
AcDbXrecord
  1

  0
XRECORD
  5
3B1
102
{ACAD_REACTORS
330
3B0
102
}
330
3B0
100
AcDbXrecord
 90
        1
  0
XRECORD
  5
3B2
102
{ACAD_REACTORS
330
3B0
102
}
330
3B0
100
AcDbXrecord
 90
       70
  0
XRECORD
  5
3C8
102
{ACAD_REACTORS
330
3B0
102
}
330
3B0
100
AcDbXrecord
340
0
  0
XRECORD
  5
3CE
102
{ACAD_REACTORS
330
3B0
102
}
330
3B0
100
AcDbXrecord
 10
0.0
 20
0.0
 30
0.0
  0
XRECORD
  5
3CA
102
{ACAD_REACTORS
330
3B0
102
}
330
3B0
100
AcDbXrecord
 10
0.0
 20
0.0
 30
0.0
  0
XRECORD
  5
3CD
102
{ACAD_REACTORS
330
3B0
102
}
330
3B0
100
AcDbXrecord
 10
0.0
 20
0.0
 30
0.0
  0
XRECORD
  5
3CB
102
{ACAD_REACTORS
330
3B0
102
}
330
3B0
100
AcDbXrecord
 10
0.0
 20
0.0
 30
0.0
  0
XRECORD
  5
3CC
102
{ACAD_REACTORS
330
3B0
102
}
330
3B0
100
AcDbXrecord
 10
0.0
 20
0.0
 30
0.0
  0
XRECORD
  5
3C9
102
{ACAD_REACTORS
330
3B0
102
}
330
3B0
100
AcDbXrecord
 10
0.0
 20
0.0
 30
0.0
  0
XRECORD
  5
3C6
102
{ACAD_REACTORS
330
3B0
102
}
330
3B0
100
AcDbXrecord
340
0
  0
XRECORD
  5
3C7
102
{ACAD_REACTORS
330
3B0
102
}
330
3B0
100
AcDbXrecord
 70
     0
  0
XRECORD
  5
3BB
102
{ACAD_REACTORS
330
3B0
102
}
330
3B0
100
AcDbXrecord
  1
{FAEB1C32-E019-11D5-929B-00C0DF256EC4}
  0
ENDSEC
  0
EOF
