  0
SECTION
  2
HEADER
  9
$ACADVER
  1
AC1014
  9
$ACADMAINTVER
 70
     9
  9
$DWGCODEPAGE
  3
ANSI_932
  9
$INSBASE
 10
0.0
 20
0.0
 30
0.0
  9
$EXTMIN
 10
0.0
 20
0.0
 30
0.0
  9
$EXTMAX
 10
594.0
 20
420.0
 30
0.0
  9
$LIMMIN
 10
0.0
 20
0.0
  9
$LIMMAX
 10
594.0
 20
420.0
  9
$ORTHOMODE
 70
     0
  9
$REGENMODE
 70
     1
  9
$FILLMODE
 70
     1
  9
$QTEXTMODE
 70
     0
  9
$MIRRTEXT
 70
     1
  9
$DRAGMODE
 70
     2
  9
$LTSCALE
 40
1.0
  9
$OSMODE
 70
    37
  9
$ATTMODE
 70
     1
  9
$TEXTSIZE
 40
0.2
  9
$TRACEWID
 40
0.05
  9
$TEXTSTYLE
  7
STYLE1
  9
$CLAYER
  8
0
  9
$CELTYPE
  6
BYLAYER
  9
$CECOLOR
 62
   256
  9
$CELTSCALE
 40
1.0
  9
$DELOBJ
 70
     1
  9
$DISPSILH
 70
     0
  9
$DIMSCALE
 40
1.0
  9
$DIMASZ
 40
4.0
  9
$DIMEXO
 40
1.0
  9
$DIMDLI
 40
10.0
  9
$DIMRND
 40
0.0
  9
$DIMDLE
 40
6.0
  9
$DIMEXE
 40
1.0
  9
$DIMTP
 40
0.0
  9
$DIMTM
 40
0.0
  9
$DIMTXT
 40
4.0
  9
$DIMCEN
 40
2.5
  9
$DIMTSZ
 40
0.0
  9
$DIMTOL
 70
     0
  9
$DIMLIM
 70
     0
  9
$DIMTIH
 70
     0
  9
$DIMTOH
 70
     0
  9
$DIMSE1
 70
     0
  9
$DIMSE2
 70
     0
  9
$DIMTAD
 70
     1
  9
$DIMZIN
 70
     8
  9
$DIMBLK
  1

  9
$DIMASO
 70
     1
  9
$DIMSHO
 70
     1
  9
$DIMPOST
  1

  9
$DIMAPOST
  1

  9
$DIMALT
 70
     0
  9
$DIMALTD
 70
     3
  9
$DIMALTF
 40
0.03937
  9
$DIMLFAC
 40
1.0
  9
$DIMTOFL
 70
     1
  9
$DIMTVP
 40
0.0
  9
$DIMTIX
 70
     0
  9
$DIMSOXD
 70
     0
  9
$DIMSAH
 70
     1
  9
$DIMBLK1
  1
FXTIP_ARROW_S
  9
$DIMBLK2
  1
FXTIP_ARROW_E
  9
$DIMSTYLE
  2
FXDIMINFO
  9
$DIMCLRD
 70
     7
  9
$DIMCLRE
 70
     7
  9
$DIMCLRT
 70
     7
  9
$DIMTFAC
 40
1.0
  9
$DIMGAP
 40
1.0
  9
$DIMJUST
 70
     0
  9
$DIMSD1
 70
     0
  9
$DIMSD2
 70
     0
  9
$DIMTOLJ
 70
     0
  9
$DIMTZIN
 70
     8
  9
$DIMALTZ
 70
     0
  9
$DIMALTTZ
 70
     0
  9
$DIMFIT
 70
     3
  9
$DIMUPT
 70
     0
  9
$DIMUNIT
 70
     2
  9
$DIMDEC
 70
     2
  9
$DIMTDEC
 70
     2
  9
$DIMALTU
 70
     2
  9
$DIMALTTD
 70
     3
  9
$DIMTXSTY
  7
STYLE1
  9
$DIMAUNIT
 70
     0
  9
$LUNITS
 70
     2
  9
$LUPREC
 70
     4
  9
$SKETCHINC
 40
0.1
  9
$FILLETRAD
 40
0.5
  9
$AUNITS
 70
     0
  9
$AUPREC
 70
     0
  9
$MENU
  1
.
  9
$ELEVATION
 40
0.0
  9
$PELEVATION
 40
0.0
  9
$THICKNESS
 40
0.0
  9
$LIMCHECK
 70
     0
  9
$CHAMFERA
 40
0.5
  9
$CHAMFERB
 40
0.5
  9
$CHAMFERC
 40
1.0
  9
$CHAMFERD
 40
0.0
  9
$SKPOLY
 70
     0
  9
$TDCREATE
 40
2455307.784525834
  9
$TDUPDATE
 40
2455307.784525845
  9
$TDINDWG
 40
0.0000000116
  9
$TDUSRTIMER
 40
0.0000000116
  9
$USRTIMER
 70
     1
  9
$ANGBASE
 50
0.0
  9
$ANGDIR
 70
     0
  9
$PDMODE
 70
     0
  9
$PDSIZE
 40
0.0
  9
$PLINEWID
 40
0.0
  9
$COORDS
 70
     1
  9
$SPLFRAME
 70
     0
  9
$SPLINETYPE
 70
     6
  9
$SPLINESEGS
 70
     8
  9
$ATTDIA
 70
     0
  9
$ATTREQ
 70
     1
  9
$HANDLING
 70
     1
  9
$HANDSEED
  5
4E5
  9
$SURFTAB1
 70
     6
  9
$SURFTAB2
 70
     6
  9
$SURFTYPE
 70
     6
  9
$SURFU
 70
     6
  9
$SURFV
 70
     6
  9
$UCSNAME
  2

  9
$UCSORG
 10
0.0
 20
0.0
 30
0.0
  9
$UCSXDIR
 10
1.0
 20
0.0
 30
0.0
  9
$UCSYDIR
 10
0.0
 20
1.0
 30
0.0
  9
$PUCSNAME
  2

  9
$PUCSORG
 10
0.0
 20
0.0
 30
0.0
  9
$PUCSXDIR
 10
1.0
 20
0.0
 30
0.0
  9
$PUCSYDIR
 10
0.0
 20
1.0
 30
0.0
  9
$USERI1
 70
     0
  9
$USERI2
 70
     0
  9
$USERI3
 70
     0
  9
$USERI4
 70
     0
  9
$USERI5
 70
     0
  9
$USERR1
 40
0.0
  9
$USERR2
 40
0.0
  9
$USERR3
 40
0.0
  9
$USERR4
 40
0.0
  9
$USERR5
 40
0.0
  9
$WORLDVIEW
 70
     1
  9
$SHADEDGE
 70
     3
  9
$SHADEDIF
 70
    70
  9
$TILEMODE
 70
     1
  9
$MAXACTVP
 70
    64
  9
$PINSBASE
 10
0.0
 20
0.0
 30
0.0
  9
$PLIMCHECK
 70
     0
  9
$PEXTMIN
 10
1.000000E+20
 20
1.000000E+20
 30
1.000000E+20
  9
$PEXTMAX
 10
-1.000000E+20
 20
-1.000000E+20
 30
-1.000000E+20
  9
$PLIMMIN
 10
0.0
 20
0.0
  9
$PLIMMAX
 10
12.0
 20
9.0
  9
$UNITMODE
 70
     0
  9
$VISRETAIN
 70
     1
  9
$PLINEGEN
 70
     0
  9
$PSLTSCALE
 70
     1
  9
$TREEDEPTH
 70
  3020
  9
$PICKSTYLE
 70
     1
  9
$CMLSTYLE
  2
STANDARD
  9
$CMLJUST
 70
     0
  9
$CMLSCALE
 40
1.0
  9
$PROXYGRAPHICS
 70
     1
  9
$MEASUREMENT
 70
     0
  0
ENDSEC
  0
SECTION
  2
CLASSES
  0
CLASS
  1
ACDBDICTIONARYWDFLT
  2
AcDbDictionaryWithDefault
  3
ObjectDBX Classes
 90
        0
280
     0
281
     0
  0
CLASS
  1
XRECORD
  2
AcDbXrecord
  3
AutoCAD 2000
 90
        0
280
     0
281
     0
  0
CLASS
  1
LWPOLYLINE
  2
AcDbPolyline
  3
AutoCAD 2000
 90
        0
280
     0
281
     1
  0
CLASS
  1
HATCH
  2
AcDbHatch
  3
AutoCAD 2000
 90
        0
280
     0
281
     1
  0
CLASS
  1
ACDBPLACEHOLDER
  2
AcDbPlaceHolder
  3
ObjectDBX Classes
 90
        0
280
     0
281
     0
  0
CLASS
  1
LAYOUT
  2
AcDbLayout
  3
ObjectDBX Classes
 90
        0
280
     0
281
     0
  0
ENDSEC
  0
SECTION
  2
TABLES
  0
TABLE
  2
VPORT
  5
8
330
0
100
AcDbSymbolTable
 70
     1
  0
VPORT
  5
29
330
8
100
AcDbSymbolTableRecord
100
AcDbViewportTableRecord
  2
*ACTIVE
 70
     0
 10
0.0
 20
0.0
 11
1.0
 21
1.0
 12
297.0
 22
210.0
 13
0.0
 23
0.0
 14
0.5
 24
0.5
 15
0.5
 25
0.5
 16
0.0
 26
0.0
 36
1.0
 17
0.0
 27
0.0
 37
0.0
 40
420.0
 41
1.414286
 42
50.0
 43
0.0
 44
0.0
 50
0.0
 51
0.0
 71
     0
 72
   100
 73
     1
 74
     3
 75
     0
 76
     0
 77
     0
 78
     0
  0
ENDTAB
  0
TABLE
  2
LTYPE
  5
5
330
0
100
AcDbSymbolTable
 70
     4
  0
LTYPE
  5
14
330
5
100
AcDbSymbolTableRecord
100
AcDbLinetypeTableRecord
  2
BYBLOCK
 70
     0
  3

 72
    65
 73
     0
 40
0.0
  0
LTYPE
  5
15
330
5
100
AcDbSymbolTableRecord
100
AcDbLinetypeTableRecord
  2
BYLAYER
 70
     0
  3

 72
    65
 73
     0
 40
0.0
  0
LTYPE
  5
16
330
5
100
AcDbSymbolTableRecord
100
AcDbLinetypeTableRecord
  2
CONTINUOUS
 70
     0
  3
--------------------
 72
    65
 73
     0
 40
0.0
  0
LTYPE
  5
2A
330
5
100
AcDbSymbolTableRecord
100
AcDbLinetypeTableRecord
  2
CENTER
 70
     0
  3
Center ____ _ ____ _ ____ _ ____ _ ____ _ ____
 72
    65
 73
     4
 40
13.0
 49
10.0
 74
     0
 49
-1.0
 74
     0
 49
1.0
 74
     0
 49
-1.0
 74
     0
  0
ENDTAB
  0
TABLE
  2
LAYER
  5
2
330
0
100
AcDbSymbolTable
 70
    21
  0
LAYER
  5
10
330
2
100
AcDbSymbolTableRecord
100
AcDbLayerTableRecord
  2
0
 70
     0
 62
     7
  6
CONTINUOUS
  0
LAYER
  5
2D
330
2
100
AcDbSymbolTableRecord
100
AcDbLayerTableRecord
  2
LAYERGROUP-1
 70
     0
 62
     3
  6
CONTINUOUS
  0
LAYER
  5
3D
330
2
100
AcDbSymbolTableRecord
100
AcDbLayerTableRecord
  2
}}ﾊﾊGG血CCТ
 70
     0
 62
     3
  6
CONTINUOUS
  0
LAYER
  5
A9
330
2
100
AcDbSymbolTableRecord
100
AcDbLayerTableRecord
  2
GR1-1
 70
     0
 62
     7
  6
CONTINUOUS
  0
LAYER
  5
3B1
330
2
100
AcDbSymbolTableRecord
100
AcDbLayerTableRecord
  2
0-1
 70
     0
 62
     7
  6
CONTINUOUS
  0
LAYER
  5
3DD
330
2
100
AcDbSymbolTableRecord
100
AcDbLayerTableRecord
  2
001-1
 70
     0
 62
     7
  6
CONTINUOUS
  0
ENDTAB
  0
TABLE
  2
STYLE
  5
3
330
0
100
AcDbSymbolTable
 70
     4
  0
STYLE
  5
11
330
3
100
AcDbSymbolTableRecord
100
AcDbTextStyleTableRecord
  2
STANDARD
 70
     0
 40
0.0
 41
1.0
 50
0.0
 71
     0
 42
0.2
  3
txt
  4

  0
STYLE
  5
3F
330
3
100
AcDbSymbolTableRecord
100
AcDbTextStyleTableRecord
  2
STYLE1
 70
     0
 40
0.0
 41
1.0
 50
0.0
 71
     0
 42
0.2
  3
MONOTXT.SHX
  4
extfont.shx
  0
STYLE
  5
40
330
3
100
AcDbSymbolTableRecord
100
AcDbTextStyleTableRecord
  2
FX_VECTOR
 70
     0
 40
0.0
 41
1.0
 50
0.0
 71
     0
 42
0.2
  3
MONOTXT.SHX
  4
BIGFONT.SHX
  0
ENDTAB
  0
TABLE
  2
VIEW
  5
6
330
0
100
AcDbSymbolTable
 70
     0
  0
ENDTAB
  0
TABLE
  2
UCS
  5
7
330
0
100
AcDbSymbolTable
 70
     0
  0
ENDTAB
  0
TABLE
  2
APPID
  5
9
330
0
100
AcDbSymbolTable
 70
     1
  0
APPID
  5
12
330
9
100
AcDbSymbolTableRecord
100
AcDbRegAppTableRecord
  2
ACAD
 70
     0
  0
ENDTAB
  0
TABLE
  2
DIMSTYLE
  5
A
330
0
100
AcDbSymbolTable
 70
     2
  0
DIMSTYLE
105
27
330
A
100
AcDbSymbolTableRecord
100
AcDbDimStyleTableRecord
  2
STANDARD
 70
     0
  3

  4

  5

  6

  7

 40
1.0
 41
0.18
 42
0.0625
 43
0.38
 44
0.18
 45
0.0
 46
0.0
 47
0.0
 48
0.0
140
0.18
141
0.09
142
0.0
143
25.4
144
1.0
145
0.0
146
1.0
147
0.09
 71
     0
 72
     0
 73
     1
 74
     1
 75
     0
 76
     0
 77
     0
 78
     0
170
     0
171
     2
172
     0
173
     0
174
     0
175
     0
176
     0
177
     0
178
     0
270
     2
271
     4
272
     4
273
     2
274
     2
340
11
275
     0
280
     0
281
     0
282
     0
283
     1
284
     0
285
     0
286
     0
287
     3
288
     0
  0
DIMSTYLE
105
A7
102
{ACAD_REACTORS
330
A8
330
B3
330
BD
330
C7
330
D1
330
DB
330
E5
330
EF
330
14C
330
156
330
160
330
169
330
27A
330
32E
330
4B6
102
}
330
A
100
AcDbSymbolTableRecord
100
AcDbDimStyleTableRecord
  2
FXDIMINFO
 70
     0
  3

  4

  5

  6
FXTIP_ARROW_S
  7
FXTIP_ARROW_E
 40
1.0
 41
4.0
 42
1.0
 43
10.0
 44
1.0
 45
0.0
 46
6.0
 47
0.0
 48
0.0
140
4.0
141
2.5
142
0.0
143
0.03937
144
1.0
145
0.0
146
1.0
147
1.0
 71
     0
 72
     0
 73
     0
 74
     0
 75
     0
 76
     0
 77
     1
 78
     8
170
     0
171
     3
172
     1
173
     1
174
     0
175
     0
176
     7
177
     7
178
     7
179
     2
270
     2
271
     2
272
     2
273
     2
274
     3
340
3F
275
     0
280
     0
281
     0
282
     0
283
     0
284
     8
285
     0
286
     0
287
     3
288
     0
  0
ENDTAB
  0
TABLE
  2
BLOCK_RECORD
  5
1
330
0
100
AcDbSymbolTable
 70
    42
  0
BLOCK_RECORD
  5
1F
330
1
100
AcDbSymbolTableRecord
100
AcDbBlockTableRecord
  2
*MODEL_SPACE
  0
BLOCK_RECORD
  5
1B
330
1
100
AcDbSymbolTableRecord
100
AcDbBlockTableRecord
  2
*PAPER_SPACE
  0
BLOCK_RECORD
  5
41
330
1
100
AcDbSymbolTableRecord
100
AcDbBlockTableRecord
  2
FXTIP_ARROW_S
  0
BLOCK_RECORD
  5
47
330
1
100
AcDbSymbolTableRecord
100
AcDbBlockTableRecord
  2
FXTIP_ARROW_E
  0
BLOCK_RECORD
  5
4D
330
1
100
AcDbSymbolTableRecord
100
AcDbBlockTableRecord
  2
FXTIP_BLACKDOT_S
  0
BLOCK_RECORD
  5
53
330
1
100
AcDbSymbolTableRecord
100
AcDbBlockTableRecord
  2
FXTIP_BLACKDOT_E
  0
BLOCK_RECORD
  5
59
330
1
100
AcDbSymbolTableRecord
100
AcDbBlockTableRecord
  2
FXTIP_TRIANGLE_S
  0
BLOCK_RECORD
  5
60
330
1
100
AcDbSymbolTableRecord
100
AcDbBlockTableRecord
  2
FXTIP_TRIANGLE_E
  0
BLOCK_RECORD
  5
67
330
1
100
AcDbSymbolTableRecord
100
AcDbBlockTableRecord
  2
FXTIP_ARCHITECT_S
  0
BLOCK_RECORD
  5
6D
330
1
100
AcDbSymbolTableRecord
100
AcDbBlockTableRecord
  2
FXTIP_ARCHITECT_E
  0
BLOCK_RECORD
  5
73
330
1
100
AcDbSymbolTableRecord
100
AcDbBlockTableRecord
  2
FXTIP_CIVIL_S
  0
BLOCK_RECORD
  5
79
330
1
100
AcDbSymbolTableRecord
100
AcDbBlockTableRecord
  2
FXTIP_CIVIL_E
  0
BLOCK_RECORD
  5
7F
330
1
100
AcDbSymbolTableRecord
100
AcDbBlockTableRecord
  2
FXTIP_WHITEDOT_S
  0
BLOCK_RECORD
  5
84
330
1
100
AcDbSymbolTableRecord
100
AcDbBlockTableRecord
  2
FXTIP_WHITEDOT_E
  0
BLOCK_RECORD
  5
89
330
1
100
AcDbSymbolTableRecord
100
AcDbBlockTableRecord
  2
FXTIP_UPARROW_S
  0
BLOCK_RECORD
  5
8E
330
1
100
AcDbSymbolTableRecord
100
AcDbBlockTableRecord
  2
FXTIP_UPARROW_E
  0
BLOCK_RECORD
  5
93
330
1
100
AcDbSymbolTableRecord
100
AcDbBlockTableRecord
  2
FXTIP_DOWNARROW_S
  0
BLOCK_RECORD
  5
98
330
1
100
AcDbSymbolTableRecord
100
AcDbBlockTableRecord
  2
FXTIP_DOWNARROW_E
  0
BLOCK_RECORD
  5
9D
330
1
100
AcDbSymbolTableRecord
100
AcDbBlockTableRecord
  2
FXTIP_BLACKTRIANGLE_S
  0
BLOCK_RECORD
  5
A2
330
1
100
AcDbSymbolTableRecord
100
AcDbBlockTableRecord
  2
FXTIP_BLACKTRIANGLE_E
  0
BLOCK_RECORD
  5
AA
330
1
100
AcDbSymbolTableRecord
100
AcDbBlockTableRecord
  2
*D19
  0
BLOCK_RECORD
  5
B4
330
1
100
AcDbSymbolTableRecord
100
AcDbBlockTableRecord
  2
*D20
  0
BLOCK_RECORD
  5
BE
330
1
100
AcDbSymbolTableRecord
100
AcDbBlockTableRecord
  2
*D21
  0
BLOCK_RECORD
  5
C8
330
1
100
AcDbSymbolTableRecord
100
AcDbBlockTableRecord
  2
*D22
  0
BLOCK_RECORD
  5
D2
330
1
100
AcDbSymbolTableRecord
100
AcDbBlockTableRecord
  2
*D23
  0
BLOCK_RECORD
  5
DC
330
1
100
AcDbSymbolTableRecord
100
AcDbBlockTableRecord
  2
*D24
  0
BLOCK_RECORD
  5
E6
330
1
100
AcDbSymbolTableRecord
100
AcDbBlockTableRecord
  2
*D25
  0
BLOCK_RECORD
  5
F0
330
1
100
AcDbSymbolTableRecord
100
AcDbBlockTableRecord
  2
*D26
  0
BLOCK_RECORD
  5
14D
330
1
100
AcDbSymbolTableRecord
100
AcDbBlockTableRecord
  2
*D27
  0
BLOCK_RECORD
  5
157
330
1
100
AcDbSymbolTableRecord
100
AcDbBlockTableRecord
  2
*D28
  0
BLOCK_RECORD
  5
161
330
1
100
AcDbSymbolTableRecord
100
AcDbBlockTableRecord
  2
*D29
  0
BLOCK_RECORD
  5
16A
330
1
100
AcDbSymbolTableRecord
100
AcDbBlockTableRecord
  2
*D30
  0
BLOCK_RECORD
  5
173
330
1
100
AcDbSymbolTableRecord
100
AcDbBlockTableRecord
  2
BLKF033
  0
BLOCK_RECORD
  5
17D
330
1
100
AcDbSymbolTableRecord
100
AcDbBlockTableRecord
  2
BLKF034
  0
BLOCK_RECORD
  5
187
330
1
100
AcDbSymbolTableRecord
100
AcDbBlockTableRecord
  2
BLKF035
  0
BLOCK_RECORD
  5
27B
330
1
100
AcDbSymbolTableRecord
100
AcDbBlockTableRecord
  2
*D34
  0
BLOCK_RECORD
  5
32F
330
1
100
AcDbSymbolTableRecord
100
AcDbBlockTableRecord
  2
*D35
  0
BLOCK_RECORD
  5
3A1
330
1
100
AcDbSymbolTableRecord
100
AcDbBlockTableRecord
  2
BLKF038
  0
BLOCK_RECORD
  5
3AD
330
1
100
AcDbSymbolTableRecord
100
AcDbBlockTableRecord
  2
BLKF039
  0
BLOCK_RECORD
  5
3B6
330
1
100
AcDbSymbolTableRecord
100
AcDbBlockTableRecord
  2
BLKF040
  0
BLOCK_RECORD
  5
3CF
330
1
100
AcDbSymbolTableRecord
100
AcDbBlockTableRecord
  2
BLKF041
  0
BLOCK_RECORD
  5
426
330
1
100
AcDbSymbolTableRecord
100
AcDbBlockTableRecord
  2
BLKF042
  0
BLOCK_RECORD
  5
4B7
330
1
100
AcDbSymbolTableRecord
100
AcDbBlockTableRecord
  2
*D41
  0
ENDTAB
  0
ENDSEC
  0
SECTION
  2
BLOCKS
  0
BLOCK
  5
20
330
1F
100
AcDbEntity
  8
0
100
AcDbBlockBegin
  2
*MODEL_SPACE
 70
     0
 71
     0
 10
0.0
 20
0.0
 30
0.0
  3
*MODEL_SPACE
  1

  0
ENDBLK
  5
21
330
1F
100
AcDbEntity
  8
0
100
AcDbBlockEnd
  0
BLOCK
  5
1C
330
1B
100
AcDbEntity
 67
     1
  8
0
100
AcDbBlockBegin
  2
*PAPER_SPACE
 70
     0
 71
     0
 10
0.0
 20
0.0
 30
0.0
  3
*PAPER_SPACE
  1

  0
ENDBLK
  5
1D
330
1B
100
AcDbEntity
 67
     1
  8
0
100
AcDbBlockEnd
  0
BLOCK
  5
42
330
41
100
AcDbEntity
  8
0
100
AcDbBlockBegin
  2
FXTIP_ARROW_S
 70
     0
 71
     0
 10
0.0
 20
0.0
 30
0.0
  3
FXTIP_ARROW_S
  1

  0
LINE
  5
44
330
41
100
AcDbEntity
  8
0
  6
CONTINUOUS
 62
     0
100
AcDbLine
 10
0.0
 20
0.0
 30
0.0
 11
-1.0
 21
0.0
 31
0.0
  0
LINE
  5
45
330
41
100
AcDbEntity
  8
0
  6
CONTINUOUS
 62
     0
100
AcDbLine
 10
0.0
 20
0.0
 30
0.0
 11
-0.965926
 21
-0.258819
 31
0.0
  0
LINE
  5
46
330
41
100
AcDbEntity
  8
0
  6
CONTINUOUS
 62
     0
100
AcDbLine
 10
0.0
 20
0.0
 30
0.0
 11
-0.965926
 21
0.258819
 31
0.0
  0
ENDBLK
  5
43
330
41
100
AcDbEntity
  8
0
100
AcDbBlockEnd
  0
BLOCK
  5
48
330
47
100
AcDbEntity
  8
0
100
AcDbBlockBegin
  2
FXTIP_ARROW_E
 70
     0
 71
     0
 10
0.0
 20
0.0
 30
0.0
  3
FXTIP_ARROW_E
  1

  0
LINE
  5
4A
330
47
100
AcDbEntity
  8
0
  6
CONTINUOUS
 62
     0
100
AcDbLine
 10
0.0
 20
0.0
 30
0.0
 11
-1.0
 21
0.0
 31
0.0
  0
LINE
  5
4B
330
47
100
AcDbEntity
  8
0
  6
CONTINUOUS
 62
     0
100
AcDbLine
 10
0.0
 20
0.0
 30
0.0
 11
-0.965926
 21
0.258819
 31
0.0
  0
LINE
  5
4C
330
47
100
AcDbEntity
  8
0
  6
CONTINUOUS
 62
     0
100
AcDbLine
 10
0.0
 20
0.0
 30
0.0
 11
-0.965926
 21
-0.258819
 31
0.0
  0
ENDBLK
  5
49
330
47
100
AcDbEntity
  8
0
100
AcDbBlockEnd
  0
BLOCK
  5
4E
330
4D
100
AcDbEntity
  8
0
100
AcDbBlockBegin
  2
FXTIP_BLACKDOT_S
 70
     0
 71
     0
 10
0.0
 20
0.0
 30
0.0
  3
FXTIP_BLACKDOT_S
  1

  0
LINE
  5
50
330
4D
100
AcDbEntity
  8
0
  6
CONTINUOUS
 62
     0
100
AcDbLine
 10
0.0
 20
0.0
 30
0.0
 11
-1.0
 21
0.0
 31
0.0
  0
LWPOLYLINE
  5
51
330
4D
100
AcDbEntity
  8
0
  6
CONTINUOUS
 62
     0
100
AcDbPolyline
 90
        2
 70
     1
 10
-0.25
 20
0.0
 40
0.5
 41
0.5
 42
1.0
 10
0.25
 20
0.0
 40
0.5
 41
0.5
 42
1.0
  0
CIRCLE
  5
52
330
4D
100
AcDbEntity
  8
0
  6
CONTINUOUS
 62
     0
100
AcDbCircle
 10
0.0
 20
0.0
 30
0.0
 40
0.5
  0
ENDBLK
  5
4F
330
4D
100
AcDbEntity
  8
0
100
AcDbBlockEnd
  0
BLOCK
  5
54
330
53
100
AcDbEntity
  8
0
100
AcDbBlockBegin
  2
FXTIP_BLACKDOT_E
 70
     0
 71
     0
 10
0.0
 20
0.0
 30
0.0
  3
FXTIP_BLACKDOT_E
  1

  0
LINE
  5
56
330
53
100
AcDbEntity
  8
0
  6
CONTINUOUS
 62
     0
100
AcDbLine
 10
0.0
 20
0.0
 30
0.0
 11
-1.0
 21
0.0
 31
0.0
  0
LWPOLYLINE
  5
57
330
53
100
AcDbEntity
  8
0
  6
CONTINUOUS
 62
     0
100
AcDbPolyline
 90
        2
 70
     1
 10
-0.25
 20
0.0
 40
0.5
 41
0.5
 42
1.0
 10
0.25
 20
0.0
 40
0.5
 41
0.5
 42
1.0
  0
CIRCLE
  5
58
330
53
100
AcDbEntity
  8
0
  6
CONTINUOUS
 62
     0
100
AcDbCircle
 10
0.0
 20
0.0
 30
0.0
 40
0.5
  0
ENDBLK
  5
55
330
53
100
AcDbEntity
  8
0
100
AcDbBlockEnd
  0
BLOCK
  5
5A
330
59
100
AcDbEntity
  8
0
100
AcDbBlockBegin
  2
FXTIP_TRIANGLE_S
 70
     0
 71
     0
 10
0.0
 20
0.0
 30
0.0
  3
FXTIP_TRIANGLE_S
  1

  0
LINE
  5
5C
330
59
100
AcDbEntity
  8
0
  6
CONTINUOUS
 62
     0
100
AcDbLine
 10
0.0
 20
0.0
 30
0.0
 11
-1.0
 21
0.0
 31
0.0
  0
LINE
  5
5D
330
59
100
AcDbEntity
  8
0
  6
CONTINUOUS
 62
     0
100
AcDbLine
 10
0.0
 20
0.0
 30
0.0
 11
-0.965926
 21
-0.258819
 31
0.0
  0
LINE
  5
5E
330
59
100
AcDbEntity
  8
0
  6
CONTINUOUS
 62
     0
100
AcDbLine
 10
0.0
 20
0.0
 30
0.0
 11
-0.965926
 21
0.258819
 31
0.0
  0
LINE
  5
5F
330
59
100
AcDbEntity
  8
0
  6
CONTINUOUS
 62
     0
100
AcDbLine
 10
-0.965926
 20
-0.258819
 30
0.0
 11
-0.965926
 21
0.258819
 31
0.0
  0
ENDBLK
  5
5B
330
59
100
AcDbEntity
  8
0
100
AcDbBlockEnd
  0
BLOCK
  5
61
330
60
100
AcDbEntity
  8
0
100
AcDbBlockBegin
  2
FXTIP_TRIANGLE_E
 70
     0
 71
     0
 10
0.0
 20
0.0
 30
0.0
  3
FXTIP_TRIANGLE_E
  1

  0
LINE
  5
63
330
60
100
AcDbEntity
  8
0
  6
CONTINUOUS
 62
     0
100
AcDbLine
 10
0.0
 20
0.0
 30
0.0
 11
-1.0
 21
0.0
 31
0.0
  0
LINE
  5
64
330
60
100
AcDbEntity
  8
0
  6
CONTINUOUS
 62
     0
100
AcDbLine
 10
0.0
 20
0.0
 30
0.0
 11
-0.965926
 21
0.258819
 31
0.0
  0
LINE
  5
65
330
60
100
AcDbEntity
  8
0
  6
CONTINUOUS
 62
     0
100
AcDbLine
 10
0.0
 20
0.0
 30
0.0
 11
-0.965926
 21
-0.258819
 31
0.0
  0
LINE
  5
66
330
60
100
AcDbEntity
  8
0
  6
CONTINUOUS
 62
     0
100
AcDbLine
 10
-0.965926
 20
0.258819
 30
0.0
 11
-0.965926
 21
-0.258819
 31
0.0
  0
ENDBLK
  5
62
330
60
100
AcDbEntity
  8
0
100
AcDbBlockEnd
  0
BLOCK
  5
68
330
67
100
AcDbEntity
  8
0
100
AcDbBlockBegin
  2
FXTIP_ARCHITECT_S
 70
     0
 71
     0
 10
0.0
 20
0.0
 30
0.0
  3
FXTIP_ARCHITECT_S
  1

  0
LINE
  5
6A
330
67
100
AcDbEntity
  8
0
  6
CONTINUOUS
 62
     0
100
AcDbLine
 10
0.0
 20
0.0
 30
0.0
 11
-1.0
 21
0.0
 31
0.0
  0
LINE
  5
6B
330
67
100
AcDbEntity
  8
0
  6
CONTINUOUS
 62
     0
100
AcDbLine
 10
0.0
 20
0.0
 30
0.0
 11
-0.707107
 21
-0.707107
 31
0.0
  0
LINE
  5
6C
330
67
100
AcDbEntity
  8
0
  6
CONTINUOUS
 62
     0
100
AcDbLine
 10
0.0
 20
0.0
 30
0.0
 11
0.707107
 21
0.707107
 31
0.0
  0
ENDBLK
  5
69
330
67
100
AcDbEntity
  8
0
100
AcDbBlockEnd
  0
BLOCK
  5
6E
330
6D
100
AcDbEntity
  8
0
100
AcDbBlockBegin
  2
FXTIP_ARCHITECT_E
 70
     0
 71
     0
 10
0.0
 20
0.0
 30
0.0
  3
FXTIP_ARCHITECT_E
  1

  0
LINE
  5
70
330
6D
100
AcDbEntity
  8
0
  6
CONTINUOUS
 62
     0
100
AcDbLine
 10
0.0
 20
0.0
 30
0.0
 11
-1.0
 21
0.0
 31
0.0
  0
LINE
  5
71
330
6D
100
AcDbEntity
  8
0
  6
CONTINUOUS
 62
     0
100
AcDbLine
 10
0.0
 20
0.0
 30
0.0
 11
0.707107
 21
0.707107
 31
0.0
  0
LINE
  5
72
330
6D
100
AcDbEntity
  8
0
  6
CONTINUOUS
 62
     0
100
AcDbLine
 10
0.0
 20
0.0
 30
0.0
 11
-0.707107
 21
-0.707107
 31
0.0
  0
ENDBLK
  5
6F
330
6D
100
AcDbEntity
  8
0
100
AcDbBlockEnd
  0
BLOCK
  5
74
330
73
100
AcDbEntity
  8
0
100
AcDbBlockBegin
  2
FXTIP_CIVIL_S
 70
     0
 71
     0
 10
0.0
 20
0.0
 30
0.0
  3
FXTIP_CIVIL_S
  1

  0
LINE
  5
76
330
73
100
AcDbEntity
  8
0
  6
CONTINUOUS
 62
     0
100
AcDbLine
 10
0.0
 20
0.0
 30
0.0
 11
-1.0
 21
0.0
 31
0.0
  0
LINE
  5
77
330
73
100
AcDbEntity
  8
0
  6
CONTINUOUS
 62
     0
100
AcDbLine
 10
0.0
 20
-0.0625
 30
0.0
 11
-1.0
 21
-0.0625
 31
0.0
  0
LINE
  5
78
330
73
100
AcDbEntity
  8
0
  6
CONTINUOUS
 62
     0
100
AcDbLine
 10
0.0
 20
-0.125
 30
0.0
 11
-1.0
 21
-0.125
 31
0.0
  0
ENDBLK
  5
75
330
73
100
AcDbEntity
  8
0
100
AcDbBlockEnd
  0
BLOCK
  5
7A
330
79
100
AcDbEntity
  8
0
100
AcDbBlockBegin
  2
FXTIP_CIVIL_E
 70
     0
 71
     0
 10
0.0
 20
0.0
 30
0.0
  3
FXTIP_CIVIL_E
  1

  0
LINE
  5
7C
330
79
100
AcDbEntity
  8
0
  6
CONTINUOUS
 62
     0
100
AcDbLine
 10
0.0
 20
0.0
 30
0.0
 11
-1.0
 21
0.0
 31
0.0
  0
LINE
  5
7D
330
79
100
AcDbEntity
  8
0
  6
CONTINUOUS
 62
     0
100
AcDbLine
 10
0.0
 20
0.0625
 30
0.0
 11
-1.0
 21
0.0625
 31
0.0
  0
LINE
  5
7E
330
79
100
AcDbEntity
  8
0
  6
CONTINUOUS
 62
     0
100
AcDbLine
 10
0.0
 20
0.125
 30
0.0
 11
-1.0
 21
0.125
 31
0.0
  0
ENDBLK
  5
7B
330
79
100
AcDbEntity
  8
0
100
AcDbBlockEnd
  0
BLOCK
  5
80
330
7F
100
AcDbEntity
  8
0
100
AcDbBlockBegin
  2
FXTIP_WHITEDOT_S
 70
     0
 71
     0
 10
0.0
 20
0.0
 30
0.0
  3
FXTIP_WHITEDOT_S
  1

  0
LINE
  5
82
330
7F
100
AcDbEntity
  8
0
  6
CONTINUOUS
 62
     0
100
AcDbLine
 10
0.0
 20
0.0
 30
0.0
 11
-1.0
 21
0.0
 31
0.0
  0
CIRCLE
  5
83
330
7F
100
AcDbEntity
  8
0
  6
CONTINUOUS
 62
     0
100
AcDbCircle
 10
0.0
 20
0.0
 30
0.0
 40
0.5
  0
ENDBLK
  5
81
330
7F
100
AcDbEntity
  8
0
100
AcDbBlockEnd
  0
BLOCK
  5
85
330
84
100
AcDbEntity
  8
0
100
AcDbBlockBegin
  2
FXTIP_WHITEDOT_E
 70
     0
 71
     0
 10
0.0
 20
0.0
 30
0.0
  3
FXTIP_WHITEDOT_E
  1

  0
LINE
  5
87
330
84
100
AcDbEntity
  8
0
  6
CONTINUOUS
 62
     0
100
AcDbLine
 10
0.0
 20
0.0
 30
0.0
 11
-1.0
 21
0.0
 31
0.0
  0
CIRCLE
  5
88
330
84
100
AcDbEntity
  8
0
  6
CONTINUOUS
 62
     0
100
AcDbCircle
 10
0.0
 20
0.0
 30
0.0
 40
0.5
  0
ENDBLK
  5
86
330
84
100
AcDbEntity
  8
0
100
AcDbBlockEnd
  0
BLOCK
  5
8A
330
89
100
AcDbEntity
  8
0
100
AcDbBlockBegin
  2
FXTIP_UPARROW_S
 70
     0
 71
     0
 10
0.0
 20
0.0
 30
0.0
  3
FXTIP_UPARROW_S
  1

  0
LINE
  5
8C
330
89
100
AcDbEntity
  8
0
  6
CONTINUOUS
 62
     0
100
AcDbLine
 10
0.0
 20
0.0
 30
0.0
 11
-1.0
 21
0.0
 31
0.0
  0
LINE
  5
8D
330
89
100
AcDbEntity
  8
0
  6
CONTINUOUS
 62
     0
100
AcDbLine
 10
0.0
 20
0.0
 30
0.0
 11
-0.965926
 21
-0.258819
 31
0.0
  0
ENDBLK
  5
8B
330
89
100
AcDbEntity
  8
0
100
AcDbBlockEnd
  0
BLOCK
  5
8F
330
8E
100
AcDbEntity
  8
0
100
AcDbBlockBegin
  2
FXTIP_UPARROW_E
 70
     0
 71
     0
 10
0.0
 20
0.0
 30
0.0
  3
FXTIP_UPARROW_E
  1

  0
LINE
  5
91
330
8E
100
AcDbEntity
  8
0
  6
CONTINUOUS
 62
     0
100
AcDbLine
 10
0.0
 20
0.0
 30
0.0
 11
-1.0
 21
0.0
 31
0.0
  0
LINE
  5
92
330
8E
100
AcDbEntity
  8
0
  6
CONTINUOUS
 62
     0
100
AcDbLine
 10
0.0
 20
0.0
 30
0.0
 11
-0.965926
 21
0.258819
 31
0.0
  0
ENDBLK
  5
90
330
8E
100
AcDbEntity
  8
0
100
AcDbBlockEnd
  0
BLOCK
  5
94
330
93
100
AcDbEntity
  8
0
100
AcDbBlockBegin
  2
FXTIP_DOWNARROW_S
 70
     0
 71
     0
 10
0.0
 20
0.0
 30
0.0
  3
FXTIP_DOWNARROW_S
  1

  0
LINE
  5
96
330
93
100
AcDbEntity
  8
0
  6
CONTINUOUS
 62
     0
100
AcDbLine
 10
0.0
 20
0.0
 30
0.0
 11
-1.0
 21
0.0
 31
0.0
  0
LINE
  5
97
330
93
100
AcDbEntity
  8
0
  6
CONTINUOUS
 62
     0
100
AcDbLine
 10
0.0
 20
0.0
 30
0.0
 11
-0.965926
 21
0.258819
 31
0.0
  0
ENDBLK
  5
95
330
93
100
AcDbEntity
  8
0
100
AcDbBlockEnd
  0
BLOCK
  5
99
330
98
100
AcDbEntity
  8
0
100
AcDbBlockBegin
  2
FXTIP_DOWNARROW_E
 70
     0
 71
     0
 10
0.0
 20
0.0
 30
0.0
  3
FXTIP_DOWNARROW_E
  1

  0
LINE
  5
9B
330
98
100
AcDbEntity
  8
0
  6
CONTINUOUS
 62
     0
100
AcDbLine
 10
0.0
 20
0.0
 30
0.0
 11
-1.0
 21
0.0
 31
0.0
  0
LINE
  5
9C
330
98
100
AcDbEntity
  8
0
  6
CONTINUOUS
 62
     0
100
AcDbLine
 10
0.0
 20
0.0
 30
0.0
 11
-0.965926
 21
-0.258819
 31
0.0
  0
ENDBLK
  5
9A
330
98
100
AcDbEntity
  8
0
100
AcDbBlockEnd
  0
BLOCK
  5
9E
330
9D
100
AcDbEntity
  8
0
100
AcDbBlockBegin
  2
FXTIP_BLACKTRIANGLE_S
 70
     0
 71
     0
 10
0.0
 20
0.0
 30
0.0
  3
FXTIP_BLACKTRIANGLE_S
  1

  0
LINE
  5
A0
330
9D
100
AcDbEntity
  8
0
  6
CONTINUOUS
 62
     0
100
AcDbLine
 10
0.0
 20
0.0
 30
0.0
 11
-1.0
 21
0.0
 31
0.0
  0
SOLID
  5
A1
330
9D
100
AcDbEntity
  8
0
  6
CONTINUOUS
 62
     0
100
AcDbTrace
 10
0.0
 20
0.0
 30
0.0
 11
-0.965926
 21
-0.258819
 31
0.0
 12
-0.965926
 22
0.258819
 32
0.0
 13
-0.965926
 23
0.258819
 33
0.0
  0
ENDBLK
  5
9F
330
9D
100
AcDbEntity
  8
0
100
AcDbBlockEnd
  0
BLOCK
  5
A3
330
A2
100
AcDbEntity
  8
0
100
AcDbBlockBegin
  2
FXTIP_BLACKTRIANGLE_E
 70
     0
 71
     0
 10
0.0
 20
0.0
 30
0.0
  3
FXTIP_BLACKTRIANGLE_E
  1

  0
LINE
  5
A5
330
A2
100
AcDbEntity
  8
0
  6
CONTINUOUS
 62
     0
100
AcDbLine
 10
0.0
 20
0.0
 30
0.0
 11
-1.0
 21
0.0
 31
0.0
  0
SOLID
  5
A6
330
A2
100
AcDbEntity
  8
0
  6
CONTINUOUS
 62
     0
100
AcDbTrace
 10
0.0
 20
0.0
 30
0.0
 11
-0.965926
 21
0.258819
 31
0.0
 12
-0.965926
 22
-0.258819
 32
0.0
 13
-0.965926
 23
-0.258819
 33
0.0
  0
ENDBLK
  5
A4
330
A2
100
AcDbEntity
  8
0
100
AcDbBlockEnd
  0
BLOCK
  5
AB
330
AA
100
AcDbEntity
  8
0
100
AcDbBlockBegin
  2
*D19
 70
     1
 71
     0
 10
0.0
 20
0.0
 30
0.0
  3
*D19
  1

  0
TEXT
  5
AD
330
AA
100
AcDbEntity
  8
GR1-1
  6
CONTINUOUS
 62
     7
100
AcDbText
 10
436.632931
 20
272.525357
 30
0.0
 40
4.740659
  1
4-11
 50
45.0
 41
0.405087
  7
FX_VECTOR
 72
     5
 11
441.611942
 21
277.504367
 31
0.0
100
AcDbText
  0
LINE
  5
AE
330
AA
100
AcDbEntity
  8
GR1-1
  6
CONTINUOUS
 62
     7
100
AcDbLine
 10
412.76884
 20
293.124454
 30
0.0
 11
436.370619
 21
269.522675
 31
0.0
  0
LINE
  5
AF
330
AA
100
AcDbEntity
  8
GR1-1
  6
CONTINUOUS
 62
     7
100
AcDbLine
 10
420.829857
 20
301.185471
 30
0.0
 11
444.431636
 21
277.583692
 31
0.0
  0
LINE
  5
B0
330
AA
100
AcDbEntity
  8
GR1-1
  6
CONTINUOUS
 62
     7
100
AcDbLine
 10
435.663512
 20
270.229781
 30
0.0
 11
443.724529
 21
278.290799
 31
0.0
  0
INSERT
  5
B1
330
AA
100
AcDbEntity
  8
GR1-1
  6
CONTINUOUS
 62
     7
100
AcDbBlockReference
  2
FXTIP_ARROW_S
 10
435.663512
 20
270.229781
 30
0.0
 41
4.0
 42
4.0
 50
225.0
  0
INSERT
  5
B2
330
AA
100
AcDbEntity
  8
GR1-1
  6
CONTINUOUS
 62
     7
100
AcDbBlockReference
  2
FXTIP_ARROW_E
 10
443.724529
 20
278.290799
 30
0.0
 41
4.0
 42
4.0
 50
45.0
  0
ENDBLK
  5
AC
330
AA
100
AcDbEntity
  8
0
100
AcDbBlockEnd
  0
BLOCK
  5
B5
330
B4
100
AcDbEntity
  8
0
100
AcDbBlockBegin
  2
*D20
 70
     1
 71
     0
 10
0.0
 20
0.0
 30
0.0
  3
*D20
  1

  0
TEXT
  5
B7
330
B4
100
AcDbEntity
  8
GR1-1
  6
CONTINUOUS
 62
     7
100
AcDbText
 10
371.592224
 20
245.294312
 30
0.0
 40
4.0
  1
102
 41
0.828947
  7
FX_VECTOR
 72
     5
 11
380.592224
 21
245.294312
 31
0.0
100
AcDbText
  0
LINE
  5
B8
330
B4
100
AcDbEntity
  8
GR1-1
  6
CONTINUOUS
 62
     7
100
AcDbLine
 10
325.092242
 20
295.862069
 30
0.0
 11
325.092242
 21
243.294319
 31
0.0
  0
LINE
  5
B9
330
B4
100
AcDbEntity
  8
GR1-1
  6
CONTINUOUS
 62
     7
100
AcDbLine
 10
427.092242
 20
295.862069
 30
0.0
 11
427.092242
 21
243.294319
 31
0.0
  0
LINE
  5
BA
330
B4
100
AcDbEntity
  8
GR1-1
  6
CONTINUOUS
 62
     7
100
AcDbLine
 10
325.092242
 20
244.294319
 30
0.0
 11
427.092242
 21
244.294319
 31
0.0
  0
INSERT
  5
BB
330
B4
100
AcDbEntity
  8
GR1-1
  6
CONTINUOUS
 62
     7
100
AcDbBlockReference
  2
FXTIP_ARROW_S
 10
325.092242
 20
244.294319
 30
0.0
 41
4.0
 42
4.0
 50
180.0
  0
INSERT
  5
BC
330
B4
100
AcDbEntity
  8
GR1-1
  6
CONTINUOUS
 62
     7
100
AcDbBlockReference
  2
FXTIP_ARROW_E
 10
427.092242
 20
244.294319
 30
0.0
 41
4.0
 42
4.0
 50
360.0
  0
ENDBLK
  5
B6
330
B4
100
AcDbEntity
  8
0
100
AcDbBlockEnd
  0
BLOCK
  5
BF
330
BE
100
AcDbEntity
  8
0
100
AcDbBlockBegin
  2
*D21
 70
     1
 71
     0
 10
0.0
 20
0.0
 30
0.0
  3
*D21
  1

  0
TEXT
  5
C1
330
BE
100
AcDbEntity
  8
GR1-1
  6
CONTINUOUS
 62
     7
100
AcDbText
 10
373.094269
 20
255.72229
 30
0.0
 40
4.0
  1
80
 41
0.851351
  7
FX_VECTOR
 72
     5
 11
379.094269
 21
255.72229
 31
0.0
100
AcDbText
  0
LINE
  5
C2
330
BE
100
AcDbEntity
  8
GR1-1
  6
CONTINUOUS
 62
     7
100
AcDbLine
 10
336.092242
 20
287.858004
 30
0.0
 11
336.092242
 21
253.722305
 31
0.0
  0
LINE
  5
C3
330
BE
100
AcDbEntity
  8
GR1-1
  6
CONTINUOUS
 62
     7
100
AcDbLine
 10
416.096306
 20
287.858004
 30
0.0
 11
416.096306
 21
253.722305
 31
0.0
  0
LINE
  5
C4
330
BE
100
AcDbEntity
  8
GR1-1
  6
CONTINUOUS
 62
     7
100
AcDbLine
 10
336.092242
 20
254.722305
 30
0.0
 11
416.096306
 21
254.722305
 31
0.0
  0
INSERT
  5
C5
330
BE
100
AcDbEntity
  8
GR1-1
  6
CONTINUOUS
 62
     7
100
AcDbBlockReference
  2
FXTIP_ARROW_S
 10
336.092242
 20
254.722305
 30
0.0
 41
4.0
 42
4.0
 50
180.0
  0
INSERT
  5
C6
330
BE
100
AcDbEntity
  8
GR1-1
  6
CONTINUOUS
 62
     7
100
AcDbBlockReference
  2
FXTIP_ARROW_E
 10
416.096306
 20
254.722305
 30
0.0
 41
4.0
 42
4.0
 50
360.0
  0
ENDBLK
  5
C0
330
BE
100
AcDbEntity
  8
0
100
AcDbBlockEnd
  0
BLOCK
  5
C9
330
C8
100
AcDbEntity
  8
0
100
AcDbBlockBegin
  2
*D22
 70
     1
 71
     0
 10
0.0
 20
0.0
 30
0.0
  3
*D22
  1

  0
TEXT
  5
CB
330
C8
100
AcDbEntity
  8
GR1-1
  6
CONTINUOUS
 62
     7
100
AcDbText
 10
373.094269
 20
266.522675
 30
0.0
 40
4.0
  1
75
 41
0.851351
  7
FX_VECTOR
 72
     5
 11
379.094269
 21
266.522675
 31
0.0
100
AcDbText
  0
LINE
  5
CC
330
C8
100
AcDbEntity
  8
GR1-1
  6
CONTINUOUS
 62
     7
100
AcDbLine
 10
338.592242
 20
290.358004
 30
0.0
 11
338.592242
 21
264.522719
 31
0.0
  0
LINE
  5
CD
330
C8
100
AcDbEntity
  8
GR1-1
  6
CONTINUOUS
 62
     7
100
AcDbLine
 10
413.596306
 20
290.358004
 30
0.0
 11
413.596306
 21
264.522719
 31
0.0
  0
LINE
  5
CE
330
C8
100
AcDbEntity
  8
GR1-1
  6
CONTINUOUS
 62
     7
100
AcDbLine
 10
338.592242
 20
265.522719
 30
0.0
 11
413.596306
 21
265.522719
 31
0.0
  0
INSERT
  5
CF
330
C8
100
AcDbEntity
  8
GR1-1
  6
CONTINUOUS
 62
     7
100
AcDbBlockReference
  2
FXTIP_ARROW_S
 10
338.592242
 20
265.522719
 30
0.0
 41
4.0
 42
4.0
 50
180.0
  0
INSERT
  5
D0
330
C8
100
AcDbEntity
  8
GR1-1
  6
CONTINUOUS
 62
     7
100
AcDbBlockReference
  2
FXTIP_ARROW_E
 10
413.596306
 20
265.522719
 30
0.0
 41
4.0
 42
4.0
 50
360.0
  0
ENDBLK
  5
CA
330
C8
100
AcDbEntity
  8
0
100
AcDbBlockEnd
  0
BLOCK
  5
D3
330
D2
100
AcDbEntity
  8
0
100
AcDbBlockBegin
  2
*D23
 70
     1
 71
     0
 10
0.0
 20
0.0
 30
0.0
  3
*D23
  1

  0
TEXT
  5
D5
330
D2
100
AcDbEntity
  8
GR1-1
  6
CONTINUOUS
 62
     7
100
AcDbText
 10
456.027771
 20
333.362061
 30
0.0
 40
4.0
  1
102
 50
90.0
 41
0.828947
  7
FX_VECTOR
 72
     5
 11
456.027771
 21
342.362061
 31
0.0
100
AcDbText
  0
LINE
  5
D6
330
D2
100
AcDbEntity
  8
GR1-1
  6
CONTINUOUS
 62
     7
100
AcDbLine
 10
418.092242
 20
286.862069
 30
0.0
 11
458.027775
 21
286.862069
 31
0.0
  0
LINE
  5
D7
330
D2
100
AcDbEntity
  8
GR1-1
  6
CONTINUOUS
 62
     7
100
AcDbLine
 10
418.092242
 20
388.862069
 30
0.0
 11
458.027775
 21
388.862069
 31
0.0
  0
LINE
  5
D8
330
D2
100
AcDbEntity
  8
GR1-1
  6
CONTINUOUS
 62
     7
100
AcDbLine
 10
457.027775
 20
286.862069
 30
0.0
 11
457.027775
 21
388.862069
 31
0.0
  0
INSERT
  5
D9
330
D2
100
AcDbEntity
  8
GR1-1
  6
CONTINUOUS
 62
     7
100
AcDbBlockReference
  2
FXTIP_ARROW_S
 10
457.027775
 20
286.862069
 30
0.0
 41
4.0
 42
4.0
 50
270.0
  0
INSERT
  5
DA
330
D2
100
AcDbEntity
  8
GR1-1
  6
CONTINUOUS
 62
     7
100
AcDbBlockReference
  2
FXTIP_ARROW_E
 10
457.027775
 20
388.862069
 30
0.0
 41
4.0
 42
4.0
 50
90.0
  0
ENDBLK
  5
D4
330
D2
100
AcDbEntity
  8
0
100
AcDbBlockEnd
  0
BLOCK
  5
DD
330
DC
100
AcDbEntity
  8
0
100
AcDbBlockBegin
  2
*D24
 70
     1
 71
     0
 10
0.0
 20
0.0
 30
0.0
  3
*D24
  1

  0
TEXT
  5
DF
330
DC
100
AcDbEntity
  8
GR1-1
  6
CONTINUOUS
 62
     7
100
AcDbText
 10
446.027771
 20
334.862061
 30
0.0
 40
4.0
  1
80
 50
90.0
 41
0.851351
  7
FX_VECTOR
 72
     5
 11
446.027771
 21
340.862061
 31
0.0
100
AcDbText
  0
LINE
  5
E0
330
DC
100
AcDbEntity
  8
GR1-1
  6
CONTINUOUS
 62
     7
100
AcDbLine
 10
426.096306
 20
297.862069
 30
0.0
 11
448.027775
 21
297.862069
 31
0.0
  0
LINE
  5
E1
330
DC
100
AcDbEntity
  8
GR1-1
  6
CONTINUOUS
 62
     7
100
AcDbLine
 10
426.096306
 20
377.862069
 30
0.0
 11
448.027775
 21
377.862069
 31
0.0
  0
LINE
  5
E2
330
DC
100
AcDbEntity
  8
GR1-1
  6
CONTINUOUS
 62
     7
100
AcDbLine
 10
447.027775
 20
297.862069
 30
0.0
 11
447.027775
 21
377.862069
 31
0.0
  0
INSERT
  5
E3
330
DC
100
AcDbEntity
  8
GR1-1
  6
CONTINUOUS
 62
     7
100
AcDbBlockReference
  2
FXTIP_ARROW_S
 10
447.027775
 20
297.862069
 30
0.0
 41
4.0
 42
4.0
 50
270.0
  0
INSERT
  5
E4
330
DC
100
AcDbEntity
  8
GR1-1
  6
CONTINUOUS
 62
     7
100
AcDbBlockReference
  2
FXTIP_ARROW_E
 10
447.027775
 20
377.862069
 30
0.0
 41
4.0
 42
4.0
 50
90.0
  0
ENDBLK
  5
DE
330
DC
100
AcDbEntity
  8
0
100
AcDbBlockEnd
  0
BLOCK
  5
E7
330
E6
100
AcDbEntity
  8
0
100
AcDbBlockBegin
  2
*D25
 70
     1
 71
     0
 10
0.0
 20
0.0
 30
0.0
  3
*D25
  1

  0
TEXT
  5
E9
330
E6
100
AcDbEntity
  8
GR1-1
  6
CONTINUOUS
 62
     7
100
AcDbText
 10
436.027771
 20
334.862061
 30
0.0
 40
4.0
  1
75
 50
90.0
 41
0.851351
  7
FX_VECTOR
 72
     5
 11
436.027771
 21
340.862061
 31
0.0
100
AcDbText
  0
LINE
  5
EA
330
E6
100
AcDbEntity
  8
GR1-1
  6
CONTINUOUS
 62
     7
100
AcDbLine
 10
423.596306
 20
375.362069
 30
0.0
 11
438.027775
 21
375.362069
 31
0.0
  0
LINE
  5
EB
330
E6
100
AcDbEntity
  8
GR1-1
  6
CONTINUOUS
 62
     7
100
AcDbLine
 10
423.596306
 20
300.362069
 30
0.0
 11
438.027775
 21
300.362069
 31
0.0
  0
LINE
  5
EC
330
E6
100
AcDbEntity
  8
GR1-1
  6
CONTINUOUS
 62
     7
100
AcDbLine
 10
437.027775
 20
375.362069
 30
0.0
 11
437.027775
 21
300.362069
 31
0.0
  0
INSERT
  5
ED
330
E6
100
AcDbEntity
  8
GR1-1
  6
CONTINUOUS
 62
     7
100
AcDbBlockReference
  2
FXTIP_ARROW_S
 10
437.027775
 20
375.362069
 30
0.0
 41
4.0
 42
4.0
 50
90.0
  0
INSERT
  5
EE
330
E6
100
AcDbEntity
  8
GR1-1
  6
CONTINUOUS
 62
     7
100
AcDbBlockReference
  2
FXTIP_ARROW_E
 10
437.027775
 20
300.362069
 30
0.0
 41
4.0
 42
4.0
 50
270.0
  0
ENDBLK
  5
E8
330
E6
100
AcDbEntity
  8
0
100
AcDbBlockEnd
  0
BLOCK
  5
F1
330
F0
100
AcDbEntity
  8
0
100
AcDbBlockBegin
  2
*D26
 70
     1
 71
     0
 10
0.0
 20
0.0
 30
0.0
  3
*D26
  1

  0
TEXT
  5
F3
330
F0
100
AcDbEntity
  8
GR1-1
  6
CONTINUOUS
 62
     7
100
AcDbText
 10
318.124725
 20
400.289246
 30
0.0
 40
4.0
  1
108
 41
0.828947
  7
FX_VECTOR
 72
     5
 11
327.124725
 21
400.289246
 31
0.0
100
AcDbText
  0
LINE
  5
F4
330
F0
100
AcDbEntity
  8
GR1-1
  6
CONTINUOUS
 62
     7
100
AcDbLine
 10
269.155179
 20
360.862069
 30
0.0
 11
269.155179
 21
400.289248
 31
0.0
  0
LINE
  5
F5
330
F0
100
AcDbEntity
  8
GR1-1
  6
CONTINUOUS
 62
     7
100
AcDbLine
 10
376.094274
 20
393.601675
 30
0.0
 11
376.094274
 21
400.289248
 31
0.0
  0
LINE
  5
F6
330
F0
100
AcDbEntity
  8
GR1-1
  6
CONTINUOUS
 62
     7
100
AcDbLine
 10
269.155179
 20
399.289248
 30
0.0
 11
376.094274
 21
399.289248
 31
0.0
  0
INSERT
  5
F7
330
F0
100
AcDbEntity
  8
GR1-1
  6
CONTINUOUS
 62
     7
100
AcDbBlockReference
  2
FXTIP_ARROW_S
 10
269.155179
 20
399.289248
 30
0.0
 41
4.0
 42
4.0
 50
180.0
  0
INSERT
  5
F8
330
F0
100
AcDbEntity
  8
GR1-1
  6
CONTINUOUS
 62
     7
100
AcDbBlockReference
  2
FXTIP_ARROW_E
 10
376.094274
 20
399.289248
 30
0.0
 41
4.0
 42
4.0
 50
360.0
  0
ENDBLK
  5
F2
330
F0
100
AcDbEntity
  8
0
100
AcDbBlockEnd
  0
BLOCK
  5
14E
330
14D
100
AcDbEntity
  8
0
100
AcDbBlockBegin
  2
*D27
 70
     1
 71
     0
 10
0.0
 20
0.0
 30
0.0
  3
*D27
  1

  0
TEXT
  5
150
330
14D
100
AcDbEntity
  8
GR1-1
  6
CONTINUOUS
 62
     7
100
AcDbText
 10
353.094269
 20
25.050442
 30
0.0
 40
4.0
  1
40
 41
0.851351
  7
FX_VECTOR
 72
     5
 11
359.094269
 21
25.050442
 31
0.0
100
AcDbText
  0
LINE
  5
151
330
14D
100
AcDbEntity
  8
GR1-1
  6
CONTINUOUS
 62
     7
100
AcDbLine
 10
336.094274
 20
40.076959
 30
0.0
 11
336.094274
 21
23.050443
 31
0.0
  0
LINE
  5
152
330
14D
100
AcDbEntity
  8
GR1-1
  6
CONTINUOUS
 62
     7
100
AcDbLine
 10
376.094274
 20
47.885596
 30
0.0
 11
376.094274
 21
23.050443
 31
0.0
  0
LINE
  5
153
330
14D
100
AcDbEntity
  8
GR1-1
  6
CONTINUOUS
 62
     7
100
AcDbLine
 10
336.094274
 20
24.050443
 30
0.0
 11
376.094274
 21
24.050443
 31
0.0
  0
INSERT
  5
154
330
14D
100
AcDbEntity
  8
GR1-1
  6
CONTINUOUS
 62
     7
100
AcDbBlockReference
  2
FXTIP_ARROW_S
 10
336.094274
 20
24.050443
 30
0.0
 41
4.0
 42
4.0
 50
180.0
  0
INSERT
  5
155
330
14D
100
AcDbEntity
  8
GR1-1
  6
CONTINUOUS
 62
     7
100
AcDbBlockReference
  2
FXTIP_ARROW_E
 10
376.094274
 20
24.050443
 30
0.0
 41
4.0
 42
4.0
 50
360.0
  0
ENDBLK
  5
14F
330
14D
100
AcDbEntity
  8
0
100
AcDbBlockEnd
  0
BLOCK
  5
158
330
157
100
AcDbEntity
  8
0
100
AcDbBlockBegin
  2
*D28
 70
     1
 71
     0
 10
0.0
 20
0.0
 30
0.0
  3
*D28
  1

  0
TEXT
  5
15A
330
157
100
AcDbEntity
  8
GR1-1
  6
CONTINUOUS
 62
     7
100
AcDbText
 10
445.820557
 20
134.462921
 30
0.0
 40
4.0
  1
190
 50
90.0
 41
0.828947
  7
FX_VECTOR
 72
     5
 11
445.820557
 21
143.462921
 31
0.0
100
AcDbText
  0
LINE
  5
15B
330
157
100
AcDbEntity
  8
GR1-1
  6
CONTINUOUS
 62
     7
100
AcDbLine
 10
428.094274
 20
233.962909
 30
0.0
 11
447.820582
 21
233.962909
 31
0.0
  0
LINE
  5
15C
330
157
100
AcDbEntity
  8
GR1-1
  6
CONTINUOUS
 62
     7
100
AcDbLine
 10
337.094274
 20
43.962909
 30
0.0
 11
447.820582
 21
43.962909
 31
0.0
  0
LINE
  5
15D
330
157
100
AcDbEntity
  8
GR1-1
  6
CONTINUOUS
 62
     7
100
AcDbLine
 10
446.820582
 20
233.962909
 30
0.0
 11
446.820582
 21
43.962909
 31
0.0
  0
INSERT
  5
15E
330
157
100
AcDbEntity
  8
GR1-1
  6
CONTINUOUS
 62
     7
100
AcDbBlockReference
  2
FXTIP_ARROW_S
 10
446.820582
 20
233.962909
 30
0.0
 41
4.0
 42
4.0
 50
90.0
  0
INSERT
  5
15F
330
157
100
AcDbEntity
  8
GR1-1
  6
CONTINUOUS
 62
     7
100
AcDbBlockReference
  2
FXTIP_ARROW_E
 10
446.820582
 20
43.962909
 30
0.0
 41
4.0
 42
4.0
 50
270.0
  0
ENDBLK
  5
159
330
157
100
AcDbEntity
  8
0
100
AcDbBlockEnd
  0
BLOCK
  5
162
330
161
100
AcDbEntity
  8
0
100
AcDbBlockBegin
  2
*D29
 70
     1
 71
     0
 10
0.0
 20
0.0
 30
0.0
  3
*D29
  1

  0
TEXT
  5
164
330
161
100
AcDbEntity
  8
GR1-1
  6
CONTINUOUS
 62
     7
100
AcDbText
 10
435.820557
 20
171.962921
 30
0.0
 40
4.0
  1
115
 50
90.0
 41
0.828947
  7
FX_VECTOR
 72
     5
 11
435.820557
 21
180.962921
 31
0.0
100
AcDbText
  0
LINE
  5
165
330
161
100
AcDbEntity
  8
GR1-1
  6
CONTINUOUS
 62
     7
100
AcDbLine
 10
416.331987
 20
118.962909
 30
0.0
 11
437.820582
 21
118.962909
 31
0.0
  0
LINE
  5
166
330
161
100
AcDbEntity
  8
GR1-1
  6
CONTINUOUS
 62
     7
100
AcDbLine
 10
436.820582
 20
233.962909
 30
0.0
 11
436.820582
 21
118.962909
 31
0.0
  0
INSERT
  5
167
330
161
100
AcDbEntity
  8
GR1-1
  6
CONTINUOUS
 62
     7
100
AcDbBlockReference
  2
FXTIP_ARROW_S
 10
436.820582
 20
233.962909
 30
0.0
 41
4.0
 42
4.0
 50
90.0
  0
INSERT
  5
168
330
161
100
AcDbEntity
  8
GR1-1
  6
CONTINUOUS
 62
     7
100
AcDbBlockReference
  2
FXTIP_ARROW_E
 10
436.820582
 20
118.962909
 30
0.0
 41
4.0
 42
4.0
 50
270.0
  0
ENDBLK
  5
163
330
161
100
AcDbEntity
  8
0
100
AcDbBlockEnd
  0
BLOCK
  5
16B
330
16A
100
AcDbEntity
  8
0
100
AcDbBlockBegin
  2
*D30
 70
     1
 71
     0
 10
0.0
 20
0.0
 30
0.0
  3
*D30
  1

  0
TEXT
  5
16D
330
16A
100
AcDbEntity
  8
GR1-1
  6
CONTINUOUS
 62
     7
100
AcDbText
 10
134.939484
 20
25.05044
 30
0.0
 40
4.0
  1
55
 41
0.851351
  7
FX_VECTOR
 72
     5
 11
140.939484
 21
25.05044
 31
0.0
100
AcDbText
  0
LINE
  5
16E
330
16A
100
AcDbEntity
  8
GR1-1
  6
CONTINUOUS
 62
     7
100
AcDbLine
 10
110.439475
 20
99.026219
 30
0.0
 11
110.439475
 21
23.050443
 31
0.0
  0
LINE
  5
16F
330
16A
100
AcDbEntity
  8
GR1-1
  6
CONTINUOUS
 62
     7
100
AcDbLine
 10
165.439475
 20
99.026219
 30
0.0
 11
165.439475
 21
23.050443
 31
0.0
  0
LINE
  5
170
330
16A
100
AcDbEntity
  8
GR1-1
  6
CONTINUOUS
 62
     7
100
AcDbLine
 10
110.439475
 20
24.050443
 30
0.0
 11
165.439475
 21
24.050443
 31
0.0
  0
INSERT
  5
171
330
16A
100
AcDbEntity
  8
GR1-1
  6
CONTINUOUS
 62
     7
100
AcDbBlockReference
  2
FXTIP_ARROW_S
 10
110.439475
 20
24.050443
 30
0.0
 41
4.0
 42
4.0
 50
180.0
  0
INSERT
  5
172
330
16A
100
AcDbEntity
  8
GR1-1
  6
CONTINUOUS
 62
     7
100
AcDbBlockReference
  2
FXTIP_ARROW_E
 10
165.439475
 20
24.050443
 30
0.0
 41
4.0
 42
4.0
 50
360.0
  0
ENDBLK
  5
16C
330
16A
100
AcDbEntity
  8
0
100
AcDbBlockEnd
  0
BLOCK
  5
174
330
173
100
AcDbEntity
  8
0
100
AcDbBlockBegin
  2
BLKF033
 70
     0
 71
     0
 10
0.0
 20
0.0
 30
0.0
  3
BLKF033
  1

  0
LINE
  5
177
330
173
100
AcDbEntity
  8
GR1-1
  6
CONTINUOUS
 62
     7
100
AcDbLine
 10
121.535059
 20
229.962909
 30
0.0
 11
123.989475
 21
227.508494
 31
0.0
  0
LINE
  5
178
330
173
100
AcDbEntity
  8
GR1-1
  6
CONTINUOUS
 62
     7
100
AcDbLine
 10
121.959324
 20
229.962909
 30
0.0
 11
123.989475
 21
227.932758
 31
0.0
  0
LINE
  5
179
330
173
100
AcDbEntity
  8
GR1-1
  6
CONTINUOUS
 62
     7
100
AcDbLine
 10
122.383588
 20
229.962909
 30
0.0
 11
123.989475
 21
228.357022
 31
0.0
  0
LINE
  5
17A
330
173
100
AcDbEntity
  8
GR1-1
  6
CONTINUOUS
 62
     7
100
AcDbLine
 10
122.807852
 20
229.962909
 30
0.0
 11
123.989475
 21
228.781286
 31
0.0
  0
LINE
  5
17B
330
173
100
AcDbEntity
  8
GR1-1
  6
CONTINUOUS
 62
     7
100
AcDbLine
 10
123.232116
 20
229.962909
 30
0.0
 11
123.989475
 21
229.20555
 31
0.0
  0
LINE
  5
17C
330
173
100
AcDbEntity
  8
GR1-1
  6
CONTINUOUS
 62
     7
100
AcDbLine
 10
123.65638
 20
229.962909
 30
0.0
 11
123.989475
 21
229.629814
 31
0.0
  0
ENDBLK
  5
175
330
173
100
AcDbEntity
  8
0
100
AcDbBlockEnd
  0
BLOCK
  5
17E
330
17D
100
AcDbEntity
  8
0
100
AcDbBlockBegin
  2
BLKF034
 70
     0
 71
     0
 10
0.0
 20
0.0
 30
0.0
  3
BLKF034
  1

  0
LINE
  5
181
330
17D
100
AcDbEntity
  8
GR1-1
  6
CONTINUOUS
 62
     7
100
AcDbLine
 10
154.343891
 20
229.962909
 30
0.0
 11
151.889475
 21
227.508494
 31
0.0
  0
LINE
  5
182
330
17D
100
AcDbEntity
  8
GR1-1
  6
CONTINUOUS
 62
     7
100
AcDbLine
 10
153.919627
 20
229.962909
 30
0.0
 11
151.889475
 21
227.932758
 31
0.0
  0
LINE
  5
183
330
17D
100
AcDbEntity
  8
GR1-1
  6
CONTINUOUS
 62
     7
100
AcDbLine
 10
153.495363
 20
229.962909
 30
0.0
 11
151.889475
 21
228.357022
 31
0.0
  0
LINE
  5
184
330
17D
100
AcDbEntity
  8
GR1-1
  6
CONTINUOUS
 62
     7
100
AcDbLine
 10
153.071098
 20
229.962909
 30
0.0
 11
151.889475
 21
228.781286
 31
0.0
  0
LINE
  5
185
330
17D
100
AcDbEntity
  8
GR1-1
  6
CONTINUOUS
 62
     7
100
AcDbLine
 10
152.646834
 20
229.962909
 30
0.0
 11
151.889475
 21
229.20555
 31
0.0
  0
LINE
  5
186
330
17D
100
AcDbEntity
  8
GR1-1
  6
CONTINUOUS
 62
     7
100
AcDbLine
 10
152.22257
 20
229.962909
 30
0.0
 11
151.889475
 21
229.629814
 31
0.0
  0
ENDBLK
  5
17F
330
17D
100
AcDbEntity
  8
0
100
AcDbBlockEnd
  0
BLOCK
  5
188
330
187
100
AcDbEntity
  8
0
100
AcDbBlockBegin
  2
BLKF035
 70
     0
 71
     0
 10
0.0
 20
0.0
 30
0.0
  3
BLKF035
  1

  0
LINE
  5
18B
330
187
100
AcDbEntity
  8
GR1-1
  6
CONTINUOUS
 62
     7
100
AcDbLine
 10
331.670628
 20
227.660584
 30
0.0
 11
332.604139
 21
228.594095
 31
0.0
  0
LINE
  5
18C
330
187
100
AcDbEntity
  8
GR1-1
  6
CONTINUOUS
 62
     7
100
AcDbLine
 10
331.44252
 20
227.856739
 30
0.0
 11
331.548689
 21
227.962909
 31
0.0
  0
LINE
  5
18D
330
187
100
AcDbEntity
  8
GR1-1
  6
CONTINUOUS
 62
     7
100
AcDbLine
 10
331.844274
 20
228.258494
 30
0.0
 11
333.548689
 21
229.962909
 31
0.0
  0
LINE
  5
18E
330
187
100
AcDbEntity
  8
GR1-1
  6
CONTINUOUS
 62
     7
100
AcDbLine
 10
331.844274
 20
228.682758
 30
0.0
 11
333.124425
 21
229.962909
 31
0.0
  0
LINE
  5
18F
330
187
100
AcDbEntity
  8
GR1-1
  6
CONTINUOUS
 62
     7
100
AcDbLine
 10
331.844274
 20
229.107022
 30
0.0
 11
332.700161
 21
229.962909
 31
0.0
  0
LINE
  5
190
330
187
100
AcDbEntity
  8
GR1-1
  6
CONTINUOUS
 62
     7
100
AcDbLine
 10
331.844274
 20
229.531286
 30
0.0
 11
332.275897
 21
229.962909
 31
0.0
  0
LINE
  5
191
330
187
100
AcDbEntity
  8
GR1-1
  6
CONTINUOUS
 62
     7
100
AcDbLine
 10
331.844274
 20
229.95555
 30
0.0
 11
331.851633
 21
229.962909
 31
0.0
  0
ENDBLK
  5
189
330
187
100
AcDbEntity
  8
0
100
AcDbBlockEnd
  0
BLOCK
  5
27C
330
27B
100
AcDbEntity
  8
0
100
AcDbBlockBegin
  2
*D34
 70
     1
 71
     0
 10
0.0
 20
0.0
 30
0.0
  3
*D34
  1

  0
TEXT
  5
27E
330
27B
100
AcDbEntity
  8
LAYERGROUP-1
  6
CONTINUOUS
 62
     7
100
AcDbText
 10
223.043793
 20
112.962906
 30
0.0
 40
4.0
  1
%%c150
 50
90.0
 41
0.828947
  7
FX_VECTOR
 72
     5
 11
223.043793
 21
124.962906
 31
0.0
100
AcDbText
  0
LINE
  5
27F
330
27B
100
AcDbEntity
  8
LAYERGROUP-1
  6
CONTINUOUS
 62
     7
100
AcDbLine
 10
224.043797
 20
43.962909
 30
0.0
 11
224.043797
 21
193.962909
 31
0.0
  0
INSERT
  5
280
330
27B
100
AcDbEntity
  8
LAYERGROUP-1
  6
CONTINUOUS
 62
     7
100
AcDbBlockReference
  2
FXTIP_ARROW_S
 10
224.043797
 20
43.962909
 30
0.0
 41
4.0
 42
4.0
 50
270.0
  0
INSERT
  5
281
330
27B
100
AcDbEntity
  8
LAYERGROUP-1
  6
CONTINUOUS
 62
     7
100
AcDbBlockReference
  2
FXTIP_ARROW_E
 10
224.043797
 20
193.962909
 30
0.0
 41
4.0
 42
4.0
 50
90.0
  0
LINE
  5
282
330
27B
100
AcDbEntity
  8
LAYERGROUP-1
  6
CONTINUOUS
 62
     7
100
AcDbLine
 10
138.939475
 20
43.962909
 30
0.0
 11
225.043797
 21
43.962909
 31
0.0
  0
LINE
  5
283
330
27B
100
AcDbEntity
  8
LAYERGROUP-1
  6
CONTINUOUS
 62
     7
100
AcDbLine
 10
138.939475
 20
193.962909
 30
0.0
 11
225.043797
 21
193.962909
 31
0.0
  0
ENDBLK
  5
27D
330
27B
100
AcDbEntity
  8
0
100
AcDbBlockEnd
  0
BLOCK
  5
330
330
32F
100
AcDbEntity
  8
0
100
AcDbBlockBegin
  2
*D35
 70
     1
 71
     0
 10
0.0
 20
0.0
 30
0.0
  3
*D35
  1

  0
TEXT
  5
332
330
32F
100
AcDbEntity
  8
LAYERGROUP-1
  6
CONTINUOUS
 62
     7
100
AcDbText
 10
261.584689
 20
305.313876
 30
0.0
 40
4.0
  1
102
 50
16.34856
 41
0.828947
  7
FX_VECTOR
 72
     5
 11
270.220792
 21
307.847196
 31
0.0
100
AcDbText
  0
LINE
  5
333
330
32F
100
AcDbEntity
  8
LAYERGROUP-1
  6
CONTINUOUS
 62
     7
100
AcDbLine
 10
278.192814
 20
309.143586
 30
0.0
 11
376.094274
 21
337.862069
 31
0.0
  0
INSERT
  5
334
330
32F
100
AcDbEntity
  8
LAYERGROUP-1
  6
CONTINUOUS
 62
     7
100
AcDbBlockReference
  2
FXTIP_ARROW_S
 10
278.192814
 20
309.143586
 30
0.0
 41
4.0
 42
4.0
 50
196.34856
  0
LINE
  5
335
330
32F
100
AcDbEntity
  8
LAYERGROUP-1
  6
CONTINUOUS
 62
     7
100
AcDbLine
 10
278.192814
 20
309.143586
 30
0.0
 11
254.175571
 21
302.098352
 31
0.0
  0
INSERT
  5
336
330
32F
100
AcDbEntity
  8
LAYERGROUP-1
  6
CONTINUOUS
 62
     7
100
AcDbBlockReference
  2
FXTIP_BLACKDOT_S
 10
278.192814
 20
309.143586
 30
0.0
 41
0.5
 42
0.5
 50
16.34856
  0
ENDBLK
  5
331
330
32F
100
AcDbEntity
  8
0
100
AcDbBlockEnd
  0
BLOCK
  5
3A2
330
3A1
100
AcDbEntity
  8
0
100
AcDbBlockBegin
  2
BLKF038
 70
     0
 71
     0
 10
0.0
 20
0.0
 30
0.0
  3
BLKF038
  1

  0
LINE
  5
3A5
330
3A1
100
AcDbEntity
  8
}}ﾊﾊGG血CCТ
  6
CONTINUOUS
 62
     7
100
AcDbLine
 10
10.0
 20
10.0
 30
0.0
 11
584.0
 21
10.0
 31
0.0
  0
LINE
  5
3A6
330
3A1
100
AcDbEntity
  8
}}ﾊﾊGG血CCТ
  6
CONTINUOUS
 62
     7
100
AcDbLine
 10
10.0
 20
10.0
 30
0.0
 11
10.0
 21
410.0
 31
0.0
  0
LINE
  5
3A7
330
3A1
100
AcDbEntity
  8
}}ﾊﾊGG血CCТ
  6
CONTINUOUS
 62
     7
100
AcDbLine
 10
10.0
 20
410.0
 30
0.0
 11
584.0
 21
410.0
 31
0.0
  0
LINE
  5
3A8
330
3A1
100
AcDbEntity
  8
}}ﾊﾊGG血CCТ
  6
CONTINUOUS
 62
     7
100
AcDbLine
 10
584.0
 20
410.0
 30
0.0
 11
584.0
 21
10.0
 31
0.0
  0
LINE
  5
3A9
330
3A1
100
AcDbEntity
  8
}}ﾊﾊGG血CCТ
  6
CONTINUOUS
 62
     7
100
AcDbLine
 10
327.0
 20
10.0
 30
0.0
 11
327.0
 21
20.0
 31
0.0
  0
TEXT
  5
3AA
330
3A1
100
AcDbEntity
  8
}}ﾊﾊGG血CCТ
  6
CONTINUOUS
 62
     7
100
AcDbText
 10
311.738831
 20
11.596879
 30
0.0
 40
6.648749
  1
品名
 41
1.083413
  7
FX_VECTOR
 72
     5
 11
323.058371
 21
11.596879
 31
0.0
100
AcDbText
  0
LINE
  5
3AB
330
3A1
100
AcDbEntity
  8
}}ﾊﾊGG血CCТ
  6
CONTINUOUS
 62
     7
100
AcDbLine
 10
407.0
 20
20.0
 30
0.0
 11
407.0
 21
10.0
 31
0.0
  0
LINE
  5
3AC
330
3A1
100
AcDbEntity
  8
}}ﾊﾊGG血CCТ
  6
CONTINUOUS
 62
     7
100
AcDbLine
 10
307.0
 20
20.0
 30
0.0
 11
584.0
 21
20.0
 31
0.0
  0
INSERT
  5
3B0
330
3A1
100
AcDbEntity
  8
0
100
AcDbBlockReference
  2
BLKF039
 10
0.0
 20
0.0
 30
0.0
  0
INSERT
  5
3B9
330
3A1
100
AcDbEntity
  8
0
100
AcDbBlockReference
  2
BLKF040
 10
0.0
 20
0.0
 30
0.0
  0
HATCH
  5
3C9
330
3A1
100
AcDbEntity
  8
GR1-1
  6
CONTINUOUS
 62
     7
100
AcDbHatch
 10
0.0
 20
0.0
 30
0.0
210
0.0
220
0.0
230
1.0
  2

 70
     0
 71
     1
 91
        2
 92
        0
 93
        4
 72
     1
 10
512.8018997861325
 20
17.91346152
 11
518.8018997861325
 21
17.91346152
 72
     1
 10
518.8018997861325
 20
17.91346152
 11
518.8018997861325
 21
11.91346152
 72
     1
 10
518.8018997861325
 20
11.91346152
 11
512.8018997861325
 21
11.91346152
 72
     1
 10
512.8018997861325
 20
11.91346152
 11
512.8018997861325
 21
17.91346152
 97
        0
 92
        0
 93
       15
 72
     1
 10
515.8018997861325
 20
17.76923076000002
 11
512.9461305461325
 21
14.91346152
 72
     1
 10
512.9461305461325
 20
14.91346152
 11
515.8018997861325
 21
12.05769228000001
 72
     1
 10
515.8018997861325
 20
12.05769228000001
 11
517.3595920661326
 21
13.61538462
 72
     1
 10
517.3595920661326
 20
13.61538462
 11
517.3595920661326
 21
12.98076924
 72
     1
 10
517.3595920661326
 20
12.98076924
 11
518.2249766861326
 21
12.98076924
 72
     1
 10
518.2249766861326
 20
12.98076924
 11
518.2249766861326
 21
15.00000000000001
 72
     1
 10
518.2249766861326
 20
15.00000000000001
 11
515.8018997861325
 21
15.00000000000001
 72
     1
 10
515.8018997861325
 20
15.00000000000001
 11
515.8018997861325
 21
14.13461538000001
 72
     1
 10
515.8018997861325
 20
14.13461538000001
 11
516.2461305461325
 21
14.13461538000001
 72
     1
 10
516.2461305461325
 20
14.13461538000001
 11
515.8018997861325
 21
13.69038462
 72
     1
 10
515.8018997861325
 20
13.69038462
 11
514.5788228861325
 21
14.91346152
 72
     1
 10
514.5788228861325
 20
14.91346152
 11
515.8018997861325
 21
16.13653842000003
 72
     1
 10
515.8018997861325
 20
16.13653842000003
 11
516.5922844061325
 21
15.3461538
 72
     1
 10
516.5922844061325
 20
15.3461538
 11
518.2249766861326
 21
15.3461538
 72
     1
 10
518.2249766861326
 20
15.3461538
 11
515.8018997861325
 21
17.76923076000002
 97
        0
 75
     0
 76
     0
 52
45.0
 41
0.05
 77
     0
 78
     1
 53
45.0
 43
0.0
 44
0.0
 45
-0.0353553390593274
 46
0.0353553390593274
 79
     0
 98
        0
  0
TEXT
  5
3CA
330
3A1
100
AcDbEntity
  8
}}ﾊﾊGG血CCТ
  6
CONTINUOUS
 62
     7
100
AcDbText
 10
523.225769
 20
11.461285
 30
0.0
 40
7.170908
  1
GOLD CASTER
 41
0.63978
  7
FX_VECTOR
 72
     5
 11
569.977636
 21
11.461285
 31
0.0
100
AcDbText
  0
LINE
  5
3CB
330
3A1
100
AcDbEntity
  8
}}ﾊﾊGG血CCТ
  6
CONTINUOUS
 62
     7
100
AcDbLine
 10
427.0
 20
10.0
 30
0.0
 11
427.0
 21
20.0
 31
0.0
  0
TEXT
  5
3CC
330
3A1
100
AcDbEntity
  8
}}ﾊﾊGG血CCТ
  6
CONTINUOUS
 62
     7
100
AcDbText
 10
411.738831
 20
11.596879
 30
0.0
 40
6.648749
  1
図番
 41
1.083413
  7
FX_VECTOR
 72
     5
 11
423.058371
 21
11.596879
 31
0.0
100
AcDbText
  0
LINE
  5
3CD
330
3A1
100
AcDbEntity
  8
}}ﾊﾊGG血CCТ
  6
CONTINUOUS
 62
     7
100
AcDbLine
 10
507.0
 20
20.0
 30
0.0
 11
507.0
 21
10.0
 31
0.0
  0
LINE
  5
3CE
330
3A1
100
AcDbEntity
  8
}}ﾊﾊGG血CCТ
  6
CONTINUOUS
 62
     7
100
AcDbLine
 10
307.0
 20
20.0
 30
0.0
 11
307.0
 21
10.0
 31
0.0
  0
ENDBLK
  5
3A3
330
3A1
100
AcDbEntity
  8
0
100
AcDbBlockEnd
  0
BLOCK
  5
3AE
330
3AD
100
AcDbEntity
  8
0
100
AcDbBlockBegin
  2
BLKF039
 70
     0
 71
     0
 10
0.0
 20
0.0
 30
0.0
  3
BLKF039
  1

  0
LINE
  5
3B2
330
3AD
100
AcDbEntity
  8
0-1
  6
CONTINUOUS
 62
     7
100
AcDbLine
 10
518.8019
 20
17.913462
 30
0.0
 11
512.8019
 21
17.913462
 31
0.0
  0
LINE
  5
3B3
330
3AD
100
AcDbEntity
  8
0-1
  6
CONTINUOUS
 62
     7
100
AcDbLine
 10
512.8019
 20
17.913462
 30
0.0
 11
512.8019
 21
11.913462
 31
0.0
  0
LINE
  5
3B4
330
3AD
100
AcDbEntity
  8
0-1
  6
CONTINUOUS
 62
     7
100
AcDbLine
 10
512.8019
 20
11.913462
 30
0.0
 11
518.8019
 21
11.913462
 31
0.0
  0
LINE
  5
3B5
330
3AD
100
AcDbEntity
  8
0-1
  6
CONTINUOUS
 62
     7
100
AcDbLine
 10
518.8019
 20
11.913462
 30
0.0
 11
518.8019
 21
17.913462
 31
0.0
  0
ENDBLK
  5
3AF
330
3AD
100
AcDbEntity
  8
0
100
AcDbBlockEnd
  0
BLOCK
  5
3B7
330
3B6
100
AcDbEntity
  8
0
100
AcDbBlockBegin
  2
BLKF040
 70
     0
 71
     0
 10
0.0
 20
0.0
 30
0.0
  3
BLKF040
  1

  0
LINE
  5
3BA
330
3B6
100
AcDbEntity
  8
0-1
  6
CONTINUOUS
 62
     7
100
AcDbLine
 10
518.224977
 20
15.346154
 30
0.0
 11
515.8019
 21
17.769231
 31
0.0
  0
LINE
  5
3BB
330
3B6
100
AcDbEntity
  8
0-1
  6
CONTINUOUS
 62
     7
100
AcDbLine
 10
515.8019
 20
17.769231
 30
0.0
 11
512.946131
 21
14.913462
 31
0.0
  0
LINE
  5
3BC
330
3B6
100
AcDbEntity
  8
0-1
  6
CONTINUOUS
 62
     7
100
AcDbLine
 10
512.946131
 20
14.913462
 30
0.0
 11
515.8019
 21
12.057692
 31
0.0
  0
LINE
  5
3BD
330
3B6
100
AcDbEntity
  8
0-1
  6
CONTINUOUS
 62
     7
100
AcDbLine
 10
515.8019
 20
12.057692
 30
0.0
 11
517.359592
 21
13.615385
 31
0.0
  0
LINE
  5
3BE
330
3B6
100
AcDbEntity
  8
0-1
  6
CONTINUOUS
 62
     7
100
AcDbLine
 10
517.359592
 20
13.615385
 30
0.0
 11
517.359592
 21
12.980769
 31
0.0
  0
LINE
  5
3BF
330
3B6
100
AcDbEntity
  8
0-1
  6
CONTINUOUS
 62
     7
100
AcDbLine
 10
517.359592
 20
12.980769
 30
0.0
 11
518.224977
 21
12.980769
 31
0.0
  0
LINE
  5
3C0
330
3B6
100
AcDbEntity
  8
0-1
  6
CONTINUOUS
 62
     7
100
AcDbLine
 10
518.224977
 20
12.980769
 30
0.0
 11
518.224977
 21
15.0
 31
0.0
  0
LINE
  5
3C1
330
3B6
100
AcDbEntity
  8
0-1
  6
CONTINUOUS
 62
     7
100
AcDbLine
 10
518.224977
 20
15.0
 30
0.0
 11
515.8019
 21
15.0
 31
0.0
  0
LINE
  5
3C2
330
3B6
100
AcDbEntity
  8
0-1
  6
CONTINUOUS
 62
     7
100
AcDbLine
 10
515.8019
 20
15.0
 30
0.0
 11
515.8019
 21
14.134615
 31
0.0
  0
LINE
  5
3C3
330
3B6
100
AcDbEntity
  8
0-1
  6
CONTINUOUS
 62
     7
100
AcDbLine
 10
515.8019
 20
14.134615
 30
0.0
 11
516.246131
 21
14.134615
 31
0.0
  0
LINE
  5
3C4
330
3B6
100
AcDbEntity
  8
0-1
  6
CONTINUOUS
 62
     7
100
AcDbLine
 10
516.246131
 20
14.134615
 30
0.0
 11
515.8019
 21
13.690385
 31
0.0
  0
LINE
  5
3C5
330
3B6
100
AcDbEntity
  8
0-1
  6
CONTINUOUS
 62
     7
100
AcDbLine
 10
515.8019
 20
13.690385
 30
0.0
 11
514.578823
 21
14.913462
 31
0.0
  0
LINE
  5
3C6
330
3B6
100
AcDbEntity
  8
0-1
  6
CONTINUOUS
 62
     7
100
AcDbLine
 10
514.578823
 20
14.913462
 30
0.0
 11
515.8019
 21
16.136538
 31
0.0
  0
LINE
  5
3C7
330
3B6
100
AcDbEntity
  8
0-1
  6
CONTINUOUS
 62
     7
100
AcDbLine
 10
515.8019
 20
16.136538
 30
0.0
 11
516.592284
 21
15.346154
 31
0.0
  0
LINE
  5
3C8
330
3B6
100
AcDbEntity
  8
0-1
  6
CONTINUOUS
 62
     7
100
AcDbLine
 10
516.592284
 20
15.346154
 30
0.0
 11
518.224977
 21
15.346154
 31
0.0
  0
ENDBLK
  5
3B8
330
3B6
100
AcDbEntity
  8
0
100
AcDbBlockEnd
  0
BLOCK
  5
3D0
330
3CF
100
AcDbEntity
  8
0
100
AcDbBlockBegin
  2
BLKF041
 70
     0
 71
     0
 10
0.0
 20
0.0
 30
0.0
  3
BLKF041
  1

  0
LINE
  5
3D3
330
3CF
100
AcDbEntity
  8
LAYERGROUP-1
  6
CONTINUOUS
 62
     3
100
AcDbLine
 10
118.939475
 20
179.062909
 30
0.0
 11
118.939475
 21
118.962909
 31
0.0
  0
LINE
  5
3D4
330
3CF
100
AcDbEntity
  8
GR1-1
  6
CONTINUOUS
 62
     3
100
AcDbLine
 10
119.91595
 20
179.462909
 30
0.0
 11
118.939475
 21
179.462909
 31
0.0
  0
LINE
  5
3D5
330
3CF
100
AcDbEntity
  8
LAYERGROUP-1
  6
CONTINUOUS
 62
     3
100
AcDbLine
 10
118.939475
 20
179.462909
 30
0.0
 11
118.939475
 21
179.062909
 31
0.0
  0
LINE
  5
3D6
330
3CF
100
AcDbEntity
  8
LAYERGROUP-1
  6
CONTINUOUS
 62
     3
100
AcDbLine
 10
118.939475
 20
145.476302
 30
0.0
 11
116.358567
 21
143.920844
 31
0.0
  0
LINE
  5
3D7
330
3CF
100
AcDbEntity
  8
LAYERGROUP-1
  6
CONTINUOUS
 62
     3
100
AcDbLine
 10
113.939475
 20
139.638448
 30
0.0
 11
113.939475
 21
118.962909
 31
0.0
  0
ARC
  5
3D8
330
3CF
100
AcDbEntity
  8
LAYERGROUP-1
  6
CONTINUOUS
 62
     3
100
AcDbCircle
 10
118.939475
 20
139.638448
 30
0.0
 40
5.0
100
AcDbArc
 50
121.076469
 51
180.0
  0
ARC
  5
3D9
330
3CF
100
AcDbEntity
  8
GR1-1
  6
CONTINUOUS
 62
     3
100
AcDbCircle
 10
137.939475
 20
143.962909
 30
0.0
 40
50.0
100
AcDbArc
 50
81.799099
 51
98.200901
  0
ARC
  5
3DA
330
3CF
100
AcDbEntity
  8
LAYERGROUP-1
  6
CONTINUOUS
 62
     3
100
AcDbCircle
 10
131.663117
 20
187.512965
 30
0.0
 40
6.0
100
AcDbArc
 50
98.200901
 51
158.0
  0
ARC
  5
3DB
330
3CF
100
AcDbEntity
  8
LAYERGROUP-1
  6
CONTINUOUS
 62
     3
100
AcDbCircle
 10
119.91595
 20
182.462909
 30
0.0
 40
3.0
100
AcDbArc
 50
270.0
 51
338.0
  0
LINE
  5
3DC
330
3CF
100
AcDbEntity
  8
LAYERGROUP-1
  6
CONTINUOUS
 62
     3
100
AcDbLine
 10
122.697501
 20
181.33909
 30
0.0
 11
126.100014
 21
189.760604
 31
0.0
  0
LINE
  5
3DE
330
3CF
100
AcDbEntity
  8
001-1
  6
CONTINUOUS
 62
     3
100
AcDbLine
 10
110.939475
 20
118.962909
 30
0.0
 11
110.939475
 21
128.462909
 31
0.0
  0
LINE
  5
3DF
330
3CF
100
AcDbEntity
  8
LAYERGROUP-1
  6
CONTINUOUS
 62
     3
100
AcDbLine
 10
110.939475
 20
128.462909
 30
0.0
 11
113.439475
 21
128.462909
 31
0.0
  0
ARC
  5
3E0
330
3CF
100
AcDbEntity
  8
LAYERGROUP-1
  6
CONTINUOUS
 62
     3
100
AcDbCircle
 10
113.439475
 20
128.962909
 30
0.0
 40
0.5
100
AcDbArc
 50
270.0
 51
360.0
  0
LINE
  5
3E1
330
3CF
100
AcDbEntity
  8
LAYERGROUP-1
  6
CONTINUOUS
 62
     3
100
AcDbLine
 10
156.939475
 20
179.062909
 30
0.0
 11
156.939475
 21
118.962909
 31
0.0
  0
LINE
  5
3E2
330
3CF
100
AcDbEntity
  8
GR1-1
  6
CONTINUOUS
 62
     3
100
AcDbLine
 10
155.963001
 20
179.462909
 30
0.0
 11
156.939475
 21
179.462909
 31
0.0
  0
LINE
  5
3E3
330
3CF
100
AcDbEntity
  8
LAYERGROUP-1
  6
CONTINUOUS
 62
     3
100
AcDbLine
 10
156.939475
 20
179.462909
 30
0.0
 11
156.939475
 21
179.062909
 31
0.0
  0
LINE
  5
3E4
330
3CF
100
AcDbEntity
  8
LAYERGROUP-1
  6
CONTINUOUS
 62
     3
100
AcDbLine
 10
156.939475
 20
145.476302
 30
0.0
 11
159.520383
 21
143.920844
 31
0.0
  0
LINE
  5
3E5
330
3CF
100
AcDbEntity
  8
LAYERGROUP-1
  6
CONTINUOUS
 62
     3
100
AcDbLine
 10
161.939475
 20
139.638448
 30
0.0
 11
161.939475
 21
118.962909
 31
0.0
  0
ARC
  5
3E6
330
3CF
100
AcDbEntity
  8
LAYERGROUP-1
  6
CONTINUOUS
 62
     3
100
AcDbCircle
 10
156.939475
 20
139.638448
 30
0.0
 40
5.0
100
AcDbArc
 50
0.0
 51
58.923531
  0
ARC
  5
3E7
330
3CF
100
AcDbEntity
  8
LAYERGROUP-1
  6
CONTINUOUS
 62
     3
100
AcDbCircle
 10
144.215833
 20
187.512965
 30
0.0
 40
6.0
100
AcDbArc
 50
22.0
 51
81.799099
  0
ARC
  5
3E8
330
3CF
100
AcDbEntity
  8
LAYERGROUP-1
  6
CONTINUOUS
 62
     3
100
AcDbCircle
 10
155.963001
 20
182.462909
 30
0.0
 40
3.0
100
AcDbArc
 50
202.0
 51
270.0
  0
LINE
  5
3E9
330
3CF
100
AcDbEntity
  8
LAYERGROUP-1
  6
CONTINUOUS
 62
     3
100
AcDbLine
 10
153.181449
 20
181.33909
 30
0.0
 11
149.778936
 21
189.760604
 31
0.0
  0
LINE
  5
3EA
330
3CF
100
AcDbEntity
  8
001-1
  6
CONTINUOUS
 62
     3
100
AcDbLine
 10
164.939475
 20
118.962909
 30
0.0
 11
164.939475
 21
128.462909
 31
0.0
  0
LINE
  5
3EB
330
3CF
100
AcDbEntity
  8
LAYERGROUP-1
  6
CONTINUOUS
 62
     3
100
AcDbLine
 10
164.939475
 20
128.462909
 30
0.0
 11
162.439475
 21
128.462909
 31
0.0
  0
ARC
  5
3EC
330
3CF
100
AcDbEntity
  8
LAYERGROUP-1
  6
CONTINUOUS
 62
     3
100
AcDbCircle
 10
162.439475
 20
128.962909
 30
0.0
 40
0.5
100
AcDbArc
 50
180.0
 51
270.0
  0
LINE
  5
3ED
330
3CF
100
AcDbEntity
  8
LAYERGROUP-1
  6
CONTINUOUS
 62
     3
100
AcDbLine
 10
118.939475
 20
58.862909
 30
0.0
 11
118.939475
 21
118.962909
 31
0.0
  0
LINE
  5
3EE
330
3CF
100
AcDbEntity
  8
GR1-1
  6
CONTINUOUS
 62
     3
100
AcDbLine
 10
119.91595
 20
58.462909
 30
0.0
 11
118.939475
 21
58.462909
 31
0.0
  0
LINE
  5
3EF
330
3CF
100
AcDbEntity
  8
LAYERGROUP-1
  6
CONTINUOUS
 62
     3
100
AcDbLine
 10
118.939475
 20
58.462909
 30
0.0
 11
118.939475
 21
58.862909
 31
0.0
  0
LINE
  5
3F0
330
3CF
100
AcDbEntity
  8
LAYERGROUP-1
  6
CONTINUOUS
 62
     3
100
AcDbLine
 10
118.939475
 20
92.449516
 30
0.0
 11
116.358567
 21
94.004974
 31
0.0
  0
LINE
  5
3F1
330
3CF
100
AcDbEntity
  8
LAYERGROUP-1
  6
CONTINUOUS
 62
     3
100
AcDbLine
 10
113.939475
 20
98.28737
 30
0.0
 11
113.939475
 21
118.962909
 31
0.0
  0
ARC
  5
3F2
330
3CF
100
AcDbEntity
  8
LAYERGROUP-1
  6
CONTINUOUS
 62
     3
100
AcDbCircle
 10
118.939475
 20
98.28737
 30
0.0
 40
5.0
100
AcDbArc
 50
180.0
 51
238.923531
  0
ARC
  5
3F3
330
3CF
100
AcDbEntity
  8
GR1-1
  6
CONTINUOUS
 62
     3
100
AcDbCircle
 10
137.939475
 20
93.962909
 30
0.0
 40
50.0
100
AcDbArc
 50
261.799099
 51
278.200901
  0
ARC
  5
3F4
330
3CF
100
AcDbEntity
  8
LAYERGROUP-1
  6
CONTINUOUS
 62
     3
100
AcDbCircle
 10
131.663117
 20
50.412854
 30
0.0
 40
6.0
100
AcDbArc
 50
202.0
 51
261.799099
  0
ARC
  5
3F5
330
3CF
100
AcDbEntity
  8
LAYERGROUP-1
  6
CONTINUOUS
 62
     3
100
AcDbCircle
 10
119.91595
 20
55.462909
 30
0.0
 40
3.0
100
AcDbArc
 50
22.0
 51
90.0
  0
LINE
  5
3F6
330
3CF
100
AcDbEntity
  8
LAYERGROUP-1
  6
CONTINUOUS
 62
     3
100
AcDbLine
 10
122.697501
 20
56.586729
 30
0.0
 11
126.100014
 21
48.165214
 31
0.0
  0
LINE
  5
3F7
330
3CF
100
AcDbEntity
  8
001-1
  6
CONTINUOUS
 62
     3
100
AcDbLine
 10
110.939475
 20
118.962909
 30
0.0
 11
110.939475
 21
109.462909
 31
0.0
  0
LINE
  5
3F8
330
3CF
100
AcDbEntity
  8
LAYERGROUP-1
  6
CONTINUOUS
 62
     3
100
AcDbLine
 10
110.939475
 20
109.462909
 30
0.0
 11
113.439475
 21
109.462909
 31
0.0
  0
ARC
  5
3F9
330
3CF
100
AcDbEntity
  8
LAYERGROUP-1
  6
CONTINUOUS
 62
     3
100
AcDbCircle
 10
113.439475
 20
108.962909
 30
0.0
 40
0.5
100
AcDbArc
 50
0.0
 51
90.0
  0
LINE
  5
3FA
330
3CF
100
AcDbEntity
  8
LAYERGROUP-1
  6
CONTINUOUS
 62
     3
100
AcDbLine
 10
156.939475
 20
58.862909
 30
0.0
 11
156.939475
 21
118.962909
 31
0.0
  0
LINE
  5
3FB
330
3CF
100
AcDbEntity
  8
GR1-1
  6
CONTINUOUS
 62
     3
100
AcDbLine
 10
155.963001
 20
58.462909
 30
0.0
 11
156.939475
 21
58.462909
 31
0.0
  0
LINE
  5
3FC
330
3CF
100
AcDbEntity
  8
LAYERGROUP-1
  6
CONTINUOUS
 62
     3
100
AcDbLine
 10
156.939475
 20
58.462909
 30
0.0
 11
156.939475
 21
58.862909
 31
0.0
  0
LINE
  5
3FD
330
3CF
100
AcDbEntity
  8
LAYERGROUP-1
  6
CONTINUOUS
 62
     3
100
AcDbLine
 10
156.939475
 20
92.449516
 30
0.0
 11
159.520383
 21
94.004974
 31
0.0
  0
LINE
  5
3FE
330
3CF
100
AcDbEntity
  8
LAYERGROUP-1
  6
CONTINUOUS
 62
     3
100
AcDbLine
 10
161.939475
 20
98.28737
 30
0.0
 11
161.939475
 21
118.962909
 31
0.0
  0
ARC
  5
3FF
330
3CF
100
AcDbEntity
  8
LAYERGROUP-1
  6
CONTINUOUS
 62
     3
100
AcDbCircle
 10
156.939475
 20
98.28737
 30
0.0
 40
5.0
100
AcDbArc
 50
301.076469
 51
360.0
  0
ARC
  5
400
330
3CF
100
AcDbEntity
  8
LAYERGROUP-1
  6
CONTINUOUS
 62
     3
100
AcDbCircle
 10
144.215833
 20
50.412854
 30
0.0
 40
6.0
100
AcDbArc
 50
278.200901
 51
338.0
  0
ARC
  5
401
330
3CF
100
AcDbEntity
  8
LAYERGROUP-1
  6
CONTINUOUS
 62
     3
100
AcDbCircle
 10
155.963001
 20
55.462909
 30
0.0
 40
3.0
100
AcDbArc
 50
90.0
 51
158.0
  0
LINE
  5
402
330
3CF
100
AcDbEntity
  8
LAYERGROUP-1
  6
CONTINUOUS
 62
     3
100
AcDbLine
 10
153.181449
 20
56.586729
 30
0.0
 11
149.778936
 21
48.165214
 31
0.0
  0
LINE
  5
403
330
3CF
100
AcDbEntity
  8
001-1
  6
CONTINUOUS
 62
     3
100
AcDbLine
 10
164.939475
 20
118.962909
 30
0.0
 11
164.939475
 21
109.462909
 31
0.0
  0
LINE
  5
404
330
3CF
100
AcDbEntity
  8
LAYERGROUP-1
  6
CONTINUOUS
 62
     3
100
AcDbLine
 10
164.939475
 20
109.462909
 30
0.0
 11
162.439475
 21
109.462909
 31
0.0
  0
ARC
  5
405
330
3CF
100
AcDbEntity
  8
LAYERGROUP-1
  6
CONTINUOUS
 62
     3
100
AcDbCircle
 10
162.439475
 20
108.962909
 30
0.0
 40
0.5
100
AcDbArc
 50
90.0
 51
180.0
  0
LINE
  5
406
330
3CF
100
AcDbEntity
  8
GR1-1
  6
CONTINUOUS
 62
     6
100
AcDbLine
 10
119.91595
 20
118.962909
 30
0.0
 11
119.91595
 21
179.462909
 31
0.0
  0
LINE
  5
407
330
3CF
100
AcDbEntity
  8
GR1-1
  6
CONTINUOUS
 62
     6
100
AcDbLine
 10
126.903095
 20
191.165661
 30
0.0
 11
126.897452
 21
118.962909
 31
0.0
  0
LINE
  5
408
330
3CF
100
AcDbEntity
  8
GR1-1
  6
CONTINUOUS
 62
     6
100
AcDbLine
 10
155.963001
 20
118.962909
 30
0.0
 11
155.963001
 21
179.462909
 31
0.0
  0
LINE
  5
409
330
3CF
100
AcDbEntity
  8
GR1-1
  6
CONTINUOUS
 62
     6
100
AcDbLine
 10
148.975856
 20
191.165661
 30
0.0
 11
148.981499
 21
118.962909
 31
0.0
  0
LINE
  5
40A
330
3CF
100
AcDbEntity
  8
GR1-1
  6
CONTINUOUS
 62
     6
100
AcDbLine
 10
119.91595
 20
118.962909
 30
0.0
 11
119.91595
 21
58.462909
 31
0.0
  0
LINE
  5
40B
330
3CF
100
AcDbEntity
  8
GR1-1
  6
CONTINUOUS
 62
     6
100
AcDbLine
 10
126.903095
 20
46.760158
 30
0.0
 11
126.897452
 21
118.962909
 31
0.0
  0
LINE
  5
40C
330
3CF
100
AcDbEntity
  8
GR1-1
  6
CONTINUOUS
 62
     6
100
AcDbLine
 10
155.963001
 20
118.962909
 30
0.0
 11
155.963001
 21
58.462909
 31
0.0
  0
LINE
  5
40D
330
3CF
100
AcDbEntity
  8
GR1-1
  6
CONTINUOUS
 62
     6
100
AcDbLine
 10
148.975856
 20
46.760158
 30
0.0
 11
148.981499
 21
118.962909
 31
0.0
  0
ENDBLK
  5
3D1
330
3CF
100
AcDbEntity
  8
0
100
AcDbBlockEnd
  0
BLOCK
  5
427
330
426
100
AcDbEntity
  8
0
100
AcDbBlockBegin
  2
BLKF042
 70
     0
 71
     0
 10
0.0
 20
0.0
 30
0.0
  3
BLKF042
  1

  0
LINE
  5
42A
330
426
100
AcDbEntity
  8
GR1-1
  6
CONTINUOUS
 62
     7
100
AcDbLine
 10
298.103035
 20
67.685302
 30
0.0
 11
297.677822
 21
67.601808
 31
0.0
  0
LINE
  5
42B
330
426
100
AcDbEntity
  8
GR1-1
  6
CONTINUOUS
 62
     7
100
AcDbLine
 10
298.357389
 20
67.514442
 30
0.0
 11
297.506962
 21
67.347454
 31
0.0
  0
LINE
  5
42C
330
426
100
AcDbEntity
  8
GR1-1
  6
CONTINUOUS
 62
     7
100
AcDbLine
 10
298.611743
 20
67.343583
 30
0.0
 11
297.336102
 21
67.093099
 31
0.0
  0
LINE
  5
42D
330
426
100
AcDbEntity
  8
GR1-1
  6
CONTINUOUS
 62
     7
100
AcDbLine
 10
298.866097
 20
67.172723
 30
0.0
 11
297.165243
 21
66.838745
 31
0.0
  0
LINE
  5
42E
330
426
100
AcDbEntity
  8
GR1-1
  6
CONTINUOUS
 62
     7
100
AcDbLine
 10
299.120452
 20
67.001864
 30
0.0
 11
297.653657
 21
66.713845
 31
0.0
  0
LINE
  5
42F
330
426
100
AcDbEntity
  8
GR1-1
  6
CONTINUOUS
 62
     7
100
AcDbLine
 10
297.252318
 20
66.635039
 30
0.0
 11
296.994383
 21
66.584391
 31
0.0
  0
LINE
  5
430
330
426
100
AcDbEntity
  8
GR1-1
  6
CONTINUOUS
 62
     7
100
AcDbLine
 10
299.374806
 20
66.831004
 30
0.0
 11
297.908011
 21
66.542986
 31
0.0
  0
LINE
  5
431
330
426
100
AcDbEntity
  8
GR1-1
  6
CONTINUOUS
 62
     7
100
AcDbLine
 10
297.081459
 20
66.380685
 30
0.0
 11
296.823523
 21
66.330037
 31
0.0
  0
LINE
  5
432
330
426
100
AcDbEntity
  8
GR1-1
  6
CONTINUOUS
 62
     7
100
AcDbLine
 10
299.62916
 20
66.660144
 30
0.0
 11
298.162365
 21
66.372126
 31
0.0
  0
LINE
  5
433
330
426
100
AcDbEntity
  8
GR1-1
  6
CONTINUOUS
 62
     7
100
AcDbLine
 10
296.910599
 20
66.126331
 30
0.0
 11
296.652664
 21
66.075683
 31
0.0
  0
LINE
  5
434
330
426
100
AcDbEntity
  8
GR1-1
  6
CONTINUOUS
 62
     7
100
AcDbLine
 10
299.883514
 20
66.489285
 30
0.0
 11
298.243097
 21
66.167174
 31
0.0
  0
LINE
  5
435
330
426
100
AcDbEntity
  8
GR1-1
  6
CONTINUOUS
 62
     7
100
AcDbLine
 10
296.73974
 20
65.871977
 30
0.0
 11
296.481804
 21
65.821329
 31
0.0
  0
LINE
  5
436
330
426
100
AcDbEntity
  8
GR1-1
  6
CONTINUOUS
 62
     7
100
AcDbLine
 10
300.137868
 20
66.318425
 30
0.0
 11
298.072237
 21
65.91282
 31
0.0
  0
LINE
  5
437
330
426
100
AcDbEntity
  8
GR1-1
  6
CONTINUOUS
 62
     7
100
AcDbLine
 10
296.56888
 20
65.617623
 30
0.0
 11
296.310945
 21
65.566975
 31
0.0
  0
LINE
  5
438
330
426
100
AcDbEntity
  8
GR1-1
  6
CONTINUOUS
 62
     7
100
AcDbLine
 10
300.392222
 20
66.147566
 30
0.0
 11
297.901378
 21
65.658466
 31
0.0
  0
LINE
  5
439
330
426
100
AcDbEntity
  8
GR1-1
  6
CONTINUOUS
 62
     7
100
AcDbLine
 10
296.39802
 20
65.363269
 30
0.0
 11
296.140085
 21
65.312621
 31
0.0
  0
LINE
  5
43A
330
426
100
AcDbEntity
  8
GR1-1
  6
CONTINUOUS
 62
     7
100
AcDbLine
 10
300.646576
 20
65.976706
 30
0.0
 11
297.854751
 21
65.428506
 31
0.0
  0
LINE
  5
43B
330
426
100
AcDbEntity
  8
GR1-1
  6
CONTINUOUS
 62
     7
100
AcDbLine
 10
296.227161
 20
65.108915
 30
0.0
 11
295.969225
 21
65.058267
 31
0.0
  0
LINE
  5
43C
330
426
100
AcDbEntity
  8
GR1-1
  6
CONTINUOUS
 62
     7
100
AcDbLine
 10
300.90093
 20
65.805846
 30
0.0
 11
300.475716
 21
65.722352
 31
0.0
  0
LINE
  5
43D
330
426
100
AcDbEntity
  8
GR1-1
  6
CONTINUOUS
 62
     7
100
AcDbLine
 10
296.390858
 20
64.920254
 30
0.0
 11
295.798366
 21
64.803913
 31
0.0
  0
LINE
  5
43E
330
426
100
AcDbEntity
  8
GR1-1
  6
CONTINUOUS
 62
     7
100
AcDbLine
 10
301.155284
 20
65.634987
 30
0.0
 11
300.517464
 21
65.509745
 31
0.0
  0
LINE
  5
43F
330
426
100
AcDbEntity
  8
GR1-1
  6
CONTINUOUS
 62
     7
100
AcDbLine
 10
296.645212
 20
64.749394
 30
0.0
 11
295.627506
 21
64.549559
 31
0.0
  0
LINE
  5
440
330
426
100
AcDbEntity
  8
GR1-1
  6
CONTINUOUS
 62
     7
100
AcDbLine
 10
301.409638
 20
65.464127
 30
0.0
 11
300.559211
 21
65.297138
 31
0.0
  0
LINE
  5
441
330
426
100
AcDbEntity
  8
GR1-1
  6
CONTINUOUS
 62
     7
100
AcDbLine
 10
296.899566
 20
64.578535
 30
0.0
 11
296.448559
 21
64.489975
 31
0.0
  0
LINE
  5
442
330
426
100
AcDbEntity
  8
GR1-1
  6
CONTINUOUS
 62
     7
100
AcDbLine
 10
296.307074
 20
64.462194
 30
0.0
 11
295.456647
 21
64.295205
 31
0.0
  0
LINE
  5
443
330
426
100
AcDbEntity
  8
GR1-1
  6
CONTINUOUS
 62
     7
100
AcDbLine
 10
301.663992
 20
65.293267
 30
0.0
 11
300.600958
 21
65.084531
 31
0.0
  0
LINE
  5
444
330
426
100
AcDbEntity
  8
GR1-1
  6
CONTINUOUS
 62
     7
100
AcDbLine
 10
297.15392
 20
64.407675
 30
0.0
 11
296.702913
 21
64.319116
 31
0.0
  0
LINE
  5
445
330
426
100
AcDbEntity
  8
GR1-1
  6
CONTINUOUS
 62
     7
100
AcDbLine
 10
296.348821
 20
64.249587
 30
0.0
 11
295.285787
 21
64.04085
 31
0.0
  0
LINE
  5
446
330
426
100
AcDbEntity
  8
GR1-1
  6
CONTINUOUS
 62
     7
100
AcDbLine
 10
301.918346
 20
65.122408
 30
0.0
 11
300.642705
 21
64.871924
 31
0.0
  0
LINE
  5
447
330
426
100
AcDbEntity
  8
GR1-1
  6
CONTINUOUS
 62
     7
100
AcDbLine
 10
297.408274
 20
64.236815
 30
0.0
 11
296.957267
 21
64.148256
 31
0.0
  0
LINE
  5
448
330
426
100
AcDbEntity
  8
GR1-1
  6
CONTINUOUS
 62
     7
100
AcDbLine
 10
296.390568
 20
64.03698
 30
0.0
 11
295.114927
 21
63.786496
 31
0.0
  0
LINE
  5
449
330
426
100
AcDbEntity
  8
GR1-1
  6
CONTINUOUS
 62
     7
100
AcDbLine
 10
302.1727
 20
64.951548
 30
0.0
 11
300.684453
 21
64.659318
 31
0.0
  0
LINE
  5
44A
330
426
100
AcDbEntity
  8
GR1-1
  6
CONTINUOUS
 62
     7
100
AcDbLine
 10
299.621418
 20
64.450581
 30
0.0
 11
298.41659
 21
64.214003
 31
0.0
  0
LINE
  5
44B
330
426
100
AcDbEntity
  8
GR1-1
  6
CONTINUOUS
 62
     7
100
AcDbLine
 10
297.662628
 20
64.065956
 30
0.0
 11
297.211621
 21
63.977396
 31
0.0
  0
LINE
  5
44C
330
426
100
AcDbEntity
  8
GR1-1
  6
CONTINUOUS
 62
     7
100
AcDbLine
 10
296.432316
 20
63.824373
 30
0.0
 11
294.944068
 21
63.532142
 31
0.0
  0
LINE
  5
44D
330
426
100
AcDbEntity
  8
GR1-1
  6
CONTINUOUS
 62
     7
100
AcDbLine
 10
302.427055
 20
64.780689
 30
0.0
 11
300.7262
 21
64.446711
 31
0.0
  0
LINE
  5
44E
330
426
100
AcDbEntity
  8
GR1-1
  6
CONTINUOUS
 62
     7
100
AcDbLine
 10
299.663166
 20
64.237975
 30
0.0
 11
298.668661
 21
64.042695
 31
0.0
  0
LINE
  5
44F
330
426
100
AcDbEntity
  8
GR1-1
  6
CONTINUOUS
 62
     7
100
AcDbLine
 10
297.916982
 20
63.895096
 30
0.0
 11
297.465975
 21
63.806537
 31
0.0
  0
LINE
  5
450
330
426
100
AcDbEntity
  8
GR1-1
  6
CONTINUOUS
 62
     7
100
AcDbLine
 10
296.474063
 20
63.611766
 30
0.0
 11
294.773208
 21
63.277788
 31
0.0
  0
LINE
  5
451
330
426
100
AcDbEntity
  8
GR1-1
  6
CONTINUOUS
 62
     7
100
AcDbLine
 10
302.681409
 20
64.609829
 30
0.0
 11
300.767947
 21
64.234104
 31
0.0
  0
LINE
  5
452
330
426
100
AcDbEntity
  8
GR1-1
  6
CONTINUOUS
 62
     7
100
AcDbLine
 10
299.704913
 20
64.025368
 30
0.0
 11
298.923015
 21
63.871835
 31
0.0
  0
LINE
  5
453
330
426
100
AcDbEntity
  8
GR1-1
  6
CONTINUOUS
 62
     7
100
AcDbLine
 10
298.171336
 20
63.724236
 30
0.0
 11
297.578844
 21
63.607895
 31
0.0
  0
LINE
  5
454
330
426
100
AcDbEntity
  8
GR1-1
  6
CONTINUOUS
 62
     7
100
AcDbLine
 10
296.51581
 20
63.399159
 30
0.0
 11
294.602349
 21
63.023434
 31
0.0
  0
LINE
  5
455
330
426
100
AcDbEntity
  8
GR1-1
  6
CONTINUOUS
 62
     7
100
AcDbLine
 10
302.935763
 20
64.438969
 30
0.0
 11
300.809694
 21
64.021497
 31
0.0
  0
LINE
  5
456
330
426
100
AcDbEntity
  8
GR1-1
  6
CONTINUOUS
 62
     7
100
AcDbLine
 10
299.74666
 20
63.812761
 30
0.0
 11
298.941561
 21
63.654673
 31
0.0
  0
LINE
  5
457
330
426
100
AcDbEntity
  8
GR1-1
  6
CONTINUOUS
 62
     7
100
AcDbLine
 10
298.42569
 20
63.553377
 30
0.0
 11
297.620592
 21
63.395289
 31
0.0
  0
LINE
  5
458
330
426
100
AcDbEntity
  8
GR1-1
  6
CONTINUOUS
 62
     7
100
AcDbLine
 10
296.557557
 20
63.186552
 30
0.0
 11
294.431489
 21
62.76908
 31
0.0
  0
LINE
  5
459
330
426
100
AcDbEntity
  8
GR1-1
  6
CONTINUOUS
 62
     7
100
AcDbLine
 10
303.190117
 20
64.26811
 30
0.0
 11
300.851442
 21
63.80889
 31
0.0
  0
LINE
  5
45A
330
426
100
AcDbEntity
  8
GR1-1
  6
CONTINUOUS
 62
     7
100
AcDbLine
 10
299.788407
 20
63.600154
 30
0.0
 11
298.770702
 21
63.400319
 31
0.0
  0
LINE
  5
45B
330
426
100
AcDbEntity
  8
GR1-1
  6
CONTINUOUS
 62
     7
100
AcDbLine
 10
298.680045
 20
63.382517
 30
0.0
 11
297.662339
 21
63.182682
 31
0.0
  0
LINE
  5
45C
330
426
100
AcDbEntity
  8
GR1-1
  6
CONTINUOUS
 62
     7
100
AcDbLine
 10
296.599305
 20
62.973946
 30
0.0
 11
294.260629
 21
62.514726
 31
0.0
  0
LINE
  5
45D
330
426
100
AcDbEntity
  8
GR1-1
  6
CONTINUOUS
 62
     7
100
AcDbLine
 10
303.109914
 20
64.031557
 30
0.0
 11
300.893189
 21
63.596283
 31
0.0
  0
LINE
  5
45E
330
426
100
AcDbEntity
  8
GR1-1
  6
CONTINUOUS
 62
     7
100
AcDbLine
 10
299.830155
 20
63.387547
 30
0.0
 11
297.704086
 21
62.970075
 31
0.0
  0
LINE
  5
45F
330
426
100
AcDbEntity
  8
GR1-1
  6
CONTINUOUS
 62
     7
100
AcDbLine
 10
296.641052
 20
62.761339
 30
0.0
 11
294.424326
 21
62.326065
 31
0.0
  0
LINE
  5
460
330
426
100
AcDbEntity
  8
GR1-1
  6
CONTINUOUS
 62
     7
100
AcDbLine
 10
302.939055
 20
63.777203
 30
0.0
 11
300.934936
 21
63.383677
 31
0.0
  0
LINE
  5
461
330
426
100
AcDbEntity
  8
GR1-1
  6
CONTINUOUS
 62
     7
100
AcDbLine
 10
299.871902
 20
63.17494
 30
0.0
 11
297.745833
 21
62.757468
 31
0.0
  0
LINE
  5
462
330
426
100
AcDbEntity
  8
GR1-1
  6
CONTINUOUS
 62
     7
100
AcDbLine
 10
296.682799
 20
62.548732
 30
0.0
 11
294.67868
 21
62.155205
 31
0.0
  0
LINE
  5
463
330
426
100
AcDbEntity
  8
GR1-1
  6
CONTINUOUS
 62
     7
100
AcDbLine
 10
302.768195
 20
63.522849
 30
0.0
 11
300.976683
 21
63.17107
 31
0.0
  0
LINE
  5
464
330
426
100
AcDbEntity
  8
GR1-1
  6
CONTINUOUS
 62
     7
100
AcDbLine
 10
299.913649
 20
62.962334
 30
0.0
 11
297.787581
 21
62.544861
 31
0.0
  0
LINE
  5
465
330
426
100
AcDbEntity
  8
GR1-1
  6
CONTINUOUS
 62
     7
100
AcDbLine
 10
296.724546
 20
62.336125
 30
0.0
 11
294.933034
 21
61.984346
 31
0.0
  0
LINE
  5
466
330
426
100
AcDbEntity
  8
GR1-1
  6
CONTINUOUS
 62
     7
100
AcDbLine
 10
302.597335
 20
63.268495
 30
0.0
 11
301.01843
 21
62.958463
 31
0.0
  0
LINE
  5
467
330
426
100
AcDbEntity
  8
GR1-1
  6
CONTINUOUS
 62
     7
100
AcDbLine
 10
299.955396
 20
62.749727
 30
0.0
 11
297.829328
 21
62.332254
 31
0.0
  0
LINE
  5
468
330
426
100
AcDbEntity
  8
GR1-1
  6
CONTINUOUS
 62
     7
100
AcDbLine
 10
296.766294
 20
62.123518
 30
0.0
 11
295.187389
 21
61.813486
 31
0.0
  0
LINE
  5
469
330
426
100
AcDbEntity
  8
GR1-1
  6
CONTINUOUS
 62
     7
100
AcDbLine
 10
302.426476
 20
63.014141
 30
0.0
 11
301.060178
 21
62.745856
 31
0.0
  0
LINE
  5
46A
330
426
100
AcDbEntity
  8
GR1-1
  6
CONTINUOUS
 62
     7
100
AcDbLine
 10
299.997143
 20
62.53712
 30
0.0
 11
297.871075
 21
62.119648
 31
0.0
  0
LINE
  5
46B
330
426
100
AcDbEntity
  8
GR1-1
  6
CONTINUOUS
 62
     7
100
AcDbLine
 10
296.808041
 20
61.910911
 30
0.0
 11
295.441743
 21
61.642627
 31
0.0
  0
LINE
  5
46C
330
426
100
AcDbEntity
  8
GR1-1
  6
CONTINUOUS
 62
     7
100
AcDbLine
 10
302.255616
 20
62.759787
 30
0.0
 11
301.101925
 21
62.533249
 31
0.0
  0
LINE
  5
46D
330
426
100
AcDbEntity
  8
GR1-1
  6
CONTINUOUS
 62
     7
100
AcDbLine
 10
296.849788
 20
61.698305
 30
0.0
 11
295.696097
 21
61.471767
 31
0.0
  0
LINE
  5
46E
330
426
100
AcDbEntity
  8
GR1-1
  6
CONTINUOUS
 62
     7
100
AcDbLine
 10
302.084757
 20
62.505433
 30
0.0
 11
301.143672
 21
62.320642
 31
0.0
  0
LINE
  5
46F
330
426
100
AcDbEntity
  8
GR1-1
  6
CONTINUOUS
 62
     7
100
AcDbLine
 10
296.891535
 20
61.485698
 30
0.0
 11
295.950451
 21
61.300907
 31
0.0
  0
LINE
  5
470
330
426
100
AcDbEntity
  8
GR1-1
  6
CONTINUOUS
 62
     7
100
AcDbLine
 10
301.913897
 20
62.251078
 30
0.0
 11
301.185419
 21
62.108035
 31
0.0
  0
LINE
  5
471
330
426
100
AcDbEntity
  8
GR1-1
  6
CONTINUOUS
 62
     7
100
AcDbLine
 10
296.933282
 20
61.273091
 30
0.0
 11
296.204805
 21
61.130048
 31
0.0
  0
LINE
  5
472
330
426
100
AcDbEntity
  8
GR1-1
  6
CONTINUOUS
 62
     7
100
AcDbLine
 10
301.743037
 20
61.996724
 30
0.0
 11
301.227167
 21
61.895429
 31
0.0
  0
LINE
  5
473
330
426
100
AcDbEntity
  8
GR1-1
  6
CONTINUOUS
 62
     7
100
AcDbLine
 10
296.97503
 20
61.060484
 30
0.0
 11
296.459159
 21
60.959188
 31
0.0
  0
LINE
  5
474
330
426
100
AcDbEntity
  8
GR1-1
  6
CONTINUOUS
 62
     7
100
AcDbLine
 10
301.572178
 20
61.74237
 30
0.0
 11
301.268914
 21
61.682822
 31
0.0
  0
LINE
  5
475
330
426
100
AcDbEntity
  8
GR1-1
  6
CONTINUOUS
 62
     7
100
AcDbLine
 10
297.016777
 20
60.847877
 30
0.0
 11
296.713513
 21
60.788329
 31
0.0
  0
LINE
  5
476
330
426
100
AcDbEntity
  8
GR1-1
  6
CONTINUOUS
 62
     7
100
AcDbLine
 10
301.401318
 20
61.488016
 30
0.0
 11
296.967867
 21
60.617469
 31
0.0
  0
LINE
  5
477
330
426
100
AcDbEntity
  8
GR1-1
  6
CONTINUOUS
 62
     7
100
AcDbLine
 10
301.230458
 20
61.233662
 30
0.0
 11
297.222221
 21
60.446609
 31
0.0
  0
LINE
  5
478
330
426
100
AcDbEntity
  8
GR1-1
  6
CONTINUOUS
 62
     7
100
AcDbLine
 10
301.059599
 20
60.979308
 30
0.0
 11
297.476575
 21
60.27575
 31
0.0
  0
LINE
  5
479
330
426
100
AcDbEntity
  8
GR1-1
  6
CONTINUOUS
 62
     7
100
AcDbLine
 10
300.888739
 20
60.724954
 30
0.0
 11
297.730929
 21
60.10489
 31
0.0
  0
LINE
  5
47A
330
426
100
AcDbEntity
  8
GR1-1
  6
CONTINUOUS
 62
     7
100
AcDbLine
 10
300.71788
 20
60.4706
 30
0.0
 11
297.985283
 21
59.934031
 31
0.0
  0
LINE
  5
47B
330
426
100
AcDbEntity
  8
GR1-1
  6
CONTINUOUS
 62
     7
100
AcDbLine
 10
300.54702
 20
60.216246
 30
0.0
 11
298.239638
 21
59.763171
 31
0.0
  0
LINE
  5
47C
330
426
100
AcDbEntity
  8
GR1-1
  6
CONTINUOUS
 62
     7
100
AcDbLine
 10
300.37616
 20
59.961892
 30
0.0
 11
298.493992
 21
59.592311
 31
0.0
  0
LINE
  5
47D
330
426
100
AcDbEntity
  8
GR1-1
  6
CONTINUOUS
 62
     7
100
AcDbLine
 10
300.205301
 20
59.707538
 30
0.0
 11
298.748346
 21
59.421452
 31
0.0
  0
LINE
  5
47E
330
426
100
AcDbEntity
  8
GR1-1
  6
CONTINUOUS
 62
     7
100
AcDbLine
 10
300.034441
 20
59.453184
 30
0.0
 11
299.0027
 21
59.250592
 31
0.0
  0
LINE
  5
47F
330
426
100
AcDbEntity
  8
GR1-1
  6
CONTINUOUS
 62
     7
100
AcDbLine
 10
299.863582
 20
59.19883
 30
0.0
 11
299.257054
 21
59.079732
 31
0.0
  0
LINE
  5
480
330
426
100
AcDbEntity
  8
GR1-1
  6
CONTINUOUS
 62
     7
100
AcDbLine
 10
299.692722
 20
58.944475
 30
0.0
 11
299.511408
 21
58.908873
 31
0.0
  0
ENDBLK
  5
428
330
426
100
AcDbEntity
  8
0
100
AcDbBlockEnd
  0
BLOCK
  5
4B8
330
4B7
100
AcDbEntity
  8
0
100
AcDbBlockBegin
  2
*D41
 70
     1
 71
     0
 10
0.0
 20
0.0
 30
0.0
  3
*D41
  1

  0
TEXT
  5
4BA
330
4B7
100
AcDbEntity
  8
LAYERGROUP-1
  6
CONTINUOUS
 62
     7
100
AcDbText
 10
134.939468
 20
35.050442
 30
0.0
 40
4.0
  1
38
 41
0.851351
  7
FX_VECTOR
 72
     5
 11
140.939468
 21
35.050442
 31
0.0
100
AcDbText
  0
LINE
  5
4BB
330
4B7
100
AcDbEntity
  8
LAYERGROUP-1
  6
CONTINUOUS
 62
     7
100
AcDbLine
 10
118.939475
 20
34.050443
 30
0.0
 11
156.939475
 21
34.050443
 31
0.0
  0
INSERT
  5
4BC
330
4B7
100
AcDbEntity
  8
LAYERGROUP-1
  6
CONTINUOUS
 62
     7
100
AcDbBlockReference
  2
FXTIP_ARROW_S
 10
118.939475
 20
34.050443
 30
0.0
 41
4.0
 42
4.0
 50
180.0
  0
INSERT
  5
4BD
330
4B7
100
AcDbEntity
  8
LAYERGROUP-1
  6
CONTINUOUS
 62
     7
100
AcDbBlockReference
  2
FXTIP_ARROW_E
 10
156.939475
 20
34.050443
 30
0.0
 41
4.0
 42
4.0
 50
360.0
  0
LINE
  5
4BE
330
4B7
100
AcDbEntity
  8
LAYERGROUP-1
  6
CONTINUOUS
 62
     7
100
AcDbLine
 10
118.939475
 20
57.462909
 30
0.0
 11
118.939475
 21
33.050443
 31
0.0
  0
LINE
  5
4BF
330
4B7
100
AcDbEntity
  8
LAYERGROUP-1
  6
CONTINUOUS
 62
     7
100
AcDbLine
 10
156.939475
 20
57.462909
 30
0.0
 11
156.939475
 21
33.050443
 31
0.0
  0
ENDBLK
  5
4B9
330
4B7
100
AcDbEntity
  8
0
100
AcDbBlockEnd
  0
ENDSEC
  0
SECTION
  2
ENTITIES
  0
DIMENSION
  5
A8
330
1F
100
AcDbEntity
  8
GR1-1
100
AcDbDimension
  2
*D19
 10
443.724529
 20
278.290799
 30
0.0
 11
439.122437
 21
275.014862
 31
0.0
 70
    33
  3
FXDIMINFO
100
AcDbAlignedDimension
 13
412.061733
 23
293.83156
 33
0.0
 14
420.12275
 24
301.892578
 34
0.0
1001
ACAD
1000
DSTYLE
1002
{
1070
     7
1000
FXTIP_ARROW_E
1070
     6
1000
FXTIP_ARROW_S
1070
   173
1070
     1
1002
}
  0
DIMENSION
  5
B3
330
1F
100
AcDbEntity
  8
GR1-1
100
AcDbDimension
  2
*D20
 10
427.092242
 20
244.294319
 30
0.0
 11
376.092224
 21
245.294312
 31
0.0
 70
    33
  3
FXDIMINFO
100
AcDbAlignedDimension
 13
325.092242
 23
296.862069
 33
0.0
 14
427.092242
 24
296.862069
 34
0.0
1001
ACAD
1000
DSTYLE
1002
{
1070
     7
1000
FXTIP_ARROW_E
1070
     6
1000
FXTIP_ARROW_S
1070
   173
1070
     1
1002
}
  0
DIMENSION
  5
BD
330
1F
100
AcDbEntity
  8
GR1-1
100
AcDbDimension
  2
*D21
 10
416.096306
 20
254.722305
 30
0.0
 11
376.094269
 21
255.72229
 31
0.0
 70
    33
  3
FXDIMINFO
100
AcDbAlignedDimension
 13
336.092242
 23
288.858004
 33
0.0
 14
416.096306
 24
288.858004
 34
0.0
1001
ACAD
1000
DSTYLE
1002
{
1070
     7
1000
FXTIP_ARROW_E
1070
     6
1000
FXTIP_ARROW_S
1070
   173
1070
     1
1002
}
  0
DIMENSION
  5
C7
330
1F
100
AcDbEntity
  8
GR1-1
100
AcDbDimension
  2
*D22
 10
413.596306
 20
265.522719
 30
0.0
 11
376.094269
 21
266.522675
 31
0.0
 70
    33
  3
FXDIMINFO
100
AcDbAlignedDimension
 13
338.592242
 23
291.358004
 33
0.0
 14
413.596306
 24
291.358004
 34
0.0
1001
ACAD
1000
DSTYLE
1002
{
1070
     7
1000
FXTIP_ARROW_E
1070
     6
1000
FXTIP_ARROW_S
1070
   173
1070
     1
1002
}
  0
DIMENSION
  5
D1
330
1F
100
AcDbEntity
  8
GR1-1
100
AcDbDimension
  2
*D23
 10
457.027775
 20
388.862069
 30
0.0
 11
456.027771
 21
337.862061
 31
0.0
 70
    33
  3
FXDIMINFO
100
AcDbAlignedDimension
 13
417.092242
 23
286.862069
 33
0.0
 14
417.092242
 24
388.862069
 34
0.0
1001
ACAD
1000
DSTYLE
1002
{
1070
     7
1000
FXTIP_ARROW_E
1070
     6
1000
FXTIP_ARROW_S
1070
   173
1070
     1
1002
}
  0
DIMENSION
  5
DB
330
1F
100
AcDbEntity
  8
GR1-1
100
AcDbDimension
  2
*D24
 10
447.027775
 20
377.862069
 30
0.0
 11
446.027771
 21
337.862061
 31
0.0
 70
    33
  3
FXDIMINFO
100
AcDbAlignedDimension
 13
425.096306
 23
297.862069
 33
0.0
 14
425.096306
 24
377.862069
 34
0.0
1001
ACAD
1000
DSTYLE
1002
{
1070
     7
1000
FXTIP_ARROW_E
1070
     6
1000
FXTIP_ARROW_S
1070
   173
1070
     1
1002
}
  0
DIMENSION
  5
E5
330
1F
100
AcDbEntity
  8
GR1-1
100
AcDbDimension
  2
*D25
 10
437.027775
 20
300.362069
 30
0.0
 11
436.027771
 21
337.862061
 31
0.0
 70
    33
  3
FXDIMINFO
100
AcDbAlignedDimension
 13
422.596306
 23
375.362069
 33
0.0
 14
422.596306
 24
300.362069
 34
0.0
1001
ACAD
1000
DSTYLE
1002
{
1070
     7
1000
FXTIP_ARROW_E
1070
     6
1000
FXTIP_ARROW_S
1070
   173
1070
     1
1002
}
  0
DIMENSION
  5
EF
330
1F
100
AcDbEntity
  8
GR1-1
100
AcDbDimension
  2
*D26
 10
376.094274
 20
399.289248
 30
0.0
 11
322.624725
 21
400.289246
 31
0.0
 70
    32
  3
FXDIMINFO
100
AcDbAlignedDimension
 13
269.155179
 23
359.862069
 33
0.0
 14
376.094274
 24
392.601675
 34
0.0
 50
180.0
100
AcDbRotatedDimension
1001
ACAD
1000
DSTYLE
1002
{
1070
     7
1000
FXTIP_ARROW_E
1070
     6
1000
FXTIP_ARROW_S
1070
   173
1070
     1
1002
}
  0
LINE
  5
F9
330
1F
100
AcDbEntity
  8
GR1-1
  6
CONTINUOUS
 62
     3
100
AcDbLine
 10
417.092242
 20
286.862069
 30
0.0
 11
335.092242
 21
286.862069
 31
0.0
  0
LINE
  5
FA
330
1F
100
AcDbEntity
  8
GR1-1
  6
CONTINUOUS
 62
     3
100
AcDbLine
 10
340.12275
 20
293.83156
 30
0.0
 11
342.62275
 21
296.33156
 31
0.0
  0
ARC
  5
FB
330
1F
100
AcDbEntity
  8
GR1-1
  6
CONTINUOUS
 62
     3
100
AcDbCircle
 10
338.592242
 20
300.362069
 30
0.0
 40
5.7
100
AcDbArc
 50
-45.0
 51
135.0
  0
LINE
  5
FC
330
1F
100
AcDbEntity
  8
GR1-1
  6
CONTINUOUS
 62
     3
100
AcDbLine
 10
334.561733
 20
304.392578
 30
0.0
 11
332.061733
 21
301.892578
 31
0.0
  0
ARC
  5
FD
330
1F
100
AcDbEntity
  8
GR1-1
  6
CONTINUOUS
 62
     3
100
AcDbCircle
 10
336.092242
 20
297.862069
 30
0.0
 40
5.7
100
AcDbArc
 50
135.0
 51
315.0
  0
ARC
  5
FE
330
1F
100
AcDbEntity
  8
GR1-1
  6
CONTINUOUS
 62
     3
100
AcDbCircle
 10
335.092242
 20
296.862069
 30
0.0
 40
10.0
100
AcDbArc
 50
180.0
 51
270.0
  0
LINE
  5
FF
330
1F
100
AcDbEntity
  8
GR1-1
  6
CONTINUOUS
 62
     3
100
AcDbLine
 10
325.092242
 20
296.862069
 30
0.0
 11
325.092242
 21
378.862069
 31
0.0
  0
LINE
  5
100
330
1F
100
AcDbEntity
  8
GR1-1
  6
CONTINUOUS
 62
     3
100
AcDbLine
 10
332.061733
 20
373.83156
 30
0.0
 11
334.561733
 21
371.33156
 31
0.0
  0
ARC
  5
101
330
1F
100
AcDbEntity
  8
GR1-1
  6
CONTINUOUS
 62
     3
100
AcDbCircle
 10
338.592242
 20
375.362069
 30
0.0
 40
5.7
100
AcDbArc
 50
-135.0
 51
45.0
  0
LINE
  5
102
330
1F
100
AcDbEntity
  8
GR1-1
  6
CONTINUOUS
 62
     3
100
AcDbLine
 10
342.62275
 20
379.392578
 30
0.0
 11
340.12275
 21
381.892578
 31
0.0
  0
ARC
  5
103
330
1F
100
AcDbEntity
  8
GR1-1
  6
CONTINUOUS
 62
     3
100
AcDbCircle
 10
336.092242
 20
377.862069
 30
0.0
 40
5.7
100
AcDbArc
 50
45.0
 51
225.0
  0
LINE
  5
104
330
1F
100
AcDbEntity
  8
GR1-1
  6
CONTINUOUS
 62
     3
100
AcDbLine
 10
325.092242
 20
368.362069
 30
0.0
 11
316.686529
 21
368.362069
 31
0.0
  0
LINE
  5
105
330
1F
100
AcDbEntity
  8
GR1-1
  6
CONTINUOUS
 62
     3
100
AcDbLine
 10
316.686529
 20
368.362069
 30
0.0
 11
316.686529
 21
365.362069
 31
0.0
  0
LINE
  5
106
330
1F
100
AcDbEntity
  8
GR1-1
  6
CONTINUOUS
 62
     3
100
AcDbLine
 10
316.686529
 20
365.362069
 30
0.0
 11
325.092242
 21
365.362069
 31
0.0
  0
LINE
  5
107
330
1F
100
AcDbEntity
  8
GR1-1
  6
CONTINUOUS
 62
     3
100
AcDbLine
 10
325.092242
 20
364.862069
 30
0.0
 11
300.030199
 21
364.862069
 31
0.0
  0
ARC
  5
108
330
1F
100
AcDbEntity
  8
GR1-1
  6
CONTINUOUS
 62
     3
100
AcDbCircle
 10
300.030199
 20
364.362069
 30
0.0
 40
0.5
100
AcDbArc
 50
90.0
 51
173.62063
  0
ARC
  5
109
330
1F
100
AcDbEntity
  8
GR1-1
  6
CONTINUOUS
 62
     3
100
AcDbCircle
 10
289.901209
 20
362.862069
 30
0.0
 40
2.0
100
AcDbArc
 50
19.471221
 51
90.0
  0
LINE
  5
10A
330
1F
100
AcDbEntity
  8
GR1-1
  6
CONTINUOUS
 62
     3
100
AcDbLine
 10
289.901209
 20
364.862069
 30
0.0
 11
274.155179
 21
364.862069
 31
0.0
  0
ARC
  5
10B
330
1F
100
AcDbEntity
  8
GR1-1
  6
CONTINUOUS
 62
     3
100
AcDbCircle
 10
274.155179
 20
359.862069
 30
0.0
 40
5.0
100
AcDbArc
 50
90.0
 51
180.0
  0
LINE
  5
10C
330
1F
100
AcDbEntity
  8
GR1-1
  6
CONTINUOUS
 62
     3
100
AcDbLine
 10
269.155179
 20
359.862069
 30
0.0
 11
269.155179
 21
315.862069
 31
0.0
  0
ARC
  5
10D
330
1F
100
AcDbEntity
  8
GR1-1
  6
CONTINUOUS
 62
     3
100
AcDbCircle
 10
274.155179
 20
315.862069
 30
0.0
 40
5.0
100
AcDbArc
 50
180.0
 51
270.0
  0
LINE
  5
10E
330
1F
100
AcDbEntity
  8
GR1-1
  6
CONTINUOUS
 62
     3
100
AcDbLine
 10
274.155179
 20
310.862069
 30
0.0
 11
289.901209
 21
310.862069
 31
0.0
  0
ARC
  5
10F
330
1F
100
AcDbEntity
  8
GR1-1
  6
CONTINUOUS
 62
     3
100
AcDbCircle
 10
289.901209
 20
312.862069
 30
0.0
 40
2.0
100
AcDbArc
 50
270.0
 51
340.528779
  0
ARC
  5
110
330
1F
100
AcDbEntity
  8
GR1-1
  6
CONTINUOUS
 62
     3
100
AcDbCircle
 10
295.558063
 20
310.862069
 30
0.0
 40
4.0
100
AcDbArc
 50
6.37937
 51
160.528779
  0
ARC
  5
111
330
1F
100
AcDbEntity
  8
GR1-1
  6
CONTINUOUS
 62
     3
100
AcDbCircle
 10
300.030199
 20
311.362069
 30
0.0
 40
0.5
100
AcDbArc
 50
186.37937
 51
270.0
  0
LINE
  5
112
330
1F
100
AcDbEntity
  8
GR1-1
  6
CONTINUOUS
 62
     3
100
AcDbLine
 10
300.030199
 20
310.862069
 30
0.0
 11
325.092242
 21
310.862069
 31
0.0
  0
LINE
  5
113
330
1F
100
AcDbEntity
  8
GR1-1
  6
CONTINUOUS
 62
     3
100
AcDbLine
 10
325.092242
 20
310.362069
 30
0.0
 11
316.686529
 21
310.362069
 31
0.0
  0
LINE
  5
114
330
1F
100
AcDbEntity
  8
GR1-1
  6
CONTINUOUS
 62
     3
100
AcDbLine
 10
316.686529
 20
310.362069
 30
0.0
 11
316.686529
 21
307.362069
 31
0.0
  0
LINE
  5
115
330
1F
100
AcDbEntity
  8
GR1-1
  6
CONTINUOUS
 62
     3
100
AcDbLine
 10
316.686529
 20
307.362069
 30
0.0
 11
325.092242
 21
307.362069
 31
0.0
  0
LINE
  5
116
330
1F
100
AcDbEntity
  8
GR1-1
  6
CONTINUOUS
 62
     3
100
AcDbLine
 10
325.092242
 20
314.062069
 30
0.0
 11
324.132698
 21
314.062069
 31
0.0
  0
ARC
  5
117
330
1F
100
AcDbEntity
  8
GR1-1
  6
CONTINUOUS
 62
     3
100
AcDbCircle
 10
2620.475267
 20
337.862069
 30
0.0
 40
2296.465901317911
100
AcDbArc
 50
180.348048
 51
180.673653
  0
LINE
  5
118
330
1F
100
AcDbEntity
  8
GR1-1
  6
CONTINUOUS
 62
     3
100
AcDbLine
 10
325.092242
 20
323.912069
 30
0.0
 11
309.344274
 21
323.912069
 31
0.0
  0
LINE
  5
119
330
1F
100
AcDbEntity
  8
GR1-1
  6
CONTINUOUS
 62
     3
100
AcDbLine
 10
309.344274
 20
323.912069
 30
0.0
 11
309.344274
 21
351.812069
 31
0.0
  0
LINE
  5
11A
330
1F
100
AcDbEntity
  8
GR1-1
  6
CONTINUOUS
 62
     3
100
AcDbLine
 10
309.344274
 20
351.812069
 30
0.0
 11
325.092242
 21
351.812069
 31
0.0
  0
LINE
  5
11B
330
1F
100
AcDbEntity
  8
GR1-1
  6
CONTINUOUS
 62
     3
100
AcDbLine
 10
325.092242
 20
361.662069
 30
0.0
 11
324.132698
 21
361.662069
 31
0.0
  0
ARC
  5
11C
330
1F
100
AcDbEntity
  8
GR1-1
  6
CONTINUOUS
 62
     3
100
AcDbCircle
 10
2620.475267
 20
337.862069
 30
0.0
 40
2296.465901317911
100
AcDbArc
 50
179.326347
 51
179.625754
  0
ARC
  5
11D
330
1F
100
AcDbEntity
  8
GR1-1
  6
CONTINUOUS
 62
     3
100
AcDbCircle
 10
295.558063
 20
364.862069
 30
0.0
 40
4.0
100
AcDbArc
 50
199.471221
 51
353.62063
  0
ARC
  5
11E
330
1F
100
AcDbEntity
  8
GR1-1
  6
CONTINUOUS
 62
     3
100
AcDbCircle
 10
275.944596
 20
359.862069
 30
0.0
 40
5.0
100
AcDbArc
 50
90.0
 51
180.0
  0
LINE
  5
11F
330
1F
100
AcDbEntity
  8
GR1-1
  6
CONTINUOUS
 62
     3
100
AcDbLine
 10
270.944596
 20
359.862069
 30
0.0
 11
270.944596
 21
315.862069
 31
0.0
  0
ARC
  5
120
330
1F
100
AcDbEntity
  8
GR1-1
  6
CONTINUOUS
 62
     3
100
AcDbCircle
 10
275.944596
 20
315.862069
 30
0.0
 40
5.0
100
AcDbArc
 50
180.0
 51
270.0
  0
LINE
  5
121
330
1F
100
AcDbEntity
  8
GR1-1
  6
CONTINUOUS
 62
     3
100
AcDbLine
 10
335.092242
 20
388.862069
 30
0.0
 11
417.092242
 21
388.862069
 31
0.0
  0
LINE
  5
122
330
1F
100
AcDbEntity
  8
GR1-1
  6
CONTINUOUS
 62
     3
100
AcDbLine
 10
412.061733
 20
381.892578
 30
0.0
 11
409.561733
 21
379.392578
 31
0.0
  0
ARC
  5
123
330
1F
100
AcDbEntity
  8
GR1-1
  6
CONTINUOUS
 62
     3
100
AcDbCircle
 10
413.592242
 20
375.362069
 30
0.0
 40
5.7
100
AcDbArc
 50
135.0
 51
315.0
  0
LINE
  5
124
330
1F
100
AcDbEntity
  8
GR1-1
  6
CONTINUOUS
 62
     3
100
AcDbLine
 10
417.62275
 20
371.33156
 30
0.0
 11
420.12275
 21
373.83156
 31
0.0
  0
ARC
  5
125
330
1F
100
AcDbEntity
  8
GR1-1
  6
CONTINUOUS
 62
     3
100
AcDbCircle
 10
416.092242
 20
377.862069
 30
0.0
 40
5.7
100
AcDbArc
 50
-45.0
 51
135.0
  0
LINE
  5
126
330
1F
100
AcDbEntity
  8
GR1-1
  6
CONTINUOUS
 62
     3
100
AcDbLine
 10
427.092242
 20
378.862069
 30
0.0
 11
427.092242
 21
296.862069
 31
0.0
  0
LINE
  5
127
330
1F
100
AcDbEntity
  8
GR1-1
  6
CONTINUOUS
 62
     3
100
AcDbLine
 10
420.12275
 20
301.892578
 30
0.0
 11
417.62275
 21
304.392578
 31
0.0
  0
ARC
  5
128
330
1F
100
AcDbEntity
  8
GR1-1
  6
CONTINUOUS
 62
     3
100
AcDbCircle
 10
413.592242
 20
300.362069
 30
0.0
 40
5.7
100
AcDbArc
 50
45.0
 51
225.0
  0
LINE
  5
129
330
1F
100
AcDbEntity
  8
GR1-1
  6
CONTINUOUS
 62
     3
100
AcDbLine
 10
409.561733
 20
296.33156
 30
0.0
 11
412.061733
 21
293.83156
 31
0.0
  0
ARC
  5
12A
330
1F
100
AcDbEntity
  8
GR1-1
  6
CONTINUOUS
 62
     3
100
AcDbCircle
 10
416.092242
 20
297.862069
 30
0.0
 40
5.7
100
AcDbArc
 50
-135.0
 51
45.0
  0
ARC
  5
12B
330
1F
100
AcDbEntity
  8
GR1-1
  6
CONTINUOUS
 62
     3
100
AcDbCircle
 10
417.092242
 20
296.862069
 30
0.0
 40
10.0
100
AcDbArc
 50
270.0
 51
360.0
  0
CIRCLE
  5
12C
330
1F
100
AcDbEntity
  8
GR1-1
  6
CONTINUOUS
 62
     3
100
AcDbCircle
 10
376.092242
 20
337.862069
 30
0.0
 40
13.0
  0
ARC
  5
12D
330
1F
100
AcDbEntity
  8
GR1-1
  6
CONTINUOUS
 62
     3
100
AcDbCircle
 10
417.092242
 20
378.862069
 30
0.0
 40
10.0
100
AcDbArc
 50
0.0
 51
90.0
  0
ARC
  5
12E
330
1F
100
AcDbEntity
  8
GR1-1
  6
CONTINUOUS
 62
     3
100
AcDbCircle
 10
335.092242
 20
378.862069
 30
0.0
 40
10.0
100
AcDbArc
 50
90.0
 51
180.0
  0
LINE
  5
12F
330
1F
100
AcDbEntity
  8
GR1-1
  6
CENTER
 62
     6
100
AcDbLine
 10
376.094274
 20
283.371321
 30
0.0
 11
376.094274
 21
392.601675
 31
0.0
  0
LINE
  5
130
330
1F
100
AcDbEntity
  8
GR1-1
  6
CONTINUOUS
 62
     6
100
AcDbLine
 10
324.058354
 20
352.862069
 30
0.0
 11
304.382256
 21
352.862069
 31
0.0
  0
ARC
  5
131
330
1F
100
AcDbEntity
  8
GR1-1
  6
CONTINUOUS
 62
     6
100
AcDbCircle
 10
304.382256
 20
351.862069
 30
0.0
 40
1.0
100
AcDbArc
 50
90.0
 51
180.0
  0
LINE
  5
132
330
1F
100
AcDbEntity
  8
GR1-1
  6
CONTINUOUS
 62
     6
100
AcDbLine
 10
303.382256
 20
351.862069
 30
0.0
 11
303.382256
 21
323.862069
 31
0.0
  0
ARC
  5
133
330
1F
100
AcDbEntity
  8
GR1-1
  6
CONTINUOUS
 62
     6
100
AcDbCircle
 10
304.382256
 20
323.862069
 30
0.0
 40
1.0
100
AcDbArc
 50
180.0
 51
270.0
  0
LINE
  5
134
330
1F
100
AcDbEntity
  8
GR1-1
  6
CONTINUOUS
 62
     6
100
AcDbLine
 10
304.382256
 20
322.862069
 30
0.0
 11
324.058354
 21
322.862069
 31
0.0
  0
LINE
  5
135
330
1F
100
AcDbEntity
  8
GR1-1
  6
CENTER
 62
     6
100
AcDbLine
 10
316.694274
 20
331.897463
 30
0.0
 11
316.694274
 21
344.4899
 31
0.0
  0
LINE
  5
136
330
1F
100
AcDbEntity
  8
GR1-1
  6
CONTINUOUS
 62
     6
100
AcDbLine
 10
309.344274
 20
346.175693
 30
0.0
 11
303.658563
 21
352.552191
 31
0.0
  0
ARC
  5
137
330
1F
100
AcDbEntity
  8
GR1-1
  6
CONTINUOUS
 62
     6
100
AcDbCircle
 10
286.033081
 20
356.589474
 30
0.0
 40
2.072594999999922
100
AcDbArc
 50
0.0
 51
180.0
  0
LINE
  5
138
330
1F
100
AcDbEntity
  8
GR1-1
  6
CONTINUOUS
 62
     6
100
AcDbLine
 10
283.960486
 20
356.589474
 30
0.0
 11
283.960486
 21
319.134664
 31
0.0
  0
ARC
  5
139
330
1F
100
AcDbEntity
  8
GR1-1
  6
CONTINUOUS
 62
     6
100
AcDbCircle
 10
286.033081
 20
319.134664
 30
0.0
 40
2.072594999999922
100
AcDbArc
 50
180.0
 51
360.0
  0
LINE
  5
13A
330
1F
100
AcDbEntity
  8
GR1-1
  6
CONTINUOUS
 62
     6
100
AcDbLine
 10
288.105676
 20
319.134664
 30
0.0
 11
288.105676
 21
356.589474
 31
0.0
  0
LINE
  5
13B
330
1F
100
AcDbEntity
  8
GR1-1
  6
CONTINUOUS
 62
     6
100
AcDbLine
 10
288.63863
 20
364.862069
 30
0.0
 11
288.63863
 21
310.862069
 31
0.0
  0
LINE
  5
13C
330
1F
100
AcDbEntity
  8
GR1-1
  6
CONTINUOUS
 62
     6
100
AcDbLine
 10
279.8153
 20
319.134664
 30
0.0
 11
279.8153
 21
356.589474
 31
0.0
  0
ARC
  5
13D
330
1F
100
AcDbEntity
  8
GR1-1
  6
CONTINUOUS
 62
     6
100
AcDbCircle
 10
277.742705
 20
356.589474
 30
0.0
 40
2.072594999999922
100
AcDbArc
 50
0.0
 51
180.0
  0
LINE
  5
13E
330
1F
100
AcDbEntity
  8
GR1-1
  6
CONTINUOUS
 62
     6
100
AcDbLine
 10
275.67011
 20
356.589474
 30
0.0
 11
275.67011
 21
319.134664
 31
0.0
  0
ARC
  5
13F
330
1F
100
AcDbEntity
  8
GR1-1
  6
CONTINUOUS
 62
     6
100
AcDbCircle
 10
277.742705
 20
319.134664
 30
0.0
 40
2.072594999999922
100
AcDbArc
 50
180.0
 51
360.0
  0
LINE
  5
140
330
1F
100
AcDbEntity
  8
GR1-1
  6
CENTER
 62
     6
100
AcDbLine
 10
256.959038
 20
337.862069
 30
0.0
 11
429.464656
 21
337.862069
 31
0.0
  0
CIRCLE
  5
141
330
1F
100
AcDbEntity
  8
GR1-1
  6
CONTINUOUS
 62
     6
100
AcDbCircle
 10
376.092242
 20
337.862069
 30
0.0
 40
42.5
  0
CIRCLE
  5
142
330
1F
100
AcDbEntity
  8
GR1-1
  6
CONTINUOUS
 62
     6
100
AcDbCircle
 10
376.092242
 20
337.862069
 30
0.0
 40
38.0
  0
CIRCLE
  5
143
330
1F
100
AcDbEntity
  8
GR1-1
  6
CONTINUOUS
 62
     6
100
AcDbCircle
 10
376.092242
 20
337.862069
 30
0.0
 40
13.40000000000002
  0
CIRCLE
  5
144
330
1F
100
AcDbEntity
  8
GR1-1
  6
CONTINUOUS
 62
     6
100
AcDbCircle
 10
376.092242
 20
337.862069
 30
0.0
 40
8.009445438332094
  0
LINE
  5
145
330
1F
100
AcDbEntity
  8
GR1-1
  6
CENTER
 62
     6
100
AcDbLine
 10
413.596306
 20
368.280686
 30
0.0
 11
413.596306
 21
383.401245
 31
0.0
  0
LINE
  5
146
330
1F
100
AcDbEntity
  8
GR1-1
  6
CENTER
 62
     6
100
AcDbLine
 10
408.041509
 20
377.862069
 30
0.0
 11
424.373181
 21
377.862069
 31
0.0
  0
LINE
  5
147
330
1F
100
AcDbEntity
  8
GR1-1
  6
CENTER
 62
     6
100
AcDbLine
 10
422.061057
 20
375.362069
 30
0.0
 11
406.536793
 21
375.362069
 31
0.0
  0
LINE
  5
148
330
1F
100
AcDbEntity
  8
GR1-1
  6
CENTER
 62
     6
100
AcDbLine
 10
416.096306
 20
384.722459
 30
0.0
 11
416.096306
 21
369.785402
 31
0.0
  0
CIRCLE
  5
149
330
1F
100
AcDbEntity
  8
GR1-1
  6
CONTINUOUS
 62
     3
100
AcDbCircle
 10
316.694274
 20
337.862069
 30
0.0
 40
4.0
  0
LINE
  5
14A
330
1F
100
AcDbEntity
  8
GR1-1
  6
CONTINUOUS
 62
     6
100
AcDbLine
 10
309.344274
 20
329.683936
 30
0.0
 11
303.53775
 21
323.171946
 31
0.0
  0
LINE
  5
14B
330
1F
100
AcDbEntity
  8
GR1-1
  6
CONTINUOUS
 62
     6
100
AcDbLine
 10
299.415944
 20
363.805304
 30
0.0
 11
299.415944
 21
311.918834
 31
0.0
  0
DIMENSION
  5
14C
330
1F
100
AcDbEntity
  8
GR1-1
100
AcDbDimension
  2
*D27
 10
376.094274
 20
24.050443
 30
0.0
 11
356.094269
 21
25.050442
 31
0.0
 70
    32
  3
FXDIMINFO
100
AcDbAlignedDimension
 13
336.094274
 23
41.076959
 33
0.0
 14
376.094274
 24
48.885596
 34
0.0
 50
180.0
100
AcDbRotatedDimension
1001
ACAD
1000
DSTYLE
1002
{
1070
     7
1000
FXTIP_ARROW_E
1070
     6
1000
FXTIP_ARROW_S
1070
   173
1070
     1
1002
}
  0
DIMENSION
  5
156
330
1F
100
AcDbEntity
  8
GR1-1
100
AcDbDimension
  2
*D28
 10
446.820582
 20
43.962909
 30
0.0
 11
445.820557
 21
138.962921
 31
0.0
 70
    32
  3
FXDIMINFO
100
AcDbAlignedDimension
 13
427.094274
 23
233.962909
 33
0.0
 14
336.094274
 24
43.962909
 34
0.0
 50
90.0
100
AcDbRotatedDimension
1001
ACAD
1000
DSTYLE
1002
{
1070
     7
1000
FXTIP_ARROW_E
1070
     6
1000
FXTIP_ARROW_S
1070
   173
1070
     1
1002
}
  0
DIMENSION
  5
160
330
1F
100
AcDbEntity
  8
GR1-1
100
AcDbDimension
  2
*D29
 10
436.820582
 20
118.962909
 30
0.0
 11
435.820557
 21
176.462921
 31
0.0
 70
    33
  3
FXDIMINFO
100
AcDbAlignedDimension
 13
415.331987
 23
233.962909
 33
0.0
 14
415.331987
 24
118.962909
 34
0.0
1001
ACAD
1000
DSTYLE
1002
{
1070
     7
1000
FXTIP_ARROW_E
1070
     6
1000
FXTIP_ARROW_S
1070
   173
1070
     1
1002
}
  0
DIMENSION
  5
169
330
1F
100
AcDbEntity
  8
GR1-1
100
AcDbDimension
  2
*D30
 10
165.439475
 20
24.050443
 30
0.0
 11
137.939484
 21
25.05044
 31
0.0
 70
    33
  3
FXDIMINFO
100
AcDbAlignedDimension
 13
110.439475
 23
100.026219
 33
0.0
 14
165.439475
 24
100.026219
 34
0.0
1001
ACAD
1000
DSTYLE
1002
{
1070
     7
1000
FXTIP_ARROW_E
1070
     6
1000
FXTIP_ARROW_S
1070
   173
1070
     1
1002
}
  0
INSERT
  5
176
330
1F
100
AcDbEntity
  8
0
100
AcDbBlockReference
  2
BLKF033
 10
0.0
 20
0.0
 30
0.0
  0
INSERT
  5
180
330
1F
100
AcDbEntity
  8
0
100
AcDbBlockReference
  2
BLKF034
 10
0.0
 20
0.0
 30
0.0
  0
INSERT
  5
18A
330
1F
100
AcDbEntity
  8
0
100
AcDbBlockReference
  2
BLKF035
 10
0.0
 20
0.0
 30
0.0
  0
LINE
  5
192
330
1F
100
AcDbEntity
  8
GR1-1
  6
CONTINUOUS
 62
     3
100
AcDbLine
 10
427.094274
 20
229.962909
 30
0.0
 11
427.094274
 21
233.962909
 31
0.0
  0
LINE
  5
193
330
1F
100
AcDbEntity
  8
GR1-1
  6
CONTINUOUS
 62
     3
100
AcDbLine
 10
427.094274
 20
233.962909
 30
0.0
 11
376.094274
 21
233.962909
 31
0.0
  0
LINE
  5
194
330
1F
100
AcDbEntity
  8
GR1-1
  6
CONTINUOUS
 62
     3
100
AcDbLine
 10
311.344274
 20
227.962909
 30
0.0
 11
331.844274
 21
227.962909
 31
0.0
  0
LINE
  5
195
330
1F
100
AcDbEntity
  8
GR1-1
  6
CONTINUOUS
 62
     3
100
AcDbLine
 10
331.844274
 20
227.962909
 30
0.0
 11
331.844274
 21
229.962909
 31
0.0
  0
LINE
  5
196
330
1F
100
AcDbEntity
  8
GR1-1
  6
CONTINUOUS
 62
     3
100
AcDbLine
 10
333.594274
 20
229.962909
 30
0.0
 11
333.594274
 21
229.462909
 31
0.0
  0
LINE
  5
197
330
1F
100
AcDbEntity
  8
GR1-1
  6
CONTINUOUS
 62
     3
100
AcDbLine
 10
333.594274
 20
229.962909
 30
0.0
 11
311.844274
 21
229.962909
 31
0.0
  0
ARC
  5
198
330
1F
100
AcDbEntity
  8
GR1-1
  6
CONTINUOUS
 62
     3
100
AcDbCircle
 10
311.844274
 20
227.462909
 30
0.0
 40
2.5
100
AcDbArc
 50
90.0
 51
180.0
  0
LINE
  5
199
330
1F
100
AcDbEntity
  8
GR1-1
  6
CONTINUOUS
 62
     3
100
AcDbLine
 10
309.344274
 20
227.462909
 30
0.0
 11
309.344274
 21
214.962909
 31
0.0
  0
ARC
  5
19A
330
1F
100
AcDbEntity
  8
GR1-1
  6
CONTINUOUS
 62
     3
100
AcDbCircle
 10
311.844274
 20
214.962909
 30
0.0
 40
2.5
100
AcDbArc
 50
180.0
 51
270.0
  0
LINE
  5
19B
330
1F
100
AcDbEntity
  8
GR1-1
  6
CONTINUOUS
 62
     3
100
AcDbLine
 10
311.844274
 20
212.462909
 30
0.0
 11
313.694274
 21
212.462909
 31
0.0
  0
ARC
  5
19C
330
1F
100
AcDbEntity
  8
GR1-1
  6
CONTINUOUS
 62
     3
100
AcDbCircle
 10
314.248534
 20
202.461979
 30
0.0
 40
10.0
100
AcDbArc
 50
92.923717
 51
115.222894
  0
LINE
  5
19D
330
1F
100
AcDbEntity
  8
GR1-1
  6
CONTINUOUS
 62
     3
100
AcDbLine
 10
309.987126
 20
211.508548
 30
0.0
 11
304.936206
 21
209.1293
 31
0.0
  0
LINE
  5
19E
330
1F
100
AcDbEntity
  8
GR1-1
  6
CONTINUOUS
 62
     3
100
AcDbLine
 10
304.936206
 20
209.1293
 30
0.0
 11
299.82797
 21
209.307684
 31
0.0
  0
ARC
  5
19F
330
1F
100
AcDbEntity
  8
GR1-1
  6
CONTINUOUS
 62
     3
100
AcDbCircle
 10
299.409176
 20
197.314994
 30
0.0
 40
12.0
100
AcDbArc
 50
88.0
 51
103.0
  0
LINE
  5
1A0
330
1F
100
AcDbEntity
  8
GR1-1
  6
CONTINUOUS
 62
     3
100
AcDbLine
 10
296.709763
 20
209.007434
 30
0.0
 11
288.354385
 21
207.078443
 31
0.0
  0
LINE
  5
1A1
330
1F
100
AcDbEntity
  8
GR1-1
  6
CONTINUOUS
 62
     3
100
AcDbLine
 10
288.354385
 20
207.078443
 30
0.0
 11
288.105674
 21
207.246201
 31
0.0
  0
ARC
  5
1A2
330
1F
100
AcDbEntity
  8
GR1-1
  6
CONTINUOUS
 62
     3
100
AcDbCircle
 10
285.287489
 20
207.5388
 30
0.0
 40
2.833333333333313
100
AcDbArc
 50
-5.927513
 51
117.927513
  0
LINE
  5
1A3
330
1F
100
AcDbEntity
  8
GR1-1
  6
CONTINUOUS
 62
     3
100
AcDbLine
 10
288.105674
 20
207.246201
 30
0.0
 11
270.944596
 21
218.821494
 31
0.0
  0
ARC
  5
1A4
330
1F
100
AcDbEntity
  8
GR1-1
  6
CONTINUOUS
 62
     3
100
AcDbCircle
 10
276.997114
 20
213.130729
 30
0.0
 40
2.833333333333276
100
AcDbArc
 50
-5.927513
 51
117.927513
  0
LINE
  5
1A5
330
1F
100
AcDbEntity
  8
GR1-1
  6
CONTINUOUS
 62
     3
100
AcDbLine
 10
270.944596
 20
218.821494
 30
0.0
 11
269.155179
 21
216.168574
 31
0.0
  0
ARC
  5
1A6
330
1F
100
AcDbEntity
  8
GR1-1
  6
CONTINUOUS
 62
     3
100
AcDbCircle
 10
289.705661
 20
214.369278
 30
0.0
 40
10.0
100
AcDbArc
 50
258.558585
 51
283.0
  0
LINE
  5
1A7
330
1F
100
AcDbEntity
  8
GR1-1
  6
CONTINUOUS
 62
     3
100
AcDbLine
 10
291.955172
 20
204.625577
 30
0.0
 11
297.9255
 21
206.003936
 31
0.0
  0
LINE
  5
1A8
330
1F
100
AcDbEntity
  8
GR1-1
  6
CONTINUOUS
 62
     3
100
AcDbLine
 10
326.094274
 20
210.412909
 30
0.0
 11
326.094274
 21
207.412909
 31
0.0
  0
LINE
  5
1A9
330
1F
100
AcDbEntity
  8
GR1-1
  6
CONTINUOUS
 62
     3
100
AcDbLine
 10
326.094274
 20
207.412909
 30
0.0
 11
329.594274
 21
207.412909
 31
0.0
  0
ARC
  5
1AA
330
1F
100
AcDbEntity
  8
GR1-1
  6
CONTINUOUS
 62
     3
100
AcDbCircle
 10
336.094274
 20
214.412909
 30
0.0
 40
4.0
100
AcDbArc
 50
270.0
 51
360.0
  0
LINE
  5
1AB
330
1F
100
AcDbEntity
  8
GR1-1
  6
CONTINUOUS
 62
     3
100
AcDbLine
 10
336.094274
 20
210.412909
 30
0.0
 11
326.094274
 21
210.412909
 31
0.0
  0
LINE
  5
1AC
330
1F
100
AcDbEntity
  8
GR1-1
  6
CONTINUOUS
 62
     3
100
AcDbLine
 10
324.009366
 20
212.465689
 30
0.0
 11
324.275234
 21
205.75232
 31
0.0
  0
ARC
  5
1AD
330
1F
100
AcDbEntity
  8
GR1-1
  6
CONTINUOUS
 62
     3
100
AcDbCircle
 10
324.77493
 20
205.734871
 30
0.0
 40
0.5
100
AcDbArc
 50
178.0
 51
268.0
  0
LINE
  5
1AE
330
1F
100
AcDbEntity
  8
GR1-1
  6
CONTINUOUS
 62
     3
100
AcDbLine
 10
376.094274
 20
216.362909
 30
0.0
 11
413.694274
 21
216.362909
 31
0.0
  0
LINE
  5
1AF
330
1F
100
AcDbEntity
  8
GR1-1
  6
CONTINUOUS
 62
     3
100
AcDbLine
 10
413.694274
 20
216.362909
 30
0.0
 11
414.694274
 21
216.715029
 31
0.0
  0
LINE
  5
1B0
330
1F
100
AcDbEntity
  8
GR1-1
  6
CONTINUOUS
 62
     3
100
AcDbLine
 10
412.094274
 20
216.362909
 30
0.0
 11
412.094274
 21
207.112909
 31
0.0
  0
ARC
  5
1B1
330
1F
100
AcDbEntity
  8
GR1-1
  6
CONTINUOUS
 62
     3
100
AcDbCircle
 10
420.384464
 20
182.129834
 30
0.0
 40
26.32263887074231
100
AcDbArc
 50
108.357509
 51
152.919727
  0
ARC
  5
1B2
330
1F
100
AcDbEntity
  8
GR1-1
  6
CONTINUOUS
 62
     3
100
AcDbCircle
 10
488.813185
 20
141.636776
 30
0.0
 40
105.7971300497176
100
AcDbArc
 50
150.263815
 51
155.736185
  0
LINE
  5
1B3
330
1F
100
AcDbEntity
  8
GR1-1
  6
CONTINUOUS
 62
     3
100
AcDbLine
 10
324.009366
 20
212.465689
 30
0.0
 11
313.738465
 21
212.461786
 31
0.0
  0
ARC
  5
1B4
330
1F
100
AcDbEntity
  8
GR1-1
  6
CONTINUOUS
 62
     3
100
AcDbCircle
 10
297.934148
 20
204.466476
 30
0.0
 40
1.5
100
AcDbArc
 50
3.087943
 51
103.0
  0
ARC
  5
1B5
330
1F
100
AcDbEntity
  8
GR1-1
  6
CONTINUOUS
 62
     3
100
AcDbCircle
 10
317.405834
 20
205.516916
 30
0.0
 40
18.0
100
AcDbArc
 50
183.087943
 51
256.277485
  0
ARC
  5
1B6
330
1F
100
AcDbEntity
  8
GR1-1
  6
CONTINUOUS
 62
     3
100
AcDbCircle
 10
331.044274
 20
227.162909
 30
0.0
 40
0.8
100
AcDbArc
 50
-55.532303
 51
90.0
  0
LINE
  5
1B7
330
1F
100
AcDbEntity
  8
GR1-1
  6
CONTINUOUS
 62
     3
100
AcDbLine
 10
331.785894
 20
227.462909
 30
0.0
 11
333.594274
 21
229.962909
 31
0.0
  0
CIRCLE
  5
1B8
330
1F
100
AcDbEntity
  8
GR1-1
  6
CONTINUOUS
 62
     3
100
AcDbCircle
 10
394.844274
 20
221.462909
 30
0.0
 40
2.1
  0
LINE
  5
1B9
330
1F
100
AcDbEntity
  8
GR1-1
  6
CONTINUOUS
 62
     3
100
AcDbLine
 10
413.594274
 20
219.662909
 30
0.0
 11
413.594274
 21
225.962909
 31
0.0
  0
ARC
  5
1BA
330
1F
100
AcDbEntity
  8
GR1-1
  6
CONTINUOUS
 62
     3
100
AcDbCircle
 10
409.594274
 20
225.962909
 30
0.0
 40
4.0
100
AcDbArc
 50
0.0
 51
25.104612
  0
ARC
  5
1BB
330
1F
100
AcDbEntity
  8
GR1-1
  6
CONTINUOUS
 62
     3
100
AcDbCircle
 10
415.005615
 20
232.133031
 30
0.0
 40
4.473032676673776
100
AcDbArc
 50
270.0
 51
323.349108
  0
LINE
  5
1BC
330
1F
100
AcDbEntity
  8
GR1-1
  6
CONTINUOUS
 62
     3
100
AcDbLine
 10
418.594274
 20
229.462909
 30
0.0
 11
418.594274
 21
229.962909
 31
0.0
  0
LINE
  5
1BD
330
1F
100
AcDbEntity
  8
GR1-1
  6
CONTINUOUS
 62
     3
100
AcDbLine
 10
415.005615
 20
227.659999
 30
0.0
 11
376.094274
 21
227.659999
 31
0.0
  0
LINE
  5
1BE
330
1F
100
AcDbEntity
  8
GR1-1
  6
CONTINUOUS
 62
     3
100
AcDbLine
 10
376.094274
 20
229.962909
 30
0.0
 11
427.094274
 21
229.962909
 31
0.0
  0
ARC
  5
1BF
330
1F
100
AcDbEntity
  8
GR1-1
  6
CONTINUOUS
 62
     3
100
AcDbCircle
 10
418.094274
 20
219.662909
 30
0.0
 40
4.5
100
AcDbArc
 50
180.0
 51
220.926063
  0
LINE
  5
1C0
330
1F
100
AcDbEntity
  8
GR1-1
  6
CONTINUOUS
 62
     3
100
AcDbLine
 10
110.439475
 20
99.912909
 30
0.0
 11
110.439475
 21
206.912909
 31
0.0
  0
ARC
  5
1C1
330
1F
100
AcDbEntity
  8
GR1-1
  6
CONTINUOUS
 62
     3
100
AcDbCircle
 10
110.939475
 20
206.912909
 30
0.0
 40
0.5
100
AcDbArc
 50
90.0
 51
180.0
  0
LINE
  5
1C2
330
1F
100
AcDbEntity
  8
GR1-1
  6
CONTINUOUS
 62
     3
100
AcDbLine
 10
110.939475
 20
204.369278
 30
0.0
 11
164.939475
 21
204.369278
 31
0.0
  0
LINE
  5
1C3
330
1F
100
AcDbEntity
  8
GR1-1
  6
CONTINUOUS
 62
     3
100
AcDbLine
 10
165.439475
 20
206.912909
 30
0.0
 11
165.439475
 21
99.912909
 31
0.0
  0
LINE
  5
1C4
330
1F
100
AcDbEntity
  8
GR1-1
  6
CONTINUOUS
 62
     3
100
AcDbLine
 10
165.439475
 20
99.912909
 30
0.0
 11
168.439475
 21
99.912909
 31
0.0
  0
LINE
  5
1C5
330
1F
100
AcDbEntity
  8
GR1-1
  6
CONTINUOUS
 62
     3
100
AcDbLine
 10
168.439475
 20
99.912909
 30
0.0
 11
168.439475
 21
206.412909
 31
0.0
  0
ARC
  5
1C6
330
1F
100
AcDbEntity
  8
GR1-1
  6
CONTINUOUS
 62
     3
100
AcDbCircle
 10
164.439475
 20
206.412909
 30
0.0
 40
4.0
100
AcDbArc
 50
0.0
 51
82.819244
  0
ARC
  5
1C7
330
1F
100
AcDbEntity
  8
GR1-1
  6
CONTINUOUS
 62
     3
100
AcDbCircle
 10
160.939475
 20
212.168574
 30
0.0
 40
4.0
100
AcDbArc
 50
0.0
 51
90.0
  0
LINE
  5
1C8
330
1F
100
AcDbEntity
  8
GR1-1
  6
CONTINUOUS
 62
     3
100
AcDbLine
 10
160.939475
 20
216.168574
 30
0.0
 11
114.939475
 21
216.168574
 31
0.0
  0
ARC
  5
1C9
330
1F
100
AcDbEntity
  8
GR1-1
  6
CONTINUOUS
 62
     3
100
AcDbCircle
 10
114.939475
 20
212.168574
 30
0.0
 40
4.0
100
AcDbArc
 50
90.0
 51
180.0
  0
ARC
  5
1CA
330
1F
100
AcDbEntity
  8
GR1-1
  6
CONTINUOUS
 62
     3
100
AcDbCircle
 10
111.439475
 20
206.412909
 30
0.0
 40
4.0
100
AcDbArc
 50
97.180756
 51
180.0
  0
LINE
  5
1CB
330
1F
100
AcDbEntity
  8
GR1-1
  6
CONTINUOUS
 62
     3
100
AcDbLine
 10
107.439475
 20
206.412909
 30
0.0
 11
107.439475
 21
99.912909
 31
0.0
  0
LINE
  5
1CC
330
1F
100
AcDbEntity
  8
GR1-1
  6
CONTINUOUS
 62
     3
100
AcDbLine
 10
107.439475
 20
99.912909
 30
0.0
 11
110.439475
 21
99.912909
 31
0.0
  0
LINE
  5
1CD
330
1F
100
AcDbEntity
  8
GR1-1
  6
CONTINUOUS
 62
     3
100
AcDbLine
 10
97.439475
 20
124.962909
 30
0.0
 11
95.939475
 21
124.962909
 31
0.0
  0
LINE
  5
1CE
330
1F
100
AcDbEntity
  8
GR1-1
  6
CONTINUOUS
 62
     3
100
AcDbLine
 10
95.939475
 20
124.962909
 30
0.0
 11
94.939475
 21
124.015909
 31
0.0
  0
LINE
  5
1CF
330
1F
100
AcDbEntity
  8
GR1-1
  6
CONTINUOUS
 62
     3
100
AcDbLine
 10
94.939475
 20
124.015909
 30
0.0
 11
94.939475
 21
113.909909
 31
0.0
  0
LINE
  5
1D0
330
1F
100
AcDbEntity
  8
GR1-1
  6
CONTINUOUS
 62
     3
100
AcDbLine
 10
94.939475
 20
113.909909
 30
0.0
 11
95.939475
 21
112.962909
 31
0.0
  0
LINE
  5
1D1
330
1F
100
AcDbEntity
  8
GR1-1
  6
CONTINUOUS
 62
     3
100
AcDbLine
 10
95.939475
 20
112.962909
 30
0.0
 11
97.439475
 21
112.962909
 31
0.0
  0
LINE
  5
1D2
330
1F
100
AcDbEntity
  8
GR1-1
  6
CONTINUOUS
 62
     3
100
AcDbLine
 10
101.939475
 20
154.112909
 30
0.0
 11
101.939475
 21
216.362909
 31
0.0
  0
LINE
  5
1D3
330
1F
100
AcDbEntity
  8
GR1-1
  6
CONTINUOUS
 62
     3
100
AcDbLine
 10
100.339475
 20
216.362909
 30
0.0
 11
111.42916
 21
216.362909
 31
0.0
  0
LINE
  5
1D4
330
1F
100
AcDbEntity
  8
GR1-1
  6
CONTINUOUS
 62
     3
100
AcDbLine
 10
110.939475
 20
214.321494
 30
0.0
 11
110.939475
 21
176.167255
 31
0.0
  0
LINE
  5
1D5
330
1F
100
AcDbEntity
  8
GR1-1
  6
CONTINUOUS
 62
     3
100
AcDbLine
 10
110.939475
 20
176.167255
 30
0.0
 11
114.139475
 21
176.167255
 31
0.0
  0
LINE
  5
1D6
330
1F
100
AcDbEntity
  8
GR1-1
  6
CONTINUOUS
 62
     3
100
AcDbLine
 10
114.139475
 20
176.167255
 30
0.0
 11
114.139475
 21
204.369278
 31
0.0
  0
LINE
  5
1D7
330
1F
100
AcDbEntity
  8
GR1-1
  6
CONTINUOUS
 62
     3
100
AcDbLine
 10
114.139475
 20
200.962909
 30
0.0
 11
122.839475
 21
200.962909
 31
0.0
  0
LINE
  5
1D8
330
1F
100
AcDbEntity
  8
GR1-1
  6
CONTINUOUS
 62
     3
100
AcDbLine
 10
122.839475
 20
201.612909
 30
0.0
 11
122.839475
 21
194.312909
 31
0.0
  0
ARC
  5
1D9
330
1F
100
AcDbEntity
  8
GR1-1
  6
CONTINUOUS
 62
     3
100
AcDbCircle
 10
123.439475
 20
194.312909
 30
0.0
 40
0.5999999999999801
100
AcDbArc
 50
-180.0
 51
0.0
  0
LINE
  5
1DA
330
1F
100
AcDbEntity
  8
GR1-1
  6
CONTINUOUS
 62
     3
100
AcDbLine
 10
124.039475
 20
194.312909
 30
0.0
 11
124.039475
 21
201.612909
 31
0.0
  0
ARC
  5
1DB
330
1F
100
AcDbEntity
  8
GR1-1
  6
CONTINUOUS
 62
     3
100
AcDbCircle
 10
123.439475
 20
201.612909
 30
0.0
 40
0.5999999999999801
100
AcDbArc
 50
0.0
 51
180.0
  0
LINE
  5
1DC
330
1F
100
AcDbEntity
  8
GR1-1
  6
CONTINUOUS
 62
     3
100
AcDbLine
 10
124.039475
 20
200.962909
 30
0.0
 11
124.939475
 21
200.962909
 31
0.0
  0
LINE
  5
1DD
330
1F
100
AcDbEntity
  8
GR1-1
  6
CONTINUOUS
 62
     3
100
AcDbLine
 10
150.839475
 20
197.819284
 30
0.0
 11
150.839475
 21
194.312909
 31
0.0
  0
ARC
  5
1DE
330
1F
100
AcDbEntity
  8
GR1-1
  6
CONTINUOUS
 62
     3
100
AcDbCircle
 10
151.439475
 20
194.312909
 30
0.0
 40
0.5999999999999801
100
AcDbArc
 50
-180.0
 51
0.0
  0
LINE
  5
1DF
330
1F
100
AcDbEntity
  8
GR1-1
  6
CONTINUOUS
 62
     3
100
AcDbLine
 10
152.039475
 20
194.312909
 30
0.0
 11
152.039475
 21
197.819284
 31
0.0
  0
LINE
  5
1E0
330
1F
100
AcDbEntity
  8
GR1-1
  6
CONTINUOUS
 62
     3
100
AcDbLine
 10
164.939475
 20
200.962909
 30
0.0
 11
165.439475
 21
200.962909
 31
0.0
  0
LINE
  5
1E1
330
1F
100
AcDbEntity
  8
GR1-1
  6
CONTINUOUS
 62
     3
100
AcDbLine
 10
161.739475
 20
204.369278
 30
0.0
 11
161.739475
 21
176.167255
 31
0.0
  0
LINE
  5
1E2
330
1F
100
AcDbEntity
  8
GR1-1
  6
CONTINUOUS
 62
     3
100
AcDbLine
 10
161.739475
 20
176.167255
 30
0.0
 11
164.939475
 21
176.167255
 31
0.0
  0
LINE
  5
1E3
330
1F
100
AcDbEntity
  8
GR1-1
  6
CONTINUOUS
 62
     3
100
AcDbLine
 10
164.939475
 20
176.167255
 30
0.0
 11
164.939475
 21
214.321494
 31
0.0
  0
ARC
  5
1E4
330
1F
100
AcDbEntity
  8
GR1-1
  6
CONTINUOUS
 62
     3
100
AcDbCircle
 10
160.439475
 20
214.321494
 30
0.0
 40
4.5
100
AcDbArc
 50
0.0
 51
90.0
  0
LINE
  5
1E5
330
1F
100
AcDbEntity
  8
GR1-1
  6
CONTINUOUS
 62
     3
100
AcDbLine
 10
160.439475
 20
218.821494
 30
0.0
 11
115.439475
 21
218.821494
 31
0.0
  0
ARC
  5
1E6
330
1F
100
AcDbEntity
  8
GR1-1
  6
CONTINUOUS
 62
     3
100
AcDbCircle
 10
115.439475
 20
214.321494
 30
0.0
 40
4.5
100
AcDbArc
 50
90.0
 51
180.0
  0
LINE
  5
1E7
330
1F
100
AcDbEntity
  8
GR1-1
  6
CONTINUOUS
 62
     3
100
AcDbLine
 10
100.339475
 20
216.362909
 30
0.0
 11
99.339475
 21
216.715029
 31
0.0
  0
ARC
  5
1E8
330
1F
100
AcDbEntity
  8
GR1-1
  6
CONTINUOUS
 62
     3
100
AcDbCircle
 10
95.939475
 20
219.662909
 30
0.0
 40
4.5
100
AcDbArc
 50
319.073937
 51
360.0
  0
LINE
  5
1E9
330
1F
100
AcDbEntity
  8
GR1-1
  6
CONTINUOUS
 62
     3
100
AcDbLine
 10
100.439475
 20
219.662909
 30
0.0
 11
100.439475
 21
225.962909
 31
0.0
  0
ARC
  5
1EA
330
1F
100
AcDbEntity
  8
GR1-1
  6
CONTINUOUS
 62
     3
100
AcDbCircle
 10
104.439475
 20
225.962909
 30
0.0
 40
4.0
100
AcDbArc
 50
154.895388
 51
180.0
  0
LINE
  5
1EB
330
1F
100
AcDbEntity
  8
GR1-1
  6
CONTINUOUS
 62
     3
100
AcDbLine
 10
99.028134
 20
227.659999
 30
0.0
 11
123.792386
 21
227.659999
 31
0.0
  0
LINE
  5
1EC
330
1F
100
AcDbEntity
  8
GR1-1
  6
CONTINUOUS
 62
     3
100
AcDbLine
 10
123.989475
 20
227.462909
 30
0.0
 11
121.489475
 21
229.962909
 31
0.0
  0
LINE
  5
1ED
330
1F
100
AcDbEntity
  8
GR1-1
  6
CONTINUOUS
 62
     3
100
AcDbLine
 10
123.989475
 20
229.962909
 30
0.0
 11
123.989475
 21
218.821494
 31
0.0
  0
LINE
  5
1EE
330
1F
100
AcDbEntity
  8
GR1-1
  6
CONTINUOUS
 62
     3
100
AcDbLine
 10
107.439475
 20
202.362909
 30
0.0
 11
106.939475
 21
202.362909
 31
0.0
  0
ARC
  5
1EF
330
1F
100
AcDbEntity
  8
GR1-1
  6
CONTINUOUS
 62
     3
100
AcDbCircle
 10
106.939475
 20
201.362909
 30
0.0
 40
1.0
100
AcDbArc
 50
90.0
 51
180.0
  0
LINE
  5
1F0
330
1F
100
AcDbEntity
  8
GR1-1
  6
CONTINUOUS
 62
     3
100
AcDbLine
 10
105.939475
 20
201.362909
 30
0.0
 11
105.939475
 21
194.562909
 31
0.0
  0
ARC
  5
1F1
330
1F
100
AcDbEntity
  8
GR1-1
  6
CONTINUOUS
 62
     3
100
AcDbCircle
 10
106.939475
 20
194.562909
 30
0.0
 40
1.0
100
AcDbArc
 50
180.0
 51
270.0
  0
LINE
  5
1F2
330
1F
100
AcDbEntity
  8
GR1-1
  6
CONTINUOUS
 62
     3
100
AcDbLine
 10
106.939475
 20
193.562909
 30
0.0
 11
107.439475
 21
193.562909
 31
0.0
  0
LINE
  5
1F3
330
1F
100
AcDbEntity
  8
GR1-1
  6
CONTINUOUS
 62
     3
100
AcDbLine
 10
110.439475
 20
194.162909
 30
0.0
 11
110.939475
 21
194.162909
 31
0.0
  0
LINE
  5
1F4
330
1F
100
AcDbEntity
  8
GR1-1
  6
CONTINUOUS
 62
     3
100
AcDbLine
 10
114.139475
 20
194.162909
 30
0.0
 11
119.192526
 21
194.162909
 31
0.0
  0
ARC
  5
1F5
330
1F
100
AcDbEntity
  8
GR1-1
  6
CONTINUOUS
 62
     3
100
AcDbCircle
 10
123.439475
 20
193.685532
 30
0.0
 40
4.249999999999986
100
AcDbArc
 50
-184.307284
 51
4.307284
  0
LINE
  5
1F6
330
1F
100
AcDbEntity
  8
GR1-1
  6
CONTINUOUS
 62
     3
100
AcDbLine
 10
124.039475
 20
188.839701
 30
0.0
 11
124.039475
 21
187.512909
 31
0.0
  0
LINE
  5
1F7
330
1F
100
AcDbEntity
  8
GR1-1
  6
CONTINUOUS
 62
     3
100
AcDbLine
 10
124.039475
 20
188.162909
 30
0.0
 11
125.454503
 21
188.162909
 31
0.0
  0
LINE
  5
1F8
330
1F
100
AcDbEntity
  8
GR1-1
  6
CONTINUOUS
 62
     3
100
AcDbLine
 10
122.839475
 20
188.162909
 30
0.0
 11
114.139475
 21
188.162909
 31
0.0
  0
LINE
  5
1F9
330
1F
100
AcDbEntity
  8
GR1-1
  6
CONTINUOUS
 62
     3
100
AcDbLine
 10
110.939475
 20
188.162909
 30
0.0
 11
110.439475
 21
188.162909
 31
0.0
  0
LINE
  5
1FA
330
1F
100
AcDbEntity
  8
GR1-1
  6
CONTINUOUS
 62
     3
100
AcDbLine
 10
114.139475
 20
194.962909
 30
0.0
 11
122.839475
 21
194.962909
 31
0.0
  0
LINE
  5
1FB
330
1F
100
AcDbEntity
  8
GR1-1
  6
CONTINUOUS
 62
     3
100
AcDbLine
 10
124.039475
 20
194.962909
 30
0.0
 11
150.839475
 21
194.962909
 31
0.0
  0
LINE
  5
1FC
330
1F
100
AcDbEntity
  8
GR1-1
  6
CONTINUOUS
 62
     3
100
AcDbLine
 10
152.039475
 20
194.962909
 30
0.0
 11
161.488719
 21
194.962909
 31
0.0
  0
LINE
  5
1FD
330
1F
100
AcDbEntity
  8
GR1-1
  6
CONTINUOUS
 62
     3
100
AcDbLine
 10
161.739475
 20
194.162909
 30
0.0
 11
155.686424
 21
194.162909
 31
0.0
  0
ARC
  5
1FE
330
1F
100
AcDbEntity
  8
GR1-1
  6
CONTINUOUS
 62
     3
100
AcDbCircle
 10
151.439475
 20
194.962325
 30
0.0
 40
4.249999999999986
100
AcDbArc
 50
-174.974598
 51
0.007876
  0
ARC
  5
1FF
330
1F
100
AcDbEntity
  8
GR1-1
  6
CONTINUOUS
 62
     3
100
AcDbCircle
 10
151.439475
 20
196.832348
 30
0.0
 40
3.049999999999997
100
AcDbArc
 50
217.801716
 51
322.198284
  0
ARC
  5
200
330
1F
100
AcDbEntity
  8
GR1-1
  6
CONTINUOUS
 62
     3
100
AcDbCircle
 10
151.439475
 20
195.600722
 30
0.0
 40
4.249999999999986
100
AcDbArc
 50
188.631187
 51
351.368453
  0
ARC
  5
201
330
1F
100
AcDbEntity
  8
GR1-1
  6
CONTINUOUS
 62
     3
100
AcDbCircle
 10
151.439475
 20
194.323928
 30
0.0
 40
4.249999999999986
100
AcDbArc
 50
-119.522496
 51
4.307284
  0
LINE
  5
202
330
1F
100
AcDbEntity
  8
GR1-1
  6
CONTINUOUS
 62
     3
100
AcDbLine
 10
152.039475
 20
188.839701
 30
0.0
 11
152.039475
 21
187.512909
 31
0.0
  0
ARC
  5
203
330
1F
100
AcDbEntity
  8
GR1-1
  6
CONTINUOUS
 62
     3
100
AcDbCircle
 10
151.439475
 20
187.512909
 30
0.0
 40
0.5999999999999943
100
AcDbArc
 50
180.0
 51
360.0
  0
LINE
  5
204
330
1F
100
AcDbEntity
  8
GR1-1
  6
CONTINUOUS
 62
     3
100
AcDbLine
 10
150.424447
 20
188.162909
 30
0.0
 11
150.839475
 21
188.162909
 31
0.0
  0
LINE
  5
205
330
1F
100
AcDbEntity
  8
GR1-1
  6
CONTINUOUS
 62
     3
100
AcDbLine
 10
164.939475
 20
188.162909
 30
0.0
 11
165.439475
 21
188.162909
 31
0.0
  0
ARC
  5
206
330
1F
100
AcDbEntity
  8
GR1-1
  6
CONTINUOUS
 62
     3
100
AcDbCircle
 10
163.296618
 20
197.962909
 30
0.0
 40
7.242857142857156
100
AcDbArc
 50
-44.76027
 51
44.76027
  0
ARC
  5
207
330
1F
100
AcDbEntity
  8
GR1-1
  6
CONTINUOUS
 62
     3
100
AcDbCircle
 10
164.939475
 20
206.912909
 30
0.0
 40
0.5
100
AcDbArc
 50
0.0
 51
90.0
  0
LINE
  5
208
330
1F
100
AcDbEntity
  8
GR1-1
  6
CONTINUOUS
 62
     3
100
AcDbLine
 10
164.44979
 20
216.362909
 30
0.0
 11
175.539475
 21
216.362909
 31
0.0
  0
LINE
  5
209
330
1F
100
AcDbEntity
  8
GR1-1
  6
CONTINUOUS
 62
     3
100
AcDbLine
 10
175.539475
 20
216.362909
 30
0.0
 11
176.539475
 21
216.715029
 31
0.0
  0
LINE
  5
20A
330
1F
100
AcDbEntity
  8
GR1-1
  6
CONTINUOUS
 62
     3
100
AcDbLine
 10
173.939475
 20
216.362909
 30
0.0
 11
173.939475
 21
174.587503
 31
0.0
  0
ARC
  5
20B
330
1F
100
AcDbEntity
  8
GR1-1
  6
CONTINUOUS
 62
     3
100
AcDbCircle
 10
236.898108
 20
163.641219
 30
0.0
 40
135.2945721841073
100
AcDbArc
 50
184.038478
 51
195.070817
  0
ARC
  5
20C
330
1F
100
AcDbEntity
  8
GR1-1
  6
CONTINUOUS
 62
     3
100
AcDbCircle
 10
123.439475
 20
187.512909
 30
0.0
 40
0.5999999999999943
100
AcDbArc
 50
180.0
 51
360.0
  0
LINE
  5
20D
330
1F
100
AcDbEntity
  8
GR1-1
  6
CONTINUOUS
 62
     3
100
AcDbLine
 10
122.839475
 20
187.512909
 30
0.0
 11
122.839475
 21
188.839701
 31
0.0
  0
LINE
  5
20E
330
1F
100
AcDbEntity
  8
GR1-1
  6
CONTINUOUS
 62
     3
100
AcDbLine
 10
127.686424
 20
194.162909
 30
0.0
 11
147.192526
 21
194.162909
 31
0.0
  0
ARC
  5
20F
330
1F
100
AcDbEntity
  8
GR1-1
  6
CONTINUOUS
 62
     3
100
AcDbCircle
 10
151.439475
 20
193.685532
 30
0.0
 40
4.249999999999986
100
AcDbArc
 50
175.692716
 51
194.118046
  0
ARC
  5
210
330
1F
100
AcDbEntity
  8
GR1-1
  6
CONTINUOUS
 62
     3
100
AcDbCircle
 10
151.439475
 20
193.047135
 30
0.0
 40
4.249999999999986
100
AcDbArc
 50
175.692716
 51
184.45661
  0
ARC
  5
211
330
1F
100
AcDbEntity
  8
GR1-1
  6
CONTINUOUS
 62
     3
100
AcDbCircle
 10
151.439475
 20
194.323928
 30
0.0
 40
4.249999999999986
100
AcDbArc
 50
175.692716
 51
206.153978
  0
ARC
  5
212
330
1F
100
AcDbEntity
  8
GR1-1
  6
CONTINUOUS
 62
     3
100
AcDbCircle
 10
151.439475
 20
196.239118
 30
0.0
 40
4.249999999999986
100
AcDbArc
 50
197.476182
 51
342.517051
  0
ARC
  5
213
330
1F
100
AcDbEntity
  8
GR1-1
  6
CONTINUOUS
 62
     3
100
AcDbCircle
 10
151.439475
 20
193.685532
 30
0.0
 40
4.249999999999986
100
AcDbArc
 50
-113.09059
 51
4.307284
  0
ARC
  5
214
330
1F
100
AcDbEntity
  8
GR1-1
  6
CONTINUOUS
 62
     3
100
AcDbCircle
 10
151.439475
 20
193.047135
 30
0.0
 40
4.249999999999986
100
AcDbArc
 50
-108.688668
 51
4.307284
  0
ARC
  5
215
330
1F
100
AcDbEntity
  8
GR1-1
  6
CONTINUOUS
 62
     3
100
AcDbCircle
 10
151.439475
 20
196.861297
 30
0.0
 40
4.249999999999986
100
AcDbArc
 50
206.661909
 51
333.338091
  0
ARC
  5
216
330
1F
100
AcDbEntity
  8
GR1-1
  6
CONTINUOUS
 62
     3
100
AcDbCircle
 10
151.439475
 20
194.962325
 30
0.0
 40
4.249999999999986
100
AcDbArc
 50
180.0
 51
207.997766
  0
LINE
  5
217
330
1F
100
AcDbEntity
  8
GR1-1
  6
CONTINUOUS
 62
     3
100
AcDbLine
 10
164.939475
 20
194.162909
 30
0.0
 11
165.439475
 21
194.162909
 31
0.0
  0
LINE
  5
218
330
1F
100
AcDbEntity
  8
GR1-1
  6
CONTINUOUS
 62
     3
100
AcDbLine
 10
165.439475
 20
194.962909
 30
0.0
 11
164.939475
 21
194.962909
 31
0.0
  0
ARC
  5
219
330
1F
100
AcDbEntity
  8
GR1-1
  6
CONTINUOUS
 62
     3
100
AcDbCircle
 10
168.796618
 20
191.162909
 30
0.0
 40
7.242857142857156
100
AcDbArc
 50
-44.76027
 51
44.76027
  0
ARC
  5
21A
330
1F
100
AcDbEntity
  8
GR1-1
  6
CONTINUOUS
 62
     3
100
AcDbCircle
 10
179.939475
 20
219.662909
 30
0.0
 40
4.5
100
AcDbArc
 50
180.0
 51
220.926063
  0
LINE
  5
21B
330
1F
100
AcDbEntity
  8
GR1-1
  6
CONTINUOUS
 62
     3
100
AcDbLine
 10
175.439475
 20
219.662909
 30
0.0
 11
175.439475
 21
225.962909
 31
0.0
  0
ARC
  5
21C
330
1F
100
AcDbEntity
  8
GR1-1
  6
CONTINUOUS
 62
     3
100
AcDbCircle
 10
171.439475
 20
225.962909
 30
0.0
 40
4.0
100
AcDbArc
 50
0.0
 51
25.104612
  0
ARC
  5
21D
330
1F
100
AcDbEntity
  8
GR1-1
  6
CONTINUOUS
 62
     3
100
AcDbCircle
 10
176.850817
 20
232.133031
 30
0.0
 40
4.473032676673776
100
AcDbArc
 50
270.0
 51
323.349108
  0
LINE
  5
21E
330
1F
100
AcDbEntity
  8
GR1-1
  6
CONTINUOUS
 62
     3
100
AcDbLine
 10
180.439475
 20
229.462909
 30
0.0
 11
180.439475
 21
229.962909
 31
0.0
  0
LINE
  5
21F
330
1F
100
AcDbEntity
  8
GR1-1
  6
CONTINUOUS
 62
     3
100
AcDbLine
 10
176.850817
 20
227.659999
 30
0.0
 11
152.086564
 21
227.659999
 31
0.0
  0
LINE
  5
220
330
1F
100
AcDbEntity
  8
GR1-1
  6
CONTINUOUS
 62
     3
100
AcDbLine
 10
151.889475
 20
227.462909
 30
0.0
 11
154.389475
 21
229.962909
 31
0.0
  0
LINE
  5
221
330
1F
100
AcDbEntity
  8
GR1-1
  6
CONTINUOUS
 62
     3
100
AcDbLine
 10
151.889475
 20
229.962909
 30
0.0
 11
151.889475
 21
218.821494
 31
0.0
  0
ARC
  5
222
330
1F
100
AcDbEntity
  8
GR1-1
  6
CONTINUOUS
 62
     3
100
AcDbCircle
 10
123.439475
 20
193.047135
 30
0.0
 40
4.249999999999986
100
AcDbArc
 50
-16.353564
 51
4.307284
  0
ARC
  5
223
330
1F
100
AcDbEntity
  8
GR1-1
  6
CONTINUOUS
 62
     3
100
AcDbCircle
 10
123.439475
 20
196.832348
 30
0.0
 40
3.049999999999997
100
AcDbArc
 50
217.801716
 51
322.198284
  0
ARC
  5
224
330
1F
100
AcDbEntity
  8
GR1-1
  6
CONTINUOUS
 62
     3
100
AcDbCircle
 10
123.439475
 20
196.861297
 30
0.0
 40
4.249999999999986
100
AcDbArc
 50
206.661909
 51
333.338091
  0
ARC
  5
225
330
1F
100
AcDbEntity
  8
GR1-1
  6
CONTINUOUS
 62
     3
100
AcDbCircle
 10
123.439475
 20
196.239118
 30
0.0
 40
4.249999999999986
100
AcDbArc
 50
197.476182
 51
342.517051
  0
ARC
  5
226
330
1F
100
AcDbEntity
  8
GR1-1
  6
CONTINUOUS
 62
     3
100
AcDbCircle
 10
123.439475
 20
195.600722
 30
0.0
 40
4.249999999999986
100
AcDbArc
 50
188.639153
 51
351.368453
  0
ARC
  5
227
330
1F
100
AcDbEntity
  8
GR1-1
  6
CONTINUOUS
 62
     3
100
AcDbCircle
 10
123.439475
 20
194.323928
 30
0.0
 40
4.249999999999986
100
AcDbArc
 50
-184.307284
 51
4.307284
  0
ARC
  5
228
330
1F
100
AcDbEntity
  8
GR1-1
  6
CONTINUOUS
 62
     3
100
AcDbCircle
 10
123.439475
 20
193.047135
 30
0.0
 40
4.249999999999986
100
AcDbArc
 50
175.692716
 51
308.475724
  0
ARC
  5
229
330
1F
100
AcDbEntity
  8
GR1-1
  6
CONTINUOUS
 62
     3
100
AcDbCircle
 10
123.439475
 20
194.962325
 30
0.0
 40
4.249999999999986
100
AcDbArc
 50
-180.0
 51
0.007876
  0
LINE
  5
22A
330
1F
100
AcDbEntity
  8
GR1-1
  6
CONTINUOUS
 62
     3
100
AcDbLine
 10
101.939475
 20
200.062909
 30
0.0
 11
99.939475
 21
200.062909
 31
0.0
  0
LINE
  5
22B
330
1F
100
AcDbEntity
  8
GR1-1
  6
CONTINUOUS
 62
     3
100
AcDbLine
 10
99.939475
 20
200.062909
 30
0.0
 11
99.939475
 21
182.262909
 31
0.0
  0
LINE
  5
22C
330
1F
100
AcDbEntity
  8
GR1-1
  6
CONTINUOUS
 62
     3
100
AcDbLine
 10
99.939475
 20
182.262909
 30
0.0
 11
101.939475
 21
182.262909
 31
0.0
  0
LINE
  5
22D
330
1F
100
AcDbEntity
  8
GR1-1
  6
CONTINUOUS
 62
     3
100
AcDbLine
 10
99.939475
 20
186.762909
 30
0.0
 11
99.439475
 21
186.762909
 31
0.0
  0
LINE
  5
22E
330
1F
100
AcDbEntity
  8
GR1-1
  6
CONTINUOUS
 62
     3
100
AcDbLine
 10
98.439475
 20
187.762909
 30
0.0
 11
98.439475
 21
194.562909
 31
0.0
  0
ARC
  5
22F
330
1F
100
AcDbEntity
  8
GR1-1
  6
CONTINUOUS
 62
     3
100
AcDbCircle
 10
99.439475
 20
194.562909
 30
0.0
 40
1.0
100
AcDbArc
 50
90.0
 51
180.0
  0
LINE
  5
230
330
1F
100
AcDbEntity
  8
GR1-1
  6
CONTINUOUS
 62
     3
100
AcDbLine
 10
99.439475
 20
195.562909
 30
0.0
 11
99.939475
 21
195.562909
 31
0.0
  0
ARC
  5
231
330
1F
100
AcDbEntity
  8
GR1-1
  6
CONTINUOUS
 62
     3
100
AcDbCircle
 10
99.439475
 20
187.762909
 30
0.0
 40
1.0
100
AcDbArc
 50
180.0
 51
270.0
  0
LINE
  5
232
330
1F
100
AcDbEntity
  8
GR1-1
  6
CONTINUOUS
 62
     3
100
AcDbLine
 10
95.439475
 20
229.462909
 30
0.0
 11
95.439475
 21
229.962909
 31
0.0
  0
ARC
  5
233
330
1F
100
AcDbEntity
  8
GR1-1
  6
CONTINUOUS
 62
     3
100
AcDbCircle
 10
99.028134
 20
232.133031
 30
0.0
 40
4.473032676673776
100
AcDbArc
 50
216.650892
 51
270.0
  0
LINE
  5
234
330
1F
100
AcDbEntity
  8
GR1-1
  6
CONTINUOUS
 62
     3
100
AcDbLine
 10
86.939475
 20
229.962909
 30
0.0
 11
86.939475
 21
233.962909
 31
0.0
  0
LINE
  5
235
330
1F
100
AcDbEntity
  8
GR1-1
  6
CONTINUOUS
 62
     3
100
AcDbLine
 10
86.939475
 20
233.962909
 30
0.0
 11
188.939475
 21
233.962909
 31
0.0
  0
LINE
  5
236
330
1F
100
AcDbEntity
  8
GR1-1
  6
CONTINUOUS
 62
     3
100
AcDbLine
 10
188.939475
 20
233.962909
 30
0.0
 11
188.939475
 21
229.962909
 31
0.0
  0
LINE
  5
237
330
1F
100
AcDbEntity
  8
GR1-1
  6
CONTINUOUS
 62
     3
100
AcDbLine
 10
188.939475
 20
229.962909
 30
0.0
 11
86.939475
 21
229.962909
 31
0.0
  0
LINE
  5
238
330
1F
100
AcDbEntity
  8
GR1-1
  6
CENTER
 62
     6
100
AcDbLine
 10
151.439475
 20
193.370552
 30
0.0
 11
151.439475
 21
198.525468
 31
0.0
  0
ARC
  5
239
330
1F
100
AcDbEntity
  8
GR1-1
  6
CONTINUOUS
 62
     6
100
AcDbCircle
 10
156.570825
 20
206.654478
 30
0.0
 40
1.118650000000017
100
AcDbArc
 50
-90.0
 51
90.0
  0
LINE
  5
23A
330
1F
100
AcDbEntity
  8
GR1-1
  6
CONTINUOUS
 62
     6
100
AcDbLine
 10
156.572775
 20
207.773127
 30
0.0
 11
119.306175
 21
207.773127
 31
0.0
  0
ARC
  5
23B
330
1F
100
AcDbEntity
  8
GR1-1
  6
CONTINUOUS
 62
     6
100
AcDbCircle
 10
119.308125
 20
206.654478
 30
0.0
 40
1.118650000000017
100
AcDbArc
 50
90.0
 51
270.0
  0
LINE
  5
23C
330
1F
100
AcDbEntity
  8
GR1-1
  6
CONTINUOUS
 62
     6
100
AcDbLine
 10
119.308125
 20
205.535828
 30
0.0
 11
156.570825
 21
205.535828
 31
0.0
  0
LINE
  5
23D
330
1F
100
AcDbEntity
  8
GR1-1
  6
CONTINUOUS
 62
     6
100
AcDbLine
 10
157.683165
 20
206.535828
 30
0.0
 11
118.195785
 21
206.535828
 31
0.0
  0
LINE
  5
23E
330
1F
100
AcDbEntity
  8
GR1-1
  6
CONTINUOUS
 62
     6
100
AcDbLine
 10
119.279235
 20
211.185541
 30
0.0
 11
156.599716
 21
211.185541
 31
0.0
  0
ARC
  5
23F
330
1F
100
AcDbEntity
  8
GR1-1
  6
CONTINUOUS
 62
     6
100
AcDbCircle
 10
156.599716
 20
212.275301
 30
0.0
 40
1.089759531636872
100
AcDbArc
 50
270.0
 51
355.291384
  0
LINE
  5
240
330
1F
100
AcDbEntity
  8
GR1-1
  6
CONTINUOUS
 62
     6
100
AcDbLine
 10
157.685772
 20
212.185541
 30
0.0
 11
118.193178
 21
212.185541
 31
0.0
  0
ARC
  5
241
330
1F
100
AcDbEntity
  8
GR1-1
  6
CONTINUOUS
 62
     6
100
AcDbCircle
 10
119.279235
 20
212.275301
 30
0.0
 40
1.089759531636872
100
AcDbArc
 50
184.708616
 51
270.0
  0
ARC
  5
242
330
1F
100
AcDbEntity
  8
GR1-1
  6
CONTINUOUS
 62
     6
100
AcDbCircle
 10
119.27923
 20
212.275301
 30
0.0
 40
1.089754999999968
100
AcDbArc
 50
90.0
 51
180.0
  0
LINE
  5
243
330
1F
100
AcDbEntity
  8
GR1-1
  6
CONTINUOUS
 62
     6
100
AcDbLine
 10
119.27923
 20
213.365056
 30
0.0
 11
156.59972
 21
213.365056
 31
0.0
  0
ARC
  5
244
330
1F
100
AcDbEntity
  8
GR1-1
  6
CONTINUOUS
 62
     6
100
AcDbCircle
 10
156.59972
 20
212.275301
 30
0.0
 40
1.089754999999968
100
AcDbArc
 50
0.0
 51
90.0
  0
LINE
  5
245
330
1F
100
AcDbEntity
  8
GR1-1
  6
CONTINUOUS
 62
     6
100
AcDbLine
 10
164.250117
 20
216.715029
 30
0.0
 11
176.539475
 21
216.715029
 31
0.0
  0
LINE
  5
246
330
1F
100
AcDbEntity
  8
GR1-1
  6
CENTER
 62
     6
100
AcDbLine
 10
172.615136
 20
197.962909
 30
0.0
 11
104.011402
 21
197.962909
 31
0.0
  0
LINE
  5
247
330
1F
100
AcDbEntity
  8
GR1-1
  6
CENTER
 62
     6
100
AcDbLine
 10
96.541673
 20
191.162909
 30
0.0
 11
177.676422
 21
191.162909
 31
0.0
  0
LINE
  5
248
330
1F
100
AcDbEntity
  8
GR1-1
  6
CENTER
 62
     6
100
AcDbLine
 10
176.206135
 20
118.962909
 30
0.0
 11
93.645362
 21
118.962909
 31
0.0
  0
LINE
  5
249
330
1F
100
AcDbEntity
  8
GR1-1
  6
CONTINUOUS
 62
     6
100
AcDbLine
 10
94.939475
 20
113.909909
 30
0.0
 11
97.439475
 21
113.909909
 31
0.0
  0
LINE
  5
24A
330
1F
100
AcDbEntity
  8
GR1-1
  6
CONTINUOUS
 62
     6
100
AcDbLine
 10
95.939475
 20
112.962909
 30
0.0
 11
95.939475
 21
124.962909
 31
0.0
  0
LINE
  5
24B
330
1F
100
AcDbEntity
  8
GR1-1
  6
CONTINUOUS
 62
     6
100
AcDbLine
 10
97.439475
 20
124.015909
 30
0.0
 11
94.939475
 21
124.015909
 31
0.0
  0
LINE
  5
24C
330
1F
100
AcDbEntity
  8
GR1-1
  6
CENTER
 62
     6
100
AcDbLine
 10
137.939475
 20
41.110592
 30
0.0
 11
137.939475
 21
238.302738
 31
0.0
  0
LINE
  5
24D
330
1F
100
AcDbEntity
  8
GR1-1
  6
CONTINUOUS
 62
     6
100
AcDbLine
 10
111.628833
 20
216.715029
 30
0.0
 11
99.339475
 21
216.715029
 31
0.0
  0
LINE
  5
24E
330
1F
100
AcDbEntity
  8
GR1-1
  6
CENTER
 62
     6
100
AcDbLine
 10
123.439475
 20
202.3891
 30
0.0
 11
123.439475
 21
193.370552
 31
0.0
  0
LINE
  5
24F
330
1F
100
AcDbEntity
  8
GR1-1
  6
CONTINUOUS
 62
     3
100
AcDbLine
 10
269.155179
 20
216.168574
 30
0.0
 11
284.113732
 21
206.078902
 31
0.0
  0
ARC
  5
250
330
1F
100
AcDbEntity
  8
GR1-1
  6
CONTINUOUS
 62
     3
100
AcDbCircle
 10
289.705661
 20
214.369278
 30
0.0
 40
10.0
100
AcDbArc
 50
236.0
 51
258.558585
  0
LINE
  5
251
330
1F
100
AcDbEntity
  8
GR1-1
  6
CENTER
 62
     6
100
AcDbLine
 10
316.694274
 20
233.019375
 30
0.0
 11
316.694274
 21
206.367984
 31
0.0
  0
LINE
  5
252
330
1F
100
AcDbEntity
  8
GR1-1
  6
CENTER
 62
     6
100
AcDbLine
 10
376.094274
 20
237.940448
 30
0.0
 11
376.094274
 21
48.885596
 31
0.0
  0
LINE
  5
253
330
1F
100
AcDbEntity
  8
GR1-1
  6
CONTINUOUS
 62
     6
100
AcDbLine
 10
376.094274
 20
216.715029
 30
0.0
 11
414.694274
 21
216.715029
 31
0.0
  0
LINE
  5
254
330
1F
100
AcDbEntity
  8
GR1-1
  6
CENTER
 62
     6
100
AcDbLine
 10
398.10122
 20
221.462909
 30
0.0
 11
391.365545
 21
221.462909
 31
0.0
  0
LINE
  5
255
330
1F
100
AcDbEntity
  8
GR1-1
  6
CENTER
 62
     6
100
AcDbLine
 10
394.844274
 20
224.902842
 30
0.0
 11
394.844274
 21
217.897739
 31
0.0
  0
LINE
  5
256
330
1F
100
AcDbEntity
  8
GR1-1
  6
CENTER
 62
     6
100
AcDbLine
 10
336.094274
 20
40.723436
 30
0.0
 11
336.094274
 21
144.526789
 31
0.0
  0
LINE
  5
257
330
1F
100
AcDbEntity
  8
GR1-1
  6
CENTER
 62
     6
100
AcDbLine
 10
415.085686
 20
118.962909
 30
0.0
 11
257.478501
 21
118.962909
 31
0.0
  0
LINE
  5
258
330
1F
100
AcDbEntity
  8
GR1-1
  6
CENTER
 62
     6
100
AcDbLine
 10
338.592242
 20
368.280686
 30
0.0
 11
338.592242
 21
383.401245
 31
0.0
  0
LINE
  5
259
330
1F
100
AcDbEntity
  8
GR1-1
  6
CENTER
 62
     6
100
AcDbLine
 10
344.147038
 20
377.862069
 30
0.0
 11
327.815367
 21
377.862069
 31
0.0
  0
LINE
  5
25A
330
1F
100
AcDbEntity
  8
GR1-1
  6
CENTER
 62
     6
100
AcDbLine
 10
330.127491
 20
375.362069
 30
0.0
 11
345.651754
 21
375.362069
 31
0.0
  0
LINE
  5
25B
330
1F
100
AcDbEntity
  8
GR1-1
  6
CENTER
 62
     6
100
AcDbLine
 10
336.092242
 20
384.722459
 30
0.0
 11
336.092242
 21
369.785402
 31
0.0
  0
LINE
  5
25C
330
1F
100
AcDbEntity
  8
GR1-1
  6
CENTER
 62
     6
100
AcDbLine
 10
413.596306
 20
307.443452
 30
0.0
 11
413.596306
 21
292.322893
 31
0.0
  0
LINE
  5
25D
330
1F
100
AcDbEntity
  8
GR1-1
  6
CENTER
 62
     6
100
AcDbLine
 10
408.041509
 20
297.862069
 30
0.0
 11
424.373181
 21
297.862069
 31
0.0
  0
LINE
  5
25E
330
1F
100
AcDbEntity
  8
GR1-1
  6
CENTER
 62
     6
100
AcDbLine
 10
422.061057
 20
300.362069
 30
0.0
 11
406.536793
 21
300.362069
 31
0.0
  0
LINE
  5
25F
330
1F
100
AcDbEntity
  8
GR1-1
  6
CENTER
 62
     6
100
AcDbLine
 10
416.096306
 20
291.001679
 30
0.0
 11
416.096306
 21
305.938736
 31
0.0
  0
LINE
  5
260
330
1F
100
AcDbEntity
  8
GR1-1
  6
CENTER
 62
     6
100
AcDbLine
 10
338.592242
 20
307.443452
 30
0.0
 11
338.592242
 21
292.322893
 31
0.0
  0
LINE
  5
261
330
1F
100
AcDbEntity
  8
GR1-1
  6
CENTER
 62
     6
100
AcDbLine
 10
344.147038
 20
297.862069
 30
0.0
 11
327.815367
 21
297.862069
 31
0.0
  0
LINE
  5
262
330
1F
100
AcDbEntity
  8
GR1-1
  6
CENTER
 62
     6
100
AcDbLine
 10
330.127491
 20
300.362069
 30
0.0
 11
345.651754
 21
300.362069
 31
0.0
  0
LINE
  5
263
330
1F
100
AcDbEntity
  8
GR1-1
  6
CENTER
 62
     6
100
AcDbLine
 10
336.092242
 20
291.001679
 30
0.0
 11
336.092242
 21
305.938736
 31
0.0
  0
LINE
  5
264
330
1F
100
AcDbEntity
  8
LAYERGROUP-1
  6
CONTINUOUS
 62
     3
100
AcDbLine
 10
299.43197
 20
204.547279
 30
0.0
 11
299.43197
 21
207.710563
 31
0.0
  0
ARC
  5
265
330
1F
100
AcDbEntity
  8
LAYERGROUP-1
  6
CONTINUOUS
 62
     3
100
AcDbCircle
 10
297.93197
 20
207.710563
 30
0.0
 40
1.5
100
AcDbArc
 50
0.0
 51
98.087562
  0
LINE
  5
266
330
1F
100
AcDbEntity
  8
GR1-1
  6
CONTINUOUS
 62
     3
100
AcDbLine
 10
325.094274
 20
229.962909
 30
0.0
 11
325.094274
 21
233.962909
 31
0.0
  0
LINE
  5
267
330
1F
100
AcDbEntity
  8
GR1-1
  6
CONTINUOUS
 62
     3
100
AcDbLine
 10
325.094274
 20
233.962909
 30
0.0
 11
376.094274
 21
233.962909
 31
0.0
  0
LINE
  5
268
330
1F
100
AcDbEntity
  8
GR1-1
  6
CONTINUOUS
 62
     3
100
AcDbLine
 10
376.094274
 20
216.362909
 30
0.0
 11
338.494274
 21
216.362909
 31
0.0
  0
LINE
  5
269
330
1F
100
AcDbEntity
  8
GR1-1
  6
CONTINUOUS
 62
     3
100
AcDbLine
 10
338.494274
 20
216.362909
 30
0.0
 11
337.494274
 21
216.715029
 31
0.0
  0
LINE
  5
26A
330
1F
100
AcDbEntity
  8
GR1-1
  6
CONTINUOUS
 62
     3
100
AcDbLine
 10
338.594274
 20
219.662909
 30
0.0
 11
338.594274
 21
225.962909
 31
0.0
  0
ARC
  5
26B
330
1F
100
AcDbEntity
  8
GR1-1
  6
CONTINUOUS
 62
     3
100
AcDbCircle
 10
342.594274
 20
225.962909
 30
0.0
 40
4.0
100
AcDbArc
 50
154.895388
 51
180.0
  0
ARC
  5
26C
330
1F
100
AcDbEntity
  8
GR1-1
  6
CONTINUOUS
 62
     3
100
AcDbCircle
 10
337.182932
 20
232.133031
 30
0.0
 40
4.473032676673776
100
AcDbArc
 50
216.650892
 51
270.0
  0
LINE
  5
26D
330
1F
100
AcDbEntity
  8
GR1-1
  6
CONTINUOUS
 62
     3
100
AcDbLine
 10
333.594274
 20
229.462909
 30
0.0
 11
333.594274
 21
229.962909
 31
0.0
  0
LINE
  5
26E
330
1F
100
AcDbEntity
  8
GR1-1
  6
CONTINUOUS
 62
     3
100
AcDbLine
 10
337.182932
 20
227.659999
 30
0.0
 11
376.094274
 21
227.659999
 31
0.0
  0
LINE
  5
26F
330
1F
100
AcDbEntity
  8
GR1-1
  6
CONTINUOUS
 62
     3
100
AcDbLine
 10
376.094274
 20
229.962909
 30
0.0
 11
325.094274
 21
229.962909
 31
0.0
  0
ARC
  5
270
330
1F
100
AcDbEntity
  8
GR1-1
  6
CONTINUOUS
 62
     3
100
AcDbCircle
 10
334.094274
 20
219.662909
 30
0.0
 40
4.5
100
AcDbArc
 50
319.073937
 51
360.0
  0
LINE
  5
271
330
1F
100
AcDbEntity
  8
GR1-1
  6
CONTINUOUS
 62
     6
100
AcDbLine
 10
376.094274
 20
216.715029
 30
0.0
 11
337.494274
 21
216.715029
 31
0.0
  0
LINE
  5
272
330
1F
100
AcDbEntity
  8
LAYERGROUP-1
  6
CONTINUOUS
 62
     3
100
AcDbLine
 10
340.094274
 20
214.412909
 30
0.0
 11
340.094274
 21
216.362909
 31
0.0
  0
ARC
  5
273
330
1F
100
AcDbEntity
  8
GR1-1
  6
CONTINUOUS
 62
     3
100
AcDbCircle
 10
375.294274
 20
191.162909
 30
0.0
 40
3.05
100
AcDbArc
 50
-72.470402
 51
72.470402
  0
ARC
  5
274
330
1F
100
AcDbEntity
  8
GR1-1
  6
CONTINUOUS
 62
     3
100
AcDbCircle
 10
369.294274
 20
191.162909
 30
0.0
 40
3.05
100
AcDbArc
 50
139.218724
 51
220.781276
  0
LINE
  5
275
330
1F
100
AcDbEntity
  8
GR1-1
  6
CENTER
 62
     6
100
AcDbLine
 10
356.794429
 20
197.962909
 30
0.0
 11
344.638512
 21
197.962909
 31
0.0
  0
LINE
  5
276
330
1F
100
AcDbEntity
  8
GR1-1
  6
CENTER
 62
     6
100
AcDbLine
 10
350.594274
 20
203.942223
 30
0.0
 11
350.594274
 21
192.119696
 31
0.0
  0
LINE
  5
277
330
1F
100
AcDbEntity
  8
GR1-1
  6
CENTER
 62
     6
100
AcDbLine
 10
364.295502
 20
191.162909
 30
0.0
 11
379.869803
 21
191.162909
 31
0.0
  0
LINE
  5
278
330
1F
100
AcDbEntity
  8
GR1-1
  6
CENTER
 62
     6
100
AcDbLine
 10
371.842125
 20
184.969267
 30
0.0
 11
371.842125
 21
197.606218
 31
0.0
  0
LINE
  5
279
330
1F
100
AcDbEntity
  8
GR1-1
  6
CONTINUOUS
 62
     3
100
AcDbLine
 10
326.208449
 20
184.838515
 30
0.0
 11
313.135876
 21
188.030708
 31
0.0
  0
DIMENSION
  5
27A
330
1F
100
AcDbEntity
  8
LAYERGROUP-1
100
AcDbDimension
  2
*D34
 10
224.043797
 20
193.962909
 30
0.0
 11
223.043793
 21
118.962906
 31
0.0
 70
    33
  3
FXDIMINFO
100
AcDbAlignedDimension
 13
137.939475
 23
43.962909
 33
0.0
 14
137.939475
 24
193.962909
 34
0.0
1001
ACAD
1000
DSTYLE
1002
{
1070
     7
1000
FXTIP_ARROW_E
1070
     6
1000
FXTIP_ARROW_S
1070
   173
1070
     1
1002
}
  0
LINE
  5
284
330
1F
100
AcDbEntity
  8
GR1-1
  6
CONTINUOUS
 62
     3
100
AcDbLine
 10
311.844274
 20
212.462909
 30
0.0
 11
322.994274
 21
212.462909
 31
0.0
  0
LINE
  5
285
330
1F
100
AcDbEntity
  8
GR1-1
  6
CONTINUOUS
 62
     3
100
AcDbLine
 10
322.994274
 20
212.462909
 30
0.0
 11
322.994274
 21
214.462909
 31
0.0
  0
LINE
  5
286
330
1F
100
AcDbEntity
  8
GR1-1
  6
CONTINUOUS
 62
     3
100
AcDbLine
 10
322.994274
 20
214.462909
 30
0.0
 11
312.339261
 21
214.462909
 31
0.0
  0
ARC
  5
287
330
1F
100
AcDbEntity
  8
GR1-1
  6
CONTINUOUS
 62
     3
100
AcDbCircle
 10
312.339261
 20
215.462909
 30
0.0
 40
1.0
100
AcDbArc
 50
185.73917
 51
270.0
  0
LINE
  5
288
330
1F
100
AcDbEntity
  8
GR1-1
  6
CONTINUOUS
 62
     3
100
AcDbLine
 10
311.344274
 20
215.362909
 30
0.0
 11
323.544274
 21
215.362909
 31
0.0
  0
ARC
  5
289
330
1F
100
AcDbEntity
  8
GR1-1
  6
CONTINUOUS
 62
     3
100
AcDbCircle
 10
342.815857
 20
210.014445
 30
0.0
 40
20.0
100
AcDbArc
 50
124.467697
 51
164.48901
  0
LINE
  5
28A
330
1F
100
AcDbEntity
  8
LAYERGROUP-1
  6
CONTINUOUS
 62
     6
100
AcDbLine
 10
311.344274
 20
227.462909
 30
0.0
 11
311.344274
 21
215.862909
 31
0.0
  0
LINE
  5
28B
330
1F
100
AcDbEntity
  8
LAYERGROUP-1
  6
CONTINUOUS
 62
     3
100
AcDbLine
 10
324.75748
 20
205.235175
 30
0.0
 11
329.267646
 21
205.235175
 31
0.0
  0
CIRCLE
  5
28C
330
1F
100
AcDbEntity
  8
LAYERGROUP-1
  6
CONTINUOUS
 62
     3
100
AcDbCircle
 10
350.594274
 20
197.962909
 30
0.0
 40
5.25
  0
CIRCLE
  5
28D
330
1F
100
AcDbEntity
  8
LAYERGROUP-1
  6
CONTINUOUS
 62
     3
100
AcDbCircle
 10
371.842125
 20
191.162909
 30
0.0
 40
5.25
  0
TEXT
  5
28E
330
1F
100
AcDbEntity
  8
}}ﾊﾊGG血CCТ
  6
CONTINUOUS
 62
     7
100
AcDbText
 10
329.602386
 20
12.0
 30
0.0
 40
6.0
  1
ＳＪ－１５０　ＫＦ　Ｒ　Ｓ
 41
0.787879
  7
FX_VECTOR
 72
     5
 11
381.602386
 21
12.0
 31
0.0
100
AcDbText
  0
TEXT
  5
28F
330
1F
100
AcDbEntity
  8
LAYERGROUP-1
  6
CONTINUOUS
 62
     7
100
AcDbText
 10
429.095886
 20
12.0
 30
0.0
 40
6.0
  1
S40AC1GCA-C02
 41
0.692015
  7
FX_VECTOR
 72
     5
 11
481.095886
 21
12.0
 31
0.0
100
AcDbText
  0
LINE
  5
290
330
1F
100
AcDbEntity
  8
GR1-1
  6
CONTINUOUS
 62
     3
100
AcDbLine
 10
165.439475
 20
172.124464
 30
0.0
 11
163.541367
 21
174.652507
 31
0.0
  0
LINE
  5
291
330
1F
100
AcDbEntity
  8
GR1-1
  6
CONTINUOUS
 62
     3
100
AcDbLine
 10
165.439475
 20
176.462902
 30
0.0
 11
164.939475
 21
177.128839
 31
0.0
  0
LINE
  5
292
330
1F
100
AcDbEntity
  8
GR1-1
  6
CONTINUOUS
 62
     3
100
AcDbLine
 10
164.939475
 20
177.128839
 30
0.0
 11
164.939475
 21
198.49561
 31
0.0
  0
ARC
  5
293
330
1F
100
AcDbEntity
  8
GR1-1
  6
CONTINUOUS
 62
     3
100
AcDbCircle
 10
160.939475
 20
198.49561
 30
0.0
 40
4.0
100
AcDbArc
 50
78.463041
 51
90.0
  0
LINE
  5
294
330
1F
100
AcDbEntity
  8
GR1-1
  6
CONTINUOUS
 62
     3
100
AcDbLine
 10
160.939475
 20
202.49561
 30
0.0
 11
124.939475
 21
202.49561
 31
0.0
  0
LINE
  5
295
330
1F
100
AcDbEntity
  8
GR1-1
  6
CONTINUOUS
 62
     3
100
AcDbLine
 10
124.939475
 20
202.49561
 30
0.0
 11
124.939475
 21
198.819284
 31
0.0
  0
ARC
  5
296
330
1F
100
AcDbEntity
  8
GR1-1
  6
CONTINUOUS
 62
     3
100
AcDbCircle
 10
125.939475
 20
198.819284
 30
0.0
 40
1.0
100
AcDbArc
 50
180.0
 51
270.0
  0
LINE
  5
297
330
1F
100
AcDbEntity
  8
GR1-1
  6
CONTINUOUS
 62
     3
100
AcDbLine
 10
125.939475
 20
197.819284
 30
0.0
 11
158.785834
 21
197.819284
 31
0.0
  0
LINE
  5
298
330
1F
100
AcDbEntity
  8
GR1-1
  6
CONTINUOUS
 62
     3
100
AcDbLine
 10
161.739475
 20
199.909854
 30
0.0
 11
124.939475
 21
199.909854
 31
0.0
  0
ARC
  5
299
330
1F
100
AcDbEntity
  8
GR1-1
  6
CONTINUOUS
 62
     3
100
AcDbCircle
 10
168.339475
 20
178.255028
 30
0.0
 40
6.0
100
AcDbArc
 50
200.362719
 51
216.9
  0
ARC
  5
29A
330
1F
100
AcDbEntity
  8
GR1-1
  6
CONTINUOUS
 62
     3
100
AcDbCircle
 10
135.636685
 20
173.207064
 30
0.0
 40
33.78822986321683
100
AcDbArc
 50
39.417389
 51
52.213422
  0
LINE
  5
29B
330
1F
100
AcDbEntity
  8
GR1-1
  6
CONTINUOUS
 62
     6
100
AcDbLine
 10
156.339475
 20
199.909854
 30
0.0
 11
156.339475
 21
202.49561
 31
0.0
  0
ARC
  5
29C
330
1F
100
AcDbEntity
  8
GR1-1
  6
CONTINUOUS
 62
     3
100
AcDbCircle
 10
171.439475
 20
102.528839
 30
0.0
 40
3.0
100
AcDbArc
 50
180.0
 51
270.0
  0
LINE
  5
29D
330
1F
100
AcDbEntity
  8
GR1-1
  6
CONTINUOUS
 62
     3
100
AcDbLine
 10
171.439475
 20
99.528839
 30
0.0
 11
178.339475
 21
99.528839
 31
0.0
  0
LINE
  5
29E
330
1F
100
AcDbEntity
  8
GR1-1
  6
CONTINUOUS
 62
     3
100
AcDbLine
 10
178.339475
 20
99.528839
 30
0.0
 11
178.339475
 21
102.128839
 31
0.0
  0
LINE
  5
29F
330
1F
100
AcDbEntity
  8
GR1-1
  6
CONTINUOUS
 62
     3
100
AcDbLine
 10
178.339475
 20
102.128839
 30
0.0
 11
171.539475
 21
102.128839
 31
0.0
  0
LINE
  5
2A0
330
1F
100
AcDbEntity
  8
GR1-1
  6
CONTINUOUS
 62
     3
100
AcDbLine
 10
171.039475
 20
102.628839
 30
0.0
 11
171.039475
 21
171.087503
 31
0.0
  0
LINE
  5
2A1
330
1F
100
AcDbEntity
  8
GR1-1
  6
CONTINUOUS
 62
     3
100
AcDbLine
 10
169.837583
 20
170.605172
 30
0.0
 11
168.439475
 21
172.467277
 31
0.0
  0
ARC
  5
2A2
330
1F
100
AcDbEntity
  8
GR1-1
  6
CONTINUOUS
 62
     3
100
AcDbCircle
 10
174.039475
 20
168.405098
 30
0.0
 40
3.0
100
AcDbArc
 50
180.0
 51
270.0
  0
LINE
  5
2A3
330
1F
100
AcDbEntity
  8
GR1-1
  6
CONTINUOUS
 62
     3
100
AcDbLine
 10
174.039475
 20
165.405098
 30
0.0
 11
176.039475
 21
165.405098
 31
0.0
  0
LINE
  5
2A4
330
1F
100
AcDbEntity
  8
GR1-1
  6
CONTINUOUS
 62
     3
100
AcDbLine
 10
176.039475
 20
167.381152
 30
0.0
 11
173.639475
 21
167.381152
 31
0.0
  0
LINE
  5
2A5
330
1F
100
AcDbEntity
  8
GR1-1
  6
CONTINUOUS
 62
     3
100
AcDbLine
 10
173.639475
 20
167.381152
 30
0.0
 11
173.639475
 21
171.655327
 31
0.0
  0
LINE
  5
2A6
330
1F
100
AcDbEntity
  8
GR1-1
  6
CONTINUOUS
 62
     3
100
AcDbLine
 10
174.639475
 20
172.655327
 30
0.0
 11
193.039475
 21
172.655327
 31
0.0
  0
LINE
  5
2A7
330
1F
100
AcDbEntity
  8
GR1-1
  6
CONTINUOUS
 62
     3
100
AcDbLine
 10
193.039475
 20
174.587503
 30
0.0
 11
174.539475
 21
174.587503
 31
0.0
  0
ARC
  5
2A8
330
1F
100
AcDbEntity
  8
GR1-1
  6
CONTINUOUS
 62
     3
100
AcDbCircle
 10
174.539475
 20
171.087503
 30
0.0
 40
3.5
100
AcDbArc
 50
90.0
 51
180.0
  0
ARC
  5
2A9
330
1F
100
AcDbEntity
  8
GR1-1
  6
CONTINUOUS
 62
     3
100
AcDbCircle
 10
174.639475
 20
171.655327
 30
0.0
 40
1.0
100
AcDbArc
 50
90.0
 51
180.0
  0
ARC
  5
2AA
330
1F
100
AcDbEntity
  8
GR1-1
  6
CONTINUOUS
 62
     3
100
AcDbCircle
 10
165.039475
 20
167.002651
 30
0.0
 40
6.0
100
AcDbArc
 50
0.0
 51
36.9
  0
LINE
  5
2AB
330
1F
100
AcDbEntity
  8
GR1-1
  6
CONTINUOUS
 62
     3
100
AcDbLine
 10
178.039475
 20
165.405098
 30
0.0
 11
178.039475
 21
112.302303
 31
0.0
  0
LINE
  5
2AC
330
1F
100
AcDbEntity
  8
GR1-1
  6
CONTINUOUS
 62
     3
100
AcDbLine
 10
176.539475
 20
111.753987
 30
0.0
 11
173.039475
 21
111.753987
 31
0.0
  0
ARC
  5
2AD
330
1F
100
AcDbEntity
  8
GR1-1
  6
CONTINUOUS
 62
     3
100
AcDbCircle
 10
173.039475
 20
109.753987
 30
0.0
 40
2.0
100
AcDbArc
 50
90.0
 51
180.0
  0
ARC
  5
2AE
330
1F
100
AcDbEntity
  8
GR1-1
  6
CONTINUOUS
 62
     3
100
AcDbCircle
 10
172.039475
 20
107.24395
 30
0.0
 40
1.0
100
AcDbArc
 50
180.0
 51
270.0
  0
LINE
  5
2AF
330
1F
100
AcDbEntity
  8
GR1-1
  6
CONTINUOUS
 62
     3
100
AcDbLine
 10
172.039475
 20
106.24395
 30
0.0
 11
176.539475
 21
106.24395
 31
0.0
  0
ARC
  5
2B0
330
1F
100
AcDbEntity
  8
GR1-1
  6
CONTINUOUS
 62
     3
100
AcDbCircle
 10
176.539475
 20
106.335805
 30
0.0
 40
1.5
100
AcDbArc
 50
0.0
 51
90.0
  0
LINE
  5
2B1
330
1F
100
AcDbEntity
  8
GR1-1
  6
CONTINUOUS
 62
     3
100
AcDbLine
 10
176.539475
 20
107.835805
 30
0.0
 11
173.639475
 21
107.835805
 31
0.0
  0
LINE
  5
2B2
330
1F
100
AcDbEntity
  8
GR1-1
  6
CONTINUOUS
 62
     3
100
AcDbLine
 10
173.639475
 20
107.835805
 30
0.0
 11
173.639475
 21
110.802303
 31
0.0
  0
LINE
  5
2B3
330
1F
100
AcDbEntity
  8
GR1-1
  6
CONTINUOUS
 62
     3
100
AcDbLine
 10
173.639475
 20
110.802303
 30
0.0
 11
176.539475
 21
110.802303
 31
0.0
  0
ARC
  5
2B4
330
1F
100
AcDbEntity
  8
GR1-1
  6
CONTINUOUS
 62
     3
100
AcDbCircle
 10
176.539475
 20
112.302303
 30
0.0
 40
1.5
100
AcDbArc
 50
270.0
 51
360.0
  0
ARC
  5
2B5
330
1F
100
AcDbEntity
  8
GR1-1
  6
CONTINUOUS
 62
     3
100
AcDbCircle
 10
176.539475
 20
113.253987
 30
0.0
 40
1.5
100
AcDbArc
 50
270.0
 51
360.0
  0
LINE
  5
2B6
330
1F
100
AcDbEntity
  8
GR1-1
  6
CONTINUOUS
 62
     3
100
AcDbLine
 10
174.539475
 20
110.802303
 30
0.0
 11
174.539475
 21
109.163567
 31
0.0
  0
ARC
  5
2B7
330
1F
100
AcDbEntity
  8
GR1-1
  6
CONTINUOUS
 62
     3
100
AcDbCircle
 10
177.539475
 20
120.194765
 30
0.0
 40
11.4318552568933
100
AcDbArc
 50
254.786022
 51
285.213978
  0
LINE
  5
2B8
330
1F
100
AcDbEntity
  8
GR1-1
  6
CONTINUOUS
 62
     3
100
AcDbLine
 10
180.539475
 20
109.163567
 30
0.0
 11
180.539475
 21
128.762251
 31
0.0
  0
ARC
  5
2B9
330
1F
100
AcDbEntity
  8
GR1-1
  6
CONTINUOUS
 62
     3
100
AcDbCircle
 10
177.539475
 20
117.731054
 30
0.0
 40
11.4318552568933
100
AcDbArc
 50
74.786022
 51
87.465531
  0
ARC
  5
2BA
330
1F
100
AcDbEntity
  8
GR1-1
  6
CONTINUOUS
 62
     3
100
AcDbCircle
 10
184.039475
 20
124.35215
 30
0.0
 40
3.0
100
AcDbArc
 50
180.0
 51
240.254989
  0
LINE
  5
2BB
330
1F
100
AcDbEntity
  8
GR1-1
  6
CONTINUOUS
 62
     3
100
AcDbLine
 10
182.551052
 20
121.747424
 30
0.0
 11
200.039475
 21
111.753987
 31
0.0
  0
LINE
  5
2BC
330
1F
100
AcDbEntity
  8
GR1-1
  6
CONTINUOUS
 62
     3
100
AcDbLine
 10
200.039475
 20
111.753987
 30
0.0
 11
201.039475
 21
111.753987
 31
0.0
  0
LINE
  5
2BD
330
1F
100
AcDbEntity
  8
GR1-1
  6
CONTINUOUS
 62
     3
100
AcDbLine
 10
201.039475
 20
110.030315
 30
0.0
 11
200.039475
 21
110.030315
 31
0.0
  0
LINE
  5
2BE
330
1F
100
AcDbEntity
  8
GR1-1
  6
CONTINUOUS
 62
     3
100
AcDbLine
 10
200.039475
 20
110.030315
 30
0.0
 11
182.551052
 21
120.023752
 31
0.0
  0
LINE
  5
2BF
330
1F
100
AcDbEntity
  8
GR1-1
  6
CONTINUOUS
 62
     3
100
AcDbLine
 10
181.039475
 20
122.628478
 30
0.0
 11
181.039475
 21
141.545508
 31
0.0
  0
ARC
  5
2C0
330
1F
100
AcDbEntity
  8
GR1-1
  6
CONTINUOUS
 62
     3
100
AcDbCircle
 10
173.439475
 20
142.388304
 30
0.0
 40
5.0
100
AcDbArc
 50
118.685402
 51
180.0
  0
LINE
  5
2C1
330
1F
100
AcDbEntity
  8
GR1-1
  6
CONTINUOUS
 62
     3
100
AcDbLine
 10
170.439475
 20
155.628839
 30
0.0
 11
171.039475
 21
155.628839
 31
0.0
  0
ARC
  5
2C2
330
1F
100
AcDbEntity
  8
GR1-1
  6
CONTINUOUS
 62
     3
100
AcDbCircle
 10
170.439475
 20
157.628839
 30
0.0
 40
2.0
100
AcDbArc
 50
180.0
 51
270.0
  0
ARC
  5
2C3
330
1F
100
AcDbEntity
  8
GR1-1
  6
CONTINUOUS
 62
     3
100
AcDbCircle
 10
176.039475
 20
163.405098
 30
0.0
 40
2.0
100
AcDbArc
 50
0.0
 51
90.0
  0
ARC
  5
2C4
330
1F
100
AcDbEntity
  8
GR1-1
  6
CONTINUOUS
 62
     3
100
AcDbCircle
 10
176.039475
 20
165.381152
 30
0.0
 40
2.0
100
AcDbArc
 50
0.0
 51
90.0
  0
ARC
  5
2C5
330
1F
100
AcDbEntity
  8
GR1-1
  6
CONTINUOUS
 62
     3
100
AcDbCircle
 10
193.039475
 20
169.655327
 30
0.0
 40
3.0
100
AcDbArc
 50
0.0
 51
90.0
  0
LINE
  5
2C6
330
1F
100
AcDbEntity
  8
GR1-1
  6
CONTINUOUS
 62
     3
100
AcDbLine
 10
196.039475
 20
171.587503
 30
0.0
 11
196.039475
 21
155.098707
 31
0.0
  0
LINE
  5
2C7
330
1F
100
AcDbEntity
  8
GR1-1
  6
CONTINUOUS
 62
     3
100
AcDbLine
 10
193.56042
 20
152.144284
 30
0.0
 11
189.302993
 21
151.393585
 31
0.0
  0
ARC
  5
2C8
330
1F
100
AcDbEntity
  8
GR1-1
  6
CONTINUOUS
 62
     3
100
AcDbCircle
 10
191.039475
 20
141.545508
 30
0.0
 40
10.0
100
AcDbArc
 50
100.0
 51
180.0
  0
ARC
  5
2C9
330
1F
100
AcDbEntity
  8
GR1-1
  6
CONTINUOUS
 62
     3
100
AcDbCircle
 10
193.039475
 20
155.098707
 30
0.0
 40
3.0
100
AcDbArc
 50
280.0
 51
360.0
  0
ARC
  5
2CA
330
1F
100
AcDbEntity
  8
GR1-1
  6
CONTINUOUS
 62
     3
100
AcDbCircle
 10
193.039475
 20
171.587503
 30
0.0
 40
3.0
100
AcDbArc
 50
0.0
 51
90.0
  0
ARC
  5
2CB
330
1F
100
AcDbEntity
  8
GR1-1
  6
CONTINUOUS
 62
     3
100
AcDbCircle
 10
184.039475
 20
122.628478
 30
0.0
 40
3.0
100
AcDbArc
 50
180.0
 51
240.254989
  0
LINE
  5
2CC
330
1F
100
AcDbEntity
  8
GR1-1
  6
CONTINUOUS
 62
     3
100
AcDbLine
 10
178.039475
 20
106.335805
 30
0.0
 11
178.039475
 21
102.128839
 31
0.0
  0
LINE
  5
2CD
330
1F
100
AcDbEntity
  8
GR1-1
  6
CONTINUOUS
 62
     3
100
AcDbLine
 10
178.039475
 20
103.62777
 30
0.0
 11
183.295673
 21
101.889098
 31
0.0
  0
LINE
  5
2CE
330
1F
100
AcDbEntity
  8
GR1-1
  6
CONTINUOUS
 62
     3
100
AcDbLine
 10
183.27528
 20
104.378058
 30
0.0
 11
178.039475
 21
106.078875
 31
0.0
  0
ARC
  5
2CF
330
1F
100
AcDbEntity
  8
GR1-1
  6
CONTINUOUS
 62
     3
100
AcDbCircle
 10
176.539475
 20
104.74395
 30
0.0
 40
1.5
100
AcDbArc
 50
0.0
 51
90.0
  0
LINE
  5
2D0
330
1F
100
AcDbEntity
  8
GR1-1
  6
CONTINUOUS
 62
     3
100
AcDbLine
 10
179.039475
 20
103.296985
 30
0.0
 11
179.039475
 21
80.672117
 31
0.0
  0
LINE
  5
2D1
330
1F
100
AcDbEntity
  8
GR1-1
  6
CONTINUOUS
 62
     3
100
AcDbLine
 10
179.039475
 20
80.672117
 30
0.0
 11
183.039475
 21
80.672117
 31
0.0
  0
ARC
  5
2D2
330
1F
100
AcDbEntity
  8
GR1-1
  6
CONTINUOUS
 62
     3
100
AcDbCircle
 10
183.039475
 20
83.672117
 30
0.0
 40
3.0
100
AcDbArc
 50
270.0
 51
360.0
  0
LINE
  5
2D3
330
1F
100
AcDbEntity
  8
GR1-1
  6
CONTINUOUS
 62
     3
100
AcDbLine
 10
186.039475
 20
83.672117
 30
0.0
 11
186.039475
 21
100.573747
 31
0.0
  0
ARC
  5
2D4
330
1F
100
AcDbEntity
  8
GR1-1
  6
CONTINUOUS
 62
     3
100
AcDbCircle
 10
182.039475
 20
100.573747
 30
0.0
 40
4.0
100
AcDbArc
 50
0.0
 51
72.003956
  0
ARC
  5
2D5
330
1F
100
AcDbEntity
  8
GR1-1
  6
CONTINUOUS
 62
     3
100
AcDbCircle
 10
182.039475
 20
98.091472
 30
0.0
 40
4.0
100
AcDbArc
 50
0.0
 51
71.696559
  0
ARC
  5
2D6
330
1F
100
AcDbEntity
  8
GR1-1
  6
CONTINUOUS
 62
     3
100
AcDbCircle
 10
171.539475
 20
102.628839
 30
0.0
 40
0.5
100
AcDbArc
 50
180.0
 51
270.0
  0
ARC
  5
2D7
330
1F
100
AcDbEntity
  8
GR1-1
  6
CONTINUOUS
 62
     3
100
AcDbCircle
 10
175.039475
 20
105.050226
 30
0.0
 40
4.0
100
AcDbArc
 50
180.0
 51
226.915472
  0
LINE
  5
2D8
330
1F
100
AcDbEntity
  8
GR1-1
  6
CONTINUOUS
 62
     3
100
AcDbLine
 10
186.039475
 20
88.364974
 30
0.0
 11
201.039475
 21
88.364974
 31
0.0
  0
ARC
  5
2D9
330
1F
100
AcDbEntity
  8
GR1-1
  6
CONTINUOUS
 62
     3
100
AcDbCircle
 10
201.039475
 20
91.364974
 30
0.0
 40
3.0
100
AcDbArc
 50
270.0
 51
360.0
  0
LINE
  5
2DA
330
1F
100
AcDbEntity
  8
GR1-1
  6
CONTINUOUS
 62
     3
100
AcDbLine
 10
204.039475
 20
91.364974
 30
0.0
 11
204.039475
 21
108.753987
 31
0.0
  0
ARC
  5
2DB
330
1F
100
AcDbEntity
  8
GR1-1
  6
CONTINUOUS
 62
     3
100
AcDbCircle
 10
201.039475
 20
108.753987
 30
0.0
 40
3.0
100
AcDbArc
 50
0.0
 51
90.0
  0
ARC
  5
2DC
330
1F
100
AcDbEntity
  8
GR1-1
  6
CONTINUOUS
 62
     3
100
AcDbCircle
 10
201.039475
 20
107.030315
 30
0.0
 40
3.0
100
AcDbArc
 50
0.0
 51
90.0
  0
ARC
  5
2DD
330
1F
100
AcDbEntity
  8
GR1-1
  6
CONTINUOUS
 62
     6
100
AcDbCircle
 10
177.539475
 20
119.626398
 30
0.0
 40
3.05000000000001
100
AcDbArc
 50
10.388858
 51
80.564661
  0
ARC
  5
2DE
330
1F
100
AcDbEntity
  8
GR1-1
  6
CONTINUOUS
 62
     6
100
AcDbCircle
 10
177.539475
 20
130.900356
 30
0.0
 40
5.566949779823609
100
AcDbArc
 50
275.15301
 51
302.608431
  0
ARC
  5
2DF
330
1F
100
AcDbEntity
  8
GR1-1
  6
CONTINUOUS
 62
     6
100
AcDbCircle
 10
177.539475
 20
122.75666
 30
0.0
 40
6.290235202980682
100
AcDbArc
 50
61.514933
 51
85.529578
  0
ARC
  5
2E0
330
1F
100
AcDbEntity
  8
GR1-1
  6
CONTINUOUS
 62
     6
100
AcDbCircle
 10
177.539475
 20
118.29942
 30
0.0
 40
3.05000000000001
100
AcDbArc
 50
279.435339
 51
349.611142
  0
LINE
  5
2E1
330
1F
100
AcDbEntity
  8
GR1-1
  6
CONTINUOUS
 62
     6
100
AcDbLine
 10
180.539475
 20
115.23635
 30
0.0
 11
181.357843
 21
114.391273
 31
0.0
  0
LINE
  5
2E2
330
1F
100
AcDbEntity
  8
GR1-1
  6
CONTINUOUS
 62
     6
100
AcDbLine
 10
181.639475
 20
113.69561
 30
0.0
 11
181.639475
 21
104.909439
 31
0.0
  0
ARC
  5
2E3
330
1F
100
AcDbEntity
  8
GR1-1
  6
CONTINUOUS
 62
     6
100
AcDbCircle
 10
185.64129
 20
104.794524
 30
0.0
 40
0.6018150231520427
100
AcDbArc
 50
90.000002
 51
269.999998
  0
LINE
  5
2E4
330
1F
100
AcDbEntity
  8
GR1-1
  6
CONTINUOUS
 62
     6
100
AcDbLine
 10
185.64129
 20
104.192709
 30
0.0
 11
198.43766
 21
104.192709
 31
0.0
  0
ARC
  5
2E5
330
1F
100
AcDbEntity
  8
GR1-1
  6
CONTINUOUS
 62
     6
100
AcDbCircle
 10
198.43766
 20
104.794524
 30
0.0
 40
0.6018150231520427
100
AcDbArc
 50
-89.999998
 51
89.999998
  0
LINE
  5
2E6
330
1F
100
AcDbEntity
  8
GR1-1
  6
CONTINUOUS
 62
     6
100
AcDbLine
 10
198.43766
 20
105.396339
 30
0.0
 11
185.64129
 21
105.396339
 31
0.0
  0
LINE
  5
2E7
330
1F
100
AcDbEntity
  8
GR1-1
  6
CONTINUOUS
 62
     6
100
AcDbLine
 10
186.039475
 20
100.882726
 30
0.0
 11
198.43766
 21
100.882726
 31
0.0
  0
ARC
  5
2E8
330
1F
100
AcDbEntity
  8
GR1-1
  6
CONTINUOUS
 62
     6
100
AcDbCircle
 10
198.43766
 20
100.280911
 30
0.0
 40
0.6018150231520427
100
AcDbArc
 50
-89.999998
 51
89.999998
  0
LINE
  5
2E9
330
1F
100
AcDbEntity
  8
GR1-1
  6
CONTINUOUS
 62
     6
100
AcDbLine
 10
198.43766
 20
99.679096
 30
0.0
 11
186.039475
 21
99.679096
 31
0.0
  0
LINE
  5
2EA
330
1F
100
AcDbEntity
  8
GR1-1
  6
CONTINUOUS
 62
     6
100
AcDbLine
 10
186.039475
 20
96.369114
 30
0.0
 11
198.43766
 21
96.369114
 31
0.0
  0
ARC
  5
2EB
330
1F
100
AcDbEntity
  8
GR1-1
  6
CONTINUOUS
 62
     6
100
AcDbCircle
 10
198.43766
 20
95.767299
 30
0.0
 40
0.6018150231520427
100
AcDbArc
 50
-89.999998
 51
89.999998
  0
LINE
  5
2EC
330
1F
100
AcDbEntity
  8
GR1-1
  6
CONTINUOUS
 62
     6
100
AcDbLine
 10
198.43766
 20
95.165484
 30
0.0
 11
186.039475
 21
95.165484
 31
0.0
  0
LINE
  5
2ED
330
1F
100
AcDbEntity
  8
GR1-1
  6
CONTINUOUS
 62
     6
100
AcDbLine
 10
186.039475
 20
91.855501
 30
0.0
 11
198.43766
 21
91.855501
 31
0.0
  0
ARC
  5
2EE
330
1F
100
AcDbEntity
  8
GR1-1
  6
CONTINUOUS
 62
     6
100
AcDbCircle
 10
198.43766
 20
91.253686
 30
0.0
 40
0.6018150231520427
100
AcDbArc
 50
-89.999998
 51
89.999998
  0
LINE
  5
2EF
330
1F
100
AcDbEntity
  8
GR1-1
  6
CONTINUOUS
 62
     6
100
AcDbLine
 10
198.43766
 20
90.651871
 30
0.0
 11
186.039475
 21
90.651871
 31
0.0
  0
LINE
  5
2F0
330
1F
100
AcDbEntity
  8
GR1-1
  6
CONTINUOUS
 62
     6
100
AcDbLine
 10
173.639475
 20
108.083408
 30
0.0
 11
171.039475
 21
108.083408
 31
0.0
  0
ARC
  5
2F1
330
1F
100
AcDbEntity
  8
GR1-1
  6
CONTINUOUS
 62
     6
100
AcDbCircle
 10
177.539475
 20
115.169159
 30
0.0
 40
6.290235202980682
100
AcDbArc
 50
241.514933
 51
298.485067
  0
ARC
  5
2F2
330
1F
100
AcDbEntity
  8
GR1-1
  6
CONTINUOUS
 62
     6
100
AcDbCircle
 10
177.539475
 20
107.025463
 30
0.0
 40
5.566949779823609
100
AcDbArc
 50
57.391569
 51
84.84699
  0
ARC
  5
2F3
330
1F
100
AcDbEntity
  8
GR1-1
  6
CONTINUOUS
 62
     6
100
AcDbCircle
 10
180.639475
 20
113.69561
 30
0.0
 40
1.0
100
AcDbArc
 50
0.0
 51
44.080108
  0
LINE
  5
2F4
330
1F
100
AcDbEntity
  8
GR1-1
  6
CONTINUOUS
 62
     6
100
AcDbLine
 10
200.039475
 20
111.753987
 30
0.0
 11
200.039475
 21
110.030315
 31
0.0
  0
LINE
  5
2F5
330
1F
100
AcDbEntity
  8
GR1-1
  6
CONTINUOUS
 62
     6
100
AcDbLine
 10
191.370345
 20
161.949237
 30
0.0
 11
187.039475
 21
161.949237
 31
0.0
  0
LINE
  5
2F6
330
1F
100
AcDbEntity
  8
GR1-1
  6
CONTINUOUS
 62
     6
100
AcDbLine
 10
187.039475
 20
163.287498
 30
0.0
 11
191.370345
 21
163.287498
 31
0.0
  0
ARC
  5
2F7
330
1F
100
AcDbEntity
  8
GR1-1
  6
CONTINUOUS
 62
     6
100
AcDbCircle
 10
191.370344
 20
162.618368
 30
0.0
 40
0.6691306063591659
100
AcDbArc
 50
-89.999948
 51
89.999948
  0
LINE
  5
2F8
330
1F
100
AcDbEntity
  8
GR1-1
  6
CONTINUOUS
 62
     6
100
AcDbLine
 10
187.039475
 20
163.287498
 30
0.0
 11
187.039475
 21
168.975108
 31
0.0
  0
LINE
  5
2F9
330
1F
100
AcDbEntity
  8
GR1-1
  6
CONTINUOUS
 62
     6
100
AcDbLine
 10
187.039475
 20
168.975108
 30
0.0
 11
191.370345
 21
168.975108
 31
0.0
  0
ARC
  5
2FA
330
1F
100
AcDbEntity
  8
GR1-1
  6
CONTINUOUS
 62
     6
100
AcDbCircle
 10
191.370344
 20
169.644239
 30
0.0
 40
0.6691306063591659
100
AcDbArc
 50
-89.999948
 51
89.999948
  0
LINE
  5
2FB
330
1F
100
AcDbEntity
  8
GR1-1
  6
CONTINUOUS
 62
     6
100
AcDbLine
 10
191.370345
 20
170.31337
 30
0.0
 11
178.708605
 21
170.31337
 31
0.0
  0
ARC
  5
2FC
330
1F
100
AcDbEntity
  8
GR1-1
  6
CONTINUOUS
 62
     6
100
AcDbCircle
 10
178.708606
 20
169.644239
 30
0.0
 40
0.6691306063591659
100
AcDbArc
 50
90.000052
 51
269.999948
  0
LINE
  5
2FD
330
1F
100
AcDbEntity
  8
GR1-1
  6
CONTINUOUS
 62
     6
100
AcDbLine
 10
178.708605
 20
168.975108
 30
0.0
 11
179.539475
 21
168.975108
 31
0.0
  0
LINE
  5
2FE
330
1F
100
AcDbEntity
  8
GR1-1
  6
CONTINUOUS
 62
     6
100
AcDbLine
 10
179.539475
 20
168.975108
 30
0.0
 11
179.539475
 21
165.960325
 31
0.0
  0
ARC
  5
2FF
330
1F
100
AcDbEntity
  8
GR1-1
  6
CONTINUOUS
 62
     6
100
AcDbCircle
 10
180.539475
 20
165.960325
 30
0.0
 40
1.0
100
AcDbArc
 50
180.0
 51
360.0
  0
LINE
  5
300
330
1F
100
AcDbEntity
  8
GR1-1
  6
CONTINUOUS
 62
     6
100
AcDbLine
 10
181.539475
 20
165.960325
 30
0.0
 11
181.539475
 21
168.975108
 31
0.0
  0
LINE
  5
301
330
1F
100
AcDbEntity
  8
GR1-1
  6
CONTINUOUS
 62
     6
100
AcDbLine
 10
181.539475
 20
168.975108
 30
0.0
 11
185.039475
 21
168.975108
 31
0.0
  0
LINE
  5
302
330
1F
100
AcDbEntity
  8
GR1-1
  6
CONTINUOUS
 62
     6
100
AcDbLine
 10
185.039475
 20
168.975108
 30
0.0
 11
185.039475
 21
161.945541
 31
0.0
  0
ARC
  5
303
330
1F
100
AcDbEntity
  8
GR1-1
  6
CONTINUOUS
 62
     6
100
AcDbCircle
 10
186.039475
 20
161.945541
 30
0.0
 40
1.0
100
AcDbArc
 50
180.0
 51
360.0
  0
LINE
  5
304
330
1F
100
AcDbEntity
  8
GR1-1
  6
CONTINUOUS
 62
     3
100
AcDbLine
 10
325.099987
 20
310.362069
 30
0.0
 11
316.694274
 21
310.362069
 31
0.0
  0
LINE
  5
305
330
1F
100
AcDbEntity
  8
GR1-1
  6
CONTINUOUS
 62
     3
100
AcDbLine
 10
316.694274
 20
310.362069
 30
0.0
 11
316.694274
 21
307.362069
 31
0.0
  0
LINE
  5
306
330
1F
100
AcDbEntity
  8
GR1-1
  6
CONTINUOUS
 62
     3
100
AcDbLine
 10
325.099987
 20
297.362069
 30
0.0
 11
324.199761
 21
297.362069
 31
0.0
  0
ARC
  5
307
330
1F
100
AcDbEntity
  8
GR1-1
  6
CONTINUOUS
 62
     3
100
AcDbCircle
 10
324.199761
 20
287.362069
 30
0.0
 40
10.0
100
AcDbArc
 50
90.0
 51
170.0
  0
LINE
  5
308
330
1F
100
AcDbEntity
  8
GR1-1
  6
CONTINUOUS
 62
     3
100
AcDbLine
 10
314.351683
 20
289.098551
 30
0.0
 11
313.600984
 21
284.841124
 31
0.0
  0
LINE
  5
309
330
1F
100
AcDbEntity
  8
GR1-1
  6
CONTINUOUS
 62
     3
100
AcDbLine
 10
310.646561
 20
282.362069
 30
0.0
 11
292.129776
 21
282.362069
 31
0.0
  0
LINE
  5
30A
330
1F
100
AcDbEntity
  8
GR1-1
  6
CONTINUOUS
 62
     3
100
AcDbLine
 10
290.869515
 20
285.362069
 30
0.0
 11
290.869515
 21
304.362069
 31
0.0
  0
ARC
  5
30B
330
1F
100
AcDbEntity
  8
GR1-1
  6
CONTINUOUS
 62
     3
100
AcDbCircle
 10
287.869515
 20
304.362069
 30
0.0
 40
3.0
100
AcDbArc
 50
0.0
 51
90.0
  0
LINE
  5
30C
330
1F
100
AcDbEntity
  8
GR1-1
  6
CONTINUOUS
 62
     3
100
AcDbLine
 10
285.60164
 20
307.362069
 30
0.0
 11
321.741804
 21
307.362069
 31
0.0
  0
LINE
  5
30D
330
1F
100
AcDbEntity
  8
GR1-1
  6
CONTINUOUS
 62
     3
100
AcDbLine
 10
321.602019
 20
309.962069
 30
0.0
 11
322.051142
 21
301.608383
 31
0.0
  0
ARC
  5
30E
330
1F
100
AcDbEntity
  8
GR1-1
  6
CONTINUOUS
 62
     3
100
AcDbCircle
 10
323.0497
 20
301.662069
 30
0.0
 40
1.0
100
AcDbArc
 50
183.077455
 51
270.0
  0
LINE
  5
30F
330
1F
100
AcDbEntity
  8
GR1-1
  6
CONTINUOUS
 62
     3
100
AcDbLine
 10
323.0497
 20
300.662069
 30
0.0
 11
325.099987
 21
300.662069
 31
0.0
  0
LINE
  5
310
330
1F
100
AcDbEntity
  8
GR1-1
  6
CONTINUOUS
 62
     3
100
AcDbLine
 10
325.099987
 20
309.962069
 30
0.0
 11
321.602019
 21
309.962069
 31
0.0
  0
ARC
  5
311
330
1F
100
AcDbEntity
  8
GR1-1
  6
CONTINUOUS
 62
     3
100
AcDbCircle
 10
285.60164
 20
304.362069
 30
0.0
 40
3.0
100
AcDbArc
 50
90.0
 51
180.0
  0
LINE
  5
312
330
1F
100
AcDbEntity
  8
GR1-1
  6
CONTINUOUS
 62
     3
100
AcDbLine
 10
282.60164
 20
304.362069
 30
0.0
 11
282.60164
 21
303.362069
 31
0.0
  0
ARC
  5
313
330
1F
100
AcDbEntity
  8
GR1-1
  6
CONTINUOUS
 62
     3
100
AcDbCircle
 10
285.60164
 20
303.362069
 30
0.0
 40
3.0
100
AcDbArc
 50
180.0
 51
270.0
  0
LINE
  5
314
330
1F
100
AcDbEntity
  8
GR1-1
  6
CONTINUOUS
 62
     3
100
AcDbLine
 10
285.60164
 20
300.362069
 30
0.0
 11
289.129776
 21
300.362069
 31
0.0
  0
LINE
  5
315
330
1F
100
AcDbEntity
  8
GR1-1
  6
CONTINUOUS
 62
     3
100
AcDbLine
 10
289.129776
 20
304.762069
 30
0.0
 11
284.380887
 21
304.762069
 31
0.0
  0
LINE
  5
316
330
1F
100
AcDbEntity
  8
GR1-1
  6
CONTINUOUS
 62
     3
100
AcDbLine
 10
284.380887
 20
304.762069
 30
0.0
 11
284.380887
 21
303.362069
 31
0.0
  0
ARC
  5
317
330
1F
100
AcDbEntity
  8
GR1-1
  6
CONTINUOUS
 62
     3
100
AcDbCircle
 10
287.380887
 20
303.362069
 30
0.0
 40
3.0
100
AcDbArc
 50
180.0
 51
270.0
  0
LINE
  5
318
330
1F
100
AcDbEntity
  8
GR1-1
  6
CONTINUOUS
 62
     3
100
AcDbLine
 10
289.129776
 20
304.762069
 30
0.0
 11
289.129776
 21
285.362069
 31
0.0
  0
ARC
  5
319
330
1F
100
AcDbEntity
  8
GR1-1
  6
CONTINUOUS
 62
     3
100
AcDbCircle
 10
292.129776
 20
285.362069
 30
0.0
 40
3.0
100
AcDbArc
 50
180.0
 51
270.0
  0
ARC
  5
31A
330
1F
100
AcDbEntity
  8
GR1-1
  6
CONTINUOUS
 62
     3
100
AcDbCircle
 10
293.869515
 20
285.362069
 30
0.0
 40
3.0
100
AcDbArc
 50
180.0
 51
270.0
  0
ARC
  5
31B
330
1F
100
AcDbEntity
  8
GR1-1
  6
CONTINUOUS
 62
     3
100
AcDbCircle
 10
310.646561
 20
285.362069
 30
0.0
 40
3.0
100
AcDbArc
 50
270.0
 51
350.0
  0
LINE
  5
31C
330
1F
100
AcDbEntity
  8
GR1-1
  6
CONTINUOUS
 62
     6
100
AcDbLine
 10
293.09895
 20
300.335879
 30
0.0
 11
293.09895
 21
287.088259
 31
0.0
  0
ARC
  5
31D
330
1F
100
AcDbEntity
  8
GR1-1
  6
CONTINUOUS
 62
     6
100
AcDbCircle
 10
294.32514
 20
287.088259
 30
0.0
 40
1.226190000000059
100
AcDbArc
 50
180.0
 51
359.89457
  0
LINE
  5
31E
330
1F
100
AcDbEntity
  8
GR1-1
  6
CONTINUOUS
 62
     6
100
AcDbLine
 10
295.551328
 20
287.090515
 30
0.0
 11
295.551328
 21
291.362069
 31
0.0
  0
LINE
  5
31F
330
1F
100
AcDbEntity
  8
GR1-1
  6
CONTINUOUS
 62
     6
100
AcDbLine
 10
295.551328
 20
291.362069
 30
0.0
 11
300.753341
 21
291.362069
 31
0.0
  0
LINE
  5
320
330
1F
100
AcDbEntity
  8
GR1-1
  6
CONTINUOUS
 62
     6
100
AcDbLine
 10
300.753341
 20
291.362069
 30
0.0
 11
300.753341
 21
288.886003
 31
0.0
  0
ARC
  5
321
330
1F
100
AcDbEntity
  8
GR1-1
  6
CONTINUOUS
 62
     6
100
AcDbCircle
 10
301.979529
 20
288.933259
 30
0.0
 40
1.27118999999999
100
AcDbArc
 50
180.0
 51
360.0
  0
LINE
  5
322
330
1F
100
AcDbEntity
  8
GR1-1
  6
CONTINUOUS
 62
     6
100
AcDbLine
 10
303.205719
 20
288.933259
 30
0.0
 11
303.205719
 21
291.362069
 31
0.0
  0
LINE
  5
323
330
1F
100
AcDbEntity
  8
GR1-1
  6
CONTINUOUS
 62
     6
100
AcDbLine
 10
303.205719
 20
291.362069
 30
0.0
 11
303.116323
 21
291.362069
 31
0.0
  0
ARC
  5
324
330
1F
100
AcDbEntity
  8
GR1-1
  6
CONTINUOUS
 62
     6
100
AcDbCircle
 10
303.116323
 20
293.012069
 30
0.0
 40
1.649999999999977
100
AcDbArc
 50
-90.0
 51
90.0
  0
LINE
  5
325
330
1F
100
AcDbEntity
  8
GR1-1
  6
CONTINUOUS
 62
     6
100
AcDbLine
 10
303.116323
 20
294.662069
 30
0.0
 11
295.551328
 21
294.662069
 31
0.0
  0
LINE
  5
326
330
1F
100
AcDbEntity
  8
GR1-1
  6
CONTINUOUS
 62
     6
100
AcDbLine
 10
295.551328
 20
294.662069
 30
0.0
 11
295.551328
 21
296.662069
 31
0.0
  0
LINE
  5
327
330
1F
100
AcDbEntity
  8
GR1-1
  6
CONTINUOUS
 62
     6
100
AcDbLine
 10
295.551328
 20
296.662069
 30
0.0
 11
298.657454
 21
296.662069
 31
0.0
  0
ARC
  5
328
330
1F
100
AcDbEntity
  8
GR1-1
  6
CONTINUOUS
 62
     6
100
AcDbCircle
 10
298.657454
 20
298.312069
 30
0.0
 40
1.649999999999977
100
AcDbArc
 50
-90.0
 51
90.0
  0
LINE
  5
329
330
1F
100
AcDbEntity
  8
GR1-1
  6
CONTINUOUS
 62
     6
100
AcDbLine
 10
298.657454
 20
299.962069
 30
0.0
 11
295.551328
 21
299.962069
 31
0.0
  0
LINE
  5
32A
330
1F
100
AcDbEntity
  8
GR1-1
  6
CONTINUOUS
 62
     6
100
AcDbLine
 10
295.551328
 20
299.962069
 30
0.0
 11
295.551328
 21
300.338135
 31
0.0
  0
ARC
  5
32B
330
1F
100
AcDbEntity
  8
GR1-1
  6
CONTINUOUS
 62
     6
100
AcDbCircle
 10
294.32514
 20
300.335879
 30
0.0
 40
1.226190000000059
100
AcDbArc
 50
-0.10543
 51
180.0
  0
LINE
  5
32C
330
1F
100
AcDbEntity
  8
GR1-1
  6
CONTINUOUS
 62
     6
100
AcDbLine
 10
323.317354
 20
300.662069
 30
0.0
 11
323.317354
 21
297.323061
 31
0.0
  0
ARC
  5
32D
330
1F
100
AcDbEntity
  8
LAYERGROUP-1
  6
CONTINUOUS
 62
     7
100
AcDbCircle
 10
376.094274
 20
337.862069
 30
0.0
 40
102.0266982137017
100
AcDbArc
 50
192.692882
 51
213.762368
  0
DIMENSION
  5
32E
330
1F
100
AcDbEntity
  8
LAYERGROUP-1
100
AcDbDimension
  2
*D35
 10
376.094274
 20
337.862069
 30
0.0
 11
265.90274
 21
306.580536
 31
0.0
 70
   164
  3
FXDIMINFO
100
AcDbRadialDimension
 15
278.192814
 25
309.143586
 35
0.0
 40
0.0
1001
ACAD
1000
DSTYLE
1002
{
1070
     6
1000
FXTIP_ARROW_S
1070
   173
1070
     1
1002
}
  0
LINE
  5
337
330
1F
100
AcDbEntity
  8
GR1-1
  6
CONTINUOUS
 62
     3
100
AcDbLine
 10
371.054073
 20
271.762069
 30
0.0
 11
395.36967
 21
271.762069
 31
0.0
  0
ARC
  5
338
330
1F
100
AcDbEntity
  8
GR1-1
  6
CONTINUOUS
 62
     3
100
AcDbCircle
 10
395.36967
 20
274.762069
 30
0.0
 40
3.0
100
AcDbArc
 50
270.0
 51
360.0
  0
LINE
  5
339
330
1F
100
AcDbEntity
  8
GR1-1
  6
CONTINUOUS
 62
     3
100
AcDbLine
 10
398.36967
 20
274.762069
 30
0.0
 11
398.36967
 21
286.862069
 31
0.0
  0
LINE
  5
33A
330
1F
100
AcDbEntity
  8
GR1-1
  6
CONTINUOUS
 62
     3
100
AcDbLine
 10
359.636773
 20
286.862069
 30
0.0
 11
368.054073
 21
275.762069
 31
0.0
  0
LINE
  5
33B
330
1F
100
AcDbEntity
  8
GR1-1
  6
CONTINUOUS
 62
     3
100
AcDbLine
 10
368.054073
 20
275.762069
 30
0.0
 11
368.054073
 21
274.762069
 31
0.0
  0
ARC
  5
33C
330
1F
100
AcDbEntity
  8
GR1-1
  6
CONTINUOUS
 62
     3
100
AcDbCircle
 10
371.054073
 20
274.762069
 30
0.0
 40
3.0
100
AcDbArc
 50
180.0
 51
270.0
  0
LINE
  5
33D
330
1F
100
AcDbEntity
  8
GR1-1
  6
CONTINUOUS
 62
     3
100
AcDbLine
 10
369.618792
 20
274.762069
 30
0.0
 11
369.618792
 21
275.762069
 31
0.0
  0
LINE
  5
33E
330
1F
100
AcDbEntity
  8
GR1-1
  6
CONTINUOUS
 62
     3
100
AcDbLine
 10
369.618792
 20
275.762069
 30
0.0
 11
360.287367
 21
286.862069
 31
0.0
  0
ARC
  5
33F
330
1F
100
AcDbEntity
  8
GR1-1
  6
CONTINUOUS
 62
     3
100
AcDbCircle
 10
372.618792
 20
274.762069
 30
0.0
 40
3.0
100
AcDbArc
 50
180.0
 51
270.0
  0
LINE
  5
340
330
1F
100
AcDbEntity
  8
GR1-1
  6
CONTINUOUS
 62
     6
100
AcDbLine
 10
383.834504
 20
286.862069
 30
0.0
 11
383.834504
 21
277.479134
 31
0.0
  0
LINE
  5
341
330
1F
100
AcDbEntity
  8
GR1-1
  6
CONTINUOUS
 62
     6
100
AcDbLine
 10
386.470001
 20
277.479134
 30
0.0
 11
386.470001
 21
286.862069
 31
0.0
  0
LINE
  5
342
330
1F
100
AcDbEntity
  8
GR1-1
  6
CONTINUOUS
 62
     6
100
AcDbLine
 10
380.400371
 20
286.862069
 30
0.0
 11
380.400371
 21
277.479134
 31
0.0
  0
ARC
  5
343
330
1F
100
AcDbEntity
  8
GR1-1
  6
CONTINUOUS
 62
     6
100
AcDbCircle
 10
382.117439
 20
277.479134
 30
0.0
 40
1.717064999999991
100
AcDbArc
 50
-180.0
 51
0.0
  0
ARC
  5
344
330
1F
100
AcDbEntity
  8
GR1-1
  6
CONTINUOUS
 62
     6
100
AcDbCircle
 10
388.187069
 20
277.479134
 30
0.0
 40
1.717064999999991
100
AcDbArc
 50
-180.0
 51
0.0
  0
LINE
  5
345
330
1F
100
AcDbEntity
  8
GR1-1
  6
CONTINUOUS
 62
     6
100
AcDbLine
 10
389.904134
 20
277.479134
 30
0.0
 11
389.904134
 21
286.862069
 31
0.0
  0
LINE
  5
346
330
1F
100
AcDbEntity
  8
GR1-1
  6
CONTINUOUS
 62
     6
100
AcDbLine
 10
392.539631
 20
286.862069
 30
0.0
 11
392.539631
 21
277.479134
 31
0.0
  0
ARC
  5
347
330
1F
100
AcDbEntity
  8
GR1-1
  6
CONTINUOUS
 62
     6
100
AcDbCircle
 10
394.256699
 20
277.479134
 30
0.0
 40
1.717064999999991
100
AcDbArc
 50
-180.0
 51
0.0
  0
LINE
  5
348
330
1F
100
AcDbEntity
  8
GR1-1
  6
CONTINUOUS
 62
     6
100
AcDbLine
 10
395.973764
 20
277.479134
 30
0.0
 11
395.973764
 21
286.862069
 31
0.0
  0
LINE
  5
349
330
1F
100
AcDbEntity
  8
GR1-1
  6
CONTINUOUS
 62
     6
100
AcDbLine
 10
377.764874
 20
286.862069
 30
0.0
 11
377.764874
 21
277.479134
 31
0.0
  0
ARC
  5
34A
330
1F
100
AcDbEntity
  8
GR1-1
  6
CONTINUOUS
 62
     6
100
AcDbCircle
 10
376.047809
 20
277.479134
 30
0.0
 40
1.717064999999991
100
AcDbArc
 50
-180.0
 51
0.0
  0
LINE
  5
34B
330
1F
100
AcDbEntity
  8
GR1-1
  6
CONTINUOUS
 62
     6
100
AcDbLine
 10
374.330741
 20
277.479134
 30
0.0
 11
374.330741
 21
286.862069
 31
0.0
  0
LINE
  5
34C
330
1F
100
AcDbEntity
  8
GR1-1
  6
CONTINUOUS
 62
     3
100
AcDbLine
 10
359.173783
 20
119.977646
 30
0.0
 11
392.361858
 21
185.112909
 31
0.0
  0
ARC
  5
34D
330
1F
100
AcDbEntity
  8
GR1-1
  6
CONTINUOUS
 62
     3
100
AcDbCircle
 10
488.813185
 20
141.636776
 30
0.0
 40
105.7971300497176
100
AcDbArc
 50
150.263815
 51
155.736185
  0
LINE
  5
34E
330
1F
100
AcDbEntity
  8
GR1-1
  6
CONTINUOUS
 62
     3
100
AcDbLine
 10
330.044229
 20
210.412909
 30
0.0
 11
320.579864
 21
147.310913
 31
0.0
  0
ARC
  5
34F
330
1F
100
AcDbEntity
  8
GR1-1
  6
CONTINUOUS
 62
     3
100
AcDbCircle
 10
336.094274
 20
118.962909
 30
0.0
 40
75.0
100
AcDbArc
 50
-249.476762
 51
47.452083
  0
LINE
  5
350
330
1F
100
AcDbEntity
  8
GR1-1
  6
CONTINUOUS
 62
     3
100
AcDbLine
 10
282.593895
 20
165.405098
 30
0.0
 11
300.74926
 21
140.327552
 31
0.0
  0
LINE
  5
351
330
1F
100
AcDbEntity
  8
GR1-1
  6
CONTINUOUS
 62
     3
100
AcDbLine
 10
302.855279
 20
141.852244
 30
0.0
 11
284.373142
 21
167.381152
 31
0.0
  0
LINE
  5
352
330
1F
100
AcDbEntity
  8
GR1-1
  6
CONTINUOUS
 62
     3
100
AcDbLine
 10
282.593895
 20
165.405098
 30
0.0
 11
290.86177
 21
174.587503
 31
0.0
  0
LINE
  5
353
330
1F
100
AcDbEntity
  8
GR1-1
  6
CONTINUOUS
 62
     3
100
AcDbLine
 10
290.86177
 20
174.587503
 30
0.0
 11
317.791683
 21
150.339701
 31
0.0
  0
LINE
  5
354
330
1F
100
AcDbEntity
  8
GR1-1
  6
CONTINUOUS
 62
     3
100
AcDbLine
 10
316.051943
 20
148.407525
 30
0.0
 11
289.122031
 21
172.655327
 31
0.0
  0
LINE
  5
355
330
1F
100
AcDbEntity
  8
GR1-1
  6
CONTINUOUS
 62
     3
100
AcDbLine
 10
391.007968
 20
80.672117
 30
0.0
 11
398.36967
 21
90.441426
 31
0.0
  0
LINE
  5
356
330
1F
100
AcDbEntity
  8
GR1-1
  6
CONTINUOUS
 62
     3
100
AcDbLine
 10
398.36967
 20
90.441426
 30
0.0
 11
354.139563
 21
123.771203
 31
0.0
  0
LINE
  5
357
330
1F
100
AcDbEntity
  8
GR1-1
  6
CONTINUOUS
 62
     3
100
AcDbLine
 10
352.574844
 20
121.69475
 30
0.0
 11
396.804951
 21
88.364974
 31
0.0
  0
LINE
  5
358
330
1F
100
AcDbEntity
  8
GR1-1
  6
CONTINUOUS
 62
     3
100
AcDbLine
 10
392.577082
 20
82.754402
 30
0.0
 11
368.505066
 21
98.214797
 31
0.0
  0
ARC
  5
359
330
1F
100
AcDbEntity
  8
GR1-1
  6
CONTINUOUS
 62
     3
100
AcDbCircle
 10
341.701245
 20
56.480936
 30
0.0
 40
49.6
100
AcDbArc
 50
57.289153
 51
106.100105
  0
ARC
  5
35A
330
1F
100
AcDbEntity
  8
GR1-1
  6
CONTINUOUS
 62
     3
100
AcDbCircle
 10
336.694274
 20
119.912909
 30
0.0
 40
20.00000000000003
100
AcDbArc
 50
246.151765
 51
250.731225
  0
LINE
  5
35B
330
1F
100
AcDbEntity
  8
GR1-1
  6
CONTINUOUS
 62
     3
100
AcDbLine
 10
330.094274
 20
102.128839
 30
0.0
 11
345.594274
 21
102.128839
 31
0.0
  0
ARC
  5
35C
330
1F
100
AcDbEntity
  8
GR1-1
  6
CONTINUOUS
 62
     3
100
AcDbCircle
 10
345.594274
 20
107.128839
 30
0.0
 40
5.0
100
AcDbArc
 50
270.0
 51
304.317573
  0
LINE
  5
35D
330
1F
100
AcDbEntity
  8
GR1-1
  6
CONTINUOUS
 62
     3
100
AcDbLine
 10
342.094274
 20
102.128839
 30
0.0
 11
342.094274
 21
99.528839
 31
0.0
  0
LINE
  5
35E
330
1F
100
AcDbEntity
  8
GR1-1
  6
CONTINUOUS
 62
     3
100
AcDbLine
 10
342.094274
 20
99.528839
 30
0.0
 11
330.094274
 21
99.528839
 31
0.0
  0
LINE
  5
35F
330
1F
100
AcDbEntity
  8
GR1-1
  6
CONTINUOUS
 62
     3
100
AcDbLine
 10
330.094274
 20
99.528839
 30
0.0
 11
330.094274
 21
102.128839
 31
0.0
  0
LINE
  5
360
330
1F
100
AcDbEntity
  8
GR1-1
  6
CONTINUOUS
 62
     3
100
AcDbLine
 10
334.56025
 20
108.878924
 30
0.0
 11
328.128298
 21
112.592412
 31
0.0
  0
LINE
  5
361
330
1F
100
AcDbEntity
  8
GR1-1
  6
CONTINUOUS
 62
     3
100
AcDbLine
 10
326.594274
 20
115.24942
 30
0.0
 11
326.594274
 21
122.676398
 31
0.0
  0
ARC
  5
362
330
1F
100
AcDbEntity
  8
GR1-1
  6
CONTINUOUS
 62
     3
100
AcDbCircle
 10
336.094274
 20
118.962909
 30
0.0
 40
10.19999999999996
100
AcDbArc
 50
141.350209
 51
158.649791
  0
LINE
  5
363
330
1F
100
AcDbEntity
  8
GR1-1
  6
CONTINUOUS
 62
     3
100
AcDbLine
 10
328.128298
 20
125.333406
 30
0.0
 11
334.56025
 21
129.046895
 31
0.0
  0
LINE
  5
364
330
1F
100
AcDbEntity
  8
GR1-1
  6
CONTINUOUS
 62
     3
100
AcDbLine
 10
337.628298
 20
129.046895
 30
0.0
 11
344.06025
 21
125.333406
 31
0.0
  0
LINE
  5
365
330
1F
100
AcDbEntity
  8
GR1-1
  6
CONTINUOUS
 62
     3
100
AcDbLine
 10
345.594274
 20
122.676398
 30
0.0
 11
345.594274
 21
115.24942
 31
0.0
  0
LINE
  5
366
330
1F
100
AcDbEntity
  8
GR1-1
  6
CONTINUOUS
 62
     3
100
AcDbLine
 10
344.06025
 20
112.592412
 30
0.0
 11
337.628298
 21
108.878924
 31
0.0
  0
ARC
  5
367
330
1F
100
AcDbEntity
  8
GR1-1
  6
CONTINUOUS
 62
     3
100
AcDbCircle
 10
336.094274
 20
118.962909
 30
0.0
 40
10.19999999999996
100
AcDbArc
 50
261.350209
 51
278.649791
  0
ARC
  5
368
330
1F
100
AcDbEntity
  8
GR1-1
  6
CONTINUOUS
 62
     3
100
AcDbCircle
 10
336.094274
 20
118.962909
 30
0.0
 40
10.19999999999996
100
AcDbArc
 50
321.350209
 51
338.649791
  0
CIRCLE
  5
369
330
1F
100
AcDbEntity
  8
GR1-1
  6
CONTINUOUS
 62
     3
100
AcDbCircle
 10
336.094274
 20
118.962909
 30
0.0
 40
11.4
  0
ARC
  5
36A
330
1F
100
AcDbEntity
  8
GR1-1
  6
CONTINUOUS
 62
     3
100
AcDbCircle
 10
336.094274
 20
118.962909
 30
0.0
 40
10.19999999999996
100
AcDbArc
 50
21.350209
 51
38.649791
  0
ARC
  5
36B
330
1F
100
AcDbEntity
  8
GR1-1
  6
CONTINUOUS
 62
     3
100
AcDbCircle
 10
367.379494
 20
141.341184
 30
0.0
 40
24.6
100
AcDbArc
 50
210.048215
 51
233.0
  0
LINE
  5
36C
330
1F
100
AcDbEntity
  8
GR1-1
  6
CONTINUOUS
 62
     3
100
AcDbLine
 10
350.594274
 20
127.119496
 30
0.0
 11
350.594274
 21
180.928839
 31
0.0
  0
LINE
  5
36D
330
1F
100
AcDbEntity
  8
GR1-1
  6
CONTINUOUS
 62
     3
100
AcDbLine
 10
350.844274
 20
180.928839
 30
0.0
 11
336.344274
 21
180.928839
 31
0.0
  0
LINE
  5
36E
330
1F
100
AcDbEntity
  8
GR1-1
  6
CONTINUOUS
 62
     3
100
AcDbLine
 10
336.344274
 20
180.928839
 30
0.0
 11
336.344274
 21
158.008883
 31
0.0
  0
LINE
  5
36F
330
1F
100
AcDbEntity
  8
GR1-1
  6
CONTINUOUS
 62
     3
100
AcDbLine
 10
336.594274
 20
159.207841
 30
0.0
 11
336.594274
 21
180.928839
 31
0.0
  0
LINE
  5
370
330
1F
100
AcDbEntity
  8
GR1-1
  6
CONTINUOUS
 62
     3
100
AcDbLine
 10
350.844274
 20
180.928839
 30
0.0
 11
350.844274
 21
160.128839
 31
0.0
  0
LINE
  5
371
330
1F
100
AcDbEntity
  8
GR1-1
  6
CONTINUOUS
 62
     3
100
AcDbLine
 10
350.594274
 20
160.128839
 30
0.0
 11
353.194274
 21
160.128839
 31
0.0
  0
LINE
  5
372
330
1F
100
AcDbEntity
  8
GR1-1
  6
CONTINUOUS
 62
     3
100
AcDbLine
 10
353.194274
 20
160.128839
 30
0.0
 11
353.194274
 21
150.128839
 31
0.0
  0
LINE
  5
373
330
1F
100
AcDbEntity
  8
GR1-1
  6
CONTINUOUS
 62
     3
100
AcDbLine
 10
353.194274
 20
150.128839
 30
0.0
 11
350.594274
 21
150.128839
 31
0.0
  0
LINE
  5
374
330
1F
100
AcDbEntity
  8
GR1-1
  6
CONTINUOUS
 62
     3
100
AcDbLine
 10
334.647644
 20
156.398853
 30
0.0
 11
332.594274
 21
155.628839
 31
0.0
  0
LINE
  5
375
330
1F
100
AcDbEntity
  8
GR1-1
  6
CONTINUOUS
 62
     3
100
AcDbLine
 10
332.594274
 20
155.628839
 30
0.0
 11
329.994274
 21
155.628839
 31
0.0
  0
LINE
  5
376
330
1F
100
AcDbEntity
  8
GR1-1
  6
CONTINUOUS
 62
     3
100
AcDbLine
 10
329.994274
 20
155.628839
 30
0.0
 11
329.994274
 21
152.809218
 31
0.0
  0
LINE
  5
377
330
1F
100
AcDbEntity
  8
GR1-1
  6
CONTINUOUS
 62
     3
100
AcDbLine
 10
332.594274
 20
152.809218
 30
0.0
 11
332.594274
 21
155.628839
 31
0.0
  0
ARC
  5
378
330
1F
100
AcDbEntity
  8
GR1-1
  6
CONTINUOUS
 62
     3
100
AcDbCircle
 10
333.594274
 20
159.207841
 30
0.0
 40
3.0
100
AcDbArc
 50
290.556045
 51
360.0
  0
ARC
  5
379
330
1F
100
AcDbEntity
  8
GR1-1
  6
CONTINUOUS
 62
     3
100
AcDbCircle
 10
324.994274
 20
152.809218
 30
0.0
 40
5.0
100
AcDbArc
 50
284.0
 51
360.0
  0
LINE
  5
37A
330
1F
100
AcDbEntity
  8
GR1-1
  6
CONTINUOUS
 62
     3
100
AcDbLine
 10
326.203883
 20
147.957739
 30
0.0
 11
321.594274
 21
146.808435
 31
0.0
  0
LINE
  5
37B
330
1F
100
AcDbEntity
  8
GR1-1
  6
CONTINUOUS
 62
     3
100
AcDbLine
 10
321.594274
 20
146.808435
 30
0.0
 11
322.658534
 21
144.394189
 31
0.0
  0
LINE
  5
37C
330
1F
100
AcDbEntity
  8
GR1-1
  6
CONTINUOUS
 62
     3
100
AcDbLine
 10
322.658534
 20
144.394189
 30
0.0
 11
326.83288
 21
145.434971
 31
0.0
  0
ARC
  5
37D
330
1F
100
AcDbEntity
  8
GR1-1
  6
CONTINUOUS
 62
     3
100
AcDbCircle
 10
324.994274
 20
152.809218
 30
0.0
 40
7.6
100
AcDbArc
 50
284.0
 51
360.0
  0
ARC
  5
37E
330
1F
100
AcDbEntity
  8
GR1-1
  6
CONTINUOUS
 62
     3
100
AcDbCircle
 10
325.404035
 20
147.30318
 30
0.0
 40
4.0
100
AcDbArc
 50
210.798847
 51
270.814489
  0
ARC
  5
37F
330
1F
100
AcDbEntity
  8
GR1-1
  6
CONTINUOUS
 62
     3
100
AcDbCircle
 10
303.070809
 20
133.990515
 30
0.0
 40
22.0
100
AcDbArc
 50
30.798847
 51
48.0
  0
ARC
  5
380
330
1F
100
AcDbEntity
  8
GR1-1
  6
CONTINUOUS
 62
     3
100
AcDbCircle
 10
325.404035
 20
147.30318
 30
0.0
 40
6.6
100
AcDbArc
 50
210.798847
 51
270.814489
  0
ARC
  5
381
330
1F
100
AcDbEntity
  8
GR1-1
  6
CONTINUOUS
 62
     3
100
AcDbCircle
 10
303.070809
 20
133.990515
 30
0.0
 40
19.4
100
AcDbArc
 50
30.798847
 51
48.0
  0
ARC
  5
382
330
1F
100
AcDbEntity
  8
GR1-1
  6
CONTINUOUS
 62
     3
100
AcDbCircle
 10
336.094274
 20
118.962909
 30
0.0
 40
10.19999999999996
100
AcDbArc
 50
81.350209
 51
98.649791
  0
ARC
  5
383
330
1F
100
AcDbEntity
  8
GR1-1
  6
CONTINUOUS
 62
     3
100
AcDbCircle
 10
325.830485
 20
117.306211
 30
0.0
 40
23.4
100
AcDbArc
 50
30.048215
 51
90.814489
  0
ARC
  5
384
330
1F
100
AcDbEntity
  8
GR1-1
  6
CONTINUOUS
 62
     3
100
AcDbCircle
 10
325.830485
 20
117.306211
 30
0.0
 40
26.0
100
AcDbArc
 50
30.048215
 51
90.814489
  0
ARC
  5
385
330
1F
100
AcDbEntity
  8
GR1-1
  6
CONTINUOUS
 62
     3
100
AcDbCircle
 10
367.379494
 20
141.341184
 30
0.0
 40
22.0
100
AcDbArc
 50
210.048215
 51
233.0
  0
ARC
  5
386
330
1F
100
AcDbEntity
  8
GR1-1
  6
CONTINUOUS
 62
     3
100
AcDbCircle
 10
341.701245
 20
56.480936
 30
0.0
 40
47.0
100
AcDbArc
 50
57.289153
 51
106.100105
  0
ARC
  5
387
330
1F
100
AcDbEntity
  8
GR1-1
  6
CONTINUOUS
 62
     3
100
AcDbCircle
 10
336.694274
 20
119.912909
 30
0.0
 40
20.00000000000003
100
AcDbArc
 50
285.664267
 51
297.270229
  0
LINE
  5
388
330
1F
100
AcDbEntity
  8
GR1-1
  6
CONTINUOUS
 62
     3
100
AcDbLine
 10
367.100027
 20
96.027135
 30
0.0
 11
391.007968
 21
80.672117
 31
0.0
  0
LINE
  5
389
330
1F
100
AcDbEntity
  8
GR1-1
  6
CONTINUOUS
 62
     3
100
AcDbLine
 10
313.269994
 20
106.113639
 30
0.0
 11
315.217851
 21
107.835805
 31
0.0
  0
ARC
  5
38A
330
1F
100
AcDbEntity
  8
GR1-1
  6
CONTINUOUS
 62
     3
100
AcDbCircle
 10
324.507628
 20
116.049212
 30
0.0
 40
12.4
100
AcDbArc
 50
221.480988
 51
286.100105
  0
ARC
  5
38B
330
1F
100
AcDbEntity
  8
GR1-1
  6
CONTINUOUS
 62
     3
100
AcDbCircle
 10
336.094274
 20
118.962909
 30
0.0
 40
10.19999999999996
100
AcDbArc
 50
201.350209
 51
218.649791
  0
LINE
  5
38C
330
1F
100
AcDbEntity
  8
GR1-1
  6
CONTINUOUS
 62
     3
100
AcDbLine
 10
310.613575
 20
110.396311
 30
0.0
 11
307.893564
 21
108.19369
 31
0.0
  0
LINE
  5
38D
330
1F
100
AcDbEntity
  8
GR1-1
  6
CONTINUOUS
 62
     3
100
AcDbLine
 10
307.190331
 20
108.267602
 30
0.0
 11
304.367112
 21
111.753987
 31
0.0
  0
LINE
  5
38E
330
1F
100
AcDbEntity
  8
GR1-1
  6
CONTINUOUS
 62
     3
100
AcDbLine
 10
304.367112
 20
111.753987
 30
0.0
 11
306.786678
 21
110.802303
 31
0.0
  0
ARC
  5
38F
330
1F
100
AcDbEntity
  8
GR1-1
  6
CONTINUOUS
 62
     3
100
AcDbCircle
 10
276.449046
 20
122.734951
 30
0.0
 40
32.6
100
AcDbArc
 50
-21.471117
 51
35.903372
  0
ARC
  5
390
330
1F
100
AcDbEntity
  8
GR1-1
  6
CONTINUOUS
 62
     3
100
AcDbCircle
 10
276.449046
 20
122.734951
 30
0.0
 40
30.0
100
AcDbArc
 50
-21.471117
 51
35.903372
  0
ARC
  5
391
330
1F
100
AcDbEntity
  8
GR1-1
  6
CONTINUOUS
 62
     3
100
AcDbCircle
 10
324.507628
 20
116.049212
 30
0.0
 40
15.0
100
AcDbArc
 50
202.139322
 51
286.100105
  0
ARC
  5
392
330
1F
100
AcDbEntity
  8
GR1-1
  6
CONTINUOUS
 62
     3
100
AcDbCircle
 10
307.578904
 20
108.582263
 30
0.0
 40
0.5
100
AcDbArc
 50
219.0
 51
309.0
  0
LINE
  5
393
330
1F
100
AcDbEntity
  8
GR1-1
  6
CONTINUOUS
 62
     6
100
AcDbLine
 10
369.618792
 20
112.106767
 30
0.0
 11
368.054073
 21
110.030315
 31
0.0
  0
ARC
  5
394
330
1F
100
AcDbEntity
  8
GR1-1
  6
CONTINUOUS
 62
     6
100
AcDbCircle
 10
336.094274
 20
118.962909
 30
0.0
 40
27.0
100
AcDbArc
 50
324.534022
 51
349.624933
  0
CIRCLE
  5
395
330
1F
100
AcDbEntity
  8
GR1-1
  6
CONTINUOUS
 62
     6
100
AcDbCircle
 10
336.094274
 20
118.962909
 30
0.0
 40
9.499999999999972
  0
CIRCLE
  5
396
330
1F
100
AcDbEntity
  8
GR1-1
  6
CONTINUOUS
 62
     6
100
AcDbCircle
 10
336.094274
 20
118.962909
 30
0.0
 40
9.0
  0
CIRCLE
  5
397
330
1F
100
AcDbEntity
  8
GR1-1
  6
CONTINUOUS
 62
     6
100
AcDbCircle
 10
336.094274
 20
118.962909
 30
0.0
 40
3.0
  0
ARC
  5
398
330
1F
100
AcDbEntity
  8
GR1-1
  6
CONTINUOUS
 62
     6
100
AcDbCircle
 10
321.955966
 20
112.022328
 30
0.0
 40
2.25
100
AcDbArc
 50
-154.165338
 51
23.310945
  0
ARC
  5
399
330
1F
100
AcDbEntity
  8
GR1-1
  6
CONTINUOUS
 62
     6
100
AcDbCircle
 10
327.132122
 20
131.914447
 30
0.0
 40
2.25
100
AcDbArc
 50
-55.317698
 51
124.682302
  0
ARC
  5
39A
330
1F
100
AcDbEntity
  8
GR1-1
  6
CONTINUOUS
 62
     6
100
AcDbCircle
 10
336.094274
 20
118.962909
 30
0.0
 40
18.0
100
AcDbArc
 50
124.682302
 51
206.107697
  0
ARC
  5
39B
330
1F
100
AcDbEntity
  8
GR1-1
  6
CONTINUOUS
 62
     6
100
AcDbCircle
 10
336.094274
 20
118.962909
 30
0.0
 40
13.5
100
AcDbArc
 50
124.682302
 51
206.619027
  0
ARC
  5
39C
330
1F
100
AcDbEntity
  8
GR1-1
  6
CONTINUOUS
 62
     6
100
AcDbCircle
 10
336.094274
 20
118.962909
 30
0.0
 40
16.0
100
AcDbArc
 50
-54.461762
 51
12.263902
  0
LINE
  5
39D
330
1F
100
AcDbEntity
  8
GR1-1
  6
CONTINUOUS
 62
     6
100
AcDbLine
 10
350.594274
 20
168.128839
 30
0.0
 11
336.594274
 21
168.128839
 31
0.0
  0
LINE
  5
39E
330
1F
100
AcDbEntity
  8
GR1-1
  6
CONTINUOUS
 62
     6
100
AcDbLine
 10
336.594274
 20
177.128839
 30
0.0
 11
350.594274
 21
177.128839
 31
0.0
  0
LINE
  5
39F
330
1F
100
AcDbEntity
  8
GR1-1
  6
CONTINUOUS
 62
     6
100
AcDbLine
 10
313.156115
 20
154.513585
 30
0.0
 11
311.416375
 21
152.581409
 31
0.0
  0
LINE
  5
3A0
330
1F
100
AcDbEntity
  8
GR1-1
  6
CONTINUOUS
 62
     7
100
AcDbLine
 10
313.156115
 20
154.513585
 30
0.0
 11
311.416375
 21
152.581409
 31
0.0
  0
INSERT
  5
3A4
330
1F
100
AcDbEntity
  8
0
100
AcDbBlockReference
  2
BLKF038
 10
0.0
 20
0.0
 30
0.0
  0
INSERT
  5
3D2
330
1F
100
AcDbEntity
  8
0
100
AcDbBlockReference
  2
BLKF041
 10
0.0
 20
0.0
 30
0.0
  0
LINE
  5
40E
330
1F
100
AcDbEntity
  8
GR1-1
  6
CONTINUOUS
 62
     3
100
AcDbLine
 10
97.439475
 20
111.962909
 30
0.0
 11
97.439475
 21
125.962909
 31
0.0
  0
LINE
  5
40F
330
1F
100
AcDbEntity
  8
GR1-1
  6
CONTINUOUS
 62
     3
100
AcDbLine
 10
97.439475
 20
125.962909
 30
0.0
 11
101.439475
 21
128.462909
 31
0.0
  0
ARC
  5
410
330
1F
100
AcDbEntity
  8
GR1-1
  6
CONTINUOUS
 62
     3
100
AcDbCircle
 10
102.471075
 20
126.262909
 30
0.0
 40
2.42985542723951
100
AcDbArc
 50
115.122296
 51
244.877704
  0
ARC
  5
411
330
1F
100
AcDbEntity
  8
GR1-1
  6
CONTINUOUS
 62
     3
100
AcDbCircle
 10
110.041219
 20
118.962909
 30
0.0
 40
10.0
100
AcDbArc
 50
149.33617
 51
210.66383
  0
ARC
  5
412
330
1F
100
AcDbEntity
  8
GR1-1
  6
CONTINUOUS
 62
     3
100
AcDbCircle
 10
102.471075
 20
111.662909
 30
0.0
 40
2.429855427239536
100
AcDbArc
 50
115.122296
 51
244.877704
  0
LINE
  5
413
330
1F
100
AcDbEntity
  8
GR1-1
  6
CONTINUOUS
 62
     3
100
AcDbLine
 10
101.439475
 20
109.462909
 30
0.0
 11
97.439475
 21
111.962909
 31
0.0
  0
LINE
  5
414
330
1F
100
AcDbEntity
  8
GR1-1
  6
CONTINUOUS
 62
     3
100
AcDbLine
 10
101.439475
 20
124.062909
 30
0.0
 11
106.439475
 21
124.062909
 31
0.0
  0
LINE
  5
415
330
1F
100
AcDbEntity
  8
GR1-1
  6
CONTINUOUS
 62
     3
100
AcDbLine
 10
106.439475
 20
128.462909
 30
0.0
 11
101.439475
 21
128.462909
 31
0.0
  0
ARC
  5
416
330
1F
100
AcDbEntity
  8
GR1-1
  6
CONTINUOUS
 62
     3
100
AcDbCircle
 10
93.934475
 20
118.962909
 30
0.0
 40
13.50500000000005
100
AcDbArc
 50
-22.187446
 51
22.187446
  0
LINE
  5
417
330
1F
100
AcDbEntity
  8
GR1-1
  6
CONTINUOUS
 62
     3
100
AcDbLine
 10
106.439475
 20
113.862909
 30
0.0
 11
101.439475
 21
113.862909
 31
0.0
  0
LINE
  5
418
330
1F
100
AcDbEntity
  8
GR1-1
  6
CONTINUOUS
 62
     3
100
AcDbLine
 10
101.439475
 20
109.462909
 30
0.0
 11
106.439475
 21
109.462909
 31
0.0
  0
ARC
  5
419
330
1F
100
AcDbEntity
  8
GR1-1
  6
CONTINUOUS
 62
     3
100
AcDbCircle
 10
104.519475
 20
111.662909
 30
0.0
 40
2.919999999999983
100
AcDbArc
 50
-48.88791
 51
48.88791
  0
ARC
  5
41A
330
1F
100
AcDbEntity
  8
GR1-1
  6
CONTINUOUS
 62
     3
100
AcDbCircle
 10
104.519475
 20
126.262909
 30
0.0
 40
2.919999999999983
100
AcDbArc
 50
-48.88791
 51
48.88791
  0
ARC
  5
41B
330
1F
100
AcDbEntity
  8
LAYERGROUP-1
  6
CONTINUOUS
 62
     6
100
AcDbCircle
 10
336.094274
 20
118.962909
 30
0.0
 40
23.49999999999997
100
AcDbArc
 50
227.292356
 51
314.518153
  0
ARC
  5
41C
330
1F
100
AcDbEntity
  8
LAYERGROUP-1
  6
CONTINUOUS
 62
     6
100
AcDbCircle
 10
336.094274
 20
118.962909
 30
0.0
 40
37.00000000000014
100
AcDbArc
 50
113.361543
 51
120.589991
  0
ARC
  5
41D
330
1F
100
AcDbEntity
  8
LAYERGROUP-1
  6
CONTINUOUS
 62
     3
100
AcDbCircle
 10
336.094274
 20
118.962909
 30
0.0
 40
60.5
100
AcDbArc
 50
100.320564
 51
127.456243
  0
ARC
  5
41E
330
1F
100
AcDbEntity
  8
LAYERGROUP-1
  6
CONTINUOUS
 62
     6
100
AcDbCircle
 10
336.094274
 20
118.962909
 30
0.0
 40
57.0
100
AcDbArc
 50
101.526125
 51
126.800698
  0
CIRCLE
  5
41F
330
1F
100
AcDbEntity
  8
LAYERGROUP-1
  6
CONTINUOUS
 62
     3
100
AcDbCircle
 10
289.094274
 20
118.962909
 30
0.0
 40
4.999999999999972
  0
CIRCLE
  5
420
330
1F
100
AcDbEntity
  8
LAYERGROUP-1
  6
CONTINUOUS
 62
     3
100
AcDbCircle
 10
302.860255
 20
85.728891
 30
0.0
 40
4.999999999999972
  0
CIRCLE
  5
421
330
1F
100
AcDbEntity
  8
LAYERGROUP-1
  6
CONTINUOUS
 62
     6
100
AcDbCircle
 10
302.860255
 20
85.728891
 30
0.0
 40
7.500000000000085
  0
CIRCLE
  5
422
330
1F
100
AcDbEntity
  8
LAYERGROUP-1
  6
CONTINUOUS
 62
     3
100
AcDbCircle
 10
336.094274
 20
71.962909
 30
0.0
 40
4.999999999999972
  0
CIRCLE
  5
423
330
1F
100
AcDbEntity
  8
LAYERGROUP-1
  6
CONTINUOUS
 62
     3
100
AcDbCircle
 10
369.328293
 20
85.728891
 30
0.0
 40
4.999999999999972
  0
ARC
  5
424
330
1F
100
AcDbEntity
  8
LAYERGROUP-1
  6
CONTINUOUS
 62
     6
100
AcDbCircle
 10
369.328293
 20
85.728891
 30
0.0
 40
7.500000000000085
100
AcDbArc
 50
-296.856002
 51
51.434309
  0
CIRCLE
  5
425
330
1F
100
AcDbEntity
  8
LAYERGROUP-1
  6
CONTINUOUS
 62
     3
100
AcDbCircle
 10
383.094274
 20
118.962909
 30
0.0
 40
4.999999999999972
  0
INSERT
  5
429
330
1F
100
AcDbEntity
  8
0
100
AcDbBlockReference
  2
BLKF042
 10
0.0
 20
0.0
 30
0.0
  0
LINE
  5
481
330
1F
100
AcDbEntity
  8
GR1-1
  6
CONTINUOUS
 62
     7
100
AcDbLine
 10
303.244346
 20
64.231682
 30
0.0
 11
297.848681
 21
67.856162
 31
0.0
  0
LINE
  5
482
330
1F
100
AcDbEntity
  8
GR1-1
  6
CONTINUOUS
 62
     7
100
AcDbLine
 10
297.848681
 20
67.856162
 30
0.0
 11
294.224201
 21
62.460497
 31
0.0
  0
LINE
  5
483
330
1F
100
AcDbEntity
  8
GR1-1
  6
CONTINUOUS
 62
     7
100
AcDbLine
 10
294.224201
 20
62.460497
 30
0.0
 11
299.619866
 21
58.836017
 31
0.0
  0
LINE
  5
484
330
1F
100
AcDbEntity
  8
GR1-1
  6
CONTINUOUS
 62
     7
100
AcDbLine
 10
299.619866
 20
58.836017
 30
0.0
 11
303.244346
 21
64.231682
 31
0.0
  0
LINE
  5
485
330
1F
100
AcDbEntity
  8
GR1-1
  6
CONTINUOUS
 62
     7
100
AcDbLine
 10
301.277814
 20
61.637493
 30
0.0
 11
297.025678
 21
60.802549
 31
0.0
  0
LINE
  5
486
330
1F
100
AcDbEntity
  8
GR1-1
  6
CONTINUOUS
 62
     7
100
AcDbLine
 10
297.025678
 20
60.802549
 30
0.0
 11
296.279292
 21
64.603678
 31
0.0
  0
LINE
  5
487
330
1F
100
AcDbEntity
  8
GR1-1
  6
CONTINUOUS
 62
     7
100
AcDbLine
 10
296.279292
 20
64.603678
 30
0.0
 11
297.551063
 21
63.74938
 31
0.0
  0
LINE
  5
488
330
1F
100
AcDbEntity
  8
GR1-1
  6
CONTINUOUS
 62
     7
100
AcDbLine
 10
297.551063
 20
63.74938
 30
0.0
 11
297.879976
 21
62.074319
 31
0.0
  0
LINE
  5
489
330
1F
100
AcDbEntity
  8
GR1-1
  6
CONTINUOUS
 62
     7
100
AcDbLine
 10
297.879976
 20
62.074319
 30
0.0
 11
300.006044
 21
62.491791
 31
0.0
  0
LINE
  5
48A
330
1F
100
AcDbEntity
  8
GR1-1
  6
CONTINUOUS
 62
     7
100
AcDbLine
 10
300.006044
 20
62.491791
 30
0.0
 11
299.588572
 21
64.61786
 31
0.0
  0
LINE
  5
48B
330
1F
100
AcDbEntity
  8
GR1-1
  6
CONTINUOUS
 62
     7
100
AcDbLine
 10
299.588572
 20
64.61786
 30
0.0
 11
298.470821
 21
64.39838
 31
0.0
  0
ARC
  5
48C
330
1F
100
AcDbEntity
  8
GR1-1
  6
CONTINUOUS
 62
     7
100
AcDbCircle
 10
298.491695
 20
64.292076
 30
0.0
 40
0.1083334
100
AcDbArc
 50
101.109193
 51
236.109193
  0
LINE
  5
48D
330
1F
100
AcDbEntity
  8
GR1-1
  6
CONTINUOUS
 62
     7
100
AcDbLine
 10
298.431287
 20
64.202148
 30
0.0
 11
299.036314
 21
63.795728
 31
0.0
  0
LINE
  5
48E
330
1F
100
AcDbEntity
  8
GR1-1
  6
CONTINUOUS
 62
     7
100
AcDbLine
 10
299.036314
 20
63.795728
 30
0.0
 11
298.734274
 21
63.346089
 31
0.0
  0
LINE
  5
48F
330
1F
100
AcDbEntity
  8
GR1-1
  6
CONTINUOUS
 62
     7
100
AcDbLine
 10
298.734274
 20
63.346089
 30
0.0
 11
296.190733
 21
65.054686
 31
0.0
  0
LINE
  5
490
330
1F
100
AcDbEntity
  8
GR1-1
  6
CONTINUOUS
 62
     7
100
AcDbLine
 10
296.190733
 20
65.054686
 30
0.0
 11
297.413584
 21
66.875111
 31
0.0
  0
LINE
  5
491
330
1F
100
AcDbEntity
  8
GR1-1
  6
CONTINUOUS
 62
     7
100
AcDbLine
 10
297.413584
 20
66.875111
 30
0.0
 11
298.312862
 21
66.271031
 31
0.0
  0
LINE
  5
492
330
1F
100
AcDbEntity
  8
GR1-1
  6
CONTINUOUS
 62
     7
100
AcDbLine
 10
298.312862
 20
66.271031
 30
0.0
 11
297.839928
 21
65.566988
 31
0.0
  0
ARC
  5
493
330
1F
100
AcDbEntity
  8
GR1-1
  6
CONTINUOUS
 62
     7
100
AcDbCircle
 10
297.929856
 20
65.50658
 30
0.0
 40
0.1083334
100
AcDbArc
 50
146.109193
 51
281.109193
  0
LINE
  5
494
330
1F
100
AcDbEntity
  8
GR1-1
  6
CONTINUOUS
 62
     7
100
AcDbLine
 10
297.95073
 20
65.400276
 30
0.0
 11
300.44287
 21
65.88963
 31
0.0
  0
LINE
  5
495
330
1F
100
AcDbEntity
  8
GR1-1
  6
CONTINUOUS
 62
     7
100
AcDbLine
 10
300.44287
 20
65.88963
 30
0.0
 11
301.277814
 21
61.637493
 31
0.0
  0
TEXT
  5
496
330
1F
100
AcDbEntity
  8
LAYERGROUP-1
  6
CONTINUOUS
 62
     7
100
AcDbText
 10
293.459503
 20
72.981453
 30
0.0
 40
8.833129
  1
G
 50
133.109192
 41
1.185861
  7
FX_VECTOR
 72
     5
 11
287.323712
 21
79.536195
 31
0.0
100
AcDbText
  0
TEXT
  5
497
330
1F
100
AcDbEntity
  8
LAYERGROUP-1
  6
CONTINUOUS
 62
     7
100
AcDbText
 10
288.173584
 20
78.52005
 30
0.0
 40
8.833129
  1
O
 50
126.109192
 41
1.123447
  7
FX_VECTOR
 72
     5
 11
282.88235
 21
85.773699
 31
0.0
100
AcDbText
  0
TEXT
  5
498
330
1F
100
AcDbEntity
  8
LAYERGROUP-1
  6
CONTINUOUS
 62
     7
100
AcDbText
 10
283.304688
 20
85.120934
 30
0.0
 40
8.833129
  1
L
 50
118.609192
 41
1.334093
  7
FX_VECTOR
 72
     5
 11
279.005512
 21
93.003171
 31
0.0
100
AcDbText
  0
TEXT
  5
499
330
1F
100
AcDbEntity
  8
LAYERGROUP-1
  6
CONTINUOUS
 62
     7
100
AcDbText
 10
279.573914
 20
91.806625
 30
0.0
 40
8.833129
  1
D
 50
111.609192
 41
1.185861
  7
FX_VECTOR
 72
     5
 11
276.267386
 21
100.154047
 31
0.0
100
AcDbText
  0
TEXT
  5
49A
330
1F
100
AcDbEntity
  8
LAYERGROUP-1
  6
CONTINUOUS
 62
     7
100
AcDbText
 10
274.683105
 20
106.286766
 30
0.0
 40
8.833129
  1
C
 50
97.609207
 41
1.185861
  7
FX_VECTOR
 72
     5
 11
273.494218
 21
115.186155
 31
0.0
100
AcDbText
  0
TEXT
  5
49B
330
1F
100
AcDbEntity
  8
LAYERGROUP-1
  6
CONTINUOUS
 62
     7
100
AcDbText
 10
273.596008
 20
113.865425
 30
0.0
 40
8.833129
  1
A
 50
90.609207
 41
1.255617
  7
FX_VECTOR
 72
     5
 11
273.500545
 21
122.843368
 31
0.0
100
AcDbText
  0
TEXT
  5
49C
330
1F
100
AcDbEntity
  8
LAYERGROUP-1
  6
CONTINUOUS
 62
     7
100
AcDbText
 10
273.494812
 20
122.613098
 30
0.0
 40
8.833129
  1
S
 50
82.609207
 41
1.255617
  7
FX_VECTOR
 72
     5
 11
274.649766
 21
131.516955
 31
0.0
100
AcDbText
  0
TEXT
  5
49D
330
1F
100
AcDbEntity
  8
LAYERGROUP-1
  6
CONTINUOUS
 62
     7
100
AcDbText
 10
274.506805
 20
130.752731
 30
0.0
 40
8.833129
  1
T
 50
75.109207
 41
1.423033
  7
FX_VECTOR
 72
     5
 11
276.814065
 21
139.429662
 31
0.0
100
AcDbText
  0
TEXT
  5
49E
330
1F
100
AcDbEntity
  8
LAYERGROUP-1
  6
CONTINUOUS
 62
     7
100
AcDbText
 10
276.57254
 20
138.690598
 30
0.0
 40
8.833129
  1
E
 50
67.609207
 41
1.255617
  7
FX_VECTOR
 72
     5
 11
279.992628
 21
146.992138
 31
0.0
100
AcDbText
  0
TEXT
  5
49F
330
1F
100
AcDbEntity
  8
LAYERGROUP-1
  6
CONTINUOUS
 62
     7
100
AcDbText
 10
279.188385
 20
145.301865
 30
0.0
 40
8.833129
  1
R
 50
61.109203
 41
1.185861
  7
FX_VECTOR
 72
     5
 11
283.526249
 21
153.162877
 31
0.0
100
AcDbText
  0
TEXT
  5
4A0
330
1F
100
AcDbEntity
  8
LAYERGROUP-1
  6
CONTINUOUS
 62
     7
100
AcDbText
 10
398.795898
 20
119.688347
 30
0.0
 40
8.833129
  1
8
 50
266.609192
 41
1.255617
  7
FX_VECTOR
 72
     5
 11
398.264857
 21
110.725614
 31
0.0
100
AcDbText
  0
TEXT
  5
4A1
330
1F
100
AcDbEntity
  8
LAYERGROUP-1
  6
CONTINUOUS
 62
     7
100
AcDbText
 10
398.084717
 20
128.407654
 30
0.0
 40
8.833129
  1
3
 50
274.609192
 41
1.255617
  7
FX_VECTOR
 72
     5
 11
398.806215
 21
119.458239
 31
0.0
100
AcDbText
  0
TEXT
  5
4A2
330
1F
100
AcDbEntity
  8
LAYERGROUP-1
  6
CONTINUOUS
 62
     7
100
AcDbText
 10
396.321594
 20
136.418243
 30
0.0
 40
8.833129
  1
X
 50
282.109192
 41
1.255617
  7
FX_VECTOR
 72
     5
 11
398.205053
 21
127.639567
 31
0.0
100
AcDbText
  0
TEXT
  5
4A3
330
1F
100
AcDbEntity
  8
LAYERGROUP-1
  6
CONTINUOUS
 62
     7
100
AcDbText
 10
393.306122
 20
144.630402
 30
0.0
 40
8.833129
  1
0
 50
290.109192
 41
1.255617
  7
FX_VECTOR
 72
     5
 11
396.393006
 21
136.199285
 31
0.0
100
AcDbText
  0
TEXT
  5
4A4
330
1F
100
AcDbEntity
  8
LAYERGROUP-1
  6
CONTINUOUS
 62
     7
100
AcDbText
 10
389.177124
 20
152.342972
 30
0.0
 40
8.833129
  1
5
 50
298.109192
 41
1.255617
  7
FX_VECTOR
 72
     5
 11
393.407352
 21
144.423518
 31
0.0
100
AcDbText
  0
TEXT
  5
4A5
330
1F
100
AcDbEntity
  8
LAYERGROUP-1
  6
CONTINUOUS
 62
     7
100
AcDbText
 10
384.71344
 20
158.563339
 30
0.0
 40
8.833129
  1
1
 50
305.109192
 41
1.940499
  7
FX_VECTOR
 72
     5
 11
389.877275
 21
151.218451
 31
0.0
100
AcDbText
  0
LINE
  5
4A6
330
1F
100
AcDbEntity
  8
GR1-1
  6
CENTER
 62
     6
100
AcDbLine
 10
375.882703
 20
79.17448
 30
0.0
 11
361.394856
 21
93.662327
 31
0.0
  0
LINE
  5
4A7
330
1F
100
AcDbEntity
  8
GR1-1
  6
CENTER
 62
     6
100
AcDbLine
 10
310.56533
 20
93.433966
 30
0.0
 11
296.195463
 21
79.064098
 31
0.0
  0
ARC
  5
4A8
330
1F
100
AcDbEntity
  8
LAYERGROUP-1
  6
CENTER
 62
     6
100
AcDbCircle
 10
336.094274
 20
118.962909
 30
0.0
 40
47.0
100
AcDbArc
 50
106.046401
 51
124.376172
  0
ARC
  5
4A9
330
1F
100
AcDbEntity
  8
LAYERGROUP-1
  6
CENTER
 62
     6
100
AcDbCircle
 10
336.094274
 20
118.962909
 30
0.0
 40
47.0
100
AcDbArc
 50
145.937251
 51
324.187744
  0
ARC
  5
4AA
330
1F
100
AcDbEntity
  8
LAYERGROUP-1
  6
CONTINUOUS
 62
     6
100
AcDbCircle
 10
336.094274
 20
118.962909
 30
0.0
 40
57.0
100
AcDbArc
 50
142.311331
 51
324.732251
  0
ARC
  5
4AB
330
1F
100
AcDbEntity
  8
LAYERGROUP-1
  6
CONTINUOUS
 62
     3
100
AcDbCircle
 10
336.094274
 20
118.962909
 30
0.0
 40
60.5
100
AcDbArc
 50
141.337671
 51
324.880261
  0
ARC
  5
4AC
330
1F
100
AcDbEntity
  8
LAYERGROUP-1
  6
CONTINUOUS
 62
     6
100
AcDbCircle
 10
336.094274
 20
118.962909
 30
0.0
 40
37.00000000000014
100
AcDbArc
 50
152.399455
 51
323.307509
  0
ARC
  5
4AD
330
1F
100
AcDbEntity
  8
LAYERGROUP-1
  6
CONTINUOUS
 62
     3
100
AcDbCircle
 10
336.094274
 20
118.962909
 30
0.0
 40
60.5
100
AcDbArc
 50
-22.937794
 51
43.592405
  0
ARC
  5
4AE
330
1F
100
AcDbEntity
  8
LAYERGROUP-1
  6
CONTINUOUS
 62
     6
100
AcDbCircle
 10
336.094274
 20
118.962909
 30
0.0
 40
57.0
100
AcDbArc
 50
-22.05482
 51
42.348082
  0
ARC
  5
4AF
330
1F
100
AcDbEntity
  8
LAYERGROUP-1
  6
CENTER
 62
     6
100
AcDbCircle
 10
336.094274
 20
118.962909
 30
0.0
 40
47.0
100
AcDbArc
 50
-18.774001
 51
37.67641
  0
ARC
  5
4B0
330
1F
100
AcDbEntity
  8
LAYERGROUP-1
  6
CONTINUOUS
 62
     6
100
AcDbCircle
 10
336.094274
 20
118.962909
 30
0.0
 40
37.00000000000014
100
AcDbArc
 50
-13.590672
 51
30.089195
  0
ARC
  5
4B1
330
1F
100
AcDbEntity
  8
GR1-1
  6
CONTINUOUS
 62
     3
100
AcDbCircle
 10
311.094274
 20
337.862069
 30
0.0
 40
50.0
100
AcDbArc
 50
171.799099
 51
188.200901
  0
ARC
  5
4B2
330
1F
100
AcDbEntity
  8
LAYERGROUP-1
  6
CONTINUOUS
 62
     3
100
AcDbCircle
 10
267.544218
 20
344.138427
 30
0.0
 40
6.0
100
AcDbArc
 50
112.0
 51
171.799099
  0
LINE
  5
4B3
330
1F
100
AcDbEntity
  8
LAYERGROUP-1
  6
CONTINUOUS
 62
     3
100
AcDbLine
 10
269.155179
 20
351.260506
 30
0.0
 11
265.296579
 21
349.70153
 31
0.0
  0
ARC
  5
4B4
330
1F
100
AcDbEntity
  8
LAYERGROUP-1
  6
CONTINUOUS
 62
     3
100
AcDbCircle
 10
267.544218
 20
331.585711
 30
0.0
 40
6.0
100
AcDbArc
 50
188.200901
 51
248.0
  0
LINE
  5
4B5
330
1F
100
AcDbEntity
  8
LAYERGROUP-1
  6
CONTINUOUS
 62
     3
100
AcDbLine
 10
269.155179
 20
324.463632
 30
0.0
 11
265.296579
 21
326.022608
 31
0.0
  0
DIMENSION
  5
4B6
330
1F
100
AcDbEntity
  8
LAYERGROUP-1
100
AcDbDimension
  2
*D41
 10
156.939475
 20
34.050443
 30
0.0
 11
137.939468
 21
35.050442
 31
0.0
 70
    33
  3
FXDIMINFO
100
AcDbAlignedDimension
 13
118.939475
 23
58.462909
 33
0.0
 14
156.939475
 24
58.462909
 34
0.0
1001
ACAD
1000
DSTYLE
1002
{
1070
     7
1000
FXTIP_ARROW_E
1070
     6
1000
FXTIP_ARROW_S
1070
   173
1070
     1
1002
}
  0
LINE
  5
4C0
330
1F
100
AcDbEntity
  8
LAYERGROUP-1
  6
CONTINUOUS
 62
     3
100
AcDbLine
 10
150.839475
 20
188.839701
 30
0.0
 11
150.839475
 21
187.512909
 31
0.0
  0
LINE
  5
4C1
330
1F
100
AcDbEntity
  8
GR1-1
  6
CONTINUOUS
 62
     3
100
AcDbLine
 10
152.039475
 20
188.162909
 30
0.0
 11
161.739475
 21
188.162909
 31
0.0
  0
LINE
  5
4C2
330
1F
100
AcDbEntity
  8
GR1-1
  6
CONTINUOUS
 62
     6
100
AcDbLine
 10
263.891523
 20
326.825689
 30
0.0
 11
269.154316
 21
326.825277
 31
0.0
  0
LINE
  5
4C3
330
1F
100
AcDbEntity
  8
GR1-1
  6
CONTINUOUS
 62
     6
100
AcDbLine
 10
263.891523
 20
348.898449
 30
0.0
 11
269.155179
 21
348.898861
 31
0.0
  0
ARC
  5
4C4
330
1F
100
AcDbEntity
  8
LAYERGROUP-1
  6
CONTINUOUS
 62
     6
100
AcDbCircle
 10
336.094274
 20
118.962909
 30
0.0
 40
23.49999999999997
100
AcDbArc
 50
1.721239
 51
4.189395
  0
ENDSEC
  0
SECTION
  2
OBJECTS
  0
DICTIONARY
  5
C
330
0
100
AcDbDictionary
  3
ACAD_GROUP
350
D
  3
ACAD_LAYOUT
350
1A
  3
ACAD_MLINESTYLE
350
17
  3
ACAD_PLOTSETTINGS
350
19
  3
ACDBHEADERROUNDTRIPXREC
350
4C5
  0
DICTIONARY
  5
D
102
{ACAD_REACTORS
330
C
102
}
330
C
100
AcDbDictionary
  0
DICTIONARY
  5
1A
102
{ACAD_REACTORS
330
C
102
}
330
C
100
AcDbDictionary
  0
DICTIONARY
  5
17
102
{ACAD_REACTORS
330
C
102
}
330
C
100
AcDbDictionary
  3
STANDARD
350
18
  0
DICTIONARY
  5
19
102
{ACAD_REACTORS
330
C
102
}
330
C
100
AcDbDictionary
  0
DICTIONARY
  5
4C5
102
{ACAD_REACTORS
330
C
102
}
330
C
100
AcDbDictionary
  3
CEPSNTYPE
350
4CE
  3
DIMSTYLEDATA
350
4E4
  3
FINGERPRINTGUID
350
4CF
  3
HYPERLINKBASE
350
4C8
  3
INSUNITS
350
4CD
  3
LAYOUTDICT
350
4CA
  3
LWETCUNION
350
4CC
  3
PLOTSETDICT
350
4CB
  3
PSVPSCALE
350
4D1
  3
PUCSBASE
350
4D4
  3
PUCSORGBACK
350
4DA
  3
PUCSORGBOTTOM
350
4D6
  3
PUCSORGFRONT
350
4D9
  3
PUCSORGLEFT
350
4D7
  3
PUCSORGRIGHT
350
4D8
  3
PUCSORGTOP
350
4D5
  3
PUCSORTHOREF
350
4D2
  3
PUCSORTHOVIEW
350
4D3
  3
STYLESHEET
350
4C9
  3
TSTACKALIGN
350
4C6
  3
TSTACKSIZE
350
4C7
  3
UCSBASE
350
4DD
  3
UCSORGBACK
350
4E3
  3
UCSORGBOTTOM
350
4DF
  3
UCSORGFRONT
350
4E2
  3
UCSORGLEFT
350
4E0
  3
UCSORGRIGHT
350
4E1
  3
UCSORGTOP
350
4DE
  3
UCSORTHOREF
350
4DB
  3
UCSORTHOVIEW
350
4DC
  3
VERSIONGUID
350
4D0
  0
MLINESTYLE
  5
18
102
{ACAD_REACTORS
330
17
102
}
330
17
100
AcDbMlineStyle
  2
Standard
 70
     0
  3

 62
   256
 51
90.0
 52
90.0
 71
     2
 49
0.5
 62
   256
  6
BYLAYER
 49
-0.5
 62
   256
  6
BYLAYER
  0
XRECORD
  5
4CE
102
{ACAD_REACTORS
330
4C5
102
}
330
4C5
100
AcDbXrecord
 90
        0
  0
XRECORD
  5
4E4
102
{ACAD_REACTORS
330
4C5
102
}
330
4C5
100
AcDbXrecord
1000
DSTYLE
1002
{
1070
   179
 70
     2
1070
   171
 70
     3
1070
   143
 40
0.03937
1070
   274
 70
     3
1070
    41
 40
4.0
1070
   343
340
41
1070
   344
340
47
1070
   141
 40
2.5
1070
   176
 70
     7
1070
   177
 70
     7
1070
   178
 70
     7
1070
   271
 70
     2
1070
    46
 40
6.0
1070
    43
 40
10.0
1070
    44
 40
1.0
1070
    42
 40
1.0
1070
   147
 40
1.0
1070
   341
340
41
1070
   173
 70
     1
1070
    77
 70
     1
1070
   272
 70
     2
1070
    73
 70
     0
1070
   172
 70
     1
1070
    74
 70
     0
1070
   283
 70
     0
1070
   340
340
3F
1070
   140
 40
4.0
1070
   284
 70
     8
1070
    78
 70
     8
1002
}
  0
XRECORD
  5
4CF
102
{ACAD_REACTORS
330
4C5
102
}
330
4C5
100
AcDbXrecord
  1
{DC8F0B81-F771-43B2-9974-4B4ADC6AE9E9}
  0
XRECORD
  5
4C8
102
{ACAD_REACTORS
330
4C5
102
}
330
4C5
100
AcDbXrecord
  1

  0
XRECORD
  5
4CD
102
{ACAD_REACTORS
330
4C5
102
}
330
4C5
100
AcDbXrecord
 90
        1
  0
XRECORD
  5
4CA
102
{ACAD_REACTORS
330
4C5
102
}
330
4C5
100
AcDbXrecord
340
1A
  0
XRECORD
  5
4CC
102
{ACAD_REACTORS
330
4C5
102
}
330
4C5
100
AcDbXrecord
 90
    10781
  0
XRECORD
  5
4CB
102
{ACAD_REACTORS
330
4C5
102
}
330
4C5
100
AcDbXrecord
340
19
  0
XRECORD
  5
4D1
102
{ACAD_REACTORS
330
4C5
102
}
330
4C5
100
AcDbXrecord
 40
0.0
  0
XRECORD
  5
4D4
102
{ACAD_REACTORS
330
4C5
102
}
330
4C5
100
AcDbXrecord
340
0
  0
XRECORD
  5
4DA
102
{ACAD_REACTORS
330
4C5
102
}
330
4C5
100
AcDbXrecord
 10
0.0
 20
0.0
 30
0.0
  0
XRECORD
  5
4D6
102
{ACAD_REACTORS
330
4C5
102
}
330
4C5
100
AcDbXrecord
 10
0.0
 20
0.0
 30
0.0
  0
XRECORD
  5
4D9
102
{ACAD_REACTORS
330
4C5
102
}
330
4C5
100
AcDbXrecord
 10
0.0
 20
0.0
 30
0.0
  0
XRECORD
  5
4D7
102
{ACAD_REACTORS
330
4C5
102
}
330
4C5
100
AcDbXrecord
 10
0.0
 20
0.0
 30
0.0
  0
XRECORD
  5
4D8
102
{ACAD_REACTORS
330
4C5
102
}
330
4C5
100
AcDbXrecord
 10
0.0
 20
0.0
 30
0.0
  0
XRECORD
  5
4D5
102
{ACAD_REACTORS
330
4C5
102
}
330
4C5
100
AcDbXrecord
 10
0.0
 20
0.0
 30
0.0
  0
XRECORD
  5
4D2
102
{ACAD_REACTORS
330
4C5
102
}
330
4C5
100
AcDbXrecord
340
0
  0
XRECORD
  5
4D3
102
{ACAD_REACTORS
330
4C5
102
}
330
4C5
100
AcDbXrecord
 70
     0
  0
XRECORD
  5
4C9
102
{ACAD_REACTORS
330
4C5
102
}
330
4C5
100
AcDbXrecord
  1

  0
XRECORD
  5
4C6
102
{ACAD_REACTORS
330
4C5
102
}
330
4C5
100
AcDbXrecord
 90
        1
  0
XRECORD
  5
4C7
102
{ACAD_REACTORS
330
4C5
102
}
330
4C5
100
AcDbXrecord
 90
       70
  0
XRECORD
  5
4DD
102
{ACAD_REACTORS
330
4C5
102
}
330
4C5
100
AcDbXrecord
340
0
  0
XRECORD
  5
4E3
102
{ACAD_REACTORS
330
4C5
102
}
330
4C5
100
AcDbXrecord
 10
0.0
 20
0.0
 30
0.0
  0
XRECORD
  5
4DF
102
{ACAD_REACTORS
330
4C5
102
}
330
4C5
100
AcDbXrecord
 10
0.0
 20
0.0
 30
0.0
  0
XRECORD
  5
4E2
102
{ACAD_REACTORS
330
4C5
102
}
330
4C5
100
AcDbXrecord
 10
0.0
 20
0.0
 30
0.0
  0
XRECORD
  5
4E0
102
{ACAD_REACTORS
330
4C5
102
}
330
4C5
100
AcDbXrecord
 10
0.0
 20
0.0
 30
0.0
  0
XRECORD
  5
4E1
102
{ACAD_REACTORS
330
4C5
102
}
330
4C5
100
AcDbXrecord
 10
0.0
 20
0.0
 30
0.0
  0
XRECORD
  5
4DE
102
{ACAD_REACTORS
330
4C5
102
}
330
4C5
100
AcDbXrecord
 10
0.0
 20
0.0
 30
0.0
  0
XRECORD
  5
4DB
102
{ACAD_REACTORS
330
4C5
102
}
330
4C5
100
AcDbXrecord
340
0
  0
XRECORD
  5
4DC
102
{ACAD_REACTORS
330
4C5
102
}
330
4C5
100
AcDbXrecord
 70
     0
  0
XRECORD
  5
4D0
102
{ACAD_REACTORS
330
4C5
102
}
330
4C5
100
AcDbXrecord
  1
{FAEB1C32-E019-11D5-929B-00C0DF256EC4}
  0
ENDSEC
  0
EOF
