  0
SECTION
  2
HEADER
  9
$ACADVER
  1
AC1014
  9
$ACADMAINTVER
 70
     9
  9
$DWGCODEPAGE
  3
ANSI_932
  9
$INSBASE
 10
0.0
 20
0.0
 30
0.0
  9
$EXTMIN
 10
0.0
 20
0.0
 30
0.0
  9
$EXTMAX
 10
841.0
 20
594.0
 30
0.0
  9
$LIMMIN
 10
0.0
 20
0.0
  9
$LIMMAX
 10
841.0
 20
594.0
  9
$ORTHOMODE
 70
     0
  9
$REGENMODE
 70
     1
  9
$FILLMODE
 70
     1
  9
$QTEXTMODE
 70
     0
  9
$MIRRTEXT
 70
     1
  9
$DRAGMODE
 70
     2
  9
$LTSCALE
 40
1.0
  9
$OSMODE
 70
    37
  9
$ATTMODE
 70
     1
  9
$TEXTSIZE
 40
0.2
  9
$TRACEWID
 40
0.05
  9
$TEXTSTYLE
  7
STYLE1
  9
$CLAYER
  8
0
  9
$CELTYPE
  6
BYLAYER
  9
$CECOLOR
 62
   256
  9
$CELTSCALE
 40
1.0
  9
$DELOBJ
 70
     1
  9
$DISPSILH
 70
     0
  9
$DIMSCALE
 40
1.0
  9
$DIMASZ
 40
4.0
  9
$DIMEXO
 40
1.0
  9
$DIMDLI
 40
10.0
  9
$DIMRND
 40
0.0
  9
$DIMDLE
 40
6.0
  9
$DIMEXE
 40
1.0
  9
$DIMTP
 40
0.0
  9
$DIMTM
 40
0.0
  9
$DIMTXT
 40
4.0
  9
$DIMCEN
 40
2.5
  9
$DIMTSZ
 40
0.0
  9
$DIMTOL
 70
     0
  9
$DIMLIM
 70
     0
  9
$DIMTIH
 70
     0
  9
$DIMTOH
 70
     0
  9
$DIMSE1
 70
     0
  9
$DIMSE2
 70
     0
  9
$DIMTAD
 70
     1
  9
$DIMZIN
 70
     8
  9
$DIMBLK
  1

  9
$DIMASO
 70
     1
  9
$DIMSHO
 70
     1
  9
$DIMPOST
  1

  9
$DIMAPOST
  1

  9
$DIMALT
 70
     0
  9
$DIMALTD
 70
     3
  9
$DIMALTF
 40
0.03937
  9
$DIMLFAC
 40
1.0
  9
$DIMTOFL
 70
     1
  9
$DIMTVP
 40
0.0
  9
$DIMTIX
 70
     0
  9
$DIMSOXD
 70
     0
  9
$DIMSAH
 70
     1
  9
$DIMBLK1
  1
FXTIP_ARROW_S
  9
$DIMBLK2
  1
FXTIP_ARROW_E
  9
$DIMSTYLE
  2
FXDIMINFO
  9
$DIMCLRD
 70
     7
  9
$DIMCLRE
 70
     7
  9
$DIMCLRT
 70
     7
  9
$DIMTFAC
 40
1.0
  9
$DIMGAP
 40
1.0
  9
$DIMJUST
 70
     0
  9
$DIMSD1
 70
     0
  9
$DIMSD2
 70
     0
  9
$DIMTOLJ
 70
     0
  9
$DIMTZIN
 70
     8
  9
$DIMALTZ
 70
     0
  9
$DIMALTTZ
 70
     0
  9
$DIMFIT
 70
     3
  9
$DIMUPT
 70
     0
  9
$DIMUNIT
 70
     2
  9
$DIMDEC
 70
     2
  9
$DIMTDEC
 70
     2
  9
$DIMALTU
 70
     2
  9
$DIMALTTD
 70
     3
  9
$DIMTXSTY
  7
STYLE1
  9
$DIMAUNIT
 70
     0
  9
$LUNITS
 70
     2
  9
$LUPREC
 70
     4
  9
$SKETCHINC
 40
0.1
  9
$FILLETRAD
 40
0.5
  9
$AUNITS
 70
     0
  9
$AUPREC
 70
     0
  9
$MENU
  1
.
  9
$ELEVATION
 40
0.0
  9
$PELEVATION
 40
0.0
  9
$THICKNESS
 40
0.0
  9
$LIMCHECK
 70
     0
  9
$CHAMFERA
 40
0.5
  9
$CHAMFERB
 40
0.5
  9
$CHAMFERC
 40
1.0
  9
$CHAMFERD
 40
0.0
  9
$SKPOLY
 70
     0
  9
$TDCREATE
 40
2455307.35216147
  9
$TDUPDATE
 40
2455307.352161482
  9
$TDINDWG
 40
0.0000000116
  9
$TDUSRTIMER
 40
0.0000000116
  9
$USRTIMER
 70
     1
  9
$ANGBASE
 50
0.0
  9
$ANGDIR
 70
     0
  9
$PDMODE
 70
     0
  9
$PDSIZE
 40
0.0
  9
$PLINEWID
 40
0.0
  9
$COORDS
 70
     1
  9
$SPLFRAME
 70
     0
  9
$SPLINETYPE
 70
     6
  9
$SPLINESEGS
 70
     8
  9
$ATTDIA
 70
     0
  9
$ATTREQ
 70
     1
  9
$HANDLING
 70
     1
  9
$HANDSEED
  5
2BE
  9
$SURFTAB1
 70
     6
  9
$SURFTAB2
 70
     6
  9
$SURFTYPE
 70
     6
  9
$SURFU
 70
     6
  9
$SURFV
 70
     6
  9
$UCSNAME
  2

  9
$UCSORG
 10
0.0
 20
0.0
 30
0.0
  9
$UCSXDIR
 10
1.0
 20
0.0
 30
0.0
  9
$UCSYDIR
 10
0.0
 20
1.0
 30
0.0
  9
$PUCSNAME
  2

  9
$PUCSORG
 10
0.0
 20
0.0
 30
0.0
  9
$PUCSXDIR
 10
1.0
 20
0.0
 30
0.0
  9
$PUCSYDIR
 10
0.0
 20
1.0
 30
0.0
  9
$USERI1
 70
     0
  9
$USERI2
 70
     0
  9
$USERI3
 70
     0
  9
$USERI4
 70
     0
  9
$USERI5
 70
     0
  9
$USERR1
 40
0.0
  9
$USERR2
 40
0.0
  9
$USERR3
 40
0.0
  9
$USERR4
 40
0.0
  9
$USERR5
 40
0.0
  9
$WORLDVIEW
 70
     1
  9
$SHADEDGE
 70
     3
  9
$SHADEDIF
 70
    70
  9
$TILEMODE
 70
     1
  9
$MAXACTVP
 70
    64
  9
$PINSBASE
 10
0.0
 20
0.0
 30
0.0
  9
$PLIMCHECK
 70
     0
  9
$PEXTMIN
 10
1.000000E+20
 20
1.000000E+20
 30
1.000000E+20
  9
$PEXTMAX
 10
-1.000000E+20
 20
-1.000000E+20
 30
-1.000000E+20
  9
$PLIMMIN
 10
0.0
 20
0.0
  9
$PLIMMAX
 10
12.0
 20
9.0
  9
$UNITMODE
 70
     0
  9
$VISRETAIN
 70
     1
  9
$PLINEGEN
 70
     0
  9
$PSLTSCALE
 70
     1
  9
$TREEDEPTH
 70
  3020
  9
$PICKSTYLE
 70
     1
  9
$CMLSTYLE
  2
STANDARD
  9
$CMLJUST
 70
     0
  9
$CMLSCALE
 40
1.0
  9
$PROXYGRAPHICS
 70
     1
  9
$MEASUREMENT
 70
     0
  0
ENDSEC
  0
SECTION
  2
CLASSES
  0
CLASS
  1
ACDBDICTIONARYWDFLT
  2
AcDbDictionaryWithDefault
  3
ObjectDBX Classes
 90
        0
280
     0
281
     0
  0
CLASS
  1
XRECORD
  2
AcDbXrecord
  3
AutoCAD 2000
 90
        0
280
     0
281
     0
  0
CLASS
  1
LWPOLYLINE
  2
AcDbPolyline
  3
AutoCAD 2000
 90
        0
280
     0
281
     1
  0
CLASS
  1
HATCH
  2
AcDbHatch
  3
AutoCAD 2000
 90
        0
280
     0
281
     1
  0
CLASS
  1
ACDBPLACEHOLDER
  2
AcDbPlaceHolder
  3
ObjectDBX Classes
 90
        0
280
     0
281
     0
  0
CLASS
  1
LAYOUT
  2
AcDbLayout
  3
ObjectDBX Classes
 90
        0
280
     0
281
     0
  0
ENDSEC
  0
SECTION
  2
TABLES
  0
TABLE
  2
VPORT
  5
8
330
0
100
AcDbSymbolTable
 70
     1
  0
VPORT
  5
29
330
8
100
AcDbSymbolTableRecord
100
AcDbViewportTableRecord
  2
*ACTIVE
 70
     0
 10
0.0
 20
0.0
 11
1.0
 21
1.0
 12
420.5
 22
297.0
 13
0.0
 23
0.0
 14
0.5
 24
0.5
 15
0.5
 25
0.5
 16
0.0
 26
0.0
 36
1.0
 17
0.0
 27
0.0
 37
0.0
 40
594.0
 41
1.415825
 42
50.0
 43
0.0
 44
0.0
 50
0.0
 51
0.0
 71
     0
 72
   100
 73
     1
 74
     3
 75
     0
 76
     0
 77
     0
 78
     0
  0
ENDTAB
  0
TABLE
  2
LTYPE
  5
5
330
0
100
AcDbSymbolTable
 70
     4
  0
LTYPE
  5
14
330
5
100
AcDbSymbolTableRecord
100
AcDbLinetypeTableRecord
  2
BYBLOCK
 70
     0
  3

 72
    65
 73
     0
 40
0.0
  0
LTYPE
  5
15
330
5
100
AcDbSymbolTableRecord
100
AcDbLinetypeTableRecord
  2
BYLAYER
 70
     0
  3

 72
    65
 73
     0
 40
0.0
  0
LTYPE
  5
16
330
5
100
AcDbSymbolTableRecord
100
AcDbLinetypeTableRecord
  2
CONTINUOUS
 70
     0
  3
--------------------
 72
    65
 73
     0
 40
0.0
  0
LTYPE
  5
2A
330
5
100
AcDbSymbolTableRecord
100
AcDbLinetypeTableRecord
  2
CENTER
 70
     0
  3
Center ____ _ ____ _ ____ _ ____ _ ____ _ ____
 72
    65
 73
     4
 40
13.0
 49
10.0
 74
     0
 49
-1.0
 74
     0
 49
1.0
 74
     0
 49
-1.0
 74
     0
  0
LTYPE
  5
2C
330
5
100
AcDbSymbolTableRecord
100
AcDbLinetypeTableRecord
  2
DASHED
 70
     0
  3
Dashed __ __ __ __ __ __ __ __ __ __ __ __ __ _
 72
    65
 73
     2
 40
4.0
 49
3.0
 74
     0
 49
-1.0
 74
     0
  0
ENDTAB
  0
TABLE
  2
LAYER
  5
2
330
0
100
AcDbSymbolTable
 70
    20
  0
LAYER
  5
10
330
2
100
AcDbSymbolTableRecord
100
AcDbLayerTableRecord
  2
0
 70
     0
 62
     7
  6
CONTINUOUS
  0
LAYER
  5
2D
330
2
100
AcDbSymbolTableRecord
100
AcDbLayerTableRecord
  2
LAYERGROUP-1
 70
     0
 62
     3
  6
CONTINUOUS
  0
LAYER
  5
3D
330
2
100
AcDbSymbolTableRecord
100
AcDbLayerTableRecord
  2
}}ﾊﾊGG血CCТ
 70
     0
 62
     3
  6
CONTINUOUS
  0
LAYER
  5
147
330
2
100
AcDbSymbolTableRecord
100
AcDbLayerTableRecord
  2
GR1-1
 70
     0
 62
     7
  6
CONTINUOUS
  0
LAYER
  5
27F
330
2
100
AcDbSymbolTableRecord
100
AcDbLayerTableRecord
  2
0-1
 70
     0
 62
     7
  6
CONTINUOUS
  0
ENDTAB
  0
TABLE
  2
STYLE
  5
3
330
0
100
AcDbSymbolTable
 70
     4
  0
STYLE
  5
11
330
3
100
AcDbSymbolTableRecord
100
AcDbTextStyleTableRecord
  2
STANDARD
 70
     0
 40
0.0
 41
1.0
 50
0.0
 71
     0
 42
0.2
  3
txt
  4

  0
STYLE
  5
3F
330
3
100
AcDbSymbolTableRecord
100
AcDbTextStyleTableRecord
  2
STYLE1
 70
     0
 40
0.0
 41
1.0
 50
0.0
 71
     0
 42
0.2
  3
MONOTXT.SHX
  4
extfont.shx
  0
STYLE
  5
40
330
3
100
AcDbSymbolTableRecord
100
AcDbTextStyleTableRecord
  2
FX_VECTOR
 70
     0
 40
0.0
 41
1.0
 50
0.0
 71
     0
 42
0.2
  3
MONOTXT.SHX
  4
BIGFONT.SHX
  0
ENDTAB
  0
TABLE
  2
VIEW
  5
6
330
0
100
AcDbSymbolTable
 70
     0
  0
ENDTAB
  0
TABLE
  2
UCS
  5
7
330
0
100
AcDbSymbolTable
 70
     0
  0
ENDTAB
  0
TABLE
  2
APPID
  5
9
330
0
100
AcDbSymbolTable
 70
     1
  0
APPID
  5
12
330
9
100
AcDbSymbolTableRecord
100
AcDbRegAppTableRecord
  2
ACAD
 70
     0
  0
ENDTAB
  0
TABLE
  2
DIMSTYLE
  5
A
330
0
100
AcDbSymbolTable
 70
     2
  0
DIMSTYLE
105
27
330
A
100
AcDbSymbolTableRecord
100
AcDbDimStyleTableRecord
  2
STANDARD
 70
     0
  3

  4

  5

  6

  7

 40
1.0
 41
0.18
 42
0.0625
 43
0.38
 44
0.18
 45
0.0
 46
0.0
 47
0.0
 48
0.0
140
0.18
141
0.09
142
0.0
143
25.4
144
1.0
145
0.0
146
1.0
147
0.09
 71
     0
 72
     0
 73
     1
 74
     1
 75
     0
 76
     0
 77
     0
 78
     0
170
     0
171
     2
172
     0
173
     0
174
     0
175
     0
176
     0
177
     0
178
     0
270
     2
271
     4
272
     4
273
     2
274
     2
340
11
275
     0
280
     0
281
     0
282
     0
283
     1
284
     0
285
     0
286
     0
287
     3
288
     0
  0
DIMSTYLE
105
A7
102
{ACAD_REACTORS
330
133
330
13D
330
165
330
187
330
191
330
19B
330
1A5
330
1AF
330
1B9
330
1C3
330
264
102
}
330
A
100
AcDbSymbolTableRecord
100
AcDbDimStyleTableRecord
  2
FXDIMINFO
 70
     0
  3

  4

  5

  6
FXTIP_ARROW_S
  7
FXTIP_ARROW_E
 40
1.0
 41
4.0
 42
1.0
 43
10.0
 44
1.0
 45
0.0
 46
6.0
 47
0.0
 48
0.0
140
4.0
141
2.5
142
0.0
143
0.03937
144
1.0
145
0.0
146
1.0
147
1.0
 71
     0
 72
     0
 73
     0
 74
     0
 75
     0
 76
     0
 77
     1
 78
     8
170
     0
171
     3
172
     1
173
     1
174
     0
175
     0
176
     7
177
     7
178
     7
179
     2
270
     2
271
     2
272
     2
273
     2
274
     3
340
3F
275
     0
280
     0
281
     0
282
     0
283
     0
284
     8
285
     0
286
     0
287
     3
288
     0
  0
ENDTAB
  0
TABLE
  2
BLOCK_RECORD
  5
1
330
0
100
AcDbSymbolTable
 70
    34
  0
BLOCK_RECORD
  5
1F
330
1
100
AcDbSymbolTableRecord
100
AcDbBlockTableRecord
  2
*MODEL_SPACE
  0
BLOCK_RECORD
  5
1B
330
1
100
AcDbSymbolTableRecord
100
AcDbBlockTableRecord
  2
*PAPER_SPACE
  0
BLOCK_RECORD
  5
41
330
1
100
AcDbSymbolTableRecord
100
AcDbBlockTableRecord
  2
FXTIP_ARROW_S
  0
BLOCK_RECORD
  5
47
330
1
100
AcDbSymbolTableRecord
100
AcDbBlockTableRecord
  2
FXTIP_ARROW_E
  0
BLOCK_RECORD
  5
4D
330
1
100
AcDbSymbolTableRecord
100
AcDbBlockTableRecord
  2
FXTIP_BLACKDOT_S
  0
BLOCK_RECORD
  5
53
330
1
100
AcDbSymbolTableRecord
100
AcDbBlockTableRecord
  2
FXTIP_BLACKDOT_E
  0
BLOCK_RECORD
  5
59
330
1
100
AcDbSymbolTableRecord
100
AcDbBlockTableRecord
  2
FXTIP_TRIANGLE_S
  0
BLOCK_RECORD
  5
60
330
1
100
AcDbSymbolTableRecord
100
AcDbBlockTableRecord
  2
FXTIP_TRIANGLE_E
  0
BLOCK_RECORD
  5
67
330
1
100
AcDbSymbolTableRecord
100
AcDbBlockTableRecord
  2
FXTIP_ARCHITECT_S
  0
BLOCK_RECORD
  5
6D
330
1
100
AcDbSymbolTableRecord
100
AcDbBlockTableRecord
  2
FXTIP_ARCHITECT_E
  0
BLOCK_RECORD
  5
73
330
1
100
AcDbSymbolTableRecord
100
AcDbBlockTableRecord
  2
FXTIP_CIVIL_S
  0
BLOCK_RECORD
  5
79
330
1
100
AcDbSymbolTableRecord
100
AcDbBlockTableRecord
  2
FXTIP_CIVIL_E
  0
BLOCK_RECORD
  5
7F
330
1
100
AcDbSymbolTableRecord
100
AcDbBlockTableRecord
  2
FXTIP_WHITEDOT_S
  0
BLOCK_RECORD
  5
84
330
1
100
AcDbSymbolTableRecord
100
AcDbBlockTableRecord
  2
FXTIP_WHITEDOT_E
  0
BLOCK_RECORD
  5
89
330
1
100
AcDbSymbolTableRecord
100
AcDbBlockTableRecord
  2
FXTIP_UPARROW_S
  0
BLOCK_RECORD
  5
8E
330
1
100
AcDbSymbolTableRecord
100
AcDbBlockTableRecord
  2
FXTIP_UPARROW_E
  0
BLOCK_RECORD
  5
93
330
1
100
AcDbSymbolTableRecord
100
AcDbBlockTableRecord
  2
FXTIP_DOWNARROW_S
  0
BLOCK_RECORD
  5
98
330
1
100
AcDbSymbolTableRecord
100
AcDbBlockTableRecord
  2
FXTIP_DOWNARROW_E
  0
BLOCK_RECORD
  5
9D
330
1
100
AcDbSymbolTableRecord
100
AcDbBlockTableRecord
  2
FXTIP_BLACKTRIANGLE_S
  0
BLOCK_RECORD
  5
A2
330
1
100
AcDbSymbolTableRecord
100
AcDbBlockTableRecord
  2
FXTIP_BLACKTRIANGLE_E
  0
BLOCK_RECORD
  5
134
330
1
100
AcDbSymbolTableRecord
100
AcDbBlockTableRecord
  2
*D19
  0
BLOCK_RECORD
  5
13E
330
1
100
AcDbSymbolTableRecord
100
AcDbBlockTableRecord
  2
*D20
  0
BLOCK_RECORD
  5
166
330
1
100
AcDbSymbolTableRecord
100
AcDbBlockTableRecord
  2
*D21
  0
BLOCK_RECORD
  5
188
330
1
100
AcDbSymbolTableRecord
100
AcDbBlockTableRecord
  2
*D22
  0
BLOCK_RECORD
  5
192
330
1
100
AcDbSymbolTableRecord
100
AcDbBlockTableRecord
  2
*D23
  0
BLOCK_RECORD
  5
19C
330
1
100
AcDbSymbolTableRecord
100
AcDbBlockTableRecord
  2
*D24
  0
BLOCK_RECORD
  5
1A6
330
1
100
AcDbSymbolTableRecord
100
AcDbBlockTableRecord
  2
*D25
  0
BLOCK_RECORD
  5
1B0
330
1
100
AcDbSymbolTableRecord
100
AcDbBlockTableRecord
  2
*D26
  0
BLOCK_RECORD
  5
1BA
330
1
100
AcDbSymbolTableRecord
100
AcDbBlockTableRecord
  2
*D27
  0
BLOCK_RECORD
  5
1C4
330
1
100
AcDbSymbolTableRecord
100
AcDbBlockTableRecord
  2
*D28
  0
BLOCK_RECORD
  5
1D4
330
1
100
AcDbSymbolTableRecord
100
AcDbBlockTableRecord
  2
BLKF031
  0
BLOCK_RECORD
  5
265
330
1
100
AcDbSymbolTableRecord
100
AcDbBlockTableRecord
  2
*D30
  0
BLOCK_RECORD
  5
26F
330
1
100
AcDbSymbolTableRecord
100
AcDbBlockTableRecord
  2
BLKF033
  0
BLOCK_RECORD
  5
27B
330
1
100
AcDbSymbolTableRecord
100
AcDbBlockTableRecord
  2
BLKF034
  0
BLOCK_RECORD
  5
284
330
1
100
AcDbSymbolTableRecord
100
AcDbBlockTableRecord
  2
BLKF035
  0
ENDTAB
  0
ENDSEC
  0
SECTION
  2
BLOCKS
  0
BLOCK
  5
20
330
1F
100
AcDbEntity
  8
0
100
AcDbBlockBegin
  2
*MODEL_SPACE
 70
     0
 71
     0
 10
0.0
 20
0.0
 30
0.0
  3
*MODEL_SPACE
  1

  0
ENDBLK
  5
21
330
1F
100
AcDbEntity
  8
0
100
AcDbBlockEnd
  0
BLOCK
  5
1C
330
1B
100
AcDbEntity
 67
     1
  8
0
100
AcDbBlockBegin
  2
*PAPER_SPACE
 70
     0
 71
     0
 10
0.0
 20
0.0
 30
0.0
  3
*PAPER_SPACE
  1

  0
ENDBLK
  5
1D
330
1B
100
AcDbEntity
 67
     1
  8
0
100
AcDbBlockEnd
  0
BLOCK
  5
42
330
41
100
AcDbEntity
  8
0
100
AcDbBlockBegin
  2
FXTIP_ARROW_S
 70
     0
 71
     0
 10
0.0
 20
0.0
 30
0.0
  3
FXTIP_ARROW_S
  1

  0
LINE
  5
44
330
41
100
AcDbEntity
  8
0
  6
CONTINUOUS
 62
     0
100
AcDbLine
 10
0.0
 20
0.0
 30
0.0
 11
-1.0
 21
0.0
 31
0.0
  0
LINE
  5
45
330
41
100
AcDbEntity
  8
0
  6
CONTINUOUS
 62
     0
100
AcDbLine
 10
0.0
 20
0.0
 30
0.0
 11
-0.965926
 21
-0.258819
 31
0.0
  0
LINE
  5
46
330
41
100
AcDbEntity
  8
0
  6
CONTINUOUS
 62
     0
100
AcDbLine
 10
0.0
 20
0.0
 30
0.0
 11
-0.965926
 21
0.258819
 31
0.0
  0
ENDBLK
  5
43
330
41
100
AcDbEntity
  8
0
100
AcDbBlockEnd
  0
BLOCK
  5
48
330
47
100
AcDbEntity
  8
0
100
AcDbBlockBegin
  2
FXTIP_ARROW_E
 70
     0
 71
     0
 10
0.0
 20
0.0
 30
0.0
  3
FXTIP_ARROW_E
  1

  0
LINE
  5
4A
330
47
100
AcDbEntity
  8
0
  6
CONTINUOUS
 62
     0
100
AcDbLine
 10
0.0
 20
0.0
 30
0.0
 11
-1.0
 21
0.0
 31
0.0
  0
LINE
  5
4B
330
47
100
AcDbEntity
  8
0
  6
CONTINUOUS
 62
     0
100
AcDbLine
 10
0.0
 20
0.0
 30
0.0
 11
-0.965926
 21
0.258819
 31
0.0
  0
LINE
  5
4C
330
47
100
AcDbEntity
  8
0
  6
CONTINUOUS
 62
     0
100
AcDbLine
 10
0.0
 20
0.0
 30
0.0
 11
-0.965926
 21
-0.258819
 31
0.0
  0
ENDBLK
  5
49
330
47
100
AcDbEntity
  8
0
100
AcDbBlockEnd
  0
BLOCK
  5
4E
330
4D
100
AcDbEntity
  8
0
100
AcDbBlockBegin
  2
FXTIP_BLACKDOT_S
 70
     0
 71
     0
 10
0.0
 20
0.0
 30
0.0
  3
FXTIP_BLACKDOT_S
  1

  0
LINE
  5
50
330
4D
100
AcDbEntity
  8
0
  6
CONTINUOUS
 62
     0
100
AcDbLine
 10
0.0
 20
0.0
 30
0.0
 11
-1.0
 21
0.0
 31
0.0
  0
LWPOLYLINE
  5
51
330
4D
100
AcDbEntity
  8
0
  6
CONTINUOUS
 62
     0
100
AcDbPolyline
 90
        2
 70
     1
 10
-0.25
 20
0.0
 40
0.5
 41
0.5
 42
1.0
 10
0.25
 20
0.0
 40
0.5
 41
0.5
 42
1.0
  0
CIRCLE
  5
52
330
4D
100
AcDbEntity
  8
0
  6
CONTINUOUS
 62
     0
100
AcDbCircle
 10
0.0
 20
0.0
 30
0.0
 40
0.5
  0
ENDBLK
  5
4F
330
4D
100
AcDbEntity
  8
0
100
AcDbBlockEnd
  0
BLOCK
  5
54
330
53
100
AcDbEntity
  8
0
100
AcDbBlockBegin
  2
FXTIP_BLACKDOT_E
 70
     0
 71
     0
 10
0.0
 20
0.0
 30
0.0
  3
FXTIP_BLACKDOT_E
  1

  0
LINE
  5
56
330
53
100
AcDbEntity
  8
0
  6
CONTINUOUS
 62
     0
100
AcDbLine
 10
0.0
 20
0.0
 30
0.0
 11
-1.0
 21
0.0
 31
0.0
  0
LWPOLYLINE
  5
57
330
53
100
AcDbEntity
  8
0
  6
CONTINUOUS
 62
     0
100
AcDbPolyline
 90
        2
 70
     1
 10
-0.25
 20
0.0
 40
0.5
 41
0.5
 42
1.0
 10
0.25
 20
0.0
 40
0.5
 41
0.5
 42
1.0
  0
CIRCLE
  5
58
330
53
100
AcDbEntity
  8
0
  6
CONTINUOUS
 62
     0
100
AcDbCircle
 10
0.0
 20
0.0
 30
0.0
 40
0.5
  0
ENDBLK
  5
55
330
53
100
AcDbEntity
  8
0
100
AcDbBlockEnd
  0
BLOCK
  5
5A
330
59
100
AcDbEntity
  8
0
100
AcDbBlockBegin
  2
FXTIP_TRIANGLE_S
 70
     0
 71
     0
 10
0.0
 20
0.0
 30
0.0
  3
FXTIP_TRIANGLE_S
  1

  0
LINE
  5
5C
330
59
100
AcDbEntity
  8
0
  6
CONTINUOUS
 62
     0
100
AcDbLine
 10
0.0
 20
0.0
 30
0.0
 11
-1.0
 21
0.0
 31
0.0
  0
LINE
  5
5D
330
59
100
AcDbEntity
  8
0
  6
CONTINUOUS
 62
     0
100
AcDbLine
 10
0.0
 20
0.0
 30
0.0
 11
-0.965926
 21
-0.258819
 31
0.0
  0
LINE
  5
5E
330
59
100
AcDbEntity
  8
0
  6
CONTINUOUS
 62
     0
100
AcDbLine
 10
0.0
 20
0.0
 30
0.0
 11
-0.965926
 21
0.258819
 31
0.0
  0
LINE
  5
5F
330
59
100
AcDbEntity
  8
0
  6
CONTINUOUS
 62
     0
100
AcDbLine
 10
-0.965926
 20
-0.258819
 30
0.0
 11
-0.965926
 21
0.258819
 31
0.0
  0
ENDBLK
  5
5B
330
59
100
AcDbEntity
  8
0
100
AcDbBlockEnd
  0
BLOCK
  5
61
330
60
100
AcDbEntity
  8
0
100
AcDbBlockBegin
  2
FXTIP_TRIANGLE_E
 70
     0
 71
     0
 10
0.0
 20
0.0
 30
0.0
  3
FXTIP_TRIANGLE_E
  1

  0
LINE
  5
63
330
60
100
AcDbEntity
  8
0
  6
CONTINUOUS
 62
     0
100
AcDbLine
 10
0.0
 20
0.0
 30
0.0
 11
-1.0
 21
0.0
 31
0.0
  0
LINE
  5
64
330
60
100
AcDbEntity
  8
0
  6
CONTINUOUS
 62
     0
100
AcDbLine
 10
0.0
 20
0.0
 30
0.0
 11
-0.965926
 21
0.258819
 31
0.0
  0
LINE
  5
65
330
60
100
AcDbEntity
  8
0
  6
CONTINUOUS
 62
     0
100
AcDbLine
 10
0.0
 20
0.0
 30
0.0
 11
-0.965926
 21
-0.258819
 31
0.0
  0
LINE
  5
66
330
60
100
AcDbEntity
  8
0
  6
CONTINUOUS
 62
     0
100
AcDbLine
 10
-0.965926
 20
0.258819
 30
0.0
 11
-0.965926
 21
-0.258819
 31
0.0
  0
ENDBLK
  5
62
330
60
100
AcDbEntity
  8
0
100
AcDbBlockEnd
  0
BLOCK
  5
68
330
67
100
AcDbEntity
  8
0
100
AcDbBlockBegin
  2
FXTIP_ARCHITECT_S
 70
     0
 71
     0
 10
0.0
 20
0.0
 30
0.0
  3
FXTIP_ARCHITECT_S
  1

  0
LINE
  5
6A
330
67
100
AcDbEntity
  8
0
  6
CONTINUOUS
 62
     0
100
AcDbLine
 10
0.0
 20
0.0
 30
0.0
 11
-1.0
 21
0.0
 31
0.0
  0
LINE
  5
6B
330
67
100
AcDbEntity
  8
0
  6
CONTINUOUS
 62
     0
100
AcDbLine
 10
0.0
 20
0.0
 30
0.0
 11
-0.707107
 21
-0.707107
 31
0.0
  0
LINE
  5
6C
330
67
100
AcDbEntity
  8
0
  6
CONTINUOUS
 62
     0
100
AcDbLine
 10
0.0
 20
0.0
 30
0.0
 11
0.707107
 21
0.707107
 31
0.0
  0
ENDBLK
  5
69
330
67
100
AcDbEntity
  8
0
100
AcDbBlockEnd
  0
BLOCK
  5
6E
330
6D
100
AcDbEntity
  8
0
100
AcDbBlockBegin
  2
FXTIP_ARCHITECT_E
 70
     0
 71
     0
 10
0.0
 20
0.0
 30
0.0
  3
FXTIP_ARCHITECT_E
  1

  0
LINE
  5
70
330
6D
100
AcDbEntity
  8
0
  6
CONTINUOUS
 62
     0
100
AcDbLine
 10
0.0
 20
0.0
 30
0.0
 11
-1.0
 21
0.0
 31
0.0
  0
LINE
  5
71
330
6D
100
AcDbEntity
  8
0
  6
CONTINUOUS
 62
     0
100
AcDbLine
 10
0.0
 20
0.0
 30
0.0
 11
0.707107
 21
0.707107
 31
0.0
  0
LINE
  5
72
330
6D
100
AcDbEntity
  8
0
  6
CONTINUOUS
 62
     0
100
AcDbLine
 10
0.0
 20
0.0
 30
0.0
 11
-0.707107
 21
-0.707107
 31
0.0
  0
ENDBLK
  5
6F
330
6D
100
AcDbEntity
  8
0
100
AcDbBlockEnd
  0
BLOCK
  5
74
330
73
100
AcDbEntity
  8
0
100
AcDbBlockBegin
  2
FXTIP_CIVIL_S
 70
     0
 71
     0
 10
0.0
 20
0.0
 30
0.0
  3
FXTIP_CIVIL_S
  1

  0
LINE
  5
76
330
73
100
AcDbEntity
  8
0
  6
CONTINUOUS
 62
     0
100
AcDbLine
 10
0.0
 20
0.0
 30
0.0
 11
-1.0
 21
0.0
 31
0.0
  0
LINE
  5
77
330
73
100
AcDbEntity
  8
0
  6
CONTINUOUS
 62
     0
100
AcDbLine
 10
0.0
 20
-0.0625
 30
0.0
 11
-1.0
 21
-0.0625
 31
0.0
  0
LINE
  5
78
330
73
100
AcDbEntity
  8
0
  6
CONTINUOUS
 62
     0
100
AcDbLine
 10
0.0
 20
-0.125
 30
0.0
 11
-1.0
 21
-0.125
 31
0.0
  0
ENDBLK
  5
75
330
73
100
AcDbEntity
  8
0
100
AcDbBlockEnd
  0
BLOCK
  5
7A
330
79
100
AcDbEntity
  8
0
100
AcDbBlockBegin
  2
FXTIP_CIVIL_E
 70
     0
 71
     0
 10
0.0
 20
0.0
 30
0.0
  3
FXTIP_CIVIL_E
  1

  0
LINE
  5
7C
330
79
100
AcDbEntity
  8
0
  6
CONTINUOUS
 62
     0
100
AcDbLine
 10
0.0
 20
0.0
 30
0.0
 11
-1.0
 21
0.0
 31
0.0
  0
LINE
  5
7D
330
79
100
AcDbEntity
  8
0
  6
CONTINUOUS
 62
     0
100
AcDbLine
 10
0.0
 20
0.0625
 30
0.0
 11
-1.0
 21
0.0625
 31
0.0
  0
LINE
  5
7E
330
79
100
AcDbEntity
  8
0
  6
CONTINUOUS
 62
     0
100
AcDbLine
 10
0.0
 20
0.125
 30
0.0
 11
-1.0
 21
0.125
 31
0.0
  0
ENDBLK
  5
7B
330
79
100
AcDbEntity
  8
0
100
AcDbBlockEnd
  0
BLOCK
  5
80
330
7F
100
AcDbEntity
  8
0
100
AcDbBlockBegin
  2
FXTIP_WHITEDOT_S
 70
     0
 71
     0
 10
0.0
 20
0.0
 30
0.0
  3
FXTIP_WHITEDOT_S
  1

  0
LINE
  5
82
330
7F
100
AcDbEntity
  8
0
  6
CONTINUOUS
 62
     0
100
AcDbLine
 10
0.0
 20
0.0
 30
0.0
 11
-1.0
 21
0.0
 31
0.0
  0
CIRCLE
  5
83
330
7F
100
AcDbEntity
  8
0
  6
CONTINUOUS
 62
     0
100
AcDbCircle
 10
0.0
 20
0.0
 30
0.0
 40
0.5
  0
ENDBLK
  5
81
330
7F
100
AcDbEntity
  8
0
100
AcDbBlockEnd
  0
BLOCK
  5
85
330
84
100
AcDbEntity
  8
0
100
AcDbBlockBegin
  2
FXTIP_WHITEDOT_E
 70
     0
 71
     0
 10
0.0
 20
0.0
 30
0.0
  3
FXTIP_WHITEDOT_E
  1

  0
LINE
  5
87
330
84
100
AcDbEntity
  8
0
  6
CONTINUOUS
 62
     0
100
AcDbLine
 10
0.0
 20
0.0
 30
0.0
 11
-1.0
 21
0.0
 31
0.0
  0
CIRCLE
  5
88
330
84
100
AcDbEntity
  8
0
  6
CONTINUOUS
 62
     0
100
AcDbCircle
 10
0.0
 20
0.0
 30
0.0
 40
0.5
  0
ENDBLK
  5
86
330
84
100
AcDbEntity
  8
0
100
AcDbBlockEnd
  0
BLOCK
  5
8A
330
89
100
AcDbEntity
  8
0
100
AcDbBlockBegin
  2
FXTIP_UPARROW_S
 70
     0
 71
     0
 10
0.0
 20
0.0
 30
0.0
  3
FXTIP_UPARROW_S
  1

  0
LINE
  5
8C
330
89
100
AcDbEntity
  8
0
  6
CONTINUOUS
 62
     0
100
AcDbLine
 10
0.0
 20
0.0
 30
0.0
 11
-1.0
 21
0.0
 31
0.0
  0
LINE
  5
8D
330
89
100
AcDbEntity
  8
0
  6
CONTINUOUS
 62
     0
100
AcDbLine
 10
0.0
 20
0.0
 30
0.0
 11
-0.965926
 21
-0.258819
 31
0.0
  0
ENDBLK
  5
8B
330
89
100
AcDbEntity
  8
0
100
AcDbBlockEnd
  0
BLOCK
  5
8F
330
8E
100
AcDbEntity
  8
0
100
AcDbBlockBegin
  2
FXTIP_UPARROW_E
 70
     0
 71
     0
 10
0.0
 20
0.0
 30
0.0
  3
FXTIP_UPARROW_E
  1

  0
LINE
  5
91
330
8E
100
AcDbEntity
  8
0
  6
CONTINUOUS
 62
     0
100
AcDbLine
 10
0.0
 20
0.0
 30
0.0
 11
-1.0
 21
0.0
 31
0.0
  0
LINE
  5
92
330
8E
100
AcDbEntity
  8
0
  6
CONTINUOUS
 62
     0
100
AcDbLine
 10
0.0
 20
0.0
 30
0.0
 11
-0.965926
 21
0.258819
 31
0.0
  0
ENDBLK
  5
90
330
8E
100
AcDbEntity
  8
0
100
AcDbBlockEnd
  0
BLOCK
  5
94
330
93
100
AcDbEntity
  8
0
100
AcDbBlockBegin
  2
FXTIP_DOWNARROW_S
 70
     0
 71
     0
 10
0.0
 20
0.0
 30
0.0
  3
FXTIP_DOWNARROW_S
  1

  0
LINE
  5
96
330
93
100
AcDbEntity
  8
0
  6
CONTINUOUS
 62
     0
100
AcDbLine
 10
0.0
 20
0.0
 30
0.0
 11
-1.0
 21
0.0
 31
0.0
  0
LINE
  5
97
330
93
100
AcDbEntity
  8
0
  6
CONTINUOUS
 62
     0
100
AcDbLine
 10
0.0
 20
0.0
 30
0.0
 11
-0.965926
 21
0.258819
 31
0.0
  0
ENDBLK
  5
95
330
93
100
AcDbEntity
  8
0
100
AcDbBlockEnd
  0
BLOCK
  5
99
330
98
100
AcDbEntity
  8
0
100
AcDbBlockBegin
  2
FXTIP_DOWNARROW_E
 70
     0
 71
     0
 10
0.0
 20
0.0
 30
0.0
  3
FXTIP_DOWNARROW_E
  1

  0
LINE
  5
9B
330
98
100
AcDbEntity
  8
0
  6
CONTINUOUS
 62
     0
100
AcDbLine
 10
0.0
 20
0.0
 30
0.0
 11
-1.0
 21
0.0
 31
0.0
  0
LINE
  5
9C
330
98
100
AcDbEntity
  8
0
  6
CONTINUOUS
 62
     0
100
AcDbLine
 10
0.0
 20
0.0
 30
0.0
 11
-0.965926
 21
-0.258819
 31
0.0
  0
ENDBLK
  5
9A
330
98
100
AcDbEntity
  8
0
100
AcDbBlockEnd
  0
BLOCK
  5
9E
330
9D
100
AcDbEntity
  8
0
100
AcDbBlockBegin
  2
FXTIP_BLACKTRIANGLE_S
 70
     0
 71
     0
 10
0.0
 20
0.0
 30
0.0
  3
FXTIP_BLACKTRIANGLE_S
  1

  0
LINE
  5
A0
330
9D
100
AcDbEntity
  8
0
  6
CONTINUOUS
 62
     0
100
AcDbLine
 10
0.0
 20
0.0
 30
0.0
 11
-1.0
 21
0.0
 31
0.0
  0
SOLID
  5
A1
330
9D
100
AcDbEntity
  8
0
  6
CONTINUOUS
 62
     0
100
AcDbTrace
 10
0.0
 20
0.0
 30
0.0
 11
-0.965926
 21
-0.258819
 31
0.0
 12
-0.965926
 22
0.258819
 32
0.0
 13
-0.965926
 23
0.258819
 33
0.0
  0
ENDBLK
  5
9F
330
9D
100
AcDbEntity
  8
0
100
AcDbBlockEnd
  0
BLOCK
  5
A3
330
A2
100
AcDbEntity
  8
0
100
AcDbBlockBegin
  2
FXTIP_BLACKTRIANGLE_E
 70
     0
 71
     0
 10
0.0
 20
0.0
 30
0.0
  3
FXTIP_BLACKTRIANGLE_E
  1

  0
LINE
  5
A5
330
A2
100
AcDbEntity
  8
0
  6
CONTINUOUS
 62
     0
100
AcDbLine
 10
0.0
 20
0.0
 30
0.0
 11
-1.0
 21
0.0
 31
0.0
  0
SOLID
  5
A6
330
A2
100
AcDbEntity
  8
0
  6
CONTINUOUS
 62
     0
100
AcDbTrace
 10
0.0
 20
0.0
 30
0.0
 11
-0.965926
 21
0.258819
 31
0.0
 12
-0.965926
 22
-0.258819
 32
0.0
 13
-0.965926
 23
-0.258819
 33
0.0
  0
ENDBLK
  5
A4
330
A2
100
AcDbEntity
  8
0
100
AcDbBlockEnd
  0
BLOCK
  5
135
330
134
100
AcDbEntity
  8
0
100
AcDbBlockBegin
  2
*D19
 70
     1
 71
     0
 10
0.0
 20
0.0
 30
0.0
  3
*D19
  1

  0
TEXT
  5
137
330
134
100
AcDbEntity
  8
LAYERGROUP-1
  6
CONTINUOUS
 62
     7
100
AcDbText
 10
247.709641
 20
51.587605
 30
0.0
 40
4.0
  1
71
 41
1.016129
  7
FX_VECTOR
 72
     5
 11
253.709641
 21
51.587605
 31
0.0
100
AcDbText
  0
LINE
  5
138
330
134
100
AcDbEntity
  8
LAYERGROUP-1
  6
CONTINUOUS
 62
     7
100
AcDbLine
 10
215.20964
 20
50.587602
 30
0.0
 11
286.20964
 21
50.587602
 31
0.0
  0
INSERT
  5
139
330
134
100
AcDbEntity
  8
LAYERGROUP-1
  6
CONTINUOUS
 62
     7
100
AcDbBlockReference
  2
FXTIP_ARROW_S
 10
215.20964
 20
50.587602
 30
0.0
 41
4.0
 42
4.0
 50
180.0
  0
INSERT
  5
13A
330
134
100
AcDbEntity
  8
LAYERGROUP-1
  6
CONTINUOUS
 62
     7
100
AcDbBlockReference
  2
FXTIP_ARROW_E
 10
286.20964
 20
50.587602
 30
0.0
 41
4.0
 42
4.0
 50
360.0
  0
LINE
  5
13B
330
134
100
AcDbEntity
  8
LAYERGROUP-1
  6
CONTINUOUS
 62
     7
100
AcDbLine
 10
215.20964
 20
144.106294
 30
0.0
 11
215.20964
 21
49.587602
 31
0.0
  0
LINE
  5
13C
330
134
100
AcDbEntity
  8
LAYERGROUP-1
  6
CONTINUOUS
 62
     7
100
AcDbLine
 10
286.20964
 20
144.106294
 30
0.0
 11
286.20964
 21
49.587602
 31
0.0
  0
ENDBLK
  5
136
330
134
100
AcDbEntity
  8
0
100
AcDbBlockEnd
  0
BLOCK
  5
13F
330
13E
100
AcDbEntity
  8
0
100
AcDbBlockBegin
  2
*D20
 70
     1
 71
     0
 10
0.0
 20
0.0
 30
0.0
  3
*D20
  1

  0
TEXT
  5
141
330
13E
100
AcDbEntity
  8
LAYERGROUP-1
  6
CONTINUOUS
 62
     7
100
AcDbText
 10
247.709641
 20
61.127693
 30
0.0
 40
4.0
  1
63
 41
0.851351
  7
FX_VECTOR
 72
     5
 11
253.709641
 21
61.127693
 31
0.0
100
AcDbText
  0
LINE
  5
142
330
13E
100
AcDbEntity
  8
LAYERGROUP-1
  6
CONTINUOUS
 62
     7
100
AcDbLine
 10
219.20964
 20
60.12769
 30
0.0
 11
282.20964
 21
60.12769
 31
0.0
  0
INSERT
  5
143
330
13E
100
AcDbEntity
  8
LAYERGROUP-1
  6
CONTINUOUS
 62
     7
100
AcDbBlockReference
  2
FXTIP_ARROW_S
 10
219.20964
 20
60.12769
 30
0.0
 41
4.0
 42
4.0
 50
180.0
  0
INSERT
  5
144
330
13E
100
AcDbEntity
  8
LAYERGROUP-1
  6
CONTINUOUS
 62
     7
100
AcDbBlockReference
  2
FXTIP_ARROW_E
 10
282.20964
 20
60.12769
 30
0.0
 41
4.0
 42
4.0
 50
360.0
  0
LINE
  5
145
330
13E
100
AcDbEntity
  8
LAYERGROUP-1
  6
CONTINUOUS
 62
     7
100
AcDbLine
 10
219.20964
 20
89.606294
 30
0.0
 11
219.20964
 21
59.12769
 31
0.0
  0
LINE
  5
146
330
13E
100
AcDbEntity
  8
LAYERGROUP-1
  6
CONTINUOUS
 62
     7
100
AcDbLine
 10
282.20964
 20
89.606294
 30
0.0
 11
282.20964
 21
59.12769
 31
0.0
  0
ENDBLK
  5
140
330
13E
100
AcDbEntity
  8
0
100
AcDbBlockEnd
  0
BLOCK
  5
167
330
166
100
AcDbEntity
  8
0
100
AcDbBlockBegin
  2
*D21
 70
     1
 71
     0
 10
0.0
 20
0.0
 30
0.0
  3
*D21
  1

  0
TEXT
  5
169
330
166
100
AcDbEntity
  8
LAYERGROUP-1
  6
CONTINUOUS
 62
     7
100
AcDbText
 10
487.015517
 20
529.558036
 30
0.0
 40
4.0
  1
4-%%c14
 50
343.435287
 41
0.764563
  7
FX_VECTOR
 72
     5
 11
501.392992
 21
525.281564
 31
0.0
100
AcDbText
  0
LINE
  5
16A
330
166
100
AcDbEntity
  8
LAYERGROUP-1
  6
CONTINUOUS
 62
     7
100
AcDbLine
 10
520.794853
 20
518.064464
 30
0.0
 11
534.213829
 21
514.07309
 31
0.0
  0
LINE
  5
16B
330
166
100
AcDbEntity
  8
LAYERGROUP-1
  6
CONTINUOUS
 62
     7
100
AcDbLine
 10
520.794853
 20
518.064464
 30
0.0
 11
485.732707
 21
528.493437
 31
0.0
  0
INSERT
  5
16C
330
166
100
AcDbEntity
  8
LAYERGROUP-1
  6
CONTINUOUS
 62
     7
100
AcDbBlockReference
  2
FXTIP_ARROW_S
 10
520.794853
 20
518.064464
 30
0.0
 41
4.0
 42
4.0
 50
343.435284
  0
LINE
  5
16D
330
166
100
AcDbEntity
  8
LAYERGROUP-1
  6
CONTINUOUS
 62
     7
100
AcDbLine
 10
534.213829
 20
514.07309
 30
0.0
 11
539.964819
 21
512.362501
 31
0.0
  0
INSERT
  5
16E
330
166
100
AcDbEntity
  8
LAYERGROUP-1
  6
CONTINUOUS
 62
     7
100
AcDbBlockReference
  2
FXTIP_ARROW_S
 10
534.213829
 20
514.07309
 30
0.0
 41
4.0
 42
4.0
 50
163.435284
  0
ENDBLK
  5
168
330
166
100
AcDbEntity
  8
0
100
AcDbBlockEnd
  0
BLOCK
  5
189
330
188
100
AcDbEntity
  8
0
100
AcDbBlockBegin
  2
*D22
 70
     1
 71
     0
 10
0.0
 20
0.0
 30
0.0
  3
*D22
  1

  0
TEXT
  5
18B
330
188
100
AcDbEntity
  8
LAYERGROUP-1
  6
CONTINUOUS
 62
     7
100
AcDbText
 10
579.004333
 20
366.656738
 30
0.0
 40
4.0
  1
140
 41
0.828947
  7
FX_VECTOR
 72
     5
 11
588.004333
 21
366.656738
 31
0.0
100
AcDbText
  0
LINE
  5
18C
330
188
100
AcDbEntity
  8
LAYERGROUP-1
  6
CONTINUOUS
 62
     7
100
AcDbLine
 10
513.504341
 20
365.656745
 30
0.0
 11
653.504341
 21
365.656745
 31
0.0
  0
INSERT
  5
18D
330
188
100
AcDbEntity
  8
LAYERGROUP-1
  6
CONTINUOUS
 62
     7
100
AcDbBlockReference
  2
FXTIP_ARROW_S
 10
513.504341
 20
365.656745
 30
0.0
 41
4.0
 42
4.0
 50
180.0
  0
INSERT
  5
18E
330
188
100
AcDbEntity
  8
LAYERGROUP-1
  6
CONTINUOUS
 62
     7
100
AcDbBlockReference
  2
FXTIP_ARROW_E
 10
653.504341
 20
365.656745
 30
0.0
 41
4.0
 42
4.0
 50
360.0
  0
LINE
  5
18F
330
188
100
AcDbEntity
  8
LAYERGROUP-1
  6
CONTINUOUS
 62
     7
100
AcDbLine
 10
513.504341
 20
403.068777
 30
0.0
 11
513.504341
 21
364.656745
 31
0.0
  0
LINE
  5
190
330
188
100
AcDbEntity
  8
LAYERGROUP-1
  6
CONTINUOUS
 62
     7
100
AcDbLine
 10
653.504341
 20
403.068777
 30
0.0
 11
653.504341
 21
364.656745
 31
0.0
  0
ENDBLK
  5
18A
330
188
100
AcDbEntity
  8
0
100
AcDbBlockEnd
  0
BLOCK
  5
193
330
192
100
AcDbEntity
  8
0
100
AcDbBlockBegin
  2
*D23
 70
     1
 71
     0
 10
0.0
 20
0.0
 30
0.0
  3
*D23
  1

  0
TEXT
  5
195
330
192
100
AcDbEntity
  8
LAYERGROUP-1
  6
CONTINUOUS
 62
     7
100
AcDbText
 10
579.004333
 20
378.775055
 30
0.0
 40
4.0
  1
112
 41
0.828947
  7
FX_VECTOR
 72
     5
 11
588.004333
 21
378.775055
 31
0.0
100
AcDbText
  0
LINE
  5
196
330
192
100
AcDbEntity
  8
LAYERGROUP-1
  6
CONTINUOUS
 62
     7
100
AcDbLine
 10
527.504341
 20
377.775069
 30
0.0
 11
639.504341
 21
377.775069
 31
0.0
  0
INSERT
  5
197
330
192
100
AcDbEntity
  8
LAYERGROUP-1
  6
CONTINUOUS
 62
     7
100
AcDbBlockReference
  2
FXTIP_ARROW_S
 10
527.504341
 20
377.775069
 30
0.0
 41
4.0
 42
4.0
 50
180.0
  0
INSERT
  5
198
330
192
100
AcDbEntity
  8
LAYERGROUP-1
  6
CONTINUOUS
 62
     7
100
AcDbBlockReference
  2
FXTIP_ARROW_E
 10
639.504341
 20
377.775069
 30
0.0
 41
4.0
 42
4.0
 50
360.0
  0
LINE
  5
199
330
192
100
AcDbEntity
  8
LAYERGROUP-1
  6
CONTINUOUS
 62
     7
100
AcDbLine
 10
527.504341
 20
392.068777
 30
0.0
 11
527.504341
 21
376.775069
 31
0.0
  0
LINE
  5
19A
330
192
100
AcDbEntity
  8
LAYERGROUP-1
  6
CONTINUOUS
 62
     7
100
AcDbLine
 10
639.504341
 20
392.068777
 30
0.0
 11
639.504341
 21
376.775069
 31
0.0
  0
ENDBLK
  5
194
330
192
100
AcDbEntity
  8
0
100
AcDbBlockEnd
  0
BLOCK
  5
19D
330
19C
100
AcDbEntity
  8
0
100
AcDbBlockBegin
  2
*D24
 70
     1
 71
     0
 10
0.0
 20
0.0
 30
0.0
  3
*D24
  1

  0
TEXT
  5
19F
330
19C
100
AcDbEntity
  8
LAYERGROUP-1
  6
CONTINUOUS
 62
     7
100
AcDbText
 10
676.916382
 20
455.568756
 30
0.0
 40
4.0
  1
140
 50
90.0
 41
0.828947
  7
FX_VECTOR
 72
     5
 11
676.916382
 21
464.568756
 31
0.0
100
AcDbText
  0
LINE
  5
1A0
330
19C
100
AcDbEntity
  8
LAYERGROUP-1
  6
CONTINUOUS
 62
     7
100
AcDbLine
 10
677.916373
 20
390.068777
 30
0.0
 11
677.916373
 21
530.068777
 31
0.0
  0
INSERT
  5
1A1
330
19C
100
AcDbEntity
  8
LAYERGROUP-1
  6
CONTINUOUS
 62
     7
100
AcDbBlockReference
  2
FXTIP_ARROW_S
 10
677.916373
 20
390.068777
 30
0.0
 41
4.0
 42
4.0
 50
270.0
  0
INSERT
  5
1A2
330
19C
100
AcDbEntity
  8
LAYERGROUP-1
  6
CONTINUOUS
 62
     7
100
AcDbBlockReference
  2
FXTIP_ARROW_E
 10
677.916373
 20
530.068777
 30
0.0
 41
4.0
 42
4.0
 50
90.0
  0
LINE
  5
1A3
330
19C
100
AcDbEntity
  8
LAYERGROUP-1
  6
CONTINUOUS
 62
     7
100
AcDbLine
 10
640.504341
 20
390.068777
 30
0.0
 11
678.916373
 21
390.068777
 31
0.0
  0
LINE
  5
1A4
330
19C
100
AcDbEntity
  8
LAYERGROUP-1
  6
CONTINUOUS
 62
     7
100
AcDbLine
 10
640.504341
 20
530.068777
 30
0.0
 11
678.916373
 21
530.068777
 31
0.0
  0
ENDBLK
  5
19E
330
19C
100
AcDbEntity
  8
0
100
AcDbBlockEnd
  0
BLOCK
  5
1A7
330
1A6
100
AcDbEntity
  8
0
100
AcDbBlockBegin
  2
*D25
 70
     1
 71
     0
 10
0.0
 20
0.0
 30
0.0
  3
*D25
  1

  0
TEXT
  5
1A9
330
1A6
100
AcDbEntity
  8
LAYERGROUP-1
  6
CONTINUOUS
 62
     7
100
AcDbText
 10
664.798035
 20
455.568756
 30
0.0
 40
4.0
  1
112
 50
90.0
 41
0.828947
  7
FX_VECTOR
 72
     5
 11
664.798035
 21
464.568756
 31
0.0
100
AcDbText
  0
LINE
  5
1AA
330
1A6
100
AcDbEntity
  8
LAYERGROUP-1
  6
CONTINUOUS
 62
     7
100
AcDbLine
 10
665.798049
 20
404.068777
 30
0.0
 11
665.798049
 21
516.068777
 31
0.0
  0
INSERT
  5
1AB
330
1A6
100
AcDbEntity
  8
LAYERGROUP-1
  6
CONTINUOUS
 62
     7
100
AcDbBlockReference
  2
FXTIP_ARROW_S
 10
665.798049
 20
404.068777
 30
0.0
 41
4.0
 42
4.0
 50
270.0
  0
INSERT
  5
1AC
330
1A6
100
AcDbEntity
  8
LAYERGROUP-1
  6
CONTINUOUS
 62
     7
100
AcDbBlockReference
  2
FXTIP_ARROW_E
 10
665.798049
 20
516.068777
 30
0.0
 41
4.0
 42
4.0
 50
90.0
  0
LINE
  5
1AD
330
1A6
100
AcDbEntity
  8
LAYERGROUP-1
  6
CONTINUOUS
 62
     7
100
AcDbLine
 10
651.504341
 20
404.068777
 30
0.0
 11
666.798049
 21
404.068777
 31
0.0
  0
LINE
  5
1AE
330
1A6
100
AcDbEntity
  8
LAYERGROUP-1
  6
CONTINUOUS
 62
     7
100
AcDbLine
 10
651.504341
 20
516.068777
 30
0.0
 11
666.798049
 21
516.068777
 31
0.0
  0
ENDBLK
  5
1A8
330
1A6
100
AcDbEntity
  8
0
100
AcDbBlockEnd
  0
BLOCK
  5
1B1
330
1B0
100
AcDbEntity
  8
0
100
AcDbBlockBegin
  2
*D26
 70
     1
 71
     0
 10
0.0
 20
0.0
 30
0.0
  3
*D26
  1

  0
TEXT
  5
1B3
330
1B0
100
AcDbEntity
  8
LAYERGROUP-1
  6
CONTINUOUS
 62
     7
100
AcDbText
 10
551.504333
 20
64.020744
 30
0.0
 40
4.0
  1
58
 41
0.851351
  7
FX_VECTOR
 72
     5
 11
557.504333
 21
64.020744
 31
0.0
100
AcDbText
  0
LINE
  5
1B4
330
1B0
100
AcDbEntity
  8
LAYERGROUP-1
  6
CONTINUOUS
 62
     7
100
AcDbLine
 10
525.504341
 20
63.020747
 30
0.0
 11
583.504341
 21
63.020747
 31
0.0
  0
INSERT
  5
1B5
330
1B0
100
AcDbEntity
  8
LAYERGROUP-1
  6
CONTINUOUS
 62
     7
100
AcDbBlockReference
  2
FXTIP_ARROW_S
 10
525.504341
 20
63.020747
 30
0.0
 41
4.0
 42
4.0
 50
180.0
  0
INSERT
  5
1B6
330
1B0
100
AcDbEntity
  8
LAYERGROUP-1
  6
CONTINUOUS
 62
     7
100
AcDbBlockReference
  2
FXTIP_ARROW_E
 10
583.504341
 20
63.020747
 30
0.0
 41
4.0
 42
4.0
 50
360.0
  0
LINE
  5
1B7
330
1B0
100
AcDbEntity
  8
LAYERGROUP-1
  6
CONTINUOUS
 62
     7
100
AcDbLine
 10
525.504341
 20
67.648403
 30
0.0
 11
525.504341
 21
62.020747
 31
0.0
  0
LINE
  5
1B8
330
1B0
100
AcDbEntity
  8
LAYERGROUP-1
  6
CONTINUOUS
 62
     7
100
AcDbLine
 10
583.504341
 20
152.918033
 30
0.0
 11
583.504341
 21
62.020747
 31
0.0
  0
ENDBLK
  5
1B2
330
1B0
100
AcDbEntity
  8
0
100
AcDbBlockEnd
  0
BLOCK
  5
1BB
330
1BA
100
AcDbEntity
  8
0
100
AcDbBlockBegin
  2
*D27
 70
     1
 71
     0
 10
0.0
 20
0.0
 30
0.0
  3
*D27
  1

  0
TEXT
  5
1BD
330
1BA
100
AcDbEntity
  8
LAYERGROUP-1
  6
CONTINUOUS
 62
     7
100
AcDbText
 10
659.860718
 20
243.106293
 30
0.0
 40
4.0
  1
150
 50
90.0
 41
0.828947
  7
FX_VECTOR
 72
     5
 11
659.860718
 21
252.106293
 31
0.0
100
AcDbText
  0
LINE
  5
1BE
330
1BA
100
AcDbEntity
  8
LAYERGROUP-1
  6
CONTINUOUS
 62
     7
100
AcDbLine
 10
660.860739
 20
172.606294
 30
0.0
 11
660.860739
 21
322.606294
 31
0.0
  0
INSERT
  5
1BF
330
1BA
100
AcDbEntity
  8
LAYERGROUP-1
  6
CONTINUOUS
 62
     7
100
AcDbBlockReference
  2
FXTIP_ARROW_S
 10
660.860739
 20
172.606294
 30
0.0
 41
4.0
 42
4.0
 50
270.0
  0
INSERT
  5
1C0
330
1BA
100
AcDbEntity
  8
LAYERGROUP-1
  6
CONTINUOUS
 62
     7
100
AcDbBlockReference
  2
FXTIP_ARROW_E
 10
660.860739
 20
322.606294
 30
0.0
 41
4.0
 42
4.0
 50
90.0
  0
LINE
  5
1C1
330
1BA
100
AcDbEntity
  8
LAYERGROUP-1
  6
CONTINUOUS
 62
     7
100
AcDbLine
 10
630.692179
 20
172.606294
 30
0.0
 11
661.860739
 21
172.606294
 31
0.0
  0
LINE
  5
1C2
330
1BA
100
AcDbEntity
  8
LAYERGROUP-1
  6
CONTINUOUS
 62
     7
100
AcDbLine
 10
654.504341
 20
322.606294
 30
0.0
 11
661.860739
 21
322.606294
 31
0.0
  0
ENDBLK
  5
1BC
330
1BA
100
AcDbEntity
  8
0
100
AcDbBlockEnd
  0
BLOCK
  5
1C5
330
1C4
100
AcDbEntity
  8
0
100
AcDbBlockBegin
  2
*D28
 70
     1
 71
     0
 10
0.0
 20
0.0
 30
0.0
  3
*D28
  1

  0
TEXT
  5
1C7
330
1C4
100
AcDbEntity
  8
LAYERGROUP-1
  6
CONTINUOUS
 62
     7
100
AcDbText
 10
681.773193
 20
193.106293
 30
0.0
 40
4.0
  1
250
 50
90.0
 41
0.828947
  7
FX_VECTOR
 72
     5
 11
681.773193
 21
202.106293
 31
0.0
100
AcDbText
  0
LINE
  5
1C8
330
1C4
100
AcDbEntity
  8
LAYERGROUP-1
  6
CONTINUOUS
 62
     7
100
AcDbLine
 10
682.773181
 20
72.606294
 30
0.0
 11
682.773181
 21
322.606294
 31
0.0
  0
INSERT
  5
1C9
330
1C4
100
AcDbEntity
  8
LAYERGROUP-1
  6
CONTINUOUS
 62
     7
100
AcDbBlockReference
  2
FXTIP_ARROW_S
 10
682.773181
 20
72.606294
 30
0.0
 41
4.0
 42
4.0
 50
270.0
  0
INSERT
  5
1CA
330
1C4
100
AcDbEntity
  8
LAYERGROUP-1
  6
CONTINUOUS
 62
     7
100
AcDbBlockReference
  2
FXTIP_ARROW_E
 10
682.773181
 20
322.606294
 30
0.0
 41
4.0
 42
4.0
 50
90.0
  0
LINE
  5
1CB
330
1C4
100
AcDbEntity
  8
LAYERGROUP-1
  6
CONTINUOUS
 62
     7
100
AcDbLine
 10
526.504341
 20
72.606294
 30
0.0
 11
683.773181
 21
72.606294
 31
0.0
  0
LINE
  5
1CC
330
1C4
100
AcDbEntity
  8
LAYERGROUP-1
  6
CONTINUOUS
 62
     7
100
AcDbLine
 10
654.504341
 20
322.606294
 30
0.0
 11
683.773181
 21
322.606294
 31
0.0
  0
ENDBLK
  5
1C6
330
1C4
100
AcDbEntity
  8
0
100
AcDbBlockEnd
  0
BLOCK
  5
1D5
330
1D4
100
AcDbEntity
  8
0
100
AcDbBlockBegin
  2
BLKF031
 70
     0
 71
     0
 10
0.0
 20
0.0
 30
0.0
  3
BLKF031
  1

  0
LINE
  5
1D8
330
1D4
100
AcDbEntity
  8
GR1-1
  6
CONTINUOUS
 62
     7
100
AcDbLine
 10
445.605979
 20
138.071751
 30
0.0
 11
445.229711
 21
138.20748
 31
0.0
  0
LINE
  5
1D9
330
1D4
100
AcDbEntity
  8
GR1-1
  6
CONTINUOUS
 62
     7
100
AcDbLine
 10
445.726248
 20
137.815752
 30
0.0
 11
444.973712
 21
138.087211
 31
0.0
  0
LINE
  5
1DA
330
1D4
100
AcDbEntity
  8
GR1-1
  6
CONTINUOUS
 62
     7
100
AcDbLine
 10
445.846517
 20
137.559754
 30
0.0
 11
444.717714
 21
137.966942
 31
0.0
  0
LINE
  5
1DB
330
1D4
100
AcDbEntity
  8
GR1-1
  6
CONTINUOUS
 62
     7
100
AcDbLine
 10
445.966787
 20
137.303755
 30
0.0
 11
444.461715
 21
137.846672
 31
0.0
  0
LINE
  5
1DC
330
1D4
100
AcDbEntity
  8
GR1-1
  6
CONTINUOUS
 62
     7
100
AcDbLine
 10
446.087056
 20
137.047757
 30
0.0
 11
444.789102
 21
137.515961
 31
0.0
  0
LINE
  5
1DD
330
1D4
100
AcDbEntity
  8
GR1-1
  6
CONTINUOUS
 62
     7
100
AcDbLine
 10
444.433961
 20
137.644069
 30
0.0
 11
444.205716
 21
137.726403
 31
0.0
  0
LINE
  5
1DE
330
1D4
100
AcDbEntity
  8
GR1-1
  6
CONTINUOUS
 62
     7
100
AcDbLine
 10
446.207325
 20
136.791758
 30
0.0
 11
444.909371
 21
137.259963
 31
0.0
  0
LINE
  5
1DF
330
1D4
100
AcDbEntity
  8
GR1-1
  6
CONTINUOUS
 62
     7
100
AcDbLine
 10
444.177962
 20
137.5238
 30
0.0
 11
443.949718
 21
137.606134
 31
0.0
  0
LINE
  5
1E0
330
1D4
100
AcDbEntity
  8
GR1-1
  6
CONTINUOUS
 62
     7
100
AcDbLine
 10
446.327595
 20
136.535759
 30
0.0
 11
445.029641
 21
137.003964
 31
0.0
  0
LINE
  5
1E1
330
1D4
100
AcDbEntity
  8
GR1-1
  6
CONTINUOUS
 62
     7
100
AcDbLine
 10
443.921964
 20
137.403531
 30
0.0
 11
443.693719
 21
137.485864
 31
0.0
  0
LINE
  5
1E2
330
1D4
100
AcDbEntity
  8
GR1-1
  6
CONTINUOUS
 62
     7
100
AcDbLine
 10
446.447864
 20
136.279761
 30
0.0
 11
444.996273
 21
136.803386
 31
0.0
  0
LINE
  5
1E3
330
1D4
100
AcDbEntity
  8
GR1-1
  6
CONTINUOUS
 62
     7
100
AcDbLine
 10
443.665965
 20
137.283261
 30
0.0
 11
443.437721
 21
137.365595
 31
0.0
  0
LINE
  5
1E4
330
1D4
100
AcDbEntity
  8
GR1-1
  6
CONTINUOUS
 62
     7
100
AcDbLine
 10
446.568133
 20
136.023762
 30
0.0
 11
444.740275
 21
136.683117
 31
0.0
  0
LINE
  5
1E5
330
1D4
100
AcDbEntity
  8
GR1-1
  6
CONTINUOUS
 62
     7
100
AcDbLine
 10
443.409967
 20
137.162992
 30
0.0
 11
443.181722
 21
137.245326
 31
0.0
  0
LINE
  5
1E6
330
1D4
100
AcDbEntity
  8
GR1-1
  6
CONTINUOUS
 62
     7
100
AcDbLine
 10
446.688403
 20
135.767764
 30
0.0
 11
444.484276
 21
136.562847
 31
0.0
  0
LINE
  5
1E7
330
1D4
100
AcDbEntity
  8
GR1-1
  6
CONTINUOUS
 62
     7
100
AcDbLine
 10
443.153968
 20
137.042723
 30
0.0
 11
442.925723
 21
137.125056
 31
0.0
  0
LINE
  5
1E8
330
1D4
100
AcDbEntity
  8
GR1-1
  6
CONTINUOUS
 62
     7
100
AcDbLine
 10
446.808672
 20
135.511765
 30
0.0
 11
444.33821
 21
136.402922
 31
0.0
  0
LINE
  5
1E9
330
1D4
100
AcDbEntity
  8
GR1-1
  6
CONTINUOUS
 62
     7
100
AcDbLine
 10
442.897969
 20
136.922453
 30
0.0
 11
442.669725
 21
137.004787
 31
0.0
  0
LINE
  5
1EA
330
1D4
100
AcDbEntity
  8
GR1-1
  6
CONTINUOUS
 62
     7
100
AcDbLine
 10
446.928941
 20
135.255766
 30
0.0
 11
446.552673
 21
135.391496
 31
0.0
  0
LINE
  5
1EB
330
1D4
100
AcDbEntity
  8
GR1-1
  6
CONTINUOUS
 62
     7
100
AcDbLine
 10
442.938017
 20
136.695393
 30
0.0
 11
442.413726
 21
136.884518
 31
0.0
  0
LINE
  5
1EC
330
1D4
100
AcDbEntity
  8
GR1-1
  6
CONTINUOUS
 62
     7
100
AcDbLine
 10
447.049211
 20
134.999768
 30
0.0
 11
446.484809
 21
135.203362
 31
0.0
  0
LINE
  5
1ED
330
1D4
100
AcDbEntity
  8
GR1-1
  6
CONTINUOUS
 62
     7
100
AcDbLine
 10
443.058287
 20
136.439394
 30
0.0
 11
442.157727
 21
136.764248
 31
0.0
  0
LINE
  5
1EE
330
1D4
100
AcDbEntity
  8
GR1-1
  6
CONTINUOUS
 62
     7
100
AcDbLine
 10
447.16948
 20
134.743769
 30
0.0
 11
446.416944
 21
135.015228
 31
0.0
  0
LINE
  5
1EF
330
1D4
100
AcDbEntity
  8
GR1-1
  6
CONTINUOUS
 62
     7
100
AcDbLine
 10
443.178556
 20
136.183395
 30
0.0
 11
442.779463
 21
136.327358
 31
0.0
  0
LINE
  5
1F0
330
1D4
100
AcDbEntity
  8
GR1-1
  6
CONTINUOUS
 62
     7
100
AcDbLine
 10
442.654265
 20
136.37252
 30
0.0
 11
441.901729
 21
136.643979
 31
0.0
  0
LINE
  5
1F1
330
1D4
100
AcDbEntity
  8
GR1-1
  6
CONTINUOUS
 62
     7
100
AcDbLine
 10
447.289749
 20
134.48777
 30
0.0
 11
446.34908
 21
134.827094
 31
0.0
  0
LINE
  5
1F2
330
1D4
100
AcDbEntity
  8
GR1-1
  6
CONTINUOUS
 62
     7
100
AcDbLine
 10
443.298825
 20
135.927397
 30
0.0
 11
442.899733
 21
136.071359
 31
0.0
  0
LINE
  5
1F3
330
1D4
100
AcDbEntity
  8
GR1-1
  6
CONTINUOUS
 62
     7
100
AcDbLine
 10
442.5864
 20
136.184386
 30
0.0
 11
441.64573
 21
136.52371
 31
0.0
  0
LINE
  5
1F4
330
1D4
100
AcDbEntity
  8
GR1-1
  6
CONTINUOUS
 62
     7
100
AcDbLine
 10
447.410019
 20
134.231772
 30
0.0
 11
446.281215
 21
134.63896
 31
0.0
  0
LINE
  5
1F5
330
1D4
100
AcDbEntity
  8
GR1-1
  6
CONTINUOUS
 62
     7
100
AcDbLine
 10
443.419095
 20
135.671398
 30
0.0
 11
443.020002
 21
135.815361
 31
0.0
  0
LINE
  5
1F6
330
1D4
100
AcDbEntity
  8
GR1-1
  6
CONTINUOUS
 62
     7
100
AcDbLine
 10
442.518535
 20
135.996252
 30
0.0
 11
441.389732
 21
136.40344
 31
0.0
  0
LINE
  5
1F7
330
1D4
100
AcDbEntity
  8
GR1-1
  6
CONTINUOUS
 62
     7
100
AcDbLine
 10
447.530288
 20
133.975773
 30
0.0
 11
446.21335
 21
134.450826
 31
0.0
  0
LINE
  5
1F8
330
1D4
100
AcDbEntity
  8
GR1-1
  6
CONTINUOUS
 62
     7
100
AcDbLine
 10
445.27268
 20
134.790149
 30
0.0
 11
444.206538
 21
135.174733
 31
0.0
  0
LINE
  5
1F9
330
1D4
100
AcDbEntity
  8
GR1-1
  6
CONTINUOUS
 62
     7
100
AcDbLine
 10
443.539364
 20
135.4154
 30
0.0
 11
443.140271
 21
135.559362
 31
0.0
  0
LINE
  5
1FA
330
1D4
100
AcDbEntity
  8
GR1-1
  6
CONTINUOUS
 62
     7
100
AcDbLine
 10
442.450671
 20
135.808118
 30
0.0
 11
441.133733
 21
136.283171
 31
0.0
  0
LINE
  5
1FB
330
1D4
100
AcDbEntity
  8
GR1-1
  6
CONTINUOUS
 62
     7
100
AcDbLine
 10
447.650557
 20
133.719775
 30
0.0
 11
446.145486
 21
134.262692
 31
0.0
  0
LINE
  5
1FC
330
1D4
100
AcDbEntity
  8
GR1-1
  6
CONTINUOUS
 62
     7
100
AcDbLine
 10
445.204816
 20
134.602015
 30
0.0
 11
444.324787
 21
134.919463
 31
0.0
  0
LINE
  5
1FD
330
1D4
100
AcDbEntity
  8
GR1-1
  6
CONTINUOUS
 62
     7
100
AcDbLine
 10
443.659633
 20
135.159401
 30
0.0
 11
443.260541
 21
135.303364
 31
0.0
  0
LINE
  5
1FE
330
1D4
100
AcDbEntity
  8
GR1-1
  6
CONTINUOUS
 62
     7
100
AcDbLine
 10
442.382806
 20
135.619984
 30
0.0
 11
440.877734
 21
136.162902
 31
0.0
  0
LINE
  5
1FF
330
1D4
100
AcDbEntity
  8
GR1-1
  6
CONTINUOUS
 62
     7
100
AcDbLine
 10
447.770827
 20
133.463776
 30
0.0
 11
446.077621
 21
134.074558
 31
0.0
  0
LINE
  5
200
330
1D4
100
AcDbEntity
  8
GR1-1
  6
CONTINUOUS
 62
     7
100
AcDbLine
 10
445.136951
 20
134.413881
 30
0.0
 11
444.445057
 21
134.663465
 31
0.0
  0
LINE
  5
201
330
1D4
100
AcDbEntity
  8
GR1-1
  6
CONTINUOUS
 62
     7
100
AcDbLine
 10
443.779903
 20
134.903402
 30
0.0
 11
443.255611
 21
135.092527
 31
0.0
  0
LINE
  5
202
330
1D4
100
AcDbEntity
  8
GR1-1
  6
CONTINUOUS
 62
     7
100
AcDbLine
 10
442.314942
 20
135.43185
 30
0.0
 11
440.621736
 21
136.042632
 31
0.0
  0
LINE
  5
203
330
1D4
100
AcDbEntity
  8
GR1-1
  6
CONTINUOUS
 62
     7
100
AcDbLine
 10
447.891096
 20
133.207777
 30
0.0
 11
446.009756
 21
133.886424
 31
0.0
  0
LINE
  5
204
330
1D4
100
AcDbEntity
  8
GR1-1
  6
CONTINUOUS
 62
     7
100
AcDbLine
 10
445.069087
 20
134.225747
 30
0.0
 11
444.356661
 21
134.482737
 31
0.0
  0
LINE
  5
205
330
1D4
100
AcDbEntity
  8
GR1-1
  6
CONTINUOUS
 62
     7
100
AcDbLine
 10
443.900172
 20
134.647404
 30
0.0
 11
443.187747
 21
134.904393
 31
0.0
  0
LINE
  5
206
330
1D4
100
AcDbEntity
  8
GR1-1
  6
CONTINUOUS
 62
     7
100
AcDbLine
 10
442.247077
 20
135.243716
 30
0.0
 11
440.365737
 21
135.922363
 31
0.0
  0
LINE
  5
207
330
1D4
100
AcDbEntity
  8
GR1-1
  6
CONTINUOUS
 62
     7
100
AcDbLine
 10
448.011365
 20
132.951779
 30
0.0
 11
445.941892
 21
133.69829
 31
0.0
  0
LINE
  5
208
330
1D4
100
AcDbEntity
  8
GR1-1
  6
CONTINUOUS
 62
     7
100
AcDbLine
 10
445.001222
 20
134.037613
 30
0.0
 11
444.100663
 21
134.362467
 31
0.0
  0
LINE
  5
209
330
1D4
100
AcDbEntity
  8
GR1-1
  6
CONTINUOUS
 62
     7
100
AcDbLine
 10
444.020441
 20
134.391405
 30
0.0
 11
443.119882
 21
134.716259
 31
0.0
  0
LINE
  5
20A
330
1D4
100
AcDbEntity
  8
GR1-1
  6
CONTINUOUS
 62
     7
100
AcDbLine
 10
442.179212
 20
135.055583
 30
0.0
 11
440.109739
 21
135.802094
 31
0.0
  0
LINE
  5
20B
330
1D4
100
AcDbEntity
  8
GR1-1
  6
CONTINUOUS
 62
     7
100
AcDbLine
 10
447.835588
 20
132.802572
 30
0.0
 11
445.874027
 21
133.510156
 31
0.0
  0
LINE
  5
20C
330
1D4
100
AcDbEntity
  8
GR1-1
  6
CONTINUOUS
 62
     7
100
AcDbLine
 10
444.933357
 20
133.849479
 30
0.0
 11
443.052018
 21
134.528125
 31
0.0
  0
LINE
  5
20D
330
1D4
100
AcDbEntity
  8
GR1-1
  6
CONTINUOUS
 62
     7
100
AcDbLine
 10
442.111348
 20
134.867449
 30
0.0
 11
440.149786
 21
135.575033
 31
0.0
  0
LINE
  5
20E
330
1D4
100
AcDbEntity
  8
GR1-1
  6
CONTINUOUS
 62
     7
100
AcDbLine
 10
447.57959
 20
132.682302
 30
0.0
 11
445.806162
 21
133.322022
 31
0.0
  0
LINE
  5
20F
330
1D4
100
AcDbEntity
  8
GR1-1
  6
CONTINUOUS
 62
     7
100
AcDbLine
 10
444.865493
 20
133.661345
 30
0.0
 11
442.984153
 21
134.339991
 31
0.0
  0
LINE
  5
210
330
1D4
100
AcDbEntity
  8
GR1-1
  6
CONTINUOUS
 62
     7
100
AcDbLine
 10
442.043483
 20
134.679315
 30
0.0
 11
440.270056
 21
135.319034
 31
0.0
  0
LINE
  5
211
330
1D4
100
AcDbEntity
  8
GR1-1
  6
CONTINUOUS
 62
     7
100
AcDbLine
 10
447.323591
 20
132.562033
 30
0.0
 11
445.738298
 21
133.133888
 31
0.0
  0
LINE
  5
212
330
1D4
100
AcDbEntity
  8
GR1-1
  6
CONTINUOUS
 62
     7
100
AcDbLine
 10
444.797628
 20
133.473211
 30
0.0
 11
442.916288
 21
134.151857
 31
0.0
  0
LINE
  5
213
330
1D4
100
AcDbEntity
  8
GR1-1
  6
CONTINUOUS
 62
     7
100
AcDbLine
 10
441.975618
 20
134.491181
 30
0.0
 11
440.390325
 21
135.063036
 31
0.0
  0
LINE
  5
214
330
1D4
100
AcDbEntity
  8
GR1-1
  6
CONTINUOUS
 62
     7
100
AcDbLine
 10
447.067593
 20
132.441764
 30
0.0
 11
445.670433
 21
132.945754
 31
0.0
  0
LINE
  5
215
330
1D4
100
AcDbEntity
  8
GR1-1
  6
CONTINUOUS
 62
     7
100
AcDbLine
 10
444.729763
 20
133.285077
 30
0.0
 11
442.848424
 21
133.963723
 31
0.0
  0
LINE
  5
216
330
1D4
100
AcDbEntity
  8
GR1-1
  6
CONTINUOUS
 62
     7
100
AcDbLine
 10
441.907754
 20
134.303047
 30
0.0
 11
440.510594
 21
134.807037
 31
0.0
  0
LINE
  5
217
330
1D4
100
AcDbEntity
  8
GR1-1
  6
CONTINUOUS
 62
     7
100
AcDbLine
 10
446.811594
 20
132.321494
 30
0.0
 11
445.602569
 21
132.75762
 31
0.0
  0
LINE
  5
218
330
1D4
100
AcDbEntity
  8
GR1-1
  6
CONTINUOUS
 62
     7
100
AcDbLine
 10
444.661899
 20
133.096943
 30
0.0
 11
442.780559
 21
133.775589
 31
0.0
  0
LINE
  5
219
330
1D4
100
AcDbEntity
  8
GR1-1
  6
CONTINUOUS
 62
     7
100
AcDbLine
 10
441.839889
 20
134.114913
 30
0.0
 11
440.630864
 21
134.551038
 31
0.0
  0
LINE
  5
21A
330
1D4
100
AcDbEntity
  8
GR1-1
  6
CONTINUOUS
 62
     7
100
AcDbLine
 10
446.555595
 20
132.201225
 30
0.0
 11
445.534704
 21
132.569486
 31
0.0
  0
LINE
  5
21B
330
1D4
100
AcDbEntity
  8
GR1-1
  6
CONTINUOUS
 62
     7
100
AcDbLine
 10
441.772024
 20
133.926779
 30
0.0
 11
440.751133
 21
134.29504
 31
0.0
  0
LINE
  5
21C
330
1D4
100
AcDbEntity
  8
GR1-1
  6
CONTINUOUS
 62
     7
100
AcDbLine
 10
446.299597
 20
132.080956
 30
0.0
 11
445.466839
 21
132.381352
 31
0.0
  0
LINE
  5
21D
330
1D4
100
AcDbEntity
  8
GR1-1
  6
CONTINUOUS
 62
     7
100
AcDbLine
 10
441.70416
 20
133.738645
 30
0.0
 11
440.871402
 21
134.039041
 31
0.0
  0
LINE
  5
21E
330
1D4
100
AcDbEntity
  8
GR1-1
  6
CONTINUOUS
 62
     7
100
AcDbLine
 10
446.043598
 20
131.960686
 30
0.0
 11
445.398975
 21
132.193218
 31
0.0
  0
LINE
  5
21F
330
1D4
100
AcDbEntity
  8
GR1-1
  6
CONTINUOUS
 62
     7
100
AcDbLine
 10
441.636295
 20
133.550511
 30
0.0
 11
440.991672
 21
133.783043
 31
0.0
  0
LINE
  5
220
330
1D4
100
AcDbEntity
  8
GR1-1
  6
CONTINUOUS
 62
     7
100
AcDbLine
 10
445.7876
 20
131.840417
 30
0.0
 11
445.33111
 21
132.005084
 31
0.0
  0
LINE
  5
221
330
1D4
100
AcDbEntity
  8
GR1-1
  6
CONTINUOUS
 62
     7
100
AcDbLine
 10
441.568431
 20
133.362377
 30
0.0
 11
441.111941
 21
133.527044
 31
0.0
  0
LINE
  5
222
330
1D4
100
AcDbEntity
  8
GR1-1
  6
CONTINUOUS
 62
     7
100
AcDbLine
 10
445.531601
 20
131.720148
 30
0.0
 11
445.263245
 21
131.81695
 31
0.0
  0
LINE
  5
223
330
1D4
100
AcDbEntity
  8
GR1-1
  6
CONTINUOUS
 62
     7
100
AcDbLine
 10
441.500566
 20
133.174243
 30
0.0
 11
441.23221
 21
133.271045
 31
0.0
  0
LINE
  5
224
330
1D4
100
AcDbEntity
  8
GR1-1
  6
CONTINUOUS
 62
     7
100
AcDbLine
 10
445.275602
 20
131.599878
 30
0.0
 11
441.35248
 21
133.015047
 31
0.0
  0
LINE
  5
225
330
1D4
100
AcDbEntity
  8
GR1-1
  6
CONTINUOUS
 62
     7
100
AcDbLine
 10
445.019604
 20
131.479609
 30
0.0
 11
441.472749
 21
132.759048
 31
0.0
  0
LINE
  5
226
330
1D4
100
AcDbEntity
  8
GR1-1
  6
CONTINUOUS
 62
     7
100
AcDbLine
 10
444.763605
 20
131.35934
 30
0.0
 11
441.593018
 21
132.50305
 31
0.0
  0
LINE
  5
227
330
1D4
100
AcDbEntity
  8
GR1-1
  6
CONTINUOUS
 62
     7
100
AcDbLine
 10
444.507607
 20
131.23907
 30
0.0
 11
441.713288
 21
132.247051
 31
0.0
  0
LINE
  5
228
330
1D4
100
AcDbEntity
  8
GR1-1
  6
CONTINUOUS
 62
     7
100
AcDbLine
 10
444.251608
 20
131.118801
 30
0.0
 11
441.833557
 21
131.991052
 31
0.0
  0
LINE
  5
229
330
1D4
100
AcDbEntity
  8
GR1-1
  6
CONTINUOUS
 62
     7
100
AcDbLine
 10
443.995609
 20
130.998532
 30
0.0
 11
441.953826
 21
131.735054
 31
0.0
  0
LINE
  5
22A
330
1D4
100
AcDbEntity
  8
GR1-1
  6
CONTINUOUS
 62
     7
100
AcDbLine
 10
443.739611
 20
130.878262
 30
0.0
 11
442.074096
 21
131.479055
 31
0.0
  0
LINE
  5
22B
330
1D4
100
AcDbEntity
  8
GR1-1
  6
CONTINUOUS
 62
     7
100
AcDbLine
 10
443.483612
 20
130.757993
 30
0.0
 11
442.194365
 21
131.223057
 31
0.0
  0
LINE
  5
22C
330
1D4
100
AcDbEntity
  8
GR1-1
  6
CONTINUOUS
 62
     7
100
AcDbLine
 10
443.227613
 20
130.637723
 30
0.0
 11
442.314634
 21
130.967058
 31
0.0
  0
LINE
  5
22D
330
1D4
100
AcDbEntity
  8
GR1-1
  6
CONTINUOUS
 62
     7
100
AcDbLine
 10
442.971615
 20
130.517454
 30
0.0
 11
442.434904
 21
130.711059
 31
0.0
  0
LINE
  5
22E
330
1D4
100
AcDbEntity
  8
GR1-1
  6
CONTINUOUS
 62
     7
100
AcDbLine
 10
442.715616
 20
130.397185
 30
0.0
 11
442.555173
 21
130.455061
 31
0.0
  0
ENDBLK
  5
1D6
330
1D4
100
AcDbEntity
  8
0
100
AcDbBlockEnd
  0
BLOCK
  5
266
330
265
100
AcDbEntity
  8
0
100
AcDbBlockBegin
  2
*D30
 70
     1
 71
     0
 10
0.0
 20
0.0
 30
0.0
  3
*D30
  1

  0
TEXT
  5
268
330
265
100
AcDbEntity
  8
LAYERGROUP-1
  6
CONTINUOUS
 62
     7
100
AcDbText
 10
331.509369
 20
166.606293
 30
0.0
 40
4.0
  1
%%c200
 50
90.0
 41
0.828947
  7
FX_VECTOR
 72
     5
 11
331.509369
 21
178.606293
 31
0.0
100
AcDbText
  0
LINE
  5
269
330
265
100
AcDbEntity
  8
LAYERGROUP-1
  6
CONTINUOUS
 62
     7
100
AcDbLine
 10
332.50937
 20
72.606294
 30
0.0
 11
332.50937
 21
272.606294
 31
0.0
  0
INSERT
  5
26A
330
265
100
AcDbEntity
  8
LAYERGROUP-1
  6
CONTINUOUS
 62
     7
100
AcDbBlockReference
  2
FXTIP_ARROW_S
 10
332.50937
 20
72.606294
 30
0.0
 41
4.0
 42
4.0
 50
270.0
  0
INSERT
  5
26B
330
265
100
AcDbEntity
  8
LAYERGROUP-1
  6
CONTINUOUS
 62
     7
100
AcDbBlockReference
  2
FXTIP_ARROW_E
 10
332.50937
 20
272.606294
 30
0.0
 41
4.0
 42
4.0
 50
90.0
  0
LINE
  5
26C
330
265
100
AcDbEntity
  8
LAYERGROUP-1
  6
CONTINUOUS
 62
     7
100
AcDbLine
 10
251.70964
 20
72.606294
 30
0.0
 11
333.50937
 21
72.606294
 31
0.0
  0
LINE
  5
26D
330
265
100
AcDbEntity
  8
LAYERGROUP-1
  6
CONTINUOUS
 62
     7
100
AcDbLine
 10
251.70964
 20
272.606294
 30
0.0
 11
333.50937
 21
272.606294
 31
0.0
  0
ENDBLK
  5
267
330
265
100
AcDbEntity
  8
0
100
AcDbBlockEnd
  0
BLOCK
  5
270
330
26F
100
AcDbEntity
  8
0
100
AcDbBlockBegin
  2
BLKF033
 70
     0
 71
     0
 10
0.0
 20
0.0
 30
0.0
  3
BLKF033
  1

  0
LINE
  5
273
330
26F
100
AcDbEntity
  8
}}ﾊﾊGG血CCТ
  6
CONTINUOUS
 62
     7
100
AcDbLine
 10
20.0
 20
20.0
 30
0.0
 11
821.0
 21
20.0
 31
0.0
  0
LINE
  5
274
330
26F
100
AcDbEntity
  8
}}ﾊﾊGG血CCТ
  6
CONTINUOUS
 62
     7
100
AcDbLine
 10
20.0
 20
20.0
 30
0.0
 11
20.0
 21
574.0
 31
0.0
  0
LINE
  5
275
330
26F
100
AcDbEntity
  8
}}ﾊﾊGG血CCТ
  6
CONTINUOUS
 62
     7
100
AcDbLine
 10
20.0
 20
574.0
 30
0.0
 11
821.0
 21
574.0
 31
0.0
  0
LINE
  5
276
330
26F
100
AcDbEntity
  8
}}ﾊﾊGG血CCТ
  6
CONTINUOUS
 62
     7
100
AcDbLine
 10
821.0
 20
574.0
 30
0.0
 11
821.0
 21
20.0
 31
0.0
  0
LINE
  5
277
330
26F
100
AcDbEntity
  8
}}ﾊﾊGG血CCТ
  6
CONTINUOUS
 62
     7
100
AcDbLine
 10
564.0
 20
20.0
 30
0.0
 11
564.0
 21
30.0
 31
0.0
  0
TEXT
  5
278
330
26F
100
AcDbEntity
  8
}}ﾊﾊGG血CCТ
  6
CONTINUOUS
 62
     7
100
AcDbText
 10
548.738831
 20
21.596878
 30
0.0
 40
6.648749
  1
品名
 41
1.083413
  7
FX_VECTOR
 72
     5
 11
560.058371
 21
21.596878
 31
0.0
100
AcDbText
  0
LINE
  5
279
330
26F
100
AcDbEntity
  8
}}ﾊﾊGG血CCТ
  6
CONTINUOUS
 62
     7
100
AcDbLine
 10
644.0
 20
30.0
 30
0.0
 11
644.0
 21
20.0
 31
0.0
  0
LINE
  5
27A
330
26F
100
AcDbEntity
  8
}}ﾊﾊGG血CCТ
  6
CONTINUOUS
 62
     7
100
AcDbLine
 10
544.0
 20
30.0
 30
0.0
 11
821.0
 21
30.0
 31
0.0
  0
INSERT
  5
27E
330
26F
100
AcDbEntity
  8
0
100
AcDbBlockReference
  2
BLKF034
 10
0.0
 20
0.0
 30
0.0
  0
INSERT
  5
287
330
26F
100
AcDbEntity
  8
0
100
AcDbBlockReference
  2
BLKF035
 10
0.0
 20
0.0
 30
0.0
  0
HATCH
  5
297
330
26F
100
AcDbEntity
  8
GR1-1
  6
CONTINUOUS
 62
     7
100
AcDbHatch
 10
0.0
 20
0.0
 30
0.0
210
0.0
220
0.0
230
1.0
  2

 70
     0
 71
     1
 91
        2
 92
        0
 93
        4
 72
     1
 10
749.8018997861325
 20
27.91346152
 11
755.8018997861325
 21
27.91346152
 72
     1
 10
755.8018997861325
 20
27.91346152
 11
755.8018997861325
 21
21.91346152
 72
     1
 10
755.8018997861325
 20
21.91346152
 11
749.8018997861325
 21
21.91346152
 72
     1
 10
749.8018997861325
 20
21.91346152
 11
749.8018997861325
 21
27.91346152
 97
        0
 92
        0
 93
       15
 72
     1
 10
752.8018997861325
 20
27.76923076000002
 11
749.9461305461325
 21
24.91346152
 72
     1
 10
749.9461305461325
 20
24.91346152
 11
752.8018997861325
 21
22.05769228000001
 72
     1
 10
752.8018997861325
 20
22.05769228000001
 11
754.3595920661326
 21
23.61538462
 72
     1
 10
754.3595920661326
 20
23.61538462
 11
754.3595920661326
 21
22.98076924
 72
     1
 10
754.3595920661326
 20
22.98076924
 11
755.2249766861326
 21
22.98076924
 72
     1
 10
755.2249766861326
 20
22.98076924
 11
755.2249766861326
 21
25.00000000000001
 72
     1
 10
755.2249766861326
 20
25.00000000000001
 11
752.8018997861325
 21
25.00000000000001
 72
     1
 10
752.8018997861325
 20
25.00000000000001
 11
752.8018997861325
 21
24.13461538000001
 72
     1
 10
752.8018997861325
 20
24.13461538000001
 11
753.2461305461325
 21
24.13461538000001
 72
     1
 10
753.2461305461325
 20
24.13461538000001
 11
752.8018997861325
 21
23.69038462
 72
     1
 10
752.8018997861325
 20
23.69038462
 11
751.5788228861325
 21
24.91346152
 72
     1
 10
751.5788228861325
 20
24.91346152
 11
752.8018997861325
 21
26.13653842000003
 72
     1
 10
752.8018997861325
 20
26.13653842000003
 11
753.5922844061325
 21
25.3461538
 72
     1
 10
753.5922844061325
 20
25.3461538
 11
755.2249766861326
 21
25.3461538
 72
     1
 10
755.2249766861326
 20
25.3461538
 11
752.8018997861325
 21
27.76923076000002
 97
        0
 75
     0
 76
     0
 52
45.0
 41
0.05
 77
     0
 78
     1
 53
45.0
 43
0.0
 44
0.0
 45
-0.0353553390593274
 46
0.0353553390593274
 79
     0
 98
        0
  0
TEXT
  5
298
330
26F
100
AcDbEntity
  8
}}ﾊﾊGG血CCТ
  6
CONTINUOUS
 62
     7
100
AcDbText
 10
760.225769
 20
21.461285
 30
0.0
 40
6.0
  1
GOLD CASTER
 41
0.719626
  7
FX_VECTOR
 72
     5
 11
804.225769
 21
21.461285
 31
0.0
100
AcDbText
  0
LINE
  5
299
330
26F
100
AcDbEntity
  8
}}ﾊﾊGG血CCТ
  6
CONTINUOUS
 62
     7
100
AcDbLine
 10
664.0
 20
20.0
 30
0.0
 11
664.0
 21
30.0
 31
0.0
  0
TEXT
  5
29A
330
26F
100
AcDbEntity
  8
}}ﾊﾊGG血CCТ
  6
CONTINUOUS
 62
     7
100
AcDbText
 10
648.738831
 20
21.596878
 30
0.0
 40
6.648749
  1
図番
 41
1.083413
  7
FX_VECTOR
 72
     5
 11
660.058371
 21
21.596878
 31
0.0
100
AcDbText
  0
LINE
  5
29B
330
26F
100
AcDbEntity
  8
}}ﾊﾊGG血CCТ
  6
CONTINUOUS
 62
     7
100
AcDbLine
 10
744.0
 20
30.0
 30
0.0
 11
744.0
 21
20.0
 31
0.0
  0
LINE
  5
29C
330
26F
100
AcDbEntity
  8
}}ﾊﾊGG血CCТ
  6
CONTINUOUS
 62
     7
100
AcDbLine
 10
544.0
 20
30.0
 30
0.0
 11
544.0
 21
20.0
 31
0.0
  0
ENDBLK
  5
271
330
26F
100
AcDbEntity
  8
0
100
AcDbBlockEnd
  0
BLOCK
  5
27C
330
27B
100
AcDbEntity
  8
0
100
AcDbBlockBegin
  2
BLKF034
 70
     0
 71
     0
 10
0.0
 20
0.0
 30
0.0
  3
BLKF034
  1

  0
LINE
  5
280
330
27B
100
AcDbEntity
  8
0-1
  6
CONTINUOUS
 62
     7
100
AcDbLine
 10
755.8019
 20
27.913462
 30
0.0
 11
749.8019
 21
27.913462
 31
0.0
  0
LINE
  5
281
330
27B
100
AcDbEntity
  8
0-1
  6
CONTINUOUS
 62
     7
100
AcDbLine
 10
749.8019
 20
27.913462
 30
0.0
 11
749.8019
 21
21.913462
 31
0.0
  0
LINE
  5
282
330
27B
100
AcDbEntity
  8
0-1
  6
CONTINUOUS
 62
     7
100
AcDbLine
 10
749.8019
 20
21.913462
 30
0.0
 11
755.8019
 21
21.913462
 31
0.0
  0
LINE
  5
283
330
27B
100
AcDbEntity
  8
0-1
  6
CONTINUOUS
 62
     7
100
AcDbLine
 10
755.8019
 20
21.913462
 30
0.0
 11
755.8019
 21
27.913462
 31
0.0
  0
ENDBLK
  5
27D
330
27B
100
AcDbEntity
  8
0
100
AcDbBlockEnd
  0
BLOCK
  5
285
330
284
100
AcDbEntity
  8
0
100
AcDbBlockBegin
  2
BLKF035
 70
     0
 71
     0
 10
0.0
 20
0.0
 30
0.0
  3
BLKF035
  1

  0
LINE
  5
288
330
284
100
AcDbEntity
  8
0-1
  6
CONTINUOUS
 62
     7
100
AcDbLine
 10
755.224977
 20
25.346154
 30
0.0
 11
752.8019
 21
27.769231
 31
0.0
  0
LINE
  5
289
330
284
100
AcDbEntity
  8
0-1
  6
CONTINUOUS
 62
     7
100
AcDbLine
 10
752.8019
 20
27.769231
 30
0.0
 11
749.946131
 21
24.913462
 31
0.0
  0
LINE
  5
28A
330
284
100
AcDbEntity
  8
0-1
  6
CONTINUOUS
 62
     7
100
AcDbLine
 10
749.946131
 20
24.913462
 30
0.0
 11
752.8019
 21
22.057692
 31
0.0
  0
LINE
  5
28B
330
284
100
AcDbEntity
  8
0-1
  6
CONTINUOUS
 62
     7
100
AcDbLine
 10
752.8019
 20
22.057692
 30
0.0
 11
754.359592
 21
23.615385
 31
0.0
  0
LINE
  5
28C
330
284
100
AcDbEntity
  8
0-1
  6
CONTINUOUS
 62
     7
100
AcDbLine
 10
754.359592
 20
23.615385
 30
0.0
 11
754.359592
 21
22.980769
 31
0.0
  0
LINE
  5
28D
330
284
100
AcDbEntity
  8
0-1
  6
CONTINUOUS
 62
     7
100
AcDbLine
 10
754.359592
 20
22.980769
 30
0.0
 11
755.224977
 21
22.980769
 31
0.0
  0
LINE
  5
28E
330
284
100
AcDbEntity
  8
0-1
  6
CONTINUOUS
 62
     7
100
AcDbLine
 10
755.224977
 20
22.980769
 30
0.0
 11
755.224977
 21
25.0
 31
0.0
  0
LINE
  5
28F
330
284
100
AcDbEntity
  8
0-1
  6
CONTINUOUS
 62
     7
100
AcDbLine
 10
755.224977
 20
25.0
 30
0.0
 11
752.8019
 21
25.0
 31
0.0
  0
LINE
  5
290
330
284
100
AcDbEntity
  8
0-1
  6
CONTINUOUS
 62
     7
100
AcDbLine
 10
752.8019
 20
25.0
 30
0.0
 11
752.8019
 21
24.134615
 31
0.0
  0
LINE
  5
291
330
284
100
AcDbEntity
  8
0-1
  6
CONTINUOUS
 62
     7
100
AcDbLine
 10
752.8019
 20
24.134615
 30
0.0
 11
753.246131
 21
24.134615
 31
0.0
  0
LINE
  5
292
330
284
100
AcDbEntity
  8
0-1
  6
CONTINUOUS
 62
     7
100
AcDbLine
 10
753.246131
 20
24.134615
 30
0.0
 11
752.8019
 21
23.690385
 31
0.0
  0
LINE
  5
293
330
284
100
AcDbEntity
  8
0-1
  6
CONTINUOUS
 62
     7
100
AcDbLine
 10
752.8019
 20
23.690385
 30
0.0
 11
751.578823
 21
24.913462
 31
0.0
  0
LINE
  5
294
330
284
100
AcDbEntity
  8
0-1
  6
CONTINUOUS
 62
     7
100
AcDbLine
 10
751.578823
 20
24.913462
 30
0.0
 11
752.8019
 21
26.136538
 31
0.0
  0
LINE
  5
295
330
284
100
AcDbEntity
  8
0-1
  6
CONTINUOUS
 62
     7
100
AcDbLine
 10
752.8019
 20
26.136538
 30
0.0
 11
753.592284
 21
25.346154
 31
0.0
  0
LINE
  5
296
330
284
100
AcDbEntity
  8
0-1
  6
CONTINUOUS
 62
     7
100
AcDbLine
 10
753.592284
 20
25.346154
 30
0.0
 11
755.224977
 21
25.346154
 31
0.0
  0
ENDBLK
  5
286
330
284
100
AcDbEntity
  8
0
100
AcDbBlockEnd
  0
ENDSEC
  0
SECTION
  2
ENTITIES
  0
TEXT
  5
A8
330
1F
100
AcDbEntity
  8
}}ﾊﾊGG血CCТ
  6
CONTINUOUS
 62
     7
100
AcDbText
 10
566.296143
 20
22.0
 30
0.0
 40
6.0
  1
ＨＪ－２００　ＲＢ
 41
0.792453
  7
FX_VECTOR
 72
     5
 11
602.296143
 21
22.0
 31
0.0
100
AcDbText
  0
LINE
  5
A9
330
1F
100
AcDbEntity
  8
LAYERGROUP-1
  6
CONTINUOUS
 62
     3
100
AcDbLine
 10
500.504341
 20
418.568777
 30
0.0
 11
500.504341
 21
424.568777
 31
0.0
  0
ARC
  5
AA
330
1F
100
AcDbEntity
  8
LAYERGROUP-1
  6
CONTINUOUS
 62
     3
100
AcDbCircle
 10
510.004341
 20
281.786294
 30
0.0
 40
8.5
100
AcDbArc
 50
90.0
 51
180.0
  0
LINE
  5
AB
330
1F
100
AcDbEntity
  8
LAYERGROUP-1
  6
CONTINUOUS
 62
     3
100
AcDbLine
 10
510.004341
 20
290.286294
 30
0.0
 11
531.793238
 21
290.286294
 31
0.0
  0
ARC
  5
AC
330
1F
100
AcDbEntity
  8
LAYERGROUP-1
  6
CONTINUOUS
 62
     3
100
AcDbCircle
 10
515.876155
 20
427.568777
 30
0.0
 40
9.0
100
AcDbArc
 50
198.770738
 51
254.720088
  0
LINE
  5
AD
330
1F
100
AcDbEntity
  8
LAYERGROUP-1
  6
CONTINUOUS
 62
     3
100
AcDbLine
 10
636.504341
 20
285.786294
 30
0.0
 11
636.504341
 21
276.286294
 31
0.0
  0
LINE
  5
AE
330
1F
100
AcDbEntity
  8
LAYERGROUP-1
  6
CONTINUOUS
 62
     3
100
AcDbLine
 10
501.504341
 20
275.286294
 30
0.0
 11
508.33777
 21
275.286294
 31
0.0
  0
ARC
  5
AF
330
1F
100
AcDbEntity
  8
LAYERGROUP-1
  6
CONTINUOUS
 62
     3
100
AcDbCircle
 10
628.004341
 20
285.786294
 30
0.0
 40
8.5
100
AcDbArc
 50
0.0
 51
90.0
  0
ARC
  5
B0
330
1F
100
AcDbEntity
  8
LAYERGROUP-1
  6
CONTINUOUS
 62
     3
100
AcDbCircle
 10
539.004341
 20
285.786294
 30
0.0
 40
8.5
100
AcDbArc
 50
90.0
 51
148.034281
  0
ARC
  5
B1
330
1F
100
AcDbEntity
  8
LAYERGROUP-1
  6
CONTINUOUS
 62
     3
100
AcDbCircle
 10
525.504341
 20
170.106294
 30
0.0
 40
25.0
100
AcDbArc
 50
171.970142
 51
270.0
  0
LINE
  5
B2
330
1F
100
AcDbEntity
  8
LAYERGROUP-1
  6
CENTER
 62
     6
100
AcDbLine
 10
583.504341
 20
153.918033
 30
0.0
 11
583.504341
 21
324.505963
 31
0.0
  0
LINE
  5
B3
330
1F
100
AcDbEntity
  8
LAYERGROUP-1
  6
CONTINUOUS
 62
     3
100
AcDbLine
 10
501.504341
 20
281.786294
 30
0.0
 11
501.504341
 21
275.286294
 31
0.0
  0
LINE
  5
B4
330
1F
100
AcDbEntity
  8
LAYERGROUP-1
  6
CONTINUOUS
 62
     3
100
AcDbLine
 10
534.032082
 20
145.106294
 30
0.0
 11
525.504341
 21
145.106294
 31
0.0
  0
LINE
  5
B5
330
1F
100
AcDbEntity
  8
LAYERGROUP-1
  6
CENTER
 62
     6
100
AcDbLine
 10
629.692179
 20
172.606294
 30
0.0
 11
421.335081
 21
172.606294
 31
0.0
  0
LINE
  5
B6
330
1F
100
AcDbEntity
  8
LAYERGROUP-1
  6
CENTER
 62
     6
100
AcDbLine
 10
525.504341
 20
68.648403
 30
0.0
 11
525.504341
 21
200.817876
 31
0.0
  0
LINE
  5
B7
330
1F
100
AcDbEntity
  8
LAYERGROUP-1
  6
CONTINUOUS
 62
     3
100
AcDbLine
 10
507.354831
 20
424.568777
 30
0.0
 11
500.504341
 21
424.568777
 31
0.0
  0
LINE
  5
B8
330
1F
100
AcDbEntity
  8
LAYERGROUP-1
  6
CONTINUOUS
 62
     3
100
AcDbLine
 10
283.70964
 20
290.286294
 30
0.0
 11
217.70964
 21
290.286294
 31
0.0
  0
LINE
  5
B9
330
1F
100
AcDbEntity
  8
LAYERGROUP-1
  6
CONTINUOUS
 62
     3
100
AcDbLine
 10
298.20964
 20
294.286294
 30
0.0
 11
203.20964
 21
294.286294
 31
0.0
  0
LINE
  5
BA
330
1F
100
AcDbEntity
  8
LAYERGROUP-1
  6
CONTINUOUS
 62
     3
100
AcDbLine
 10
215.20964
 20
275.286294
 30
0.0
 11
215.20964
 21
145.106294
 31
0.0
  0
LINE
  5
BB
330
1F
100
AcDbEntity
  8
LAYERGROUP-1
  6
CONTINUOUS
 62
     3
100
AcDbLine
 10
286.20964
 20
275.286294
 30
0.0
 11
286.20964
 21
145.106294
 31
0.0
  0
LINE
  5
BC
330
1F
100
AcDbEntity
  8
LAYERGROUP-1
  6
CONTINUOUS
 62
     3
100
AcDbLine
 10
197.70964
 20
285.786294
 30
0.0
 11
197.70964
 21
186.006294
 31
0.0
  0
LINE
  5
BD
330
1F
100
AcDbEntity
  8
LAYERGROUP-1
  6
CONTINUOUS
 62
     3
100
AcDbLine
 10
303.70964
 20
285.786294
 30
0.0
 11
303.70964
 21
168.83276
 31
0.0
  0
LINE
  5
BE
330
1F
100
AcDbEntity
  8
LAYERGROUP-1
  6
CONTINUOUS
 62
     3
100
AcDbLine
 10
289.20964
 20
275.286294
 30
0.0
 11
212.20964
 21
275.286294
 31
0.0
  0
LINE
  5
BF
330
1F
100
AcDbEntity
  8
LAYERGROUP-1
  6
CONTINUOUS
 62
     3
100
AcDbLine
 10
292.20964
 20
145.106294
 30
0.0
 11
286.20964
 21
145.106294
 31
0.0
  0
LINE
  5
C0
330
1F
100
AcDbEntity
  8
LAYERGROUP-1
  6
CONTINUOUS
 62
     3
100
AcDbLine
 10
292.20964
 20
281.786294
 30
0.0
 11
292.20964
 21
145.106294
 31
0.0
  0
LINE
  5
C1
330
1F
100
AcDbEntity
  8
LAYERGROUP-1
  6
CONTINUOUS
 62
     3
100
AcDbLine
 10
209.20964
 20
281.786294
 30
0.0
 11
209.20964
 21
145.106294
 31
0.0
  0
LINE
  5
C2
330
1F
100
AcDbEntity
  8
LAYERGROUP-1
  6
CONTINUOUS
 62
     3
100
AcDbLine
 10
215.20964
 20
145.106294
 30
0.0
 11
209.20964
 21
145.106294
 31
0.0
  0
ARC
  5
C3
330
1F
100
AcDbEntity
  8
LAYERGROUP-1
  6
CONTINUOUS
 62
     3
100
AcDbCircle
 10
206.20964
 20
285.786294
 30
0.0
 40
8.5
100
AcDbArc
 50
90.0
 51
180.0
  0
ARC
  5
C4
330
1F
100
AcDbEntity
  8
LAYERGROUP-1
  6
CONTINUOUS
 62
     3
100
AcDbCircle
 10
295.20964
 20
285.786294
 30
0.0
 40
8.5
100
AcDbArc
 50
0.0
 51
90.0
  0
ARC
  5
C5
330
1F
100
AcDbEntity
  8
LAYERGROUP-1
  6
CONTINUOUS
 62
     3
100
AcDbCircle
 10
217.70964
 20
281.786294
 30
0.0
 40
8.5
100
AcDbArc
 50
90.0
 51
180.0
  0
ARC
  5
C6
330
1F
100
AcDbEntity
  8
LAYERGROUP-1
  6
CONTINUOUS
 62
     3
100
AcDbCircle
 10
283.70964
 20
281.786294
 30
0.0
 40
8.5
100
AcDbArc
 50
0.0
 51
90.0
  0
ARC
  5
C7
330
1F
100
AcDbEntity
  8
LAYERGROUP-1
  6
CONTINUOUS
 62
     3
100
AcDbCircle
 10
289.20964
 20
272.286294
 30
0.0
 40
3.0
100
AcDbArc
 50
0.0
 51
90.0
  0
ARC
  5
C8
330
1F
100
AcDbEntity
  8
LAYERGROUP-1
  6
CONTINUOUS
 62
     3
100
AcDbCircle
 10
212.20964
 20
272.286294
 30
0.0
 40
3.0
100
AcDbArc
 50
90.0
 51
180.0
  0
ARC
  5
C9
330
1F
100
AcDbEntity
  8
LAYERGROUP-1
  6
CONTINUOUS
 62
     3
100
AcDbCircle
 10
232.167183
 20
197.973139
 30
0.0
 40
80.0
100
AcDbArc
 50
318.636371
 51
326.186064
  0
ARC
  5
CA
330
1F
100
AcDbEntity
  8
LAYERGROUP-1
  6
CONTINUOUS
 62
     3
100
AcDbCircle
 10
273.70964
 20
170.148254
 30
0.0
 40
30.0
100
AcDbArc
 50
326.186064
 51
357.486787
  0
ARC
  5
CB
330
1F
100
AcDbEntity
  8
LAYERGROUP-1
  6
CONTINUOUS
 62
     3
100
AcDbCircle
 10
269.252096
 20
197.973139
 30
0.0
 40
80.0
100
AcDbArc
 50
213.813936
 51
221.363629
  0
ARC
  5
CC
330
1F
100
AcDbEntity
  8
LAYERGROUP-1
  6
CONTINUOUS
 62
     3
100
AcDbCircle
 10
227.70964
 20
170.148254
 30
0.0
 40
30.0
100
AcDbArc
 50
201.39109
 51
213.813936
  0
LINE
  5
CD
330
1F
100
AcDbEntity
  8
LAYERGROUP-1
  6
CENTER
 62
     6
100
AcDbLine
 10
250.70964
 20
327.655964
 30
0.0
 11
250.70964
 21
69.857711
 31
0.0
  0
ARC
  5
CE
330
1F
100
AcDbEntity
  8
LAYERGROUP-1
  6
CONTINUOUS
 62
     3
100
AcDbCircle
 10
520.700327
 20
241.981269
 30
0.0
 40
100.0
100
AcDbArc
 50
296.384435
 51
352.0
  0
ARC
  5
CF
330
1F
100
AcDbEntity
  8
LAYERGROUP-1
  6
CONTINUOUS
 62
     3
100
AcDbCircle
 10
644.100716
 20
257.785075
 30
0.0
 40
20.0
100
AcDbArc
 50
112.322455
 51
172.0
  0
LINE
  5
D0
330
1F
100
AcDbEntity
  8
LAYERGROUP-1
  6
CONTINUOUS
 62
     3
100
AcDbLine
 10
624.295354
 20
260.568537
 30
0.0
 11
619.727134
 21
228.063959
 31
0.0
  0
ARC
  5
D1
330
1F
100
AcDbEntity
  8
LAYERGROUP-1
  6
CONTINUOUS
 62
     3
100
AcDbCircle
 10
534.032082
 20
215.106294
 30
0.0
 40
70.0
100
AcDbArc
 50
270.0
 51
296.384435
  0
ARC
  5
D2
330
1F
100
AcDbEntity
  8
LAYERGROUP-1
  6
CONTINUOUS
 62
     3
100
AcDbCircle
 10
508.33777
 20
268.286294
 30
0.0
 40
7.0
100
AcDbArc
 50
-8.809322
 51
90.0
  0
LINE
  5
D3
330
1F
100
AcDbEntity
  8
LAYERGROUP-1
  6
CONTINUOUS
 62
     3
100
AcDbLine
 10
515.255194
 20
267.214267
 30
0.0
 11
500.799254
 21
173.934959
 31
0.0
  0
ARC
  5
D4
330
1F
100
AcDbEntity
  8
LAYERGROUP-1
  6
CONTINUOUS
 62
     3
100
AcDbCircle
 10
631.004341
 20
299.986294
 30
0.0
 40
5.7
100
AcDbArc
 50
270.0
 51
360.0
  0
LINE
  5
D5
330
1F
100
AcDbEntity
  8
LAYERGROUP-1
  6
CONTINUOUS
 62
     3
100
AcDbLine
 10
636.704341
 20
299.986294
 30
0.0
 11
636.704341
 21
303.856294
 31
0.0
  0
ARC
  5
D6
330
1F
100
AcDbEntity
  8
LAYERGROUP-1
  6
CONTINUOUS
 62
     3
100
AcDbCircle
 10
637.504341
 20
307.606294
 30
0.0
 40
3.0
100
AcDbArc
 50
0.0
 51
90.0
  0
LINE
  5
D7
330
1F
100
AcDbEntity
  8
LAYERGROUP-1
  6
CONTINUOUS
 62
     3
100
AcDbLine
 10
640.504341
 20
303.856294
 30
0.0
 11
640.504341
 21
307.606294
 31
0.0
  0
LINE
  5
D8
330
1F
100
AcDbEntity
  8
LAYERGROUP-1
  6
CONTINUOUS
 62
     3
100
AcDbLine
 10
653.504341
 20
316.606294
 30
0.0
 11
653.504341
 21
322.606294
 31
0.0
  0
LINE
  5
D9
330
1F
100
AcDbEntity
  8
LAYERGROUP-1
  6
CONTINUOUS
 62
     3
100
AcDbLine
 10
653.504341
 20
322.606294
 30
0.0
 11
513.504341
 21
322.606294
 31
0.0
  0
ARC
  5
DA
330
1F
100
AcDbEntity
  8
LAYERGROUP-1
  6
CONTINUOUS
 62
     3
100
AcDbCircle
 10
630.33919
 20
320.606294
 30
0.0
 40
10.0
100
AcDbArc
 50
270.0
 51
332.964308
  0
ARC
  5
DB
330
1F
100
AcDbEntity
  8
LAYERGROUP-1
  6
CONTINUOUS
 62
     3
100
AcDbCircle
 10
640.137149
 20
315.606294
 30
0.0
 40
1.0
100
AcDbArc
 50
90.0
 51
152.964308
  0
LINE
  5
DC
330
1F
100
AcDbEntity
  8
LAYERGROUP-1
  6
CENTER
 62
     6
100
AcDbLine
 10
583.504341
 20
385.998217
 30
0.0
 11
583.504341
 21
534.614145
 31
0.0
  0
LINE
  5
DD
330
1F
100
AcDbEntity
  8
LAYERGROUP-1
  6
CONTINUOUS
 62
     3
100
AcDbLine
 10
527.504341
 20
390.068777
 30
0.0
 11
639.504341
 21
390.068777
 31
0.0
  0
LINE
  5
DE
330
1F
100
AcDbEntity
  8
LAYERGROUP-1
  6
CENTER
 62
     6
100
AcDbLine
 10
421.674717
 20
460.068777
 30
0.0
 11
657.683255
 21
460.068777
 31
0.0
  0
LINE
  5
DF
330
1F
100
AcDbEntity
  8
LAYERGROUP-1
  6
CONTINUOUS
 62
     3
100
AcDbLine
 10
513.504341
 20
404.068777
 30
0.0
 11
513.504341
 21
516.068777
 31
0.0
  0
LINE
  5
E0
330
1F
100
AcDbEntity
  8
LAYERGROUP-1
  6
CONTINUOUS
 62
     3
100
AcDbLine
 10
653.504341
 20
404.068777
 30
0.0
 11
653.504341
 21
516.068777
 31
0.0
  0
LINE
  5
E1
330
1F
100
AcDbEntity
  8
LAYERGROUP-1
  6
CENTER
 62
     6
100
AcDbLine
 10
639.504341
 20
393.068777
 30
0.0
 11
639.504341
 21
415.068777
 31
0.0
  0
LINE
  5
E2
330
1F
100
AcDbEntity
  8
LAYERGROUP-1
  6
CENTER
 62
     6
100
AcDbLine
 10
527.504341
 20
393.068777
 30
0.0
 11
527.504341
 21
415.068777
 31
0.0
  0
LINE
  5
E3
330
1F
100
AcDbEntity
  8
LAYERGROUP-1
  6
CENTER
 62
     6
100
AcDbLine
 10
516.504341
 20
404.068777
 30
0.0
 11
538.504341
 21
404.068777
 31
0.0
  0
CIRCLE
  5
E4
330
1F
100
AcDbEntity
  8
LAYERGROUP-1
  6
CONTINUOUS
 62
     3
100
AcDbCircle
 10
527.504341
 20
404.068777
 30
0.0
 40
7.0
  0
CIRCLE
  5
E5
330
1F
100
AcDbEntity
  8
LAYERGROUP-1
  6
CONTINUOUS
 62
     3
100
AcDbCircle
 10
639.504341
 20
404.068777
 30
0.0
 40
7.0
  0
LINE
  5
E6
330
1F
100
AcDbEntity
  8
LAYERGROUP-1
  6
CENTER
 62
     6
100
AcDbLine
 10
628.504341
 20
404.068777
 30
0.0
 11
650.504341
 21
404.068777
 31
0.0
  0
ARC
  5
E7
330
1F
100
AcDbEntity
  8
LAYERGROUP-1
  6
CONTINUOUS
 62
     3
100
AcDbCircle
 10
527.504341
 20
404.068777
 30
0.0
 40
14.0
100
AcDbArc
 50
180.0
 51
270.0
  0
ARC
  5
E8
330
1F
100
AcDbEntity
  8
LAYERGROUP-1
  6
CONTINUOUS
 62
     3
100
AcDbCircle
 10
639.504341
 20
404.068777
 30
0.0
 40
14.0
100
AcDbArc
 50
270.0
 51
360.0
  0
LINE
  5
E9
330
1F
100
AcDbEntity
  8
LAYERGROUP-1
  6
CONTINUOUS
 62
     3
100
AcDbLine
 10
640.504341
 20
303.856294
 30
0.0
 11
526.504341
 21
303.856294
 31
0.0
  0
LINE
  5
EA
330
1F
100
AcDbEntity
  8
LAYERGROUP-1
  6
CONTINUOUS
 62
     3
100
AcDbLine
 10
637.504341
 20
310.606294
 30
0.0
 11
529.504341
 21
310.606294
 31
0.0
  0
LINE
  5
EB
330
1F
100
AcDbEntity
  8
LAYERGROUP-1
  6
CONTINUOUS
 62
     3
100
AcDbLine
 10
536.004341
 20
294.286294
 30
0.0
 11
631.004341
 21
294.286294
 31
0.0
  0
LINE
  5
EC
330
1F
100
AcDbEntity
  8
LAYERGROUP-1
  6
CONTINUOUS
 62
     3
100
AcDbLine
 10
513.504341
 20
418.568777
 30
0.0
 11
500.504341
 21
418.568777
 31
0.0
  0
ARC
  5
ED
330
1F
100
AcDbEntity
  8
LAYERGROUP-1
  6
CONTINUOUS
 62
     3
100
AcDbCircle
 10
298.20964
 20
299.986294
 30
0.0
 40
5.7
100
AcDbArc
 50
270.0
 51
360.0
  0
ARC
  5
EE
330
1F
100
AcDbEntity
  8
LAYERGROUP-1
  6
CONTINUOUS
 62
     3
100
AcDbCircle
 10
304.70964
 20
307.606294
 30
0.0
 40
3.0
100
AcDbArc
 50
0.0
 51
90.0
  0
LINE
  5
EF
330
1F
100
AcDbEntity
  8
LAYERGROUP-1
  6
CONTINUOUS
 62
     3
100
AcDbLine
 10
307.70964
 20
303.856294
 30
0.0
 11
307.70964
 21
307.606294
 31
0.0
  0
LINE
  5
F0
330
1F
100
AcDbEntity
  8
LAYERGROUP-1
  6
CONTINUOUS
 62
     3
100
AcDbLine
 10
320.70964
 20
316.606294
 30
0.0
 11
320.70964
 21
322.606294
 31
0.0
  0
LINE
  5
F1
330
1F
100
AcDbEntity
  8
LAYERGROUP-1
  6
CONTINUOUS
 62
     3
100
AcDbLine
 10
320.70964
 20
322.606294
 30
0.0
 11
180.70964
 21
322.606294
 31
0.0
  0
LINE
  5
F2
330
1F
100
AcDbEntity
  8
LAYERGROUP-1
  6
CONTINUOUS
 62
     3
100
AcDbLine
 10
320.70964
 20
316.606294
 30
0.0
 11
180.70964
 21
316.606294
 31
0.0
  0
ARC
  5
F3
330
1F
100
AcDbEntity
  8
LAYERGROUP-1
  6
CONTINUOUS
 62
     3
100
AcDbCircle
 10
297.544488
 20
320.606294
 30
0.0
 40
10.0
100
AcDbArc
 50
270.0
 51
332.964308
  0
ARC
  5
F4
330
1F
100
AcDbEntity
  8
LAYERGROUP-1
  6
CONTINUOUS
 62
     3
100
AcDbCircle
 10
307.342447
 20
315.606294
 30
0.0
 40
1.0
100
AcDbArc
 50
90.0
 51
152.964308
  0
LINE
  5
F5
330
1F
100
AcDbEntity
  8
LAYERGROUP-1
  6
CONTINUOUS
 62
     3
100
AcDbLine
 10
193.70964
 20
303.856294
 30
0.0
 11
307.70964
 21
303.856294
 31
0.0
  0
LINE
  5
F6
330
1F
100
AcDbEntity
  8
LAYERGROUP-1
  6
CONTINUOUS
 62
     3
100
AcDbLine
 10
196.70964
 20
310.606294
 30
0.0
 11
304.70964
 21
310.606294
 31
0.0
  0
ARC
  5
F7
330
1F
100
AcDbEntity
  8
LAYERGROUP-1
  6
CONTINUOUS
 62
     3
100
AcDbCircle
 10
196.70964
 20
307.606294
 30
0.0
 40
3.0
100
AcDbArc
 50
90.0
 51
180.0
  0
LINE
  5
F8
330
1F
100
AcDbEntity
  8
LAYERGROUP-1
  6
CONTINUOUS
 62
     3
100
AcDbLine
 10
193.70964
 20
303.856294
 30
0.0
 11
193.70964
 21
307.606294
 31
0.0
  0
LINE
  5
F9
330
1F
100
AcDbEntity
  8
LAYERGROUP-1
  6
CONTINUOUS
 62
     3
100
AcDbLine
 10
180.70964
 20
316.606294
 30
0.0
 11
180.70964
 21
322.606294
 31
0.0
  0
ARC
  5
FA
330
1F
100
AcDbEntity
  8
LAYERGROUP-1
  6
CONTINUOUS
 62
     3
100
AcDbCircle
 10
203.874791
 20
320.606294
 30
0.0
 40
10.0
100
AcDbArc
 50
207.035692
 51
270.0
  0
ARC
  5
FB
330
1F
100
AcDbEntity
  8
LAYERGROUP-1
  6
CONTINUOUS
 62
     3
100
AcDbCircle
 10
194.076832
 20
315.606294
 30
0.0
 40
1.0
100
AcDbArc
 50
27.035692
 51
90.0
  0
LINE
  5
FC
330
1F
100
AcDbEntity
  8
LAYERGROUP-1
  6
CENTER
 62
     6
100
AcDbLine
 10
306.70964
 20
314.976246
 30
0.0
 11
306.70964
 21
324.505963
 31
0.0
  0
LINE
  5
FD
330
1F
100
AcDbEntity
  8
LAYERGROUP-1
  6
CENTER
 62
     6
100
AcDbLine
 10
194.70964
 20
314.976246
 30
0.0
 11
194.70964
 21
324.505963
 31
0.0
  0
LINE
  5
FE
330
1F
100
AcDbEntity
  8
LAYERGROUP-1
  6
CONTINUOUS
 62
     6
100
AcDbLine
 10
550.53845
 20
286.920932
 30
0.0
 11
550.53845
 21
152.01416
 31
0.0
  0
LINE
  5
FF
330
1F
100
AcDbEntity
  8
LAYERGROUP-1
  6
CONTINUOUS
 62
     3
100
AcDbLine
 10
303.90964
 20
299.986294
 30
0.0
 11
303.90964
 21
303.856294
 31
0.0
  0
ARC
  5
100
330
1F
100
AcDbEntity
  8
LAYERGROUP-1
  6
CONTINUOUS
 62
     3
100
AcDbCircle
 10
203.20964
 20
299.986294
 30
0.0
 40
5.7
100
AcDbArc
 50
180.0
 51
270.0
  0
LINE
  5
101
330
1F
100
AcDbEntity
  8
LAYERGROUP-1
  6
CONTINUOUS
 62
     3
100
AcDbLine
 10
197.50964
 20
299.986294
 30
0.0
 11
197.50964
 21
303.856294
 31
0.0
  0
CIRCLE
  5
102
330
1F
100
AcDbEntity
  8
LAYERGROUP-1
  6
CONTINUOUS
 62
     3
100
AcDbCircle
 10
583.504341
 20
460.068777
 30
0.0
 40
18.50000000000017
  0
CIRCLE
  5
103
330
1F
100
AcDbEntity
  8
LAYERGROUP-1
  6
CONTINUOUS
 62
     6
100
AcDbCircle
 10
583.504341
 20
460.068777
 30
0.0
 40
28.2320588228024
  0
CIRCLE
  5
104
330
1F
100
AcDbEntity
  8
LAYERGROUP-1
  6
CONTINUOUS
 62
     3
100
AcDbCircle
 10
583.504341
 20
460.068777
 30
0.0
 40
34.5
  0
CIRCLE
  5
105
330
1F
100
AcDbEntity
  8
LAYERGROUP-1
  6
CONTINUOUS
 62
     3
100
AcDbCircle
 10
583.504341
 20
460.068777
 30
0.0
 40
49.0
  0
CIRCLE
  5
106
330
1F
100
AcDbEntity
  8
LAYERGROUP-1
  6
DASHED
 62
     6
100
AcDbCircle
 10
583.504341
 20
460.068777
 30
0.0
 40
56.0
  0
ARC
  5
107
330
1F
100
AcDbEntity
  8
LAYERGROUP-1
  6
CONTINUOUS
 62
     3
100
AcDbCircle
 10
611.504341
 20
460.068777
 30
0.0
 40
110.0
100
AcDbArc
 50
161.229262
 51
198.770738
  0
LINE
  5
108
330
1F
100
AcDbEntity
  8
LAYERGROUP-1
  6
CENTER
 62
     6
100
AcDbLine
 10
307.494009
 20
172.606294
 30
0.0
 11
184.517052
 21
172.606294
 31
0.0
  0
LINE
  5
109
330
1F
100
AcDbEntity
  8
LAYERGROUP-1
  6
CONTINUOUS
 62
     3
100
AcDbLine
 10
218.20964
 20
137.670329
 30
0.0
 11
218.20964
 21
207.542258
 31
0.0
  0
LINE
  5
10A
330
1F
100
AcDbEntity
  8
LAYERGROUP-1
  6
CONTINUOUS
 62
     3
100
AcDbLine
 10
216.00964
 20
155.606294
 30
0.0
 11
218.20964
 21
155.606294
 31
0.0
  0
LINE
  5
10B
330
1F
100
AcDbEntity
  8
LAYERGROUP-1
  6
CONTINUOUS
 62
     3
100
AcDbLine
 10
218.705847
 20
209.547543
 30
0.0
 11
219.20964
 21
210.503178
 31
0.0
  0
LINE
  5
10C
330
1F
100
AcDbEntity
  8
LAYERGROUP-1
  6
CONTINUOUS
 62
     3
100
AcDbLine
 10
218.705847
 20
135.665045
 30
0.0
 11
219.20964
 21
134.70941
 31
0.0
  0
LINE
  5
10D
330
1F
100
AcDbEntity
  8
LAYERGROUP-1
  6
CONTINUOUS
 62
     3
100
AcDbLine
 10
219.20964
 20
90.606294
 30
0.0
 11
219.20964
 21
94.806294
 31
0.0
  0
LINE
  5
10E
330
1F
100
AcDbEntity
  8
LAYERGROUP-1
  6
CONTINUOUS
 62
     3
100
AcDbLine
 10
219.20964
 20
254.606294
 30
0.0
 11
219.20964
 21
95.306294
 31
0.0
  0
LINE
  5
10F
330
1F
100
AcDbEntity
  8
LAYERGROUP-1
  6
CONTINUOUS
 62
     3
100
AcDbLine
 10
206.00964
 20
153.606294
 30
0.0
 11
206.00964
 21
191.606294
 31
0.0
  0
LINE
  5
110
330
1F
100
AcDbEntity
  8
LAYERGROUP-1
  6
CONTINUOUS
 62
     3
100
AcDbLine
 10
206.00964
 20
153.606294
 30
0.0
 11
209.20964
 21
153.606294
 31
0.0
  0
LINE
  5
111
330
1F
100
AcDbEntity
  8
LAYERGROUP-1
  6
CONTINUOUS
 62
     3
100
AcDbLine
 10
206.00964
 20
191.606294
 30
0.0
 11
209.20964
 21
191.606294
 31
0.0
  0
LINE
  5
112
330
1F
100
AcDbEntity
  8
LAYERGROUP-1
  6
CONTINUOUS
 62
     3
100
AcDbLine
 10
186.70964
 20
164.606294
 30
0.0
 11
189.20964
 21
164.606294
 31
0.0
  0
LINE
  5
113
330
1F
100
AcDbEntity
  8
LAYERGROUP-1
  6
CONTINUOUS
 62
     3
100
AcDbLine
 10
202.55964
 20
158.956294
 30
0.0
 11
205.25964
 21
158.956294
 31
0.0
  0
LINE
  5
114
330
1F
100
AcDbEntity
  8
LAYERGROUP-1
  6
CONTINUOUS
 62
     3
100
AcDbLine
 10
202.55964
 20
186.256294
 30
0.0
 11
205.25964
 21
186.256294
 31
0.0
  0
LINE
  5
115
330
1F
100
AcDbEntity
  8
LAYERGROUP-1
  6
CONTINUOUS
 62
     3
100
AcDbLine
 10
189.20964
 20
162.406294
 30
0.0
 11
189.20964
 21
182.806294
 31
0.0
  0
LINE
  5
116
330
1F
100
AcDbEntity
  8
LAYERGROUP-1
  6
CONTINUOUS
 62
     3
100
AcDbLine
 10
190.20964
 20
186.006294
 30
0.0
 11
201.80964
 21
186.006294
 31
0.0
  0
LINE
  5
117
330
1F
100
AcDbEntity
  8
LAYERGROUP-1
  6
CONTINUOUS
 62
     3
100
AcDbLine
 10
190.20964
 20
159.206294
 30
0.0
 11
201.80964
 21
159.206294
 31
0.0
  0
LINE
  5
118
330
1F
100
AcDbEntity
  8
LAYERGROUP-1
  6
CONTINUOUS
 62
     3
100
AcDbLine
 10
190.20964
 20
179.606294
 30
0.0
 11
201.80964
 21
179.606294
 31
0.0
  0
LINE
  5
119
330
1F
100
AcDbEntity
  8
LAYERGROUP-1
  6
CONTINUOUS
 62
     3
100
AcDbLine
 10
190.20964
 20
165.606294
 30
0.0
 11
201.80964
 21
165.606294
 31
0.0
  0
ARC
  5
11A
330
1F
100
AcDbEntity
  8
LAYERGROUP-1
  6
CONTINUOUS
 62
     3
100
AcDbCircle
 10
214.20964
 20
172.606294
 30
0.0
 40
24.99999999999997
100
AcDbArc
 50
163.739795
 51
196.260205
  0
ARC
  5
11B
330
1F
100
AcDbEntity
  8
LAYERGROUP-1
  6
CONTINUOUS
 62
     3
100
AcDbCircle
 10
194.82964
 20
182.806294
 30
0.0
 40
5.620000000000147
100
AcDbArc
 50
145.291951
 51
214.708049
  0
ARC
  5
11C
330
1F
100
AcDbEntity
  8
LAYERGROUP-1
  6
CONTINUOUS
 62
     3
100
AcDbCircle
 10
194.82964
 20
162.406294
 30
0.0
 40
5.620000000000147
100
AcDbArc
 50
145.291951
 51
214.708049
  0
ARC
  5
11D
330
1F
100
AcDbEntity
  8
LAYERGROUP-1
  6
CONTINUOUS
 62
     3
100
AcDbCircle
 10
202.55964
 20
185.506294
 30
0.0
 40
0.75
100
AcDbArc
 50
90.0
 51
180.0
  0
ARC
  5
11E
330
1F
100
AcDbEntity
  8
LAYERGROUP-1
  6
CONTINUOUS
 62
     3
100
AcDbCircle
 10
202.55964
 20
159.706294
 30
0.0
 40
0.75
100
AcDbArc
 50
180.0
 51
270.0
  0
ARC
  5
11F
330
1F
100
AcDbEntity
  8
LAYERGROUP-1
  6
CONTINUOUS
 62
     3
100
AcDbCircle
 10
205.25964
 20
159.706294
 30
0.0
 40
0.75
100
AcDbArc
 50
270.0
 51
360.0
  0
ARC
  5
120
330
1F
100
AcDbEntity
  8
LAYERGROUP-1
  6
CONTINUOUS
 62
     3
100
AcDbCircle
 10
205.25964
 20
185.506294
 30
0.0
 40
0.75
100
AcDbArc
 50
0.0
 51
90.0
  0
LINE
  5
121
330
1F
100
AcDbEntity
  8
LAYERGROUP-1
  6
CONTINUOUS
 62
     3
100
AcDbLine
 10
201.80964
 20
186.006294
 30
0.0
 11
201.80964
 21
159.206294
 31
0.0
  0
LINE
  5
122
330
1F
100
AcDbEntity
  8
LAYERGROUP-1
  6
CONTINUOUS
 62
     3
100
AcDbLine
 10
186.70964
 20
180.606294
 30
0.0
 11
189.20964
 21
180.606294
 31
0.0
  0
LINE
  5
123
330
1F
100
AcDbEntity
  8
LAYERGROUP-1
  6
CONTINUOUS
 62
     6
100
AcDbLine
 10
185.70964
 20
179.806294
 30
0.0
 11
189.20964
 21
179.806294
 31
0.0
  0
LINE
  5
124
330
1F
100
AcDbEntity
  8
LAYERGROUP-1
  6
CONTINUOUS
 62
     6
100
AcDbLine
 10
185.70964
 20
165.406294
 30
0.0
 11
189.20964
 21
165.406294
 31
0.0
  0
LINE
  5
125
330
1F
100
AcDbEntity
  8
LAYERGROUP-1
  6
CONTINUOUS
 62
     3
100
AcDbLine
 10
185.70964
 20
165.406294
 30
0.0
 11
185.70964
 21
179.806294
 31
0.0
  0
LINE
  5
126
330
1F
100
AcDbEntity
  8
LAYERGROUP-1
  6
CONTINUOUS
 62
     6
100
AcDbLine
 10
186.70964
 20
164.606294
 30
0.0
 11
186.70964
 21
180.606294
 31
0.0
  0
LINE
  5
127
330
1F
100
AcDbEntity
  8
LAYERGROUP-1
  6
CONTINUOUS
 62
     3
100
AcDbLine
 10
186.70964
 20
180.606294
 30
0.0
 11
185.70964
 21
179.806294
 31
0.0
  0
LINE
  5
128
330
1F
100
AcDbEntity
  8
LAYERGROUP-1
  6
CONTINUOUS
 62
     3
100
AcDbLine
 10
186.70964
 20
164.606294
 30
0.0
 11
185.70964
 21
165.406294
 31
0.0
  0
LINE
  5
129
330
1F
100
AcDbEntity
  8
LAYERGROUP-1
  6
CONTINUOUS
 62
     3
100
AcDbLine
 10
206.00964
 20
177.044556
 30
0.0
 11
201.876795
 21
176.504151
 31
0.0
  0
LINE
  5
12A
330
1F
100
AcDbEntity
  8
LAYERGROUP-1
  6
CONTINUOUS
 62
     6
100
AcDbLine
 10
223.035658
 20
267.402372
 30
0.0
 11
223.035658
 21
77.810215
 31
0.0
  0
LINE
  5
12B
330
1F
100
AcDbEntity
  8
LAYERGROUP-1
  6
CONTINUOUS
 62
     3
100
AcDbLine
 10
216.00964
 20
189.606294
 30
0.0
 11
218.20964
 21
189.606294
 31
0.0
  0
ARC
  5
12C
330
1F
100
AcDbEntity
  8
LAYERGROUP-1
  6
CONTINUOUS
 62
     3
100
AcDbCircle
 10
222.50964
 20
207.542258
 30
0.0
 40
4.3
100
AcDbArc
 50
152.202683
 51
180.0
  0
ARC
  5
12D
330
1F
100
AcDbEntity
  8
LAYERGROUP-1
  6
CONTINUOUS
 62
     3
100
AcDbCircle
 10
222.50964
 20
137.670329
 30
0.0
 40
4.3
100
AcDbArc
 50
180.0
 51
207.797317
  0
LINE
  5
12E
330
1F
100
AcDbEntity
  8
LAYERGROUP-1
  6
CONTINUOUS
 62
     6
100
AcDbLine
 10
278.383621
 20
267.402372
 30
0.0
 11
278.383621
 21
77.810215
 31
0.0
  0
ARC
  5
12F
330
1F
100
AcDbEntity
  8
LAYERGROUP-1
  6
CONTINUOUS
 62
     3
100
AcDbCircle
 10
216.00964
 20
188.806294
 30
0.0
 40
0.8
100
AcDbArc
 50
90.0
 51
180.0
  0
LINE
  5
130
330
1F
100
AcDbEntity
  8
LAYERGROUP-1
  6
CONTINUOUS
 62
     6
100
AcDbLine
 10
216.00964
 20
155.606294
 30
0.0
 11
216.00964
 21
189.606294
 31
0.0
  0
ARC
  5
131
330
1F
100
AcDbEntity
  8
LAYERGROUP-1
  6
CONTINUOUS
 62
     3
100
AcDbCircle
 10
216.00964
 20
156.406294
 30
0.0
 40
0.8
100
AcDbArc
 50
180.0
 51
270.0
  0
LINE
  5
132
330
1F
100
AcDbEntity
  8
LAYERGROUP-1
  6
CONTINUOUS
 62
     3
100
AcDbLine
 10
282.20964
 20
90.606294
 30
0.0
 11
282.20964
 21
254.606294
 31
0.0
  0
DIMENSION
  5
133
330
1F
100
AcDbEntity
  8
LAYERGROUP-1
100
AcDbDimension
  2
*D19
 10
286.20964
 20
50.587602
 30
0.0
 11
250.709641
 21
51.587605
 31
0.0
 70
    33
  3
FXDIMINFO
100
AcDbAlignedDimension
 13
215.20964
 23
145.106294
 33
0.0
 14
286.20964
 24
145.106294
 34
0.0
1001
ACAD
1000
DSTYLE
1002
{
1070
     7
1000
FXTIP_ARROW_E
1070
     6
1000
FXTIP_ARROW_S
1070
   173
1070
     1
1002
}
  0
DIMENSION
  5
13D
330
1F
100
AcDbEntity
  8
LAYERGROUP-1
100
AcDbDimension
  2
*D20
 10
282.20964
 20
60.12769
 30
0.0
 11
250.709641
 21
61.127693
 31
0.0
 70
    33
  3
FXDIMINFO
100
AcDbAlignedDimension
 13
219.20964
 23
90.606294
 33
0.0
 14
282.20964
 24
90.606294
 34
0.0
1001
ACAD
1000
DSTYLE
1002
{
1070
     7
1000
FXTIP_ARROW_E
1070
     6
1000
FXTIP_ARROW_S
1070
   173
1070
     1
1002
}
  0
CIRCLE
  5
148
330
1F
100
AcDbEntity
  8
GR1-1
  6
CONTINUOUS
 62
     3
100
AcDbCircle
 10
525.504341
 20
172.606294
 30
0.0
 40
16.0
  0
TEXT
  5
149
330
1F
100
AcDbEntity
  8
GR1-1
  6
CONTINUOUS
 62
     7
100
AcDbText
 10
513.058044
 20
169.489182
 30
0.0
 40
6.289016
  1
HJ-200
 41
0.696041
  7
FX_VECTOR
 72
     5
 11
538.280293
 21
169.489182
 31
0.0
100
AcDbText
  0
CIRCLE
  5
14A
330
1F
100
AcDbEntity
  8
GR1-1
  6
CONTINUOUS
 62
     6
100
AcDbCircle
 10
525.504341
 20
172.606294
 30
0.0
 40
14.5
  0
LINE
  5
14B
330
1F
100
AcDbEntity
  8
LAYERGROUP-1
  6
CONTINUOUS
 62
     3
100
AcDbLine
 10
292.70964
 20
156.606294
 30
0.0
 11
296.70964
 21
156.606294
 31
0.0
  0
LINE
  5
14C
330
1F
100
AcDbEntity
  8
LAYERGROUP-1
  6
CONTINUOUS
 62
     3
100
AcDbLine
 10
292.70964
 20
188.606294
 30
0.0
 11
296.70964
 21
188.606294
 31
0.0
  0
ARC
  5
14D
330
1F
100
AcDbEntity
  8
GR1-1
  6
CONTINUOUS
 62
     3
100
AcDbCircle
 10
292.70964
 20
157.106294
 30
0.0
 40
0.5
100
AcDbArc
 50
180.0
 51
270.0
  0
ARC
  5
14E
330
1F
100
AcDbEntity
  8
GR1-1
  6
CONTINUOUS
 62
     3
100
AcDbCircle
 10
292.70964
 20
188.106294
 30
0.0
 40
0.5
100
AcDbArc
 50
90.0
 51
180.0
  0
LINE
  5
14F
330
1F
100
AcDbEntity
  8
LAYERGROUP-1
  6
CONTINUOUS
 62
     3
100
AcDbLine
 10
297.70964
 20
187.106294
 30
0.0
 11
297.70964
 21
158.106294
 31
0.0
  0
LINE
  5
150
330
1F
100
AcDbEntity
  8
LAYERGROUP-1
  6
CONTINUOUS
 62
     6
100
AcDbLine
 10
296.70964
 20
188.606294
 30
0.0
 11
296.70964
 21
156.606294
 31
0.0
  0
LINE
  5
151
330
1F
100
AcDbEntity
  8
GR1-1
  6
CONTINUOUS
 62
     3
100
AcDbLine
 10
297.70964
 20
187.106294
 30
0.0
 11
296.70964
 21
188.606294
 31
0.0
  0
LINE
  5
152
330
1F
100
AcDbEntity
  8
GR1-1
  6
CONTINUOUS
 62
     3
100
AcDbLine
 10
297.70964
 20
158.106294
 30
0.0
 11
296.70964
 21
156.606294
 31
0.0
  0
LINE
  5
153
330
1F
100
AcDbEntity
  8
LAYERGROUP-1
  6
CONTINUOUS
 62
     3
100
AcDbLine
 10
506.415093
 20
427.568777
 30
0.0
 11
490.568377
 21
427.568777
 31
0.0
  0
LINE
  5
154
330
1F
100
AcDbEntity
  8
LAYERGROUP-1
  6
CONTINUOUS
 62
     3
100
AcDbLine
 10
488.563092
 20
428.064985
 30
0.0
 11
487.607457
 21
428.568777
 31
0.0
  0
LINE
  5
155
330
1F
100
AcDbEntity
  8
LAYERGROUP-1
  6
CONTINUOUS
 62
     3
100
AcDbLine
 10
506.11103
 20
428.568777
 30
0.0
 11
443.504341
 21
428.568777
 31
0.0
  0
ARC
  5
156
330
1F
100
AcDbEntity
  8
LAYERGROUP-1
  6
CONTINUOUS
 62
     3
100
AcDbCircle
 10
490.568377
 20
431.868777
 30
0.0
 40
4.3
100
AcDbArc
 50
242.202683
 51
270.0
  0
LINE
  5
157
330
1F
100
AcDbEntity
  8
LAYERGROUP-1
  6
CONTINUOUS
 62
     6
100
AcDbLine
 10
639.504341
 20
314.976246
 30
0.0
 11
639.504341
 21
324.505963
 31
0.0
  0
LINE
  5
158
330
1F
100
AcDbEntity
  8
LAYERGROUP-1
  6
CONTINUOUS
 62
     3
100
AcDbLine
 10
500.504341
 20
501.568777
 30
0.0
 11
500.504341
 21
495.568777
 31
0.0
  0
ARC
  5
159
330
1F
100
AcDbEntity
  8
LAYERGROUP-1
  6
CONTINUOUS
 62
     3
100
AcDbCircle
 10
515.876155
 20
492.568777
 30
0.0
 40
9.0
100
AcDbArc
 50
105.279912
 51
161.229262
  0
LINE
  5
15A
330
1F
100
AcDbEntity
  8
LAYERGROUP-1
  6
CONTINUOUS
 62
     3
100
AcDbLine
 10
507.354831
 20
495.568777
 30
0.0
 11
500.504341
 21
495.568777
 31
0.0
  0
LINE
  5
15B
330
1F
100
AcDbEntity
  8
LAYERGROUP-1
  6
CONTINUOUS
 62
     3
100
AcDbLine
 10
527.504341
 20
530.068777
 30
0.0
 11
639.504341
 21
530.068777
 31
0.0
  0
LINE
  5
15C
330
1F
100
AcDbEntity
  8
LAYERGROUP-1
  6
CENTER
 62
     6
100
AcDbLine
 10
639.504341
 20
527.068777
 30
0.0
 11
639.504341
 21
505.068777
 31
0.0
  0
LINE
  5
15D
330
1F
100
AcDbEntity
  8
LAYERGROUP-1
  6
CENTER
 62
     6
100
AcDbLine
 10
527.504341
 20
527.068777
 30
0.0
 11
527.504341
 21
505.068777
 31
0.0
  0
LINE
  5
15E
330
1F
100
AcDbEntity
  8
LAYERGROUP-1
  6
CENTER
 62
     6
100
AcDbLine
 10
516.504341
 20
516.068777
 30
0.0
 11
538.504341
 21
516.068777
 31
0.0
  0
CIRCLE
  5
15F
330
1F
100
AcDbEntity
  8
LAYERGROUP-1
  6
CONTINUOUS
 62
     3
100
AcDbCircle
 10
527.504341
 20
516.068777
 30
0.0
 40
7.0
  0
CIRCLE
  5
160
330
1F
100
AcDbEntity
  8
LAYERGROUP-1
  6
CONTINUOUS
 62
     3
100
AcDbCircle
 10
639.504341
 20
516.068777
 30
0.0
 40
7.0
  0
LINE
  5
161
330
1F
100
AcDbEntity
  8
LAYERGROUP-1
  6
CENTER
 62
     6
100
AcDbLine
 10
628.504341
 20
516.068777
 30
0.0
 11
650.504341
 21
516.068777
 31
0.0
  0
ARC
  5
162
330
1F
100
AcDbEntity
  8
LAYERGROUP-1
  6
CONTINUOUS
 62
     3
100
AcDbCircle
 10
527.504341
 20
516.068777
 30
0.0
 40
14.0
100
AcDbArc
 50
90.0
 51
180.0
  0
ARC
  5
163
330
1F
100
AcDbEntity
  8
LAYERGROUP-1
  6
CONTINUOUS
 62
     3
100
AcDbCircle
 10
639.504341
 20
516.068777
 30
0.0
 40
14.0
100
AcDbArc
 50
0.0
 51
90.0
  0
LINE
  5
164
330
1F
100
AcDbEntity
  8
LAYERGROUP-1
  6
CONTINUOUS
 62
     3
100
AcDbLine
 10
513.504341
 20
501.568777
 30
0.0
 11
500.504341
 21
501.568777
 31
0.0
  0
DIMENSION
  5
165
330
1F
100
AcDbEntity
  8
LAYERGROUP-1
100
AcDbDimension
  2
*D21
 10
534.213829
 20
514.07309
 30
0.0
 11
494.204254
 21
527.4198
 31
0.0
 70
   163
  3
FXDIMINFO
100
AcDbDiametricDimension
 15
520.794853
 25
518.064464
 35
0.0
 40
0.0
  0
LINE
  5
16F
330
1F
100
AcDbEntity
  8
LAYERGROUP-1
  6
CONTINUOUS
 62
     3
100
AcDbLine
 10
506.415093
 20
492.568777
 30
0.0
 11
490.568377
 21
492.568777
 31
0.0
  0
LINE
  5
170
330
1F
100
AcDbEntity
  8
LAYERGROUP-1
  6
CONTINUOUS
 62
     3
100
AcDbLine
 10
488.563092
 20
492.072569
 30
0.0
 11
487.607457
 21
491.568777
 31
0.0
  0
LINE
  5
171
330
1F
100
AcDbEntity
  8
LAYERGROUP-1
  6
CONTINUOUS
 62
     3
100
AcDbLine
 10
506.11103
 20
491.568777
 30
0.0
 11
443.504341
 21
491.568777
 31
0.0
  0
LINE
  5
172
330
1F
100
AcDbEntity
  8
LAYERGROUP-1
  6
CONTINUOUS
 62
     6
100
AcDbLine
 10
430.708263
 20
487.742759
 30
0.0
 11
505.042373
 21
487.742759
 31
0.0
  0
ARC
  5
173
330
1F
100
AcDbEntity
  8
LAYERGROUP-1
  6
CONTINUOUS
 62
     3
100
AcDbCircle
 10
490.568377
 20
488.268777
 30
0.0
 40
4.3
100
AcDbArc
 50
90.0
 51
117.797317
  0
ARC
  5
174
330
1F
100
AcDbEntity
  8
LAYERGROUP-1
  6
CONTINUOUS
 62
     3
100
AcDbCircle
 10
536.004341
 20
299.986294
 30
0.0
 40
5.7
100
AcDbArc
 50
180.0
 51
270.0
  0
LINE
  5
175
330
1F
100
AcDbEntity
  8
LAYERGROUP-1
  6
CONTINUOUS
 62
     3
100
AcDbLine
 10
530.304341
 20
299.986294
 30
0.0
 11
530.304341
 21
303.856294
 31
0.0
  0
ARC
  5
176
330
1F
100
AcDbEntity
  8
LAYERGROUP-1
  6
CONTINUOUS
 62
     3
100
AcDbCircle
 10
529.504341
 20
307.606294
 30
0.0
 40
3.0
100
AcDbArc
 50
90.0
 51
180.0
  0
LINE
  5
177
330
1F
100
AcDbEntity
  8
LAYERGROUP-1
  6
CONTINUOUS
 62
     3
100
AcDbLine
 10
526.504341
 20
303.856294
 30
0.0
 11
526.504341
 21
307.606294
 31
0.0
  0
LINE
  5
178
330
1F
100
AcDbEntity
  8
LAYERGROUP-1
  6
CONTINUOUS
 62
     3
100
AcDbLine
 10
513.504341
 20
316.606294
 30
0.0
 11
513.504341
 21
322.606294
 31
0.0
  0
LINE
  5
179
330
1F
100
AcDbEntity
  8
LAYERGROUP-1
  6
CONTINUOUS
 62
     3
100
AcDbLine
 10
653.504341
 20
316.606294
 30
0.0
 11
513.504341
 21
316.606294
 31
0.0
  0
ARC
  5
17A
330
1F
100
AcDbEntity
  8
LAYERGROUP-1
  6
CONTINUOUS
 62
     3
100
AcDbCircle
 10
536.669492
 20
320.606294
 30
0.0
 40
10.0
100
AcDbArc
 50
207.035692
 51
270.0
  0
ARC
  5
17B
330
1F
100
AcDbEntity
  8
LAYERGROUP-1
  6
CONTINUOUS
 62
     3
100
AcDbCircle
 10
526.871533
 20
315.606294
 30
0.0
 40
1.0
100
AcDbArc
 50
27.035692
 51
90.0
  0
LINE
  5
17C
330
1F
100
AcDbEntity
  8
LAYERGROUP-1
  6
CONTINUOUS
 62
     6
100
AcDbLine
 10
527.504341
 20
314.976246
 30
0.0
 11
527.504341
 21
324.505963
 31
0.0
  0
LINE
  5
17D
330
1F
100
AcDbEntity
  8
LAYERGROUP-1
  6
CONTINUOUS
 62
     3
100
AcDbLine
 10
283.20964
 20
137.670329
 30
0.0
 11
283.20964
 21
207.542258
 31
0.0
  0
LINE
  5
17E
330
1F
100
AcDbEntity
  8
LAYERGROUP-1
  6
CONTINUOUS
 62
     3
100
AcDbLine
 10
285.40964
 20
155.606294
 30
0.0
 11
283.20964
 21
155.606294
 31
0.0
  0
LINE
  5
17F
330
1F
100
AcDbEntity
  8
LAYERGROUP-1
  6
CONTINUOUS
 62
     3
100
AcDbLine
 10
282.713432
 20
209.547543
 30
0.0
 11
282.20964
 21
210.503178
 31
0.0
  0
LINE
  5
180
330
1F
100
AcDbEntity
  8
LAYERGROUP-1
  6
CONTINUOUS
 62
     3
100
AcDbLine
 10
282.713432
 20
135.665045
 30
0.0
 11
282.20964
 21
134.70941
 31
0.0
  0
LINE
  5
181
330
1F
100
AcDbEntity
  8
LAYERGROUP-1
  6
CONTINUOUS
 62
     3
100
AcDbLine
 10
285.40964
 20
189.606294
 30
0.0
 11
283.20964
 21
189.606294
 31
0.0
  0
ARC
  5
182
330
1F
100
AcDbEntity
  8
LAYERGROUP-1
  6
CONTINUOUS
 62
     3
100
AcDbCircle
 10
278.90964
 20
207.542258
 30
0.0
 40
4.3
100
AcDbArc
 50
0.0
 51
27.797317
  0
ARC
  5
183
330
1F
100
AcDbEntity
  8
LAYERGROUP-1
  6
CONTINUOUS
 62
     3
100
AcDbCircle
 10
278.90964
 20
137.670329
 30
0.0
 40
4.3
100
AcDbArc
 50
332.202683
 51
360.0
  0
ARC
  5
184
330
1F
100
AcDbEntity
  8
LAYERGROUP-1
  6
CONTINUOUS
 62
     3
100
AcDbCircle
 10
285.40964
 20
188.806294
 30
0.0
 40
0.8
100
AcDbArc
 50
0.0
 51
90.0
  0
LINE
  5
185
330
1F
100
AcDbEntity
  8
LAYERGROUP-1
  6
CONTINUOUS
 62
     6
100
AcDbLine
 10
285.40964
 20
155.606294
 30
0.0
 11
285.40964
 21
189.606294
 31
0.0
  0
ARC
  5
186
330
1F
100
AcDbEntity
  8
LAYERGROUP-1
  6
CONTINUOUS
 62
     3
100
AcDbCircle
 10
285.40964
 20
156.406294
 30
0.0
 40
0.8
100
AcDbArc
 50
270.0
 51
360.0
  0
DIMENSION
  5
187
330
1F
100
AcDbEntity
  8
LAYERGROUP-1
100
AcDbDimension
  2
*D22
 10
653.504341
 20
365.656745
 30
0.0
 11
583.504333
 21
366.656738
 31
0.0
 70
    33
  3
FXDIMINFO
100
AcDbAlignedDimension
 13
513.504341
 23
404.068777
 33
0.0
 14
653.504341
 24
404.068777
 34
0.0
1001
ACAD
1000
DSTYLE
1002
{
1070
     7
1000
FXTIP_ARROW_E
1070
     6
1000
FXTIP_ARROW_S
1070
   173
1070
     1
1002
}
  0
DIMENSION
  5
191
330
1F
100
AcDbEntity
  8
LAYERGROUP-1
100
AcDbDimension
  2
*D23
 10
639.504341
 20
377.775069
 30
0.0
 11
583.504333
 21
378.775055
 31
0.0
 70
    33
  3
FXDIMINFO
100
AcDbAlignedDimension
 13
527.504341
 23
393.068777
 33
0.0
 14
639.504341
 24
393.068777
 34
0.0
1001
ACAD
1000
DSTYLE
1002
{
1070
     7
1000
FXTIP_ARROW_E
1070
     6
1000
FXTIP_ARROW_S
1070
   173
1070
     1
1002
}
  0
DIMENSION
  5
19B
330
1F
100
AcDbEntity
  8
LAYERGROUP-1
100
AcDbDimension
  2
*D24
 10
677.916373
 20
530.068777
 30
0.0
 11
676.916382
 21
460.068756
 31
0.0
 70
    33
  3
FXDIMINFO
100
AcDbAlignedDimension
 13
639.504341
 23
390.068777
 33
0.0
 14
639.504341
 24
530.068777
 34
0.0
1001
ACAD
1000
DSTYLE
1002
{
1070
     7
1000
FXTIP_ARROW_E
1070
     6
1000
FXTIP_ARROW_S
1070
   173
1070
     1
1002
}
  0
DIMENSION
  5
1A5
330
1F
100
AcDbEntity
  8
LAYERGROUP-1
100
AcDbDimension
  2
*D25
 10
665.798049
 20
516.068777
 30
0.0
 11
664.798035
 21
460.068756
 31
0.0
 70
    33
  3
FXDIMINFO
100
AcDbAlignedDimension
 13
650.504341
 23
404.068777
 33
0.0
 14
650.504341
 24
516.068777
 34
0.0
1001
ACAD
1000
DSTYLE
1002
{
1070
     7
1000
FXTIP_ARROW_E
1070
     6
1000
FXTIP_ARROW_S
1070
   173
1070
     1
1002
}
  0
DIMENSION
  5
1AF
330
1F
100
AcDbEntity
  8
LAYERGROUP-1
100
AcDbDimension
  2
*D26
 10
583.504341
 20
63.020747
 30
0.0
 11
554.504333
 21
64.020744
 31
0.0
 70
    32
  3
FXDIMINFO
100
AcDbAlignedDimension
 13
525.504341
 23
68.648403
 33
0.0
 14
583.504341
 24
153.918033
 34
0.0
 50
180.0
100
AcDbRotatedDimension
1001
ACAD
1000
DSTYLE
1002
{
1070
     7
1000
FXTIP_ARROW_E
1070
     6
1000
FXTIP_ARROW_S
1070
   173
1070
     1
1002
}
  0
DIMENSION
  5
1B9
330
1F
100
AcDbEntity
  8
LAYERGROUP-1
100
AcDbDimension
  2
*D27
 10
660.860739
 20
322.606294
 30
0.0
 11
659.860718
 21
247.606293
 31
0.0
 70
    32
  3
FXDIMINFO
100
AcDbAlignedDimension
 13
629.692179
 23
172.606294
 33
0.0
 14
653.504341
 24
322.606294
 34
0.0
 50
270.0
100
AcDbRotatedDimension
1001
ACAD
1000
DSTYLE
1002
{
1070
     7
1000
FXTIP_ARROW_E
1070
     6
1000
FXTIP_ARROW_S
1070
   173
1070
     1
1002
}
  0
DIMENSION
  5
1C3
330
1F
100
AcDbEntity
  8
LAYERGROUP-1
100
AcDbDimension
  2
*D28
 10
682.773181
 20
322.606294
 30
0.0
 11
681.773193
 21
197.606293
 31
0.0
 70
    32
  3
FXDIMINFO
100
AcDbAlignedDimension
 13
525.504341
 23
72.606294
 33
0.0
 14
653.504341
 24
322.606294
 34
0.0
 50
270.0
100
AcDbRotatedDimension
1001
ACAD
1000
DSTYLE
1002
{
1070
     7
1000
FXTIP_ARROW_E
1070
     6
1000
FXTIP_ARROW_S
1070
   173
1070
     1
1002
}
  0
ARC
  5
1CD
330
1F
100
AcDbEntity
  8
LAYERGROUP-1
  6
CONTINUOUS
 62
     6
100
AcDbCircle
 10
525.504341
 20
172.606294
 30
0.0
 40
70.3
100
AcDbArc
 50
-258.31145
 51
2.660542
  0
ARC
  5
1CE
330
1F
100
AcDbEntity
  8
LAYERGROUP-1
  6
CONTINUOUS
 62
     6
100
AcDbCircle
 10
525.504341
 20
172.606294
 30
0.0
 40
36.0
100
AcDbArc
 50
124.332712
 51
315.100454
  0
ARC
  5
1CF
330
1F
100
AcDbEntity
  8
LAYERGROUP-1
  6
CONTINUOUS
 62
     6
100
AcDbCircle
 10
525.504341
 20
172.606294
 30
0.0
 40
56.0
100
AcDbArc
 50
107.268509
 51
348.868345
  0
ARC
  5
1D0
330
1F
100
AcDbEntity
  8
LAYERGROUP-1
  6
DASHED
 62
     6
100
AcDbCircle
 10
525.504341
 20
172.606294
 30
0.0
 40
29.0
100
AcDbArc
 50
139.279294
 51
288.52968
  0
ARC
  5
1D1
330
1F
100
AcDbEntity
  8
LAYERGROUP-1
  6
CONTINUOUS
 62
     3
100
AcDbCircle
 10
525.504341
 20
172.606294
 30
0.0
 40
100.0
100
AcDbArc
 50
-263.559334
 51
24.308281
  0
ARC
  5
1D2
330
1F
100
AcDbEntity
  8
LAYERGROUP-1
  6
CONTINUOUS
 62
     3
100
AcDbCircle
 10
525.504341
 20
172.606294
 30
0.0
 40
77.29999999999994
100
AcDbArc
 50
-260.239367
 51
8.288794
  0
ARC
  5
1D3
330
1F
100
AcDbEntity
  8
LAYERGROUP-1
  6
DASHED
 62
     6
100
AcDbCircle
 10
525.504341
 20
172.606294
 30
0.0
 40
81.99999999999986
100
AcDbArc
 50
-261.339169
 51
11.822931
  0
INSERT
  5
1D7
330
1F
100
AcDbEntity
  8
0
100
AcDbBlockReference
  2
BLKF031
 10
0.0
 20
0.0
 30
0.0
  0
TEXT
  5
22F
330
1F
100
AcDbEntity
  8
GR1-1
  6
CONTINUOUS
 62
     7
100
AcDbText
 10
441.989716
 20
148.227936
 30
0.0
 40
7.0
  1
G
 50
101.16436
 41
1.166667
  7
FX_VECTOR
 72
     5
 11
440.634347
 21
155.095466
 31
0.0
100
AcDbText
  0
TEXT
  5
230
330
1F
100
AcDbEntity
  8
GR1-1
  6
CONTINUOUS
 62
     7
100
AcDbText
 10
440.012421
 20
156.477722
 30
0.0
 40
7.0
  1
O
 50
95.66436
 41
1.105263
  7
FX_VECTOR
 72
     5
 11
439.321515
 21
163.443542
 31
0.0
100
AcDbText
  0
TEXT
  5
231
330
1F
100
AcDbEntity
  8
GR1-1
  6
CONTINUOUS
 62
     7
100
AcDbText
 10
438.896423
 20
164.355667
 30
0.0
 40
7.0
  1
L
 50
90.16436
 41
1.3125
  7
FX_VECTOR
 72
     5
 11
438.876343
 21
171.355638
 31
0.0
100
AcDbText
  0
TEXT
  5
232
330
1F
100
AcDbEntity
  8
GR1-1
  6
CONTINUOUS
 62
     7
100
AcDbText
 10
438.504547
 20
172.788239
 30
0.0
 40
7.0
  1
D
 50
84.66436
 41
1.166667
  7
FX_VECTOR
 72
     5
 11
439.155477
 21
179.757908
 31
0.0
100
AcDbText
  0
TEXT
  5
233
330
1F
100
AcDbEntity
  8
GR1-1
  6
CONTINUOUS
 62
     7
100
AcDbText
 10
440.057556
 20
188.972198
 30
0.0
 40
7.0
  1
C
 50
73.66436
 41
1.166667
  7
FX_VECTOR
 72
     5
 11
442.026402
 21
195.689612
 31
0.0
100
AcDbText
  0
TEXT
  5
234
330
1F
100
AcDbEntity
  8
GR1-1
  6
CONTINUOUS
 62
     7
100
AcDbText
 10
442.096558
 20
197.347824
 30
0.0
 40
7.0
  1
A
 50
68.16436
 41
1.235294
  7
FX_VECTOR
 72
     5
 11
444.700175
 21
203.845607
 31
0.0
100
AcDbText
  0
TEXT
  5
235
330
1F
100
AcDbEntity
  8
GR1-1
  6
CONTINUOUS
 62
     7
100
AcDbText
 10
444.90094
 20
205.349075
 30
0.0
 40
7.0
  1
S
 50
62.664356
 41
1.235294
  7
FX_VECTOR
 72
     5
 11
448.115356
 21
211.567397
 31
0.0
100
AcDbText
  0
TEXT
  5
236
330
1F
100
AcDbEntity
  8
GR1-1
  6
CONTINUOUS
 62
     7
100
AcDbText
 10
448.343506
 20
212.795898
 30
0.0
 40
7.0
  1
T
 50
57.164356
 41
1.4
  7
FX_VECTOR
 72
     5
 11
452.139123
 21
218.677505
 31
0.0
100
AcDbText
  0
TEXT
  5
237
330
1F
100
AcDbEntity
  8
GR1-1
  6
CONTINUOUS
 62
     7
100
AcDbText
 10
452.511841
 20
219.946533
 30
0.0
 40
7.0
  1
E
 50
51.664356
 41
1.235294
  7
FX_VECTOR
 72
     5
 11
456.853711
 21
225.437268
 31
0.0
100
AcDbText
  0
TEXT
  5
238
330
1F
100
AcDbEntity
  8
GR1-1
  6
CONTINUOUS
 62
     7
100
AcDbText
 10
457.632385
 20
227.034225
 30
0.0
 40
7.0
  1
R
 50
46.164356
 41
1.166667
  7
FX_VECTOR
 72
     5
 11
462.48053
 21
232.083532
 31
0.0
100
AcDbText
  0
TEXT
  5
239
330
1F
100
AcDbEntity
  8
GR1-1
  6
CONTINUOUS
 62
     7
100
AcDbText
 10
609.650391
 20
150.505646
 30
0.0
 40
7.0
  1
6
 50
253.164352
 41
1.235294
  7
FX_VECTOR
 72
     5
 11
607.622999
 21
143.805669
 31
0.0
100
AcDbText
  0
TEXT
  5
23A
330
1F
100
AcDbEntity
  8
GR1-1
  6
CONTINUOUS
 62
     7
100
AcDbText
 10
606.786682
 20
141.587296
 30
0.0
 40
7.0
  1
3
 50
247.164352
 41
1.235294
  7
FX_VECTOR
 72
     5
 11
604.070059
 21
135.135942
 31
0.0
100
AcDbText
  0
TEXT
  5
23B
330
1F
100
AcDbEntity
  8
GR1-1
  6
CONTINUOUS
 62
     7
100
AcDbText
 10
611.49408
 20
159.38681
 30
0.0
 40
7.0
  1
X
 50
259.164368
 41
1.235294
  7
FX_VECTOR
 72
     5
 11
610.178134
 21
152.511617
 31
0.0
100
AcDbText
  0
TEXT
  5
23C
330
1F
100
AcDbEntity
  8
GR1-1
  6
CONTINUOUS
 62
     7
100
AcDbText
 10
612.404602
 20
168.441498
 30
0.0
 40
7.0
  1
0
 50
265.164368
 41
1.235294
  7
FX_VECTOR
 72
     5
 11
611.814519
 21
161.466413
 31
0.0
100
AcDbText
  0
TEXT
  5
23D
330
1F
100
AcDbEntity
  8
GR1-1
  6
CONTINUOUS
 62
     7
100
AcDbText
 10
612.373962
 20
177.367264
 30
0.0
 40
7.0
  1
0
 50
271.164368
 41
1.235294
  7
FX_VECTOR
 72
     5
 11
612.516207
 21
170.368709
 31
0.0
100
AcDbText
  0
TEXT
  5
23E
330
1F
100
AcDbEntity
  8
GR1-1
  6
CONTINUOUS
 62
     7
100
AcDbText
 10
611.396118
 20
186.448059
 30
0.0
 40
7.0
  1
2
 50
277.164368
 41
1.235294
  7
FX_VECTOR
 72
     5
 11
612.269132
 21
179.502712
 31
0.0
100
AcDbText
  0
LINE
  5
23F
330
1F
100
AcDbEntity
  8
GR1-1
  6
CONTINUOUS
 62
     7
100
AcDbLine
 10
440.055159
 20
135.776452
 30
0.0
 11
442.606457
 21
130.345901
 31
0.0
  0
LINE
  5
240
330
1F
100
AcDbEntity
  8
GR1-1
  6
CONTINUOUS
 62
     7
100
AcDbLine
 10
442.606457
 20
130.345901
 30
0.0
 11
448.037007
 21
132.897199
 31
0.0
  0
LINE
  5
241
330
1F
100
AcDbEntity
  8
GR1-1
  6
CONTINUOUS
 62
     7
100
AcDbLine
 10
448.037007
 20
132.897199
 30
0.0
 11
445.485709
 21
138.32775
 31
0.0
  0
LINE
  5
242
330
1F
100
AcDbEntity
  8
GR1-1
  6
CONTINUOUS
 62
     7
100
AcDbLine
 10
445.485709
 20
138.32775
 30
0.0
 11
440.055159
 21
135.776452
 31
0.0
  0
LINE
  5
243
330
1F
100
AcDbEntity
  8
GR1-1
  6
CONTINUOUS
 62
     7
100
AcDbLine
 10
442.699427
 20
136.497719
 30
0.0
 11
441.486097
 21
133.134132
 31
0.0
  0
LINE
  5
244
330
1F
100
AcDbEntity
  8
GR1-1
  6
CONTINUOUS
 62
     7
100
AcDbLine
 10
441.486097
 20
133.134132
 30
0.0
 11
445.248776
 21
131.776839
 31
0.0
  0
LINE
  5
245
330
1F
100
AcDbEntity
  8
GR1-1
  6
CONTINUOUS
 62
     7
100
AcDbLine
 10
445.248776
 20
131.776839
 30
0.0
 11
446.606069
 21
135.539519
 31
0.0
  0
LINE
  5
246
330
1F
100
AcDbEntity
  8
GR1-1
  6
CONTINUOUS
 62
     7
100
AcDbLine
 10
446.606069
 20
135.539519
 30
0.0
 11
444.400796
 21
136.335016
 31
0.0
  0
LINE
  5
247
330
1F
100
AcDbEntity
  8
GR1-1
  6
CONTINUOUS
 62
     7
100
AcDbLine
 10
444.392206
 20
136.519592
 30
0.0
 11
445.100802
 21
136.852494
 31
0.0
  0
LINE
  5
248
330
1F
100
AcDbEntity
  8
GR1-1
  6
CONTINUOUS
 62
     7
100
AcDbLine
 10
445.100802
 20
136.852494
 30
0.0
 11
444.675586
 21
137.757586
 31
0.0
  0
LINE
  5
249
330
1F
100
AcDbEntity
  8
GR1-1
  6
CONTINUOUS
 62
     7
100
AcDbLine
 10
444.675586
 20
137.757586
 30
0.0
 11
442.84339
 21
136.896811
 31
0.0
  0
LINE
  5
24A
330
1F
100
AcDbEntity
  8
GR1-1
  6
CONTINUOUS
 62
     7
100
AcDbLine
 10
442.84339
 20
136.896811
 30
0.0
 11
444.046083
 21
134.336825
 31
0.0
  0
LINE
  5
24B
330
1F
100
AcDbEntity
  8
GR1-1
  6
CONTINUOUS
 62
     7
100
AcDbLine
 10
444.046083
 20
134.336825
 30
0.0
 11
444.498629
 21
134.549434
 31
0.0
  0
LINE
  5
24C
330
1F
100
AcDbEntity
  8
GR1-1
  6
CONTINUOUS
 62
     7
100
AcDbLine
 10
444.498629
 20
134.549434
 30
0.0
 11
444.212547
 21
135.158372
 31
0.0
  0
ARC
  5
24D
330
1F
100
AcDbEntity
  8
GR1-1
  6
CONTINUOUS
 62
     7
100
AcDbCircle
 10
444.303056
 20
135.200894
 30
0.0
 40
0.1
100
AcDbArc
 50
70.164356
 51
205.164356
  0
LINE
  5
24E
330
1F
100
AcDbEntity
  8
GR1-1
  6
CONTINUOUS
 62
     7
100
AcDbLine
 10
444.336988
 20
135.294961
 30
0.0
 11
445.326076
 21
134.938172
 31
0.0
  0
LINE
  5
24F
330
1F
100
AcDbEntity
  8
GR1-1
  6
CONTINUOUS
 62
     7
100
AcDbLine
 10
445.326076
 20
134.938172
 30
0.0
 11
444.64743
 21
133.056832
 31
0.0
  0
LINE
  5
250
330
1F
100
AcDbEntity
  8
GR1-1
  6
CONTINUOUS
 62
     7
100
AcDbLine
 10
444.64743
 20
133.056832
 30
0.0
 11
442.76609
 21
133.735479
 31
0.0
  0
LINE
  5
251
330
1F
100
AcDbEntity
  8
GR1-1
  6
CONTINUOUS
 62
     7
100
AcDbLine
 10
442.76609
 20
133.735479
 30
0.0
 11
443.300774
 21
135.217726
 31
0.0
  0
LINE
  5
252
330
1F
100
AcDbEntity
  8
GR1-1
  6
CONTINUOUS
 62
     7
100
AcDbLine
 10
443.300774
 20
135.217726
 30
0.0
 11
442.699427
 21
136.497719
 31
0.0
  0
ARC
  5
253
330
1F
100
AcDbEntity
  8
GR1-1
  6
CONTINUOUS
 62
     7
100
AcDbCircle
 10
444.434728
 20
136.429083
 30
0.0
 40
0.1
100
AcDbArc
 50
115.164356
 51
250.164356
  0
ARC
  5
254
330
1F
100
AcDbEntity
  8
LAYERGROUP-1
  6
CONTINUOUS
 62
     3
100
AcDbCircle
 10
250.70964
 20
72.606294
 30
0.0
 40
200.0
100
AcDbArc
 50
82.948473
 51
97.051527
  0
ARC
  5
255
330
1F
100
AcDbEntity
  8
LAYERGROUP-1
  6
CONTINUOUS
 62
     3
100
AcDbCircle
 10
226.771067
 20
266.131343
 30
0.0
 40
5.0
100
AcDbArc
 50
97.051527
 51
168.0
  0
LINE
  5
256
330
1F
100
AcDbEntity
  8
LAYERGROUP-1
  6
CONTINUOUS
 62
     3
100
AcDbLine
 10
221.880329
 20
267.170902
 30
0.0
 11
219.20964
 21
254.606294
 31
0.0
  0
ARC
  5
257
330
1F
100
AcDbEntity
  8
LAYERGROUP-1
  6
CONTINUOUS
 62
     3
100
AcDbCircle
 10
274.648212
 20
266.131343
 30
0.0
 40
5.0
100
AcDbArc
 50
12.0
 51
82.948473
  0
LINE
  5
258
330
1F
100
AcDbEntity
  8
LAYERGROUP-1
  6
CONTINUOUS
 62
     3
100
AcDbLine
 10
279.53895
 20
267.170902
 30
0.0
 11
282.20964
 21
254.606294
 31
0.0
  0
ARC
  5
259
330
1F
100
AcDbEntity
  8
LAYERGROUP-1
  6
CONTINUOUS
 62
     3
100
AcDbCircle
 10
250.70964
 20
272.606294
 30
0.0
 40
200.0
100
AcDbArc
 50
262.948473
 51
277.051527
  0
ARC
  5
25A
330
1F
100
AcDbEntity
  8
LAYERGROUP-1
  6
CONTINUOUS
 62
     3
100
AcDbCircle
 10
226.771067
 20
79.081244
 30
0.0
 40
5.0
100
AcDbArc
 50
192.0
 51
262.948473
  0
LINE
  5
25B
330
1F
100
AcDbEntity
  8
LAYERGROUP-1
  6
CONTINUOUS
 62
     3
100
AcDbLine
 10
221.880329
 20
78.041686
 30
0.0
 11
219.20964
 21
90.606294
 31
0.0
  0
ARC
  5
25C
330
1F
100
AcDbEntity
  8
LAYERGROUP-1
  6
CONTINUOUS
 62
     3
100
AcDbCircle
 10
274.648212
 20
79.081244
 30
0.0
 40
5.0
100
AcDbArc
 50
277.051527
 51
348.0
  0
LINE
  5
25D
330
1F
100
AcDbEntity
  8
LAYERGROUP-1
  6
CONTINUOUS
 62
     3
100
AcDbLine
 10
279.53895
 20
78.041686
 30
0.0
 11
282.20964
 21
90.606294
 31
0.0
  0
LINE
  5
25E
330
1F
100
AcDbEntity
  8
LAYERGROUP-1
  6
CONTINUOUS
 62
     6
100
AcDbLine
 10
430.708263
 20
432.394795
 30
0.0
 11
505.042373
 21
432.394795
 31
0.0
  0
ARC
  5
25F
330
1F
100
AcDbEntity
  8
LAYERGROUP-1
  6
CONTINUOUS
 62
     3
100
AcDbCircle
 10
625.504341
 20
460.068777
 30
0.0
 40
200.0
100
AcDbArc
 50
172.948473
 51
187.051527
  0
ARC
  5
260
330
1F
100
AcDbEntity
  8
LAYERGROUP-1
  6
CONTINUOUS
 62
     3
100
AcDbCircle
 10
431.979292
 20
436.130205
 30
0.0
 40
5.0
100
AcDbArc
 50
187.051527
 51
258.0
  0
LINE
  5
261
330
1F
100
AcDbEntity
  8
LAYERGROUP-1
  6
CONTINUOUS
 62
     3
100
AcDbLine
 10
430.939733
 20
431.239467
 30
0.0
 11
443.504341
 21
428.568777
 31
0.0
  0
ARC
  5
262
330
1F
100
AcDbEntity
  8
LAYERGROUP-1
  6
CONTINUOUS
 62
     3
100
AcDbCircle
 10
431.979292
 20
484.007349
 30
0.0
 40
5.0
100
AcDbArc
 50
102.0
 51
172.948473
  0
LINE
  5
263
330
1F
100
AcDbEntity
  8
LAYERGROUP-1
  6
CONTINUOUS
 62
     3
100
AcDbLine
 10
430.939733
 20
488.898087
 30
0.0
 11
443.504341
 21
491.568777
 31
0.0
  0
DIMENSION
  5
264
330
1F
100
AcDbEntity
  8
LAYERGROUP-1
100
AcDbDimension
  2
*D30
 10
332.50937
 20
272.606294
 30
0.0
 11
331.509369
 21
172.606293
 31
0.0
 70
    33
  3
FXDIMINFO
100
AcDbAlignedDimension
 13
250.70964
 23
72.606294
 33
0.0
 14
250.70964
 24
272.606294
 34
0.0
1001
ACAD
1000
DSTYLE
1002
{
1070
     7
1000
FXTIP_ARROW_E
1070
     6
1000
FXTIP_ARROW_S
1070
   173
1070
     1
1002
}
  0
TEXT
  5
26E
330
1F
100
AcDbEntity
  8
LAYERGROUP-1
  6
CONTINUOUS
 62
     7
100
AcDbText
 10
667.359375
 20
22.0
 30
0.0
 40
6.0
  1
H50B0AAA-C02
 41
0.697095
  7
FX_VECTOR
 72
     5
 11
715.359375
 21
22.0
 31
0.0
100
AcDbText
  0
INSERT
  5
272
330
1F
100
AcDbEntity
  8
0
100
AcDbBlockReference
  2
BLKF033
 10
0.0
 20
0.0
 30
0.0
  0
ARC
  5
29D
330
1F
100
AcDbEntity
  8
LAYERGROUP-1
  6
CONTINUOUS
 62
    66
100
AcDbCircle
 10
520.700327
 20
241.981269
 30
0.0
 40
100.0
100
AcDbArc
 50
284.361568
 51
290.364215
  0
ENDSEC
  0
SECTION
  2
OBJECTS
  0
DICTIONARY
  5
C
330
0
100
AcDbDictionary
  3
ACAD_GROUP
350
D
  3
ACAD_LAYOUT
350
1A
  3
ACAD_MLINESTYLE
350
17
  3
ACAD_PLOTSETTINGS
350
19
  3
ACDBHEADERROUNDTRIPXREC
350
29E
  0
DICTIONARY
  5
D
102
{ACAD_REACTORS
330
C
102
}
330
C
100
AcDbDictionary
  0
DICTIONARY
  5
1A
102
{ACAD_REACTORS
330
C
102
}
330
C
100
AcDbDictionary
  0
DICTIONARY
  5
17
102
{ACAD_REACTORS
330
C
102
}
330
C
100
AcDbDictionary
  3
STANDARD
350
18
  0
DICTIONARY
  5
19
102
{ACAD_REACTORS
330
C
102
}
330
C
100
AcDbDictionary
  0
DICTIONARY
  5
29E
102
{ACAD_REACTORS
330
C
102
}
330
C
100
AcDbDictionary
  3
CEPSNTYPE
350
2A7
  3
DIMSTYLEDATA
350
2BD
  3
FINGERPRINTGUID
350
2A8
  3
HYPERLINKBASE
350
2A1
  3
INSUNITS
350
2A6
  3
LAYOUTDICT
350
2A3
  3
LWETCUNION
350
2A5
  3
PLOTSETDICT
350
2A4
  3
PSVPSCALE
350
2AA
  3
PUCSBASE
350
2AD
  3
PUCSORGBACK
350
2B3
  3
PUCSORGBOTTOM
350
2AF
  3
PUCSORGFRONT
350
2B2
  3
PUCSORGLEFT
350
2B0
  3
PUCSORGRIGHT
350
2B1
  3
PUCSORGTOP
350
2AE
  3
PUCSORTHOREF
350
2AB
  3
PUCSORTHOVIEW
350
2AC
  3
STYLESHEET
350
2A2
  3
TSTACKALIGN
350
29F
  3
TSTACKSIZE
350
2A0
  3
UCSBASE
350
2B6
  3
UCSORGBACK
350
2BC
  3
UCSORGBOTTOM
350
2B8
  3
UCSORGFRONT
350
2BB
  3
UCSORGLEFT
350
2B9
  3
UCSORGRIGHT
350
2BA
  3
UCSORGTOP
350
2B7
  3
UCSORTHOREF
350
2B4
  3
UCSORTHOVIEW
350
2B5
  3
VERSIONGUID
350
2A9
  0
MLINESTYLE
  5
18
102
{ACAD_REACTORS
330
17
102
}
330
17
100
AcDbMlineStyle
  2
Standard
 70
     0
  3

 62
   256
 51
90.0
 52
90.0
 71
     2
 49
0.5
 62
   256
  6
BYLAYER
 49
-0.5
 62
   256
  6
BYLAYER
  0
XRECORD
  5
2A7
102
{ACAD_REACTORS
330
29E
102
}
330
29E
100
AcDbXrecord
 90
        0
  0
XRECORD
  5
2BD
102
{ACAD_REACTORS
330
29E
102
}
330
29E
100
AcDbXrecord
1000
DSTYLE
1002
{
1070
   179
 70
     2
1070
   171
 70
     3
1070
   143
 40
0.03937
1070
   274
 70
     3
1070
    41
 40
4.0
1070
   343
340
41
1070
   344
340
47
1070
   141
 40
2.5
1070
   176
 70
     7
1070
   177
 70
     7
1070
   178
 70
     7
1070
   271
 70
     2
1070
    46
 40
6.0
1070
    43
 40
10.0
1070
    44
 40
1.0
1070
    42
 40
1.0
1070
   147
 40
1.0
1070
   341
340
41
1070
   173
 70
     1
1070
    77
 70
     1
1070
   272
 70
     2
1070
    73
 70
     0
1070
   172
 70
     1
1070
    74
 70
     0
1070
   283
 70
     0
1070
   340
340
3F
1070
   140
 40
4.0
1070
   284
 70
     8
1070
    78
 70
     8
1002
}
  0
XRECORD
  5
2A8
102
{ACAD_REACTORS
330
29E
102
}
330
29E
100
AcDbXrecord
  1
{3F210B04-1D59-48A4-A74A-E03EE84CBFF0}
  0
XRECORD
  5
2A1
102
{ACAD_REACTORS
330
29E
102
}
330
29E
100
AcDbXrecord
  1

  0
XRECORD
  5
2A6
102
{ACAD_REACTORS
330
29E
102
}
330
29E
100
AcDbXrecord
 90
        1
  0
XRECORD
  5
2A3
102
{ACAD_REACTORS
330
29E
102
}
330
29E
100
AcDbXrecord
340
1A
  0
XRECORD
  5
2A5
102
{ACAD_REACTORS
330
29E
102
}
330
29E
100
AcDbXrecord
 90
    10781
  0
XRECORD
  5
2A4
102
{ACAD_REACTORS
330
29E
102
}
330
29E
100
AcDbXrecord
340
19
  0
XRECORD
  5
2AA
102
{ACAD_REACTORS
330
29E
102
}
330
29E
100
AcDbXrecord
 40
0.0
  0
XRECORD
  5
2AD
102
{ACAD_REACTORS
330
29E
102
}
330
29E
100
AcDbXrecord
340
0
  0
XRECORD
  5
2B3
102
{ACAD_REACTORS
330
29E
102
}
330
29E
100
AcDbXrecord
 10
0.0
 20
0.0
 30
0.0
  0
XRECORD
  5
2AF
102
{ACAD_REACTORS
330
29E
102
}
330
29E
100
AcDbXrecord
 10
0.0
 20
0.0
 30
0.0
  0
XRECORD
  5
2B2
102
{ACAD_REACTORS
330
29E
102
}
330
29E
100
AcDbXrecord
 10
0.0
 20
0.0
 30
0.0
  0
XRECORD
  5
2B0
102
{ACAD_REACTORS
330
29E
102
}
330
29E
100
AcDbXrecord
 10
0.0
 20
0.0
 30
0.0
  0
XRECORD
  5
2B1
102
{ACAD_REACTORS
330
29E
102
}
330
29E
100
AcDbXrecord
 10
0.0
 20
0.0
 30
0.0
  0
XRECORD
  5
2AE
102
{ACAD_REACTORS
330
29E
102
}
330
29E
100
AcDbXrecord
 10
0.0
 20
0.0
 30
0.0
  0
XRECORD
  5
2AB
102
{ACAD_REACTORS
330
29E
102
}
330
29E
100
AcDbXrecord
340
0
  0
XRECORD
  5
2AC
102
{ACAD_REACTORS
330
29E
102
}
330
29E
100
AcDbXrecord
 70
     0
  0
XRECORD
  5
2A2
102
{ACAD_REACTORS
330
29E
102
}
330
29E
100
AcDbXrecord
  1

  0
XRECORD
  5
29F
102
{ACAD_REACTORS
330
29E
102
}
330
29E
100
AcDbXrecord
 90
        1
  0
XRECORD
  5
2A0
102
{ACAD_REACTORS
330
29E
102
}
330
29E
100
AcDbXrecord
 90
       70
  0
XRECORD
  5
2B6
102
{ACAD_REACTORS
330
29E
102
}
330
29E
100
AcDbXrecord
340
0
  0
XRECORD
  5
2BC
102
{ACAD_REACTORS
330
29E
102
}
330
29E
100
AcDbXrecord
 10
0.0
 20
0.0
 30
0.0
  0
XRECORD
  5
2B8
102
{ACAD_REACTORS
330
29E
102
}
330
29E
100
AcDbXrecord
 10
0.0
 20
0.0
 30
0.0
  0
XRECORD
  5
2BB
102
{ACAD_REACTORS
330
29E
102
}
330
29E
100
AcDbXrecord
 10
0.0
 20
0.0
 30
0.0
  0
XRECORD
  5
2B9
102
{ACAD_REACTORS
330
29E
102
}
330
29E
100
AcDbXrecord
 10
0.0
 20
0.0
 30
0.0
  0
XRECORD
  5
2BA
102
{ACAD_REACTORS
330
29E
102
}
330
29E
100
AcDbXrecord
 10
0.0
 20
0.0
 30
0.0
  0
XRECORD
  5
2B7
102
{ACAD_REACTORS
330
29E
102
}
330
29E
100
AcDbXrecord
 10
0.0
 20
0.0
 30
0.0
  0
XRECORD
  5
2B4
102
{ACAD_REACTORS
330
29E
102
}
330
29E
100
AcDbXrecord
340
0
  0
XRECORD
  5
2B5
102
{ACAD_REACTORS
330
29E
102
}
330
29E
100
AcDbXrecord
 70
     0
  0
XRECORD
  5
2A9
102
{ACAD_REACTORS
330
29E
102
}
330
29E
100
AcDbXrecord
  1
{FAEB1C32-E019-11D5-929B-00C0DF256EC4}
  0
ENDSEC
  0
EOF
