  0
SECTION
  2
HEADER
  9
$ACADVER
  1
AC1014
  9
$ACADMAINTVER
 70
     9
  9
$DWGCODEPAGE
  3
ANSI_932
  9
$INSBASE
 10
0.0
 20
0.0
 30
0.0
  9
$EXTMIN
 10
0.0
 20
0.0
 30
0.0
  9
$EXTMAX
 10
594.0
 20
420.0
 30
0.0
  9
$LIMMIN
 10
0.0
 20
0.0
  9
$LIMMAX
 10
594.0
 20
420.0
  9
$ORTHOMODE
 70
     0
  9
$REGENMODE
 70
     1
  9
$FILLMODE
 70
     1
  9
$QTEXTMODE
 70
     0
  9
$MIRRTEXT
 70
     1
  9
$DRAGMODE
 70
     2
  9
$LTSCALE
 40
1.0
  9
$OSMODE
 70
    37
  9
$ATTMODE
 70
     1
  9
$TEXTSIZE
 40
0.2
  9
$TRACEWID
 40
0.05
  9
$TEXTSTYLE
  7
STYLE1
  9
$CLAYER
  8
0
  9
$CELTYPE
  6
BYLAYER
  9
$CECOLOR
 62
   256
  9
$CELTSCALE
 40
1.0
  9
$DELOBJ
 70
     1
  9
$DISPSILH
 70
     0
  9
$DIMSCALE
 40
1.0
  9
$DIMASZ
 40
4.0
  9
$DIMEXO
 40
1.0
  9
$DIMDLI
 40
10.0
  9
$DIMRND
 40
0.0
  9
$DIMDLE
 40
6.0
  9
$DIMEXE
 40
1.0
  9
$DIMTP
 40
0.0
  9
$DIMTM
 40
0.0
  9
$DIMTXT
 40
4.0
  9
$DIMCEN
 40
2.5
  9
$DIMTSZ
 40
0.0
  9
$DIMTOL
 70
     0
  9
$DIMLIM
 70
     0
  9
$DIMTIH
 70
     0
  9
$DIMTOH
 70
     0
  9
$DIMSE1
 70
     0
  9
$DIMSE2
 70
     0
  9
$DIMTAD
 70
     1
  9
$DIMZIN
 70
     8
  9
$DIMBLK
  1

  9
$DIMASO
 70
     1
  9
$DIMSHO
 70
     1
  9
$DIMPOST
  1

  9
$DIMAPOST
  1

  9
$DIMALT
 70
     0
  9
$DIMALTD
 70
     3
  9
$DIMALTF
 40
0.03937
  9
$DIMLFAC
 40
1.0
  9
$DIMTOFL
 70
     1
  9
$DIMTVP
 40
0.0
  9
$DIMTIX
 70
     0
  9
$DIMSOXD
 70
     0
  9
$DIMSAH
 70
     1
  9
$DIMBLK1
  1

  9
$DIMBLK2
  1
FXTIP_ARROW_E
  9
$DIMSTYLE
  2
FXDIMINFO
  9
$DIMCLRD
 70
     7
  9
$DIMCLRE
 70
     7
  9
$DIMCLRT
 70
     7
  9
$DIMTFAC
 40
1.0
  9
$DIMGAP
 40
1.0
  9
$DIMJUST
 70
     0
  9
$DIMSD1
 70
     0
  9
$DIMSD2
 70
     0
  9
$DIMTOLJ
 70
     0
  9
$DIMTZIN
 70
     8
  9
$DIMALTZ
 70
     0
  9
$DIMALTTZ
 70
     0
  9
$DIMFIT
 70
     3
  9
$DIMUPT
 70
     0
  9
$DIMUNIT
 70
     2
  9
$DIMDEC
 70
     2
  9
$DIMTDEC
 70
     2
  9
$DIMALTU
 70
     2
  9
$DIMALTTD
 70
     3
  9
$DIMTXSTY
  7
STYLE1
  9
$DIMAUNIT
 70
     0
  9
$LUNITS
 70
     2
  9
$LUPREC
 70
     4
  9
$SKETCHINC
 40
0.1
  9
$FILLETRAD
 40
0.5
  9
$AUNITS
 70
     0
  9
$AUPREC
 70
     0
  9
$MENU
  1
.
  9
$ELEVATION
 40
0.0
  9
$PELEVATION
 40
0.0
  9
$THICKNESS
 40
0.0
  9
$LIMCHECK
 70
     0
  9
$CHAMFERA
 40
0.5
  9
$CHAMFERB
 40
0.5
  9
$CHAMFERC
 40
1.0
  9
$CHAMFERD
 40
0.0
  9
$SKPOLY
 70
     0
  9
$TDCREATE
 40
2455307.352142118
  9
$TDUPDATE
 40
2455307.35214213
  9
$TDINDWG
 40
0.0000000116
  9
$TDUSRTIMER
 40
0.0000000116
  9
$USRTIMER
 70
     1
  9
$ANGBASE
 50
0.0
  9
$ANGDIR
 70
     0
  9
$PDMODE
 70
     0
  9
$PDSIZE
 40
0.0
  9
$PLINEWID
 40
0.0
  9
$COORDS
 70
     1
  9
$SPLFRAME
 70
     0
  9
$SPLINETYPE
 70
     6
  9
$SPLINESEGS
 70
     8
  9
$ATTDIA
 70
     0
  9
$ATTREQ
 70
     1
  9
$HANDLING
 70
     1
  9
$HANDSEED
  5
359
  9
$SURFTAB1
 70
     6
  9
$SURFTAB2
 70
     6
  9
$SURFTYPE
 70
     6
  9
$SURFU
 70
     6
  9
$SURFV
 70
     6
  9
$UCSNAME
  2

  9
$UCSORG
 10
0.0
 20
0.0
 30
0.0
  9
$UCSXDIR
 10
1.0
 20
0.0
 30
0.0
  9
$UCSYDIR
 10
0.0
 20
1.0
 30
0.0
  9
$PUCSNAME
  2

  9
$PUCSORG
 10
0.0
 20
0.0
 30
0.0
  9
$PUCSXDIR
 10
1.0
 20
0.0
 30
0.0
  9
$PUCSYDIR
 10
0.0
 20
1.0
 30
0.0
  9
$USERI1
 70
     0
  9
$USERI2
 70
     0
  9
$USERI3
 70
     0
  9
$USERI4
 70
     0
  9
$USERI5
 70
     0
  9
$USERR1
 40
0.0
  9
$USERR2
 40
0.0
  9
$USERR3
 40
0.0
  9
$USERR4
 40
0.0
  9
$USERR5
 40
0.0
  9
$WORLDVIEW
 70
     1
  9
$SHADEDGE
 70
     3
  9
$SHADEDIF
 70
    70
  9
$TILEMODE
 70
     1
  9
$MAXACTVP
 70
    64
  9
$PINSBASE
 10
0.0
 20
0.0
 30
0.0
  9
$PLIMCHECK
 70
     0
  9
$PEXTMIN
 10
1.000000E+20
 20
1.000000E+20
 30
1.000000E+20
  9
$PEXTMAX
 10
-1.000000E+20
 20
-1.000000E+20
 30
-1.000000E+20
  9
$PLIMMIN
 10
0.0
 20
0.0
  9
$PLIMMAX
 10
12.0
 20
9.0
  9
$UNITMODE
 70
     0
  9
$VISRETAIN
 70
     1
  9
$PLINEGEN
 70
     0
  9
$PSLTSCALE
 70
     1
  9
$TREEDEPTH
 70
  3020
  9
$PICKSTYLE
 70
     1
  9
$CMLSTYLE
  2
STANDARD
  9
$CMLJUST
 70
     0
  9
$CMLSCALE
 40
1.0
  9
$PROXYGRAPHICS
 70
     1
  9
$MEASUREMENT
 70
     0
  0
ENDSEC
  0
SECTION
  2
CLASSES
  0
CLASS
  1
ACDBDICTIONARYWDFLT
  2
AcDbDictionaryWithDefault
  3
ObjectDBX Classes
 90
        0
280
     0
281
     0
  0
CLASS
  1
XRECORD
  2
AcDbXrecord
  3
AutoCAD 2000
 90
        0
280
     0
281
     0
  0
CLASS
  1
LWPOLYLINE
  2
AcDbPolyline
  3
AutoCAD 2000
 90
        0
280
     0
281
     1
  0
CLASS
  1
HATCH
  2
AcDbHatch
  3
AutoCAD 2000
 90
        0
280
     0
281
     1
  0
CLASS
  1
ACDBPLACEHOLDER
  2
AcDbPlaceHolder
  3
ObjectDBX Classes
 90
        0
280
     0
281
     0
  0
CLASS
  1
LAYOUT
  2
AcDbLayout
  3
ObjectDBX Classes
 90
        0
280
     0
281
     0
  0
ENDSEC
  0
SECTION
  2
TABLES
  0
TABLE
  2
VPORT
  5
8
330
0
100
AcDbSymbolTable
 70
     1
  0
VPORT
  5
29
330
8
100
AcDbSymbolTableRecord
100
AcDbViewportTableRecord
  2
*ACTIVE
 70
     0
 10
0.0
 20
0.0
 11
1.0
 21
1.0
 12
297.0
 22
210.0
 13
0.0
 23
0.0
 14
0.5
 24
0.5
 15
0.5
 25
0.5
 16
0.0
 26
0.0
 36
1.0
 17
0.0
 27
0.0
 37
0.0
 40
420.0
 41
1.414286
 42
50.0
 43
0.0
 44
0.0
 50
0.0
 51
0.0
 71
     0
 72
   100
 73
     1
 74
     3
 75
     0
 76
     0
 77
     0
 78
     0
  0
ENDTAB
  0
TABLE
  2
LTYPE
  5
5
330
0
100
AcDbSymbolTable
 70
     4
  0
LTYPE
  5
14
330
5
100
AcDbSymbolTableRecord
100
AcDbLinetypeTableRecord
  2
BYBLOCK
 70
     0
  3

 72
    65
 73
     0
 40
0.0
  0
LTYPE
  5
15
330
5
100
AcDbSymbolTableRecord
100
AcDbLinetypeTableRecord
  2
BYLAYER
 70
     0
  3

 72
    65
 73
     0
 40
0.0
  0
LTYPE
  5
16
330
5
100
AcDbSymbolTableRecord
100
AcDbLinetypeTableRecord
  2
CONTINUOUS
 70
     0
  3
--------------------
 72
    65
 73
     0
 40
0.0
  0
LTYPE
  5
2A
330
5
100
AcDbSymbolTableRecord
100
AcDbLinetypeTableRecord
  2
CENTER
 70
     0
  3
Center ____ _ ____ _ ____ _ ____ _ ____ _ ____
 72
    65
 73
     4
 40
13.0
 49
10.0
 74
     0
 49
-1.0
 74
     0
 49
1.0
 74
     0
 49
-1.0
 74
     0
  0
LTYPE
  5
2C
330
5
100
AcDbSymbolTableRecord
100
AcDbLinetypeTableRecord
  2
DASHED
 70
     0
  3
Dashed __ __ __ __ __ __ __ __ __ __ __ __ __ _
 72
    65
 73
     2
 40
4.0
 49
3.0
 74
     0
 49
-1.0
 74
     0
  0
ENDTAB
  0
TABLE
  2
LAYER
  5
2
330
0
100
AcDbSymbolTable
 70
    20
  0
LAYER
  5
10
330
2
100
AcDbSymbolTableRecord
100
AcDbLayerTableRecord
  2
0
 70
     0
 62
     7
  6
CONTINUOUS
  0
LAYER
  5
2D
330
2
100
AcDbSymbolTableRecord
100
AcDbLayerTableRecord
  2
LAYERGROUP-1
 70
     0
 62
     3
  6
CONTINUOUS
  0
LAYER
  5
3D
330
2
100
AcDbSymbolTableRecord
100
AcDbLayerTableRecord
  2
}}ﾊﾊGG血CCТ
 70
     0
 62
     3
  6
CONTINUOUS
  0
LAYER
  5
B8
330
2
100
AcDbSymbolTableRecord
100
AcDbLayerTableRecord
  2
0-1
 70
     0
 62
     7
  6
CONTINUOUS
  0
LAYER
  5
D0
330
2
100
AcDbSymbolTableRecord
100
AcDbLayerTableRecord
  2
GR1-1
 70
     0
 62
     7
  6
CONTINUOUS
  0
ENDTAB
  0
TABLE
  2
STYLE
  5
3
330
0
100
AcDbSymbolTable
 70
     4
  0
STYLE
  5
11
330
3
100
AcDbSymbolTableRecord
100
AcDbTextStyleTableRecord
  2
STANDARD
 70
     0
 40
0.0
 41
1.0
 50
0.0
 71
     0
 42
0.2
  3
txt
  4

  0
STYLE
  5
3F
330
3
100
AcDbSymbolTableRecord
100
AcDbTextStyleTableRecord
  2
STYLE1
 70
     0
 40
0.0
 41
1.0
 50
0.0
 71
     0
 42
0.2
  3
MONOTXT.SHX
  4
extfont.shx
  0
STYLE
  5
40
330
3
100
AcDbSymbolTableRecord
100
AcDbTextStyleTableRecord
  2
FX_VECTOR
 70
     0
 40
0.0
 41
1.0
 50
0.0
 71
     0
 42
0.2
  3
MONOTXT.SHX
  4
BIGFONT.SHX
  0
ENDTAB
  0
TABLE
  2
VIEW
  5
6
330
0
100
AcDbSymbolTable
 70
     0
  0
ENDTAB
  0
TABLE
  2
UCS
  5
7
330
0
100
AcDbSymbolTable
 70
     0
  0
ENDTAB
  0
TABLE
  2
APPID
  5
9
330
0
100
AcDbSymbolTable
 70
     1
  0
APPID
  5
12
330
9
100
AcDbSymbolTableRecord
100
AcDbRegAppTableRecord
  2
ACAD
 70
     0
  0
ENDTAB
  0
TABLE
  2
DIMSTYLE
  5
A
330
0
100
AcDbSymbolTable
 70
     2
  0
DIMSTYLE
105
27
330
A
100
AcDbSymbolTableRecord
100
AcDbDimStyleTableRecord
  2
STANDARD
 70
     0
  3

  4

  5

  6

  7

 40
1.0
 41
0.18
 42
0.0625
 43
0.38
 44
0.18
 45
0.0
 46
0.0
 47
0.0
 48
0.0
140
0.18
141
0.09
142
0.0
143
25.4
144
1.0
145
0.0
146
1.0
147
0.09
 71
     0
 72
     0
 73
     1
 74
     1
 75
     0
 76
     0
 77
     0
 78
     0
170
     0
171
     2
172
     0
173
     0
174
     0
175
     0
176
     0
177
     0
178
     0
270
     2
271
     4
272
     4
273
     2
274
     2
340
11
275
     0
280
     0
281
     0
282
     0
283
     1
284
     0
285
     0
286
     0
287
     3
288
     0
  0
DIMSTYLE
105
A7
102
{ACAD_REACTORS
330
FB
330
105
330
10F
330
140
330
19F
330
1AF
330
2D3
330
2DC
330
2E5
330
2EE
102
}
330
A
100
AcDbSymbolTableRecord
100
AcDbDimStyleTableRecord
  2
FXDIMINFO
 70
     0
  3

  4

  5

  6

  7
FXTIP_ARROW_E
 40
1.0
 41
4.0
 42
1.0
 43
10.0
 44
1.0
 45
0.0
 46
6.0
 47
0.0
 48
0.0
140
4.0
141
2.5
142
0.0
143
0.03937
144
1.0
145
0.0
146
1.0
147
1.0
 71
     0
 72
     0
 73
     0
 74
     0
 75
     0
 76
     0
 77
     1
 78
     8
170
     0
171
     3
172
     1
173
     1
174
     0
175
     0
176
     7
177
     7
178
     7
179
     2
270
     2
271
     2
272
     2
273
     2
274
     3
340
3F
275
     0
280
     0
281
     0
282
     0
283
     0
284
     8
285
     0
286
     0
287
     3
288
     0
  0
ENDTAB
  0
TABLE
  2
BLOCK_RECORD
  5
1
330
0
100
AcDbSymbolTable
 70
    34
  0
BLOCK_RECORD
  5
1F
330
1
100
AcDbSymbolTableRecord
100
AcDbBlockTableRecord
  2
*MODEL_SPACE
  0
BLOCK_RECORD
  5
1B
330
1
100
AcDbSymbolTableRecord
100
AcDbBlockTableRecord
  2
*PAPER_SPACE
  0
BLOCK_RECORD
  5
41
330
1
100
AcDbSymbolTableRecord
100
AcDbBlockTableRecord
  2
FXTIP_ARROW_S
  0
BLOCK_RECORD
  5
47
330
1
100
AcDbSymbolTableRecord
100
AcDbBlockTableRecord
  2
FXTIP_ARROW_E
  0
BLOCK_RECORD
  5
4D
330
1
100
AcDbSymbolTableRecord
100
AcDbBlockTableRecord
  2
FXTIP_BLACKDOT_S
  0
BLOCK_RECORD
  5
53
330
1
100
AcDbSymbolTableRecord
100
AcDbBlockTableRecord
  2
FXTIP_BLACKDOT_E
  0
BLOCK_RECORD
  5
59
330
1
100
AcDbSymbolTableRecord
100
AcDbBlockTableRecord
  2
FXTIP_TRIANGLE_S
  0
BLOCK_RECORD
  5
60
330
1
100
AcDbSymbolTableRecord
100
AcDbBlockTableRecord
  2
FXTIP_TRIANGLE_E
  0
BLOCK_RECORD
  5
67
330
1
100
AcDbSymbolTableRecord
100
AcDbBlockTableRecord
  2
FXTIP_ARCHITECT_S
  0
BLOCK_RECORD
  5
6D
330
1
100
AcDbSymbolTableRecord
100
AcDbBlockTableRecord
  2
FXTIP_ARCHITECT_E
  0
BLOCK_RECORD
  5
73
330
1
100
AcDbSymbolTableRecord
100
AcDbBlockTableRecord
  2
FXTIP_CIVIL_S
  0
BLOCK_RECORD
  5
79
330
1
100
AcDbSymbolTableRecord
100
AcDbBlockTableRecord
  2
FXTIP_CIVIL_E
  0
BLOCK_RECORD
  5
7F
330
1
100
AcDbSymbolTableRecord
100
AcDbBlockTableRecord
  2
FXTIP_WHITEDOT_S
  0
BLOCK_RECORD
  5
84
330
1
100
AcDbSymbolTableRecord
100
AcDbBlockTableRecord
  2
FXTIP_WHITEDOT_E
  0
BLOCK_RECORD
  5
89
330
1
100
AcDbSymbolTableRecord
100
AcDbBlockTableRecord
  2
FXTIP_UPARROW_S
  0
BLOCK_RECORD
  5
8E
330
1
100
AcDbSymbolTableRecord
100
AcDbBlockTableRecord
  2
FXTIP_UPARROW_E
  0
BLOCK_RECORD
  5
93
330
1
100
AcDbSymbolTableRecord
100
AcDbBlockTableRecord
  2
FXTIP_DOWNARROW_S
  0
BLOCK_RECORD
  5
98
330
1
100
AcDbSymbolTableRecord
100
AcDbBlockTableRecord
  2
FXTIP_DOWNARROW_E
  0
BLOCK_RECORD
  5
9D
330
1
100
AcDbSymbolTableRecord
100
AcDbBlockTableRecord
  2
FXTIP_BLACKTRIANGLE_S
  0
BLOCK_RECORD
  5
A2
330
1
100
AcDbSymbolTableRecord
100
AcDbBlockTableRecord
  2
FXTIP_BLACKTRIANGLE_E
  0
BLOCK_RECORD
  5
A8
330
1
100
AcDbSymbolTableRecord
100
AcDbBlockTableRecord
  2
BLKF021
  0
BLOCK_RECORD
  5
B4
330
1
100
AcDbSymbolTableRecord
100
AcDbBlockTableRecord
  2
BLKF022
  0
BLOCK_RECORD
  5
BD
330
1
100
AcDbSymbolTableRecord
100
AcDbBlockTableRecord
  2
BLKF023
  0
BLOCK_RECORD
  5
FC
330
1
100
AcDbSymbolTableRecord
100
AcDbBlockTableRecord
  2
*D22
  0
BLOCK_RECORD
  5
106
330
1
100
AcDbSymbolTableRecord
100
AcDbBlockTableRecord
  2
*D23
  0
BLOCK_RECORD
  5
110
330
1
100
AcDbSymbolTableRecord
100
AcDbBlockTableRecord
  2
*D24
  0
BLOCK_RECORD
  5
141
330
1
100
AcDbSymbolTableRecord
100
AcDbBlockTableRecord
  2
*D25
  0
BLOCK_RECORD
  5
18A
330
1
100
AcDbSymbolTableRecord
100
AcDbBlockTableRecord
  2
BLKF028
  0
BLOCK_RECORD
  5
1A0
330
1
100
AcDbSymbolTableRecord
100
AcDbBlockTableRecord
  2
*D27
  0
BLOCK_RECORD
  5
1B0
330
1
100
AcDbSymbolTableRecord
100
AcDbBlockTableRecord
  2
*D28
  0
BLOCK_RECORD
  5
258
330
1
100
AcDbSymbolTableRecord
100
AcDbBlockTableRecord
  2
BLKF031
  0
BLOCK_RECORD
  5
2D4
330
1
100
AcDbSymbolTableRecord
100
AcDbBlockTableRecord
  2
*D30
  0
BLOCK_RECORD
  5
2DD
330
1
100
AcDbSymbolTableRecord
100
AcDbBlockTableRecord
  2
*D31
  0
BLOCK_RECORD
  5
2E6
330
1
100
AcDbSymbolTableRecord
100
AcDbBlockTableRecord
  2
*D32
  0
BLOCK_RECORD
  5
2EF
330
1
100
AcDbSymbolTableRecord
100
AcDbBlockTableRecord
  2
*D33
  0
ENDTAB
  0
ENDSEC
  0
SECTION
  2
BLOCKS
  0
BLOCK
  5
20
330
1F
100
AcDbEntity
  8
0
100
AcDbBlockBegin
  2
*MODEL_SPACE
 70
     0
 71
     0
 10
0.0
 20
0.0
 30
0.0
  3
*MODEL_SPACE
  1

  0
ENDBLK
  5
21
330
1F
100
AcDbEntity
  8
0
100
AcDbBlockEnd
  0
BLOCK
  5
1C
330
1B
100
AcDbEntity
 67
     1
  8
0
100
AcDbBlockBegin
  2
*PAPER_SPACE
 70
     0
 71
     0
 10
0.0
 20
0.0
 30
0.0
  3
*PAPER_SPACE
  1

  0
ENDBLK
  5
1D
330
1B
100
AcDbEntity
 67
     1
  8
0
100
AcDbBlockEnd
  0
BLOCK
  5
42
330
41
100
AcDbEntity
  8
0
100
AcDbBlockBegin
  2
FXTIP_ARROW_S
 70
     0
 71
     0
 10
0.0
 20
0.0
 30
0.0
  3
FXTIP_ARROW_S
  1

  0
LINE
  5
44
330
41
100
AcDbEntity
  8
0
  6
CONTINUOUS
 62
     0
100
AcDbLine
 10
0.0
 20
0.0
 30
0.0
 11
-1.0
 21
0.0
 31
0.0
  0
LINE
  5
45
330
41
100
AcDbEntity
  8
0
  6
CONTINUOUS
 62
     0
100
AcDbLine
 10
0.0
 20
0.0
 30
0.0
 11
-0.965926
 21
-0.258819
 31
0.0
  0
LINE
  5
46
330
41
100
AcDbEntity
  8
0
  6
CONTINUOUS
 62
     0
100
AcDbLine
 10
0.0
 20
0.0
 30
0.0
 11
-0.965926
 21
0.258819
 31
0.0
  0
ENDBLK
  5
43
330
41
100
AcDbEntity
  8
0
100
AcDbBlockEnd
  0
BLOCK
  5
48
330
47
100
AcDbEntity
  8
0
100
AcDbBlockBegin
  2
FXTIP_ARROW_E
 70
     0
 71
     0
 10
0.0
 20
0.0
 30
0.0
  3
FXTIP_ARROW_E
  1

  0
LINE
  5
4A
330
47
100
AcDbEntity
  8
0
  6
CONTINUOUS
 62
     0
100
AcDbLine
 10
0.0
 20
0.0
 30
0.0
 11
-1.0
 21
0.0
 31
0.0
  0
LINE
  5
4B
330
47
100
AcDbEntity
  8
0
  6
CONTINUOUS
 62
     0
100
AcDbLine
 10
0.0
 20
0.0
 30
0.0
 11
-0.965926
 21
0.258819
 31
0.0
  0
LINE
  5
4C
330
47
100
AcDbEntity
  8
0
  6
CONTINUOUS
 62
     0
100
AcDbLine
 10
0.0
 20
0.0
 30
0.0
 11
-0.965926
 21
-0.258819
 31
0.0
  0
ENDBLK
  5
49
330
47
100
AcDbEntity
  8
0
100
AcDbBlockEnd
  0
BLOCK
  5
4E
330
4D
100
AcDbEntity
  8
0
100
AcDbBlockBegin
  2
FXTIP_BLACKDOT_S
 70
     0
 71
     0
 10
0.0
 20
0.0
 30
0.0
  3
FXTIP_BLACKDOT_S
  1

  0
LINE
  5
50
330
4D
100
AcDbEntity
  8
0
  6
CONTINUOUS
 62
     0
100
AcDbLine
 10
0.0
 20
0.0
 30
0.0
 11
-1.0
 21
0.0
 31
0.0
  0
LWPOLYLINE
  5
51
330
4D
100
AcDbEntity
  8
0
  6
CONTINUOUS
 62
     0
100
AcDbPolyline
 90
        2
 70
     1
 10
-0.25
 20
0.0
 40
0.5
 41
0.5
 42
1.0
 10
0.25
 20
0.0
 40
0.5
 41
0.5
 42
1.0
  0
CIRCLE
  5
52
330
4D
100
AcDbEntity
  8
0
  6
CONTINUOUS
 62
     0
100
AcDbCircle
 10
0.0
 20
0.0
 30
0.0
 40
0.5
  0
ENDBLK
  5
4F
330
4D
100
AcDbEntity
  8
0
100
AcDbBlockEnd
  0
BLOCK
  5
54
330
53
100
AcDbEntity
  8
0
100
AcDbBlockBegin
  2
FXTIP_BLACKDOT_E
 70
     0
 71
     0
 10
0.0
 20
0.0
 30
0.0
  3
FXTIP_BLACKDOT_E
  1

  0
LINE
  5
56
330
53
100
AcDbEntity
  8
0
  6
CONTINUOUS
 62
     0
100
AcDbLine
 10
0.0
 20
0.0
 30
0.0
 11
-1.0
 21
0.0
 31
0.0
  0
LWPOLYLINE
  5
57
330
53
100
AcDbEntity
  8
0
  6
CONTINUOUS
 62
     0
100
AcDbPolyline
 90
        2
 70
     1
 10
-0.25
 20
0.0
 40
0.5
 41
0.5
 42
1.0
 10
0.25
 20
0.0
 40
0.5
 41
0.5
 42
1.0
  0
CIRCLE
  5
58
330
53
100
AcDbEntity
  8
0
  6
CONTINUOUS
 62
     0
100
AcDbCircle
 10
0.0
 20
0.0
 30
0.0
 40
0.5
  0
ENDBLK
  5
55
330
53
100
AcDbEntity
  8
0
100
AcDbBlockEnd
  0
BLOCK
  5
5A
330
59
100
AcDbEntity
  8
0
100
AcDbBlockBegin
  2
FXTIP_TRIANGLE_S
 70
     0
 71
     0
 10
0.0
 20
0.0
 30
0.0
  3
FXTIP_TRIANGLE_S
  1

  0
LINE
  5
5C
330
59
100
AcDbEntity
  8
0
  6
CONTINUOUS
 62
     0
100
AcDbLine
 10
0.0
 20
0.0
 30
0.0
 11
-1.0
 21
0.0
 31
0.0
  0
LINE
  5
5D
330
59
100
AcDbEntity
  8
0
  6
CONTINUOUS
 62
     0
100
AcDbLine
 10
0.0
 20
0.0
 30
0.0
 11
-0.965926
 21
-0.258819
 31
0.0
  0
LINE
  5
5E
330
59
100
AcDbEntity
  8
0
  6
CONTINUOUS
 62
     0
100
AcDbLine
 10
0.0
 20
0.0
 30
0.0
 11
-0.965926
 21
0.258819
 31
0.0
  0
LINE
  5
5F
330
59
100
AcDbEntity
  8
0
  6
CONTINUOUS
 62
     0
100
AcDbLine
 10
-0.965926
 20
-0.258819
 30
0.0
 11
-0.965926
 21
0.258819
 31
0.0
  0
ENDBLK
  5
5B
330
59
100
AcDbEntity
  8
0
100
AcDbBlockEnd
  0
BLOCK
  5
61
330
60
100
AcDbEntity
  8
0
100
AcDbBlockBegin
  2
FXTIP_TRIANGLE_E
 70
     0
 71
     0
 10
0.0
 20
0.0
 30
0.0
  3
FXTIP_TRIANGLE_E
  1

  0
LINE
  5
63
330
60
100
AcDbEntity
  8
0
  6
CONTINUOUS
 62
     0
100
AcDbLine
 10
0.0
 20
0.0
 30
0.0
 11
-1.0
 21
0.0
 31
0.0
  0
LINE
  5
64
330
60
100
AcDbEntity
  8
0
  6
CONTINUOUS
 62
     0
100
AcDbLine
 10
0.0
 20
0.0
 30
0.0
 11
-0.965926
 21
0.258819
 31
0.0
  0
LINE
  5
65
330
60
100
AcDbEntity
  8
0
  6
CONTINUOUS
 62
     0
100
AcDbLine
 10
0.0
 20
0.0
 30
0.0
 11
-0.965926
 21
-0.258819
 31
0.0
  0
LINE
  5
66
330
60
100
AcDbEntity
  8
0
  6
CONTINUOUS
 62
     0
100
AcDbLine
 10
-0.965926
 20
0.258819
 30
0.0
 11
-0.965926
 21
-0.258819
 31
0.0
  0
ENDBLK
  5
62
330
60
100
AcDbEntity
  8
0
100
AcDbBlockEnd
  0
BLOCK
  5
68
330
67
100
AcDbEntity
  8
0
100
AcDbBlockBegin
  2
FXTIP_ARCHITECT_S
 70
     0
 71
     0
 10
0.0
 20
0.0
 30
0.0
  3
FXTIP_ARCHITECT_S
  1

  0
LINE
  5
6A
330
67
100
AcDbEntity
  8
0
  6
CONTINUOUS
 62
     0
100
AcDbLine
 10
0.0
 20
0.0
 30
0.0
 11
-1.0
 21
0.0
 31
0.0
  0
LINE
  5
6B
330
67
100
AcDbEntity
  8
0
  6
CONTINUOUS
 62
     0
100
AcDbLine
 10
0.0
 20
0.0
 30
0.0
 11
-0.707107
 21
-0.707107
 31
0.0
  0
LINE
  5
6C
330
67
100
AcDbEntity
  8
0
  6
CONTINUOUS
 62
     0
100
AcDbLine
 10
0.0
 20
0.0
 30
0.0
 11
0.707107
 21
0.707107
 31
0.0
  0
ENDBLK
  5
69
330
67
100
AcDbEntity
  8
0
100
AcDbBlockEnd
  0
BLOCK
  5
6E
330
6D
100
AcDbEntity
  8
0
100
AcDbBlockBegin
  2
FXTIP_ARCHITECT_E
 70
     0
 71
     0
 10
0.0
 20
0.0
 30
0.0
  3
FXTIP_ARCHITECT_E
  1

  0
LINE
  5
70
330
6D
100
AcDbEntity
  8
0
  6
CONTINUOUS
 62
     0
100
AcDbLine
 10
0.0
 20
0.0
 30
0.0
 11
-1.0
 21
0.0
 31
0.0
  0
LINE
  5
71
330
6D
100
AcDbEntity
  8
0
  6
CONTINUOUS
 62
     0
100
AcDbLine
 10
0.0
 20
0.0
 30
0.0
 11
0.707107
 21
0.707107
 31
0.0
  0
LINE
  5
72
330
6D
100
AcDbEntity
  8
0
  6
CONTINUOUS
 62
     0
100
AcDbLine
 10
0.0
 20
0.0
 30
0.0
 11
-0.707107
 21
-0.707107
 31
0.0
  0
ENDBLK
  5
6F
330
6D
100
AcDbEntity
  8
0
100
AcDbBlockEnd
  0
BLOCK
  5
74
330
73
100
AcDbEntity
  8
0
100
AcDbBlockBegin
  2
FXTIP_CIVIL_S
 70
     0
 71
     0
 10
0.0
 20
0.0
 30
0.0
  3
FXTIP_CIVIL_S
  1

  0
LINE
  5
76
330
73
100
AcDbEntity
  8
0
  6
CONTINUOUS
 62
     0
100
AcDbLine
 10
0.0
 20
0.0
 30
0.0
 11
-1.0
 21
0.0
 31
0.0
  0
LINE
  5
77
330
73
100
AcDbEntity
  8
0
  6
CONTINUOUS
 62
     0
100
AcDbLine
 10
0.0
 20
-0.0625
 30
0.0
 11
-1.0
 21
-0.0625
 31
0.0
  0
LINE
  5
78
330
73
100
AcDbEntity
  8
0
  6
CONTINUOUS
 62
     0
100
AcDbLine
 10
0.0
 20
-0.125
 30
0.0
 11
-1.0
 21
-0.125
 31
0.0
  0
ENDBLK
  5
75
330
73
100
AcDbEntity
  8
0
100
AcDbBlockEnd
  0
BLOCK
  5
7A
330
79
100
AcDbEntity
  8
0
100
AcDbBlockBegin
  2
FXTIP_CIVIL_E
 70
     0
 71
     0
 10
0.0
 20
0.0
 30
0.0
  3
FXTIP_CIVIL_E
  1

  0
LINE
  5
7C
330
79
100
AcDbEntity
  8
0
  6
CONTINUOUS
 62
     0
100
AcDbLine
 10
0.0
 20
0.0
 30
0.0
 11
-1.0
 21
0.0
 31
0.0
  0
LINE
  5
7D
330
79
100
AcDbEntity
  8
0
  6
CONTINUOUS
 62
     0
100
AcDbLine
 10
0.0
 20
0.0625
 30
0.0
 11
-1.0
 21
0.0625
 31
0.0
  0
LINE
  5
7E
330
79
100
AcDbEntity
  8
0
  6
CONTINUOUS
 62
     0
100
AcDbLine
 10
0.0
 20
0.125
 30
0.0
 11
-1.0
 21
0.125
 31
0.0
  0
ENDBLK
  5
7B
330
79
100
AcDbEntity
  8
0
100
AcDbBlockEnd
  0
BLOCK
  5
80
330
7F
100
AcDbEntity
  8
0
100
AcDbBlockBegin
  2
FXTIP_WHITEDOT_S
 70
     0
 71
     0
 10
0.0
 20
0.0
 30
0.0
  3
FXTIP_WHITEDOT_S
  1

  0
LINE
  5
82
330
7F
100
AcDbEntity
  8
0
  6
CONTINUOUS
 62
     0
100
AcDbLine
 10
0.0
 20
0.0
 30
0.0
 11
-1.0
 21
0.0
 31
0.0
  0
CIRCLE
  5
83
330
7F
100
AcDbEntity
  8
0
  6
CONTINUOUS
 62
     0
100
AcDbCircle
 10
0.0
 20
0.0
 30
0.0
 40
0.5
  0
ENDBLK
  5
81
330
7F
100
AcDbEntity
  8
0
100
AcDbBlockEnd
  0
BLOCK
  5
85
330
84
100
AcDbEntity
  8
0
100
AcDbBlockBegin
  2
FXTIP_WHITEDOT_E
 70
     0
 71
     0
 10
0.0
 20
0.0
 30
0.0
  3
FXTIP_WHITEDOT_E
  1

  0
LINE
  5
87
330
84
100
AcDbEntity
  8
0
  6
CONTINUOUS
 62
     0
100
AcDbLine
 10
0.0
 20
0.0
 30
0.0
 11
-1.0
 21
0.0
 31
0.0
  0
CIRCLE
  5
88
330
84
100
AcDbEntity
  8
0
  6
CONTINUOUS
 62
     0
100
AcDbCircle
 10
0.0
 20
0.0
 30
0.0
 40
0.5
  0
ENDBLK
  5
86
330
84
100
AcDbEntity
  8
0
100
AcDbBlockEnd
  0
BLOCK
  5
8A
330
89
100
AcDbEntity
  8
0
100
AcDbBlockBegin
  2
FXTIP_UPARROW_S
 70
     0
 71
     0
 10
0.0
 20
0.0
 30
0.0
  3
FXTIP_UPARROW_S
  1

  0
LINE
  5
8C
330
89
100
AcDbEntity
  8
0
  6
CONTINUOUS
 62
     0
100
AcDbLine
 10
0.0
 20
0.0
 30
0.0
 11
-1.0
 21
0.0
 31
0.0
  0
LINE
  5
8D
330
89
100
AcDbEntity
  8
0
  6
CONTINUOUS
 62
     0
100
AcDbLine
 10
0.0
 20
0.0
 30
0.0
 11
-0.965926
 21
-0.258819
 31
0.0
  0
ENDBLK
  5
8B
330
89
100
AcDbEntity
  8
0
100
AcDbBlockEnd
  0
BLOCK
  5
8F
330
8E
100
AcDbEntity
  8
0
100
AcDbBlockBegin
  2
FXTIP_UPARROW_E
 70
     0
 71
     0
 10
0.0
 20
0.0
 30
0.0
  3
FXTIP_UPARROW_E
  1

  0
LINE
  5
91
330
8E
100
AcDbEntity
  8
0
  6
CONTINUOUS
 62
     0
100
AcDbLine
 10
0.0
 20
0.0
 30
0.0
 11
-1.0
 21
0.0
 31
0.0
  0
LINE
  5
92
330
8E
100
AcDbEntity
  8
0
  6
CONTINUOUS
 62
     0
100
AcDbLine
 10
0.0
 20
0.0
 30
0.0
 11
-0.965926
 21
0.258819
 31
0.0
  0
ENDBLK
  5
90
330
8E
100
AcDbEntity
  8
0
100
AcDbBlockEnd
  0
BLOCK
  5
94
330
93
100
AcDbEntity
  8
0
100
AcDbBlockBegin
  2
FXTIP_DOWNARROW_S
 70
     0
 71
     0
 10
0.0
 20
0.0
 30
0.0
  3
FXTIP_DOWNARROW_S
  1

  0
LINE
  5
96
330
93
100
AcDbEntity
  8
0
  6
CONTINUOUS
 62
     0
100
AcDbLine
 10
0.0
 20
0.0
 30
0.0
 11
-1.0
 21
0.0
 31
0.0
  0
LINE
  5
97
330
93
100
AcDbEntity
  8
0
  6
CONTINUOUS
 62
     0
100
AcDbLine
 10
0.0
 20
0.0
 30
0.0
 11
-0.965926
 21
0.258819
 31
0.0
  0
ENDBLK
  5
95
330
93
100
AcDbEntity
  8
0
100
AcDbBlockEnd
  0
BLOCK
  5
99
330
98
100
AcDbEntity
  8
0
100
AcDbBlockBegin
  2
FXTIP_DOWNARROW_E
 70
     0
 71
     0
 10
0.0
 20
0.0
 30
0.0
  3
FXTIP_DOWNARROW_E
  1

  0
LINE
  5
9B
330
98
100
AcDbEntity
  8
0
  6
CONTINUOUS
 62
     0
100
AcDbLine
 10
0.0
 20
0.0
 30
0.0
 11
-1.0
 21
0.0
 31
0.0
  0
LINE
  5
9C
330
98
100
AcDbEntity
  8
0
  6
CONTINUOUS
 62
     0
100
AcDbLine
 10
0.0
 20
0.0
 30
0.0
 11
-0.965926
 21
-0.258819
 31
0.0
  0
ENDBLK
  5
9A
330
98
100
AcDbEntity
  8
0
100
AcDbBlockEnd
  0
BLOCK
  5
9E
330
9D
100
AcDbEntity
  8
0
100
AcDbBlockBegin
  2
FXTIP_BLACKTRIANGLE_S
 70
     0
 71
     0
 10
0.0
 20
0.0
 30
0.0
  3
FXTIP_BLACKTRIANGLE_S
  1

  0
LINE
  5
A0
330
9D
100
AcDbEntity
  8
0
  6
CONTINUOUS
 62
     0
100
AcDbLine
 10
0.0
 20
0.0
 30
0.0
 11
-1.0
 21
0.0
 31
0.0
  0
SOLID
  5
A1
330
9D
100
AcDbEntity
  8
0
  6
CONTINUOUS
 62
     0
100
AcDbTrace
 10
0.0
 20
0.0
 30
0.0
 11
-0.965926
 21
-0.258819
 31
0.0
 12
-0.965926
 22
0.258819
 32
0.0
 13
-0.965926
 23
0.258819
 33
0.0
  0
ENDBLK
  5
9F
330
9D
100
AcDbEntity
  8
0
100
AcDbBlockEnd
  0
BLOCK
  5
A3
330
A2
100
AcDbEntity
  8
0
100
AcDbBlockBegin
  2
FXTIP_BLACKTRIANGLE_E
 70
     0
 71
     0
 10
0.0
 20
0.0
 30
0.0
  3
FXTIP_BLACKTRIANGLE_E
  1

  0
LINE
  5
A5
330
A2
100
AcDbEntity
  8
0
  6
CONTINUOUS
 62
     0
100
AcDbLine
 10
0.0
 20
0.0
 30
0.0
 11
-1.0
 21
0.0
 31
0.0
  0
SOLID
  5
A6
330
A2
100
AcDbEntity
  8
0
  6
CONTINUOUS
 62
     0
100
AcDbTrace
 10
0.0
 20
0.0
 30
0.0
 11
-0.965926
 21
0.258819
 31
0.0
 12
-0.965926
 22
-0.258819
 32
0.0
 13
-0.965926
 23
-0.258819
 33
0.0
  0
ENDBLK
  5
A4
330
A2
100
AcDbEntity
  8
0
100
AcDbBlockEnd
  0
BLOCK
  5
A9
330
A8
100
AcDbEntity
  8
0
100
AcDbBlockBegin
  2
BLKF021
 70
     0
 71
     0
 10
0.0
 20
0.0
 30
0.0
  3
BLKF021
  1

  0
LINE
  5
AC
330
A8
100
AcDbEntity
  8
}}ﾊﾊGG血CCТ
  6
CONTINUOUS
 62
     7
100
AcDbLine
 10
10.0
 20
10.0
 30
0.0
 11
584.0
 21
10.0
 31
0.0
  0
LINE
  5
AD
330
A8
100
AcDbEntity
  8
}}ﾊﾊGG血CCТ
  6
CONTINUOUS
 62
     7
100
AcDbLine
 10
10.0
 20
10.0
 30
0.0
 11
10.0
 21
410.0
 31
0.0
  0
LINE
  5
AE
330
A8
100
AcDbEntity
  8
}}ﾊﾊGG血CCТ
  6
CONTINUOUS
 62
     7
100
AcDbLine
 10
10.0
 20
410.0
 30
0.0
 11
584.0
 21
410.0
 31
0.0
  0
LINE
  5
AF
330
A8
100
AcDbEntity
  8
}}ﾊﾊGG血CCТ
  6
CONTINUOUS
 62
     7
100
AcDbLine
 10
584.0
 20
410.0
 30
0.0
 11
584.0
 21
10.0
 31
0.0
  0
LINE
  5
B0
330
A8
100
AcDbEntity
  8
}}ﾊﾊGG血CCТ
  6
CONTINUOUS
 62
     7
100
AcDbLine
 10
327.0
 20
10.0
 30
0.0
 11
327.0
 21
20.0
 31
0.0
  0
TEXT
  5
B1
330
A8
100
AcDbEntity
  8
}}ﾊﾊGG血CCТ
  6
CONTINUOUS
 62
     7
100
AcDbText
 10
311.738831
 20
11.596879
 30
0.0
 40
6.648749
  1
品名
 41
1.083413
  7
FX_VECTOR
 72
     5
 11
323.058371
 21
11.596879
 31
0.0
100
AcDbText
  0
LINE
  5
B2
330
A8
100
AcDbEntity
  8
}}ﾊﾊGG血CCТ
  6
CONTINUOUS
 62
     7
100
AcDbLine
 10
407.0
 20
20.0
 30
0.0
 11
407.0
 21
10.0
 31
0.0
  0
LINE
  5
B3
330
A8
100
AcDbEntity
  8
}}ﾊﾊGG血CCТ
  6
CONTINUOUS
 62
     7
100
AcDbLine
 10
307.0
 20
20.0
 30
0.0
 11
584.0
 21
20.0
 31
0.0
  0
INSERT
  5
B7
330
A8
100
AcDbEntity
  8
0
100
AcDbBlockReference
  2
BLKF022
 10
0.0
 20
0.0
 30
0.0
  0
INSERT
  5
C0
330
A8
100
AcDbEntity
  8
0
100
AcDbBlockReference
  2
BLKF023
 10
0.0
 20
0.0
 30
0.0
  0
HATCH
  5
D1
330
A8
100
AcDbEntity
  8
GR1-1
  6
CONTINUOUS
 62
     7
100
AcDbHatch
 10
0.0
 20
0.0
 30
0.0
210
0.0
220
0.0
230
1.0
  2

 70
     0
 71
     1
 91
        2
 92
        0
 93
        4
 72
     1
 10
512.8018997861325
 20
17.91346152
 11
518.8018997861325
 21
17.91346152
 72
     1
 10
518.8018997861325
 20
17.91346152
 11
518.8018997861325
 21
11.91346152
 72
     1
 10
518.8018997861325
 20
11.91346152
 11
512.8018997861325
 21
11.91346152
 72
     1
 10
512.8018997861325
 20
11.91346152
 11
512.8018997861325
 21
17.91346152
 97
        0
 92
        0
 93
       15
 72
     1
 10
515.8018997861325
 20
17.76923076000002
 11
512.9461305461325
 21
14.91346152
 72
     1
 10
512.9461305461325
 20
14.91346152
 11
515.8018997861325
 21
12.05769228000001
 72
     1
 10
515.8018997861325
 20
12.05769228000001
 11
517.3595920661326
 21
13.61538462
 72
     1
 10
517.3595920661326
 20
13.61538462
 11
517.3595920661326
 21
12.98076924
 72
     1
 10
517.3595920661326
 20
12.98076924
 11
518.2249766861326
 21
12.98076924
 72
     1
 10
518.2249766861326
 20
12.98076924
 11
518.2249766861326
 21
15.00000000000001
 72
     1
 10
518.2249766861326
 20
15.00000000000001
 11
515.8018997861325
 21
15.00000000000001
 72
     1
 10
515.8018997861325
 20
15.00000000000001
 11
515.8018997861325
 21
14.13461538000001
 72
     1
 10
515.8018997861325
 20
14.13461538000001
 11
516.2461305461325
 21
14.13461538000001
 72
     1
 10
516.2461305461325
 20
14.13461538000001
 11
515.8018997861325
 21
13.69038462
 72
     1
 10
515.8018997861325
 20
13.69038462
 11
514.5788228861325
 21
14.91346152
 72
     1
 10
514.5788228861325
 20
14.91346152
 11
515.8018997861325
 21
16.13653842000003
 72
     1
 10
515.8018997861325
 20
16.13653842000003
 11
516.5922844061325
 21
15.3461538
 72
     1
 10
516.5922844061325
 20
15.3461538
 11
518.2249766861326
 21
15.3461538
 72
     1
 10
518.2249766861326
 20
15.3461538
 11
515.8018997861325
 21
17.76923076000002
 97
        0
 75
     0
 76
     0
 52
45.0
 41
0.05
 77
     0
 78
     1
 53
45.0
 43
0.0
 44
0.0
 45
-0.0353553390593274
 46
0.0353553390593274
 79
     0
 98
        0
  0
TEXT
  5
D2
330
A8
100
AcDbEntity
  8
}}ﾊﾊGG血CCТ
  6
CONTINUOUS
 62
     7
100
AcDbText
 10
523.225769
 20
11.461285
 30
0.0
 40
7.170908
  1
GOLD CASTER
 41
0.63978
  7
FX_VECTOR
 72
     5
 11
569.977636
 21
11.461285
 31
0.0
100
AcDbText
  0
LINE
  5
D3
330
A8
100
AcDbEntity
  8
}}ﾊﾊGG血CCТ
  6
CONTINUOUS
 62
     7
100
AcDbLine
 10
427.0
 20
10.0
 30
0.0
 11
427.0
 21
20.0
 31
0.0
  0
TEXT
  5
D4
330
A8
100
AcDbEntity
  8
}}ﾊﾊGG血CCТ
  6
CONTINUOUS
 62
     7
100
AcDbText
 10
411.738831
 20
11.596879
 30
0.0
 40
6.648749
  1
図番
 41
1.083413
  7
FX_VECTOR
 72
     5
 11
423.058371
 21
11.596879
 31
0.0
100
AcDbText
  0
LINE
  5
D5
330
A8
100
AcDbEntity
  8
}}ﾊﾊGG血CCТ
  6
CONTINUOUS
 62
     7
100
AcDbLine
 10
507.0
 20
20.0
 30
0.0
 11
507.0
 21
10.0
 31
0.0
  0
LINE
  5
D6
330
A8
100
AcDbEntity
  8
}}ﾊﾊGG血CCТ
  6
CONTINUOUS
 62
     7
100
AcDbLine
 10
307.0
 20
20.0
 30
0.0
 11
307.0
 21
10.0
 31
0.0
  0
ENDBLK
  5
AA
330
A8
100
AcDbEntity
  8
0
100
AcDbBlockEnd
  0
BLOCK
  5
B5
330
B4
100
AcDbEntity
  8
0
100
AcDbBlockBegin
  2
BLKF022
 70
     0
 71
     0
 10
0.0
 20
0.0
 30
0.0
  3
BLKF022
  1

  0
LINE
  5
B9
330
B4
100
AcDbEntity
  8
0-1
  6
CONTINUOUS
 62
     7
100
AcDbLine
 10
518.8019
 20
17.913462
 30
0.0
 11
512.8019
 21
17.913462
 31
0.0
  0
LINE
  5
BA
330
B4
100
AcDbEntity
  8
0-1
  6
CONTINUOUS
 62
     7
100
AcDbLine
 10
512.8019
 20
17.913462
 30
0.0
 11
512.8019
 21
11.913462
 31
0.0
  0
LINE
  5
BB
330
B4
100
AcDbEntity
  8
0-1
  6
CONTINUOUS
 62
     7
100
AcDbLine
 10
512.8019
 20
11.913462
 30
0.0
 11
518.8019
 21
11.913462
 31
0.0
  0
LINE
  5
BC
330
B4
100
AcDbEntity
  8
0-1
  6
CONTINUOUS
 62
     7
100
AcDbLine
 10
518.8019
 20
11.913462
 30
0.0
 11
518.8019
 21
17.913462
 31
0.0
  0
ENDBLK
  5
B6
330
B4
100
AcDbEntity
  8
0
100
AcDbBlockEnd
  0
BLOCK
  5
BE
330
BD
100
AcDbEntity
  8
0
100
AcDbBlockBegin
  2
BLKF023
 70
     0
 71
     0
 10
0.0
 20
0.0
 30
0.0
  3
BLKF023
  1

  0
LINE
  5
C1
330
BD
100
AcDbEntity
  8
0-1
  6
CONTINUOUS
 62
     7
100
AcDbLine
 10
518.224977
 20
15.346154
 30
0.0
 11
515.8019
 21
17.769231
 31
0.0
  0
LINE
  5
C2
330
BD
100
AcDbEntity
  8
0-1
  6
CONTINUOUS
 62
     7
100
AcDbLine
 10
515.8019
 20
17.769231
 30
0.0
 11
512.946131
 21
14.913462
 31
0.0
  0
LINE
  5
C3
330
BD
100
AcDbEntity
  8
0-1
  6
CONTINUOUS
 62
     7
100
AcDbLine
 10
512.946131
 20
14.913462
 30
0.0
 11
515.8019
 21
12.057692
 31
0.0
  0
LINE
  5
C4
330
BD
100
AcDbEntity
  8
0-1
  6
CONTINUOUS
 62
     7
100
AcDbLine
 10
515.8019
 20
12.057692
 30
0.0
 11
517.359592
 21
13.615385
 31
0.0
  0
LINE
  5
C5
330
BD
100
AcDbEntity
  8
0-1
  6
CONTINUOUS
 62
     7
100
AcDbLine
 10
517.359592
 20
13.615385
 30
0.0
 11
517.359592
 21
12.980769
 31
0.0
  0
LINE
  5
C6
330
BD
100
AcDbEntity
  8
0-1
  6
CONTINUOUS
 62
     7
100
AcDbLine
 10
517.359592
 20
12.980769
 30
0.0
 11
518.224977
 21
12.980769
 31
0.0
  0
LINE
  5
C7
330
BD
100
AcDbEntity
  8
0-1
  6
CONTINUOUS
 62
     7
100
AcDbLine
 10
518.224977
 20
12.980769
 30
0.0
 11
518.224977
 21
15.0
 31
0.0
  0
LINE
  5
C8
330
BD
100
AcDbEntity
  8
0-1
  6
CONTINUOUS
 62
     7
100
AcDbLine
 10
518.224977
 20
15.0
 30
0.0
 11
515.8019
 21
15.0
 31
0.0
  0
LINE
  5
C9
330
BD
100
AcDbEntity
  8
0-1
  6
CONTINUOUS
 62
     7
100
AcDbLine
 10
515.8019
 20
15.0
 30
0.0
 11
515.8019
 21
14.134615
 31
0.0
  0
LINE
  5
CA
330
BD
100
AcDbEntity
  8
0-1
  6
CONTINUOUS
 62
     7
100
AcDbLine
 10
515.8019
 20
14.134615
 30
0.0
 11
516.246131
 21
14.134615
 31
0.0
  0
LINE
  5
CB
330
BD
100
AcDbEntity
  8
0-1
  6
CONTINUOUS
 62
     7
100
AcDbLine
 10
516.246131
 20
14.134615
 30
0.0
 11
515.8019
 21
13.690385
 31
0.0
  0
LINE
  5
CC
330
BD
100
AcDbEntity
  8
0-1
  6
CONTINUOUS
 62
     7
100
AcDbLine
 10
515.8019
 20
13.690385
 30
0.0
 11
514.578823
 21
14.913462
 31
0.0
  0
LINE
  5
CD
330
BD
100
AcDbEntity
  8
0-1
  6
CONTINUOUS
 62
     7
100
AcDbLine
 10
514.578823
 20
14.913462
 30
0.0
 11
515.8019
 21
16.136538
 31
0.0
  0
LINE
  5
CE
330
BD
100
AcDbEntity
  8
0-1
  6
CONTINUOUS
 62
     7
100
AcDbLine
 10
515.8019
 20
16.136538
 30
0.0
 11
516.592284
 21
15.346154
 31
0.0
  0
LINE
  5
CF
330
BD
100
AcDbEntity
  8
0-1
  6
CONTINUOUS
 62
     7
100
AcDbLine
 10
516.592284
 20
15.346154
 30
0.0
 11
518.224977
 21
15.346154
 31
0.0
  0
ENDBLK
  5
BF
330
BD
100
AcDbEntity
  8
0
100
AcDbBlockEnd
  0
BLOCK
  5
FD
330
FC
100
AcDbEntity
  8
0
100
AcDbBlockBegin
  2
*D22
 70
     1
 71
     0
 10
0.0
 20
0.0
 30
0.0
  3
*D22
  1

  0
TEXT
  5
FF
330
FC
100
AcDbEntity
  8
LAYERGROUP-1
  6
CONTINUOUS
 62
     7
100
AcDbText
 10
507.177002
 20
336.264313
 30
0.0
 40
4.0
  1
90
 50
90.0
 41
0.851351
  7
FX_VECTOR
 72
     5
 11
507.177002
 21
342.264313
 31
0.0
100
AcDbText
  0
LINE
  5
100
330
FC
100
AcDbEntity
  8
LAYERGROUP-1
  6
CONTINUOUS
 62
     7
100
AcDbLine
 10
508.176978
 20
294.26432
 30
0.0
 11
508.176978
 21
384.26432
 31
0.0
  0
INSERT
  5
101
330
FC
100
AcDbEntity
  8
LAYERGROUP-1
  6
CONTINUOUS
 62
     7
100
AcDbBlockReference
  2
FXTIP_ARROW_S
 10
508.176978
 20
294.26432
 30
0.0
 41
4.0
 42
4.0
 50
270.0
  0
INSERT
  5
102
330
FC
100
AcDbEntity
  8
LAYERGROUP-1
  6
CONTINUOUS
 62
     7
100
AcDbBlockReference
  2
FXTIP_ARROW_E
 10
508.176978
 20
384.26432
 30
0.0
 41
4.0
 42
4.0
 50
90.0
  0
LINE
  5
103
330
FC
100
AcDbEntity
  8
LAYERGROUP-1
  6
CONTINUOUS
 62
     7
100
AcDbLine
 10
491.508636
 20
294.26432
 30
0.0
 11
509.176978
 21
294.26432
 31
0.0
  0
LINE
  5
104
330
FC
100
AcDbEntity
  8
LAYERGROUP-1
  6
CONTINUOUS
 62
     7
100
AcDbLine
 10
491.508636
 20
384.26432
 30
0.0
 11
509.176978
 21
384.26432
 31
0.0
  0
ENDBLK
  5
FE
330
FC
100
AcDbEntity
  8
0
100
AcDbBlockEnd
  0
BLOCK
  5
107
330
106
100
AcDbEntity
  8
0
100
AcDbBlockBegin
  2
*D23
 70
     1
 71
     0
 10
0.0
 20
0.0
 30
0.0
  3
*D23
  1

  0
TEXT
  5
109
330
106
100
AcDbEntity
  8
LAYERGROUP-1
  6
CONTINUOUS
 62
     7
100
AcDbText
 10
514.92511
 20
334.764313
 30
0.0
 40
4.0
  1
120
 50
90.0
 41
0.828947
  7
FX_VECTOR
 72
     5
 11
514.92511
 21
343.764313
 31
0.0
100
AcDbText
  0
LINE
  5
10A
330
106
100
AcDbEntity
  8
LAYERGROUP-1
  6
CONTINUOUS
 62
     7
100
AcDbLine
 10
515.925105
 20
279.26432
 30
0.0
 11
515.925105
 21
399.26432
 31
0.0
  0
INSERT
  5
10B
330
106
100
AcDbEntity
  8
LAYERGROUP-1
  6
CONTINUOUS
 62
     7
100
AcDbBlockReference
  2
FXTIP_ARROW_S
 10
515.925105
 20
279.26432
 30
0.0
 41
4.0
 42
4.0
 50
270.0
  0
INSERT
  5
10C
330
106
100
AcDbEntity
  8
LAYERGROUP-1
  6
CONTINUOUS
 62
     7
100
AcDbBlockReference
  2
FXTIP_ARROW_E
 10
515.925105
 20
399.26432
 30
0.0
 41
4.0
 42
4.0
 50
90.0
  0
LINE
  5
10D
330
106
100
AcDbEntity
  8
LAYERGROUP-1
  6
CONTINUOUS
 62
     7
100
AcDbLine
 10
488.008636
 20
279.26432
 30
0.0
 11
516.925105
 21
279.26432
 31
0.0
  0
LINE
  5
10E
330
106
100
AcDbEntity
  8
LAYERGROUP-1
  6
CONTINUOUS
 62
     7
100
AcDbLine
 10
488.008636
 20
399.26432
 30
0.0
 11
516.925105
 21
399.26432
 31
0.0
  0
ENDBLK
  5
108
330
106
100
AcDbEntity
  8
0
100
AcDbBlockEnd
  0
BLOCK
  5
111
330
110
100
AcDbEntity
  8
0
100
AcDbBlockBegin
  2
*D24
 70
     1
 71
     0
 10
0.0
 20
0.0
 30
0.0
  3
*D24
  1

  0
TEXT
  5
113
330
110
100
AcDbEntity
  8
LAYERGROUP-1
  6
CONTINUOUS
 62
     7
100
AcDbText
 10
342.90564
 20
395.373871
 30
0.0
 40
4.0
  1
4-%%c11
 41
0.820313
  7
FX_VECTOR
 72
     5
 11
357.90564
 21
395.373871
 31
0.0
100
AcDbText
  0
LINE
  5
114
330
110
100
AcDbEntity
  8
LAYERGROUP-1
  6
CONTINUOUS
 62
     7
100
AcDbLine
 10
386.712361
 20
385.747381
 30
0.0
 11
397.304911
 21
382.781259
 31
0.0
  0
LINE
  5
115
330
110
100
AcDbEntity
  8
LAYERGROUP-1
  6
CONTINUOUS
 62
     7
100
AcDbLine
 10
386.712361
 20
385.747381
 30
0.0
 11
355.905634
 21
394.37387
 31
0.0
  0
INSERT
  5
116
330
110
100
AcDbEntity
  8
LAYERGROUP-1
  6
CONTINUOUS
 62
     7
100
AcDbBlockReference
  2
FXTIP_ARROW_S
 10
386.712361
 20
385.747381
 30
0.0
 41
4.0
 42
4.0
 50
344.356709
  0
LINE
  5
117
330
110
100
AcDbEntity
  8
LAYERGROUP-1
  6
CONTINUOUS
 62
     7
100
AcDbLine
 10
355.905634
 20
394.37387
 30
0.0
 11
344.905634
 21
394.37387
 31
0.0
  0
LINE
  5
118
330
110
100
AcDbEntity
  8
LAYERGROUP-1
  6
CONTINUOUS
 62
     7
100
AcDbLine
 10
397.304911
 20
382.781259
 30
0.0
 11
403.082666
 21
381.163374
 31
0.0
  0
INSERT
  5
119
330
110
100
AcDbEntity
  8
LAYERGROUP-1
  6
CONTINUOUS
 62
     7
100
AcDbBlockReference
  2
FXTIP_ARROW_S
 10
397.304911
 20
382.781259
 30
0.0
 41
4.0
 42
4.0
 50
164.356709
  0
ENDBLK
  5
112
330
110
100
AcDbEntity
  8
0
100
AcDbBlockEnd
  0
BLOCK
  5
142
330
141
100
AcDbEntity
  8
0
100
AcDbBlockBegin
  2
*D25
 70
     1
 71
     0
 10
0.0
 20
0.0
 30
0.0
  3
*D25
  1

  0
TEXT
  5
144
330
141
100
AcDbEntity
  8
LAYERGROUP-1
  6
CONTINUOUS
 62
     7
100
AcDbText
 10
506.070129
 20
168.191437
 30
0.0
 40
4.0
  1
123
 50
90.0
 41
0.828947
  7
FX_VECTOR
 72
     5
 11
506.070129
 21
177.191437
 31
0.0
100
AcDbText
  0
LINE
  5
145
330
141
100
AcDbEntity
  8
LAYERGROUP-1
  6
CONTINUOUS
 62
     7
100
AcDbLine
 10
507.070102
 20
111.19146
 30
0.0
 11
507.070102
 21
234.19146
 31
0.0
  0
INSERT
  5
146
330
141
100
AcDbEntity
  8
LAYERGROUP-1
  6
CONTINUOUS
 62
     7
100
AcDbBlockReference
  2
FXTIP_ARROW_S
 10
507.070102
 20
111.19146
 30
0.0
 41
4.0
 42
4.0
 50
270.0
  0
INSERT
  5
147
330
141
100
AcDbEntity
  8
LAYERGROUP-1
  6
CONTINUOUS
 62
     7
100
AcDbBlockReference
  2
FXTIP_ARROW_E
 10
507.070102
 20
234.19146
 30
0.0
 41
4.0
 42
4.0
 50
90.0
  0
LINE
  5
148
330
141
100
AcDbEntity
  8
LAYERGROUP-1
  6
CONTINUOUS
 62
     7
100
AcDbLine
 10
407.616154
 20
111.19146
 30
0.0
 11
508.070102
 21
111.19146
 31
0.0
  0
LINE
  5
149
330
141
100
AcDbEntity
  8
LAYERGROUP-1
  6
CONTINUOUS
 62
     7
100
AcDbLine
 10
498.008636
 20
234.19146
 30
0.0
 11
508.070102
 21
234.19146
 31
0.0
  0
ENDBLK
  5
143
330
141
100
AcDbEntity
  8
0
100
AcDbBlockEnd
  0
BLOCK
  5
18B
330
18A
100
AcDbEntity
  8
0
100
AcDbBlockBegin
  2
BLKF028
 70
     0
 71
     0
 10
0.0
 20
0.0
 30
0.0
  3
BLKF028
  1

  0
LINE
  5
18E
330
18A
100
AcDbEntity
  8
LAYERGROUP-1
  6
CONTINUOUS
 62
     3
100
AcDbLine
 10
116.085065
 20
97.335053
 30
0.0
 11
115.013268
 21
99.19146
 31
0.0
  0
LINE
  5
18F
330
18A
100
AcDbEntity
  8
LAYERGROUP-1
  6
CONTINUOUS
 62
     3
100
AcDbLine
 10
115.013268
 20
99.19146
 30
0.0
 11
115.013268
 21
123.19146
 31
0.0
  0
LINE
  5
190
330
18A
100
AcDbEntity
  8
LAYERGROUP-1
  6
CONTINUOUS
 62
     3
100
AcDbLine
 10
115.013268
 20
123.19146
 30
0.0
 11
116.085065
 21
125.047866
 31
0.0
  0
ARC
  5
191
330
18A
100
AcDbEntity
  8
LAYERGROUP-1
  6
CONTINUOUS
 62
     3
100
AcDbCircle
 10
121.147243
 20
100.799155
 30
0.0
 40
6.133974596215595
100
AcDbArc
 50
145.615753
 51
214.384247
  0
ARC
  5
192
330
18A
100
AcDbEntity
  8
LAYERGROUP-1
  6
CONTINUOUS
 62
     3
100
AcDbCircle
 10
137.941471
 20
111.19146
 30
0.0
 40
22.92820323027558
100
AcDbArc
 50
162.412046
 51
197.587954
  0
ARC
  5
193
330
18A
100
AcDbEntity
  8
LAYERGROUP-1
  6
CONTINUOUS
 62
     3
100
AcDbCircle
 10
121.147243
 20
121.583765
 30
0.0
 40
6.133974596215595
100
AcDbArc
 50
145.615753
 51
214.384247
  0
LINE
  5
194
330
18A
100
AcDbEntity
  8
LAYERGROUP-1
  6
CONTINUOUS
 62
     3
100
AcDbLine
 10
116.085065
 20
125.047866
 30
0.0
 11
123.941471
 21
125.047866
 31
0.0
  0
LINE
  5
195
330
18A
100
AcDbEntity
  8
LAYERGROUP-1
  6
CONTINUOUS
 62
     3
100
AcDbLine
 10
123.941471
 20
125.047866
 30
0.0
 11
125.013268
 21
123.19146
 31
0.0
  0
LINE
  5
196
330
18A
100
AcDbEntity
  8
LAYERGROUP-1
  6
CONTINUOUS
 62
     3
100
AcDbLine
 10
125.013268
 20
123.19146
 30
0.0
 11
125.013268
 21
99.19146
 31
0.0
  0
LINE
  5
197
330
18A
100
AcDbEntity
  8
LAYERGROUP-1
  6
CONTINUOUS
 62
     3
100
AcDbLine
 10
125.013268
 20
99.19146
 30
0.0
 11
123.941471
 21
97.335053
 31
0.0
  0
LINE
  5
198
330
18A
100
AcDbEntity
  8
LAYERGROUP-1
  6
CONTINUOUS
 62
     3
100
AcDbLine
 10
123.941471
 20
97.335053
 30
0.0
 11
116.085065
 21
97.335053
 31
0.0
  0
ARC
  5
199
330
18A
100
AcDbEntity
  8
LAYERGROUP-1
  6
CONTINUOUS
 62
     3
100
AcDbCircle
 10
118.879294
 20
100.799155
 30
0.0
 40
6.133974596215595
100
AcDbArc
 50
-34.384247
 51
34.384247
  0
ARC
  5
19A
330
18A
100
AcDbEntity
  8
LAYERGROUP-1
  6
CONTINUOUS
 62
     3
100
AcDbCircle
 10
102.085065
 20
111.19146
 30
0.0
 40
22.92820323027558
100
AcDbArc
 50
-17.587954
 51
17.587954
  0
ARC
  5
19B
330
18A
100
AcDbEntity
  8
LAYERGROUP-1
  6
CONTINUOUS
 62
     3
100
AcDbCircle
 10
118.879294
 20
121.583765
 30
0.0
 40
6.133974596215595
100
AcDbArc
 50
-34.384247
 51
34.384247
  0
LINE
  5
19C
330
18A
100
AcDbEntity
  8
LAYERGROUP-1
  6
CONTINUOUS
 62
     3
100
AcDbLine
 10
116.085065
 20
104.263257
 30
0.0
 11
123.941471
 21
104.263257
 31
0.0
  0
LINE
  5
19D
330
18A
100
AcDbEntity
  8
LAYERGROUP-1
  6
CONTINUOUS
 62
     3
100
AcDbLine
 10
116.085065
 20
118.119663
 30
0.0
 11
123.941471
 21
118.119663
 31
0.0
  0
ENDBLK
  5
18C
330
18A
100
AcDbEntity
  8
0
100
AcDbBlockEnd
  0
BLOCK
  5
1A1
330
1A0
100
AcDbEntity
  8
0
100
AcDbBlockBegin
  2
*D27
 70
     1
 71
     0
 10
0.0
 20
0.0
 30
0.0
  3
*D27
  1

  0
TEXT
  5
1A3
330
1A0
100
AcDbEntity
  8
LAYERGROUP-1
  6
CONTINUOUS
 62
     7
100
AcDbText
 10
162.01326
 20
27.191467
 30
0.0
 40
4.0
  1
50
 41
0.851351
  7
FX_VECTOR
 72
     5
 11
168.01326
 21
27.191467
 31
0.0
100
AcDbText
  0
LINE
  5
1A4
330
1A0
100
AcDbEntity
  8
LAYERGROUP-1
  6
CONTINUOUS
 62
     7
100
AcDbLine
 10
140.013268
 20
26.19146
 30
0.0
 11
190.013268
 21
26.19146
 31
0.0
  0
INSERT
  5
1A5
330
1A0
100
AcDbEntity
  8
LAYERGROUP-1
  6
CONTINUOUS
 62
     7
100
AcDbBlockReference
  2
FXTIP_ARROW_S
 10
140.013268
 20
26.19146
 30
0.0
 41
4.0
 42
4.0
 50
180.0
  0
INSERT
  5
1A6
330
1A0
100
AcDbEntity
  8
LAYERGROUP-1
  6
CONTINUOUS
 62
     7
100
AcDbBlockReference
  2
FXTIP_ARROW_E
 10
190.013268
 20
26.19146
 30
0.0
 41
4.0
 42
4.0
 50
360.0
  0
LINE
  5
1A7
330
1A0
100
AcDbEntity
  8
LAYERGROUP-1
  6
CONTINUOUS
 62
     7
100
AcDbLine
 10
140.013268
 20
50.19146
 30
0.0
 11
140.013268
 21
25.19146
 31
0.0
  0
LINE
  5
1A8
330
1A0
100
AcDbEntity
  8
LAYERGROUP-1
  6
CONTINUOUS
 62
     7
100
AcDbLine
 10
190.013268
 20
50.19146
 30
0.0
 11
190.013268
 21
25.19146
 31
0.0
  0
ENDBLK
  5
1A2
330
1A0
100
AcDbEntity
  8
0
100
AcDbBlockEnd
  0
BLOCK
  5
1B1
330
1B0
100
AcDbEntity
  8
0
100
AcDbBlockBegin
  2
*D28
 70
     1
 71
     0
 10
0.0
 20
0.0
 30
0.0
  3
*D28
  1

  0
TEXT
  5
1B3
330
1B0
100
AcDbEntity
  8
LAYERGROUP-1
  6
CONTINUOUS
 62
     7
100
AcDbText
 10
162.013275
 20
17.10141
 30
0.0
 40
4.0
  1
60
 41
0.851351
  7
FX_VECTOR
 72
     5
 11
168.013275
 21
17.10141
 31
0.0
100
AcDbText
  0
LINE
  5
1B4
330
1B0
100
AcDbEntity
  8
LAYERGROUP-1
  6
CONTINUOUS
 62
     7
100
AcDbLine
 10
135.013268
 20
16.101403
 30
0.0
 11
195.013268
 21
16.101403
 31
0.0
  0
INSERT
  5
1B5
330
1B0
100
AcDbEntity
  8
LAYERGROUP-1
  6
CONTINUOUS
 62
     7
100
AcDbBlockReference
  2
FXTIP_ARROW_E
 10
195.013268
 20
16.101403
 30
0.0
 41
4.0
 42
4.0
 50
360.0
  0
LINE
  5
1B6
330
1B0
100
AcDbEntity
  8
LAYERGROUP-1
  6
CONTINUOUS
 62
     7
100
AcDbLine
 10
135.013268
 20
87.366554
 30
0.0
 11
135.013268
 21
15.101403
 31
0.0
  0
LINE
  5
1B7
330
1B0
100
AcDbEntity
  8
LAYERGROUP-1
  6
CONTINUOUS
 62
     7
100
AcDbLine
 10
195.013268
 20
87.366554
 30
0.0
 11
195.013268
 21
15.101403
 31
0.0
  0
ENDBLK
  5
1B2
330
1B0
100
AcDbEntity
  8
0
100
AcDbBlockEnd
  0
BLOCK
  5
259
330
258
100
AcDbEntity
  8
0
100
AcDbBlockBegin
  2
BLKF031
 70
     0
 71
     0
 10
0.0
 20
0.0
 30
0.0
  3
BLKF031
  1

  0
ARC
  5
25C
330
258
100
AcDbEntity
  8
GR1-1
  6
CONTINUOUS
 62
     3
100
AcDbCircle
 10
389.212517
 20
129.893917
 30
0.0
 40
8.0
100
AcDbArc
 50
53.969477
 51
99.563334
  0
ARC
  5
25D
330
258
100
AcDbEntity
  8
GR1-1
  6
CONTINUOUS
 62
     3
100
AcDbCircle
 10
387.053364
 20
142.713358
 30
0.0
 40
5.0
100
AcDbArc
 50
219.523877
 51
279.560486
  0
ARC
  5
25E
330
258
100
AcDbEntity
  8
GR1-1
  6
CONTINUOUS
 62
     3
100
AcDbCircle
 10
382.039528
 20
138.57676
 30
0.0
 40
1.5
100
AcDbArc
 50
38.153877
 51
145.77
  0
LINE
  5
25F
330
258
100
AcDbEntity
  8
GR1-1
  6
CONTINUOUS
 62
     3
100
AcDbLine
 10
380.799348
 20
139.420534
 30
0.0
 11
380.177134
 21
138.351341
 31
0.0
  0
ARC
  5
260
330
258
100
AcDbEntity
  8
GR1-1
  6
CONTINUOUS
 62
     3
100
AcDbCircle
 10
378.110168
 20
139.757632
 30
0.0
 40
2.5
100
AcDbArc
 50
226.496042
 51
325.77
  0
LINE
  5
261
330
258
100
AcDbEntity
  8
GR1-1
  6
CONTINUOUS
 62
     3
100
AcDbLine
 10
376.83977
 20
138.985622
 30
0.0
 11
375.807186
 21
136.59946
 31
0.0
  0
LINE
  5
262
330
258
100
AcDbEntity
  8
GR1-1
  6
CONTINUOUS
 62
     3
100
AcDbLine
 10
376.83977
 20
138.985622
 30
0.0
 11
345.922564
 21
152.364691
 31
0.0
  0
LINE
  5
263
330
258
100
AcDbEntity
  8
GR1-1
  6
CONTINUOUS
 62
     3
100
AcDbLine
 10
375.807186
 20
136.59946
 30
0.0
 11
344.59506
 21
150.106152
 31
0.0
  0
LINE
  5
264
330
258
100
AcDbEntity
  8
GR1-1
  6
CONTINUOUS
 62
     6
100
AcDbLine
 10
373.900876
 20
132.194237
 30
0.0
 11
352.691819
 21
141.372216
 31
0.0
  0
ARC
  5
265
330
258
100
AcDbEntity
  8
GR1-1
  6
CONTINUOUS
 62
     6
100
AcDbCircle
 10
371.865231
 20
128.716676
 30
0.0
 40
4.0
100
AcDbArc
 50
-41.024003
 51
66.6
  0
ARC
  5
266
330
258
100
AcDbEntity
  8
GR1-1
  6
CONTINUOUS
 62
     6
100
AcDbCircle
 10
392.008636
 20
111.19146
 30
0.0
 40
22.7
100
AcDbArc
 50
138.975997
 51
173.504691
  0
LINE
  5
267
330
258
100
AcDbEntity
  8
GR1-1
  6
CONTINUOUS
 62
     3
100
AcDbLine
 10
455.330146
 20
83.784875
 30
0.0
 11
456.434672
 21
85.17844
 31
0.0
  0
LINE
  5
268
330
258
100
AcDbEntity
  8
GR1-1
  6
CONTINUOUS
 62
     3
100
AcDbLine
 10
456.434672
 20
85.17844
 30
0.0
 11
418.044748
 21
122.798198
 31
0.0
  0
LINE
  5
269
330
258
100
AcDbEntity
  8
GR1-1
  6
CONTINUOUS
 62
     3
100
AcDbLine
 10
415.923549
 20
121.210814
 30
0.0
 11
454.433489
 21
83.499096
 31
0.0
  0
ARC
  5
26A
330
258
100
AcDbEntity
  8
GR1-1
  6
CONTINUOUS
 62
     3
100
AcDbCircle
 10
430.588944
 20
159.862946
 30
0.0
 40
80.0
100
AcDbArc
 50
246.220474
 51
288.014943
  0
LINE
  5
26B
330
258
100
AcDbEntity
  8
GR1-1
  6
CONTINUOUS
 62
     6
100
AcDbLine
 10
406.856239
 20
83.464264
 30
0.0
 11
421.968678
 21
115.290987
 31
0.0
  0
LINE
  5
26C
330
258
100
AcDbEntity
  8
GR1-1
  6
CONTINUOUS
 62
     6
100
AcDbLine
 10
415.923549
 20
121.210814
 30
0.0
 11
399.313352
 21
86.229819
 31
0.0
  0
LINE
  5
26D
330
258
100
AcDbEntity
  8
GR1-1
  6
CONTINUOUS
 62
     3
100
AcDbLine
 10
418.029924
 20
122.787147
 30
0.0
 11
415.584125
 21
120.956801
 31
0.0
  0
ARC
  5
26E
330
258
100
AcDbEntity
  8
GR1-1
  6
CONTINUOUS
 62
     3
100
AcDbCircle
 10
412.588319
 20
124.959944
 30
0.0
 40
5.0
100
AcDbArc
 50
217.066541
 51
306.809836
  0
ARC
  5
26F
330
258
100
AcDbEntity
  8
GR1-1
  6
CONTINUOUS
 62
     3
100
AcDbCircle
 10
352.743116
 20
79.754285
 30
0.0
 40
70.0
100
AcDbArc
 50
37.066541
 51
53.969477
  0
ARC
  5
270
330
258
100
AcDbEntity
  8
GR1-1
  6
CONTINUOUS
 62
     6
100
AcDbCircle
 10
351.103228
 20
137.701197
 30
0.0
 40
4.0
100
AcDbArc
 50
66.6
 51
185.50586
  0
LINE
  5
271
330
258
100
AcDbEntity
  8
GR1-1
  6
CONTINUOUS
 62
     3
100
AcDbLine
 10
345.922564
 20
152.364691
 30
0.0
 11
344.614647
 21
150.22198
 31
0.0
  0
ARC
  5
272
330
258
100
AcDbEntity
  8
GR1-1
  6
CONTINUOUS
 62
     3
100
AcDbCircle
 10
393.904843
 20
141.826942
 30
0.0
 40
50.0
100
AcDbArc
 50
170.334213
 51
229.875564
  0
LINE
  5
273
330
258
100
AcDbEntity
  8
GR1-1
  6
CONTINUOUS
 62
     3
100
AcDbLine
 10
361.682353
 20
103.594611
 30
0.0
 11
365.145529
 21
104.95156
 31
0.0
  0
ARC
  5
274
330
258
100
AcDbEntity
  8
GR1-1
  6
CONTINUOUS
 62
     3
100
AcDbCircle
 10
331.843616
 20
82.793433
 30
0.0
 40
40.0
100
AcDbArc
 50
23.905622
 51
33.638643
  0
ARC
  5
275
330
258
100
AcDbEntity
  8
GR1-1
  6
CONTINUOUS
 62
     3
100
AcDbCircle
 10
380.296968
 20
104.270692
 30
0.0
 40
13.0
100
AcDbArc
 50
203.905622
 51
279.067825
  0
ARC
  5
276
330
258
100
AcDbEntity
  8
GR1-1
  6
CONTINUOUS
 62
     3
100
AcDbCircle
 10
388.649956
 20
51.933061
 30
0.0
 40
40.0
100
AcDbArc
 50
76.056515
 51
99.067825
  0
LINE
  5
277
330
258
100
AcDbEntity
  8
GR1-1
  6
CONTINUOUS
 62
     3
100
AcDbLine
 10
398.288544
 20
90.754416
 30
0.0
 11
398.331478
 21
86.654641
 31
0.0
  0
ARC
  5
278
330
258
100
AcDbEntity
  8
GR1-1
  6
CONTINUOUS
 62
     6
100
AcDbCircle
 10
365.48002
 20
114.211814
 30
0.0
 40
4.0
100
AcDbArc
 50
291.396347
 51
353.504691
  0
LINE
  5
279
330
258
100
AcDbEntity
  8
GR1-1
  6
CONTINUOUS
 62
     6
100
AcDbLine
 10
363.559761
 20
109.163323
 30
0.0
 11
366.93929
 21
110.487498
 31
0.0
  0
ARC
  5
27A
330
258
100
AcDbEntity
  8
GR1-1
  6
CONTINUOUS
 62
     6
100
AcDbCircle
 10
362.100491
 20
112.88764
 30
0.0
 40
4.0
100
AcDbArc
 50
222.299576
 51
291.396347
  0
ARC
  5
27B
330
258
100
AcDbEntity
  8
GR1-1
  6
CONTINUOUS
 62
     6
100
AcDbCircle
 10
393.904843
 20
141.826942
 30
0.0
 40
47.0
100
AcDbArc
 50
185.50586
 51
222.299576
  0
ENDBLK
  5
25A
330
258
100
AcDbEntity
  8
0
100
AcDbBlockEnd
  0
BLOCK
  5
2D5
330
2D4
100
AcDbEntity
  8
0
100
AcDbBlockBegin
  2
*D30
 70
     1
 71
     0
 10
0.0
 20
0.0
 30
0.0
  3
*D30
  1

  0
TEXT
  5
2D7
330
2D4
100
AcDbEntity
  8
LAYERGROUP-1
  6
CONTINUOUS
 62
     7
100
AcDbText
 10
434.008636
 20
259.521729
 30
0.0
 40
4.0
  1
90
 41
0.851351
  7
FX_VECTOR
 72
     5
 11
440.008636
 21
259.521729
 31
0.0
100
AcDbText
  0
LINE
  5
2D8
330
2D4
100
AcDbEntity
  8
LAYERGROUP-1
  6
CONTINUOUS
 62
     7
100
AcDbLine
 10
392.008636
 20
258.521716
 30
0.0
 11
482.008636
 21
258.521716
 31
0.0
  0
INSERT
  5
2D9
330
2D4
100
AcDbEntity
  8
LAYERGROUP-1
  6
CONTINUOUS
 62
     7
100
AcDbBlockReference
  2
FXTIP_ARROW_E
 10
482.008636
 20
258.521716
 30
0.0
 41
4.0
 42
4.0
 50
360.0
  0
LINE
  5
2DA
330
2D4
100
AcDbEntity
  8
LAYERGROUP-1
  6
CONTINUOUS
 62
     7
100
AcDbLine
 10
392.008636
 20
284.76432
 30
0.0
 11
392.008636
 21
257.521716
 31
0.0
  0
LINE
  5
2DB
330
2D4
100
AcDbEntity
  8
LAYERGROUP-1
  6
CONTINUOUS
 62
     7
100
AcDbLine
 10
482.008636
 20
284.76432
 30
0.0
 11
482.008636
 21
257.521716
 31
0.0
  0
ENDBLK
  5
2D6
330
2D4
100
AcDbEntity
  8
0
100
AcDbBlockEnd
  0
BLOCK
  5
2DE
330
2DD
100
AcDbEntity
  8
0
100
AcDbBlockBegin
  2
*D31
 70
     1
 71
     0
 10
0.0
 20
0.0
 30
0.0
  3
*D31
  1

  0
TEXT
  5
2E0
330
2DD
100
AcDbEntity
  8
LAYERGROUP-1
  6
CONTINUOUS
 62
     7
100
AcDbText
 10
432.508636
 20
248.924622
 30
0.0
 40
4.0
  1
120
 41
0.828947
  7
FX_VECTOR
 72
     5
 11
441.508636
 21
248.924622
 31
0.0
100
AcDbText
  0
LINE
  5
2E1
330
2DD
100
AcDbEntity
  8
LAYERGROUP-1
  6
CONTINUOUS
 62
     7
100
AcDbLine
 10
377.008636
 20
247.924615
 30
0.0
 11
497.008636
 21
247.924615
 31
0.0
  0
INSERT
  5
2E2
330
2DD
100
AcDbEntity
  8
LAYERGROUP-1
  6
CONTINUOUS
 62
     7
100
AcDbBlockReference
  2
FXTIP_ARROW_E
 10
497.008636
 20
247.924615
 30
0.0
 41
4.0
 42
4.0
 50
360.0
  0
LINE
  5
2E3
330
2DD
100
AcDbEntity
  8
LAYERGROUP-1
  6
CONTINUOUS
 62
     7
100
AcDbLine
 10
377.008636
 20
288.26432
 30
0.0
 11
377.008636
 21
246.924615
 31
0.0
  0
LINE
  5
2E4
330
2DD
100
AcDbEntity
  8
LAYERGROUP-1
  6
CONTINUOUS
 62
     7
100
AcDbLine
 10
497.008636
 20
288.26432
 30
0.0
 11
497.008636
 21
246.924615
 31
0.0
  0
ENDBLK
  5
2DF
330
2DD
100
AcDbEntity
  8
0
100
AcDbBlockEnd
  0
BLOCK
  5
2E7
330
2E6
100
AcDbEntity
  8
0
100
AcDbBlockBegin
  2
*D32
 70
     1
 71
     0
 10
0.0
 20
0.0
 30
0.0
  3
*D32
  1

  0
TEXT
  5
2E9
330
2E6
100
AcDbEntity
  8
LAYERGROUP-1
  6
CONTINUOUS
 62
     7
100
AcDbText
 10
91.841057
 20
106.691467
 30
0.0
 40
4.0
  1
150
 50
90.0
 41
0.828947
  7
FX_VECTOR
 72
     5
 11
91.841057
 21
115.691467
 31
0.0
100
AcDbText
  0
LINE
  5
2EA
330
2E6
100
AcDbEntity
  8
LAYERGROUP-1
  6
CONTINUOUS
 62
     7
100
AcDbLine
 10
92.841058
 20
36.19146
 30
0.0
 11
92.841058
 21
186.19146
 31
0.0
  0
INSERT
  5
2EB
330
2E6
100
AcDbEntity
  8
LAYERGROUP-1
  6
CONTINUOUS
 62
     7
100
AcDbBlockReference
  2
FXTIP_ARROW_E
 10
92.841058
 20
186.19146
 30
0.0
 41
4.0
 42
4.0
 50
90.0
  0
LINE
  5
2EC
330
2E6
100
AcDbEntity
  8
LAYERGROUP-1
  6
CONTINUOUS
 62
     7
100
AcDbLine
 10
164.013268
 20
36.19146
 30
0.0
 11
91.841058
 21
36.19146
 31
0.0
  0
LINE
  5
2ED
330
2E6
100
AcDbEntity
  8
LAYERGROUP-1
  6
CONTINUOUS
 62
     7
100
AcDbLine
 10
164.013268
 20
186.19146
 30
0.0
 11
91.841058
 21
186.19146
 31
0.0
  0
ENDBLK
  5
2E8
330
2E6
100
AcDbEntity
  8
0
100
AcDbBlockEnd
  0
BLOCK
  5
2F0
330
2EF
100
AcDbEntity
  8
0
100
AcDbBlockBegin
  2
*D33
 70
     1
 71
     0
 10
0.0
 20
0.0
 30
0.0
  3
*D33
  1

  0
TEXT
  5
2F2
330
2EF
100
AcDbEntity
  8
LAYERGROUP-1
  6
CONTINUOUS
 62
     7
100
AcDbText
 10
411.508636
 20
28.173645
 30
0.0
 40
4.0
  1
45
 41
0.851351
  7
FX_VECTOR
 72
     5
 11
417.508636
 21
28.173645
 31
0.0
100
AcDbText
  0
LINE
  5
2F3
330
2EF
100
AcDbEntity
  8
LAYERGROUP-1
  6
CONTINUOUS
 62
     7
100
AcDbLine
 10
392.008636
 20
27.173654
 30
0.0
 11
437.008636
 21
27.173654
 31
0.0
  0
INSERT
  5
2F4
330
2EF
100
AcDbEntity
  8
LAYERGROUP-1
  6
CONTINUOUS
 62
     7
100
AcDbBlockReference
  2
FXTIP_ARROW_E
 10
437.008636
 20
27.173654
 30
0.0
 41
4.0
 42
4.0
 50
360.0
  0
LINE
  5
2F5
330
2EF
100
AcDbEntity
  8
LAYERGROUP-1
  6
CONTINUOUS
 62
     7
100
AcDbLine
 10
392.008636
 20
30.380422
 30
0.0
 11
392.008636
 21
26.173654
 31
0.0
  0
LINE
  5
2F6
330
2EF
100
AcDbEntity
  8
LAYERGROUP-1
  6
CONTINUOUS
 62
     7
100
AcDbLine
 10
437.008636
 20
83.156696
 30
0.0
 11
437.008636
 21
26.173654
 31
0.0
  0
ENDBLK
  5
2F1
330
2EF
100
AcDbEntity
  8
0
100
AcDbBlockEnd
  0
ENDSEC
  0
SECTION
  2
ENTITIES
  0
INSERT
  5
AB
330
1F
100
AcDbEntity
  8
0
100
AcDbBlockReference
  2
BLKF021
 10
0.0
 20
0.0
 30
0.0
  0
TEXT
  5
D7
330
1F
100
AcDbEntity
  8
LAYERGROUP-1
  6
CONTINUOUS
 62
     7
100
AcDbText
 10
329.078003
 20
11.845551
 30
0.0
 40
6.0
  1
ＨＪ－１５０　ＵＢ　Ｓ
 41
0.789744
  7
FX_VECTOR
 72
     5
 11
373.078003
 21
11.845551
 31
0.0
100
AcDbText
  0
TEXT
  5
D8
330
1F
100
AcDbEntity
  8
LAYERGROUP-1
  6
CONTINUOUS
 62
     7
100
AcDbText
 10
429.0
 20
12.000031
 30
0.0
 40
6.0
  1
H40B1BAA-C01
 41
0.705882
  7
FX_VECTOR
 72
     5
 11
477.0
 21
12.000031
 31
0.0
100
AcDbText
  0
LINE
  5
D9
330
1F
100
AcDbEntity
  8
LAYERGROUP-1
  6
CENTER
 62
     6
100
AcDbLine
 10
437.008636
 20
396.866727
 30
0.0
 11
437.008636
 21
282.908992
 31
0.0
  0
LINE
  5
DA
330
1F
100
AcDbEntity
  8
LAYERGROUP-1
  6
CENTER
 62
     6
100
AcDbLine
 10
309.377616
 20
339.26432
 30
0.0
 11
493.705228
 21
339.26432
 31
0.0
  0
LINE
  5
DB
330
1F
100
AcDbEntity
  8
LAYERGROUP-1
  6
CONTINUOUS
 62
     3
100
AcDbLine
 10
111.013268
 20
234.19146
 30
0.0
 11
219.013268
 21
234.19146
 31
0.0
  0
ARC
  5
DC
330
1F
100
AcDbEntity
  8
LAYERGROUP-1
  6
CONTINUOUS
 62
     3
100
AcDbCircle
 10
487.008636
 20
389.26432
 30
0.0
 40
10.0
100
AcDbArc
 50
0.0
 51
90.0
  0
ARC
  5
DD
330
1F
100
AcDbEntity
  8
LAYERGROUP-1
  6
CONTINUOUS
 62
     3
100
AcDbCircle
 10
387.008636
 20
389.26432
 30
0.0
 40
10.0
100
AcDbArc
 50
90.0
 51
180.0
  0
ARC
  5
DE
330
1F
100
AcDbEntity
  8
LAYERGROUP-1
  6
CONTINUOUS
 62
     3
100
AcDbCircle
 10
387.008636
 20
289.26432
 30
0.0
 40
10.0
100
AcDbArc
 50
180.0
 51
270.0
  0
ARC
  5
DF
330
1F
100
AcDbEntity
  8
LAYERGROUP-1
  6
CONTINUOUS
 62
     3
100
AcDbCircle
 10
487.008636
 20
289.26432
 30
0.0
 40
10.0
100
AcDbArc
 50
270.0
 51
360.0
  0
LINE
  5
E0
330
1F
100
AcDbEntity
  8
LAYERGROUP-1
  6
CONTINUOUS
 62
     3
100
AcDbLine
 10
377.008636
 20
289.26432
 30
0.0
 11
377.008636
 21
389.26432
 31
0.0
  0
LINE
  5
E1
330
1F
100
AcDbEntity
  8
LAYERGROUP-1
  6
CONTINUOUS
 62
     3
100
AcDbLine
 10
497.008636
 20
289.26432
 30
0.0
 11
497.008636
 21
389.26432
 31
0.0
  0
LINE
  5
E2
330
1F
100
AcDbEntity
  8
LAYERGROUP-1
  6
CONTINUOUS
 62
     3
100
AcDbLine
 10
387.008636
 20
399.26432
 30
0.0
 11
487.008636
 21
399.26432
 31
0.0
  0
LINE
  5
E3
330
1F
100
AcDbEntity
  8
LAYERGROUP-1
  6
CONTINUOUS
 62
     3
100
AcDbLine
 10
387.008636
 20
279.26432
 30
0.0
 11
487.008636
 21
279.26432
 31
0.0
  0
CIRCLE
  5
E4
330
1F
100
AcDbEntity
  8
LAYERGROUP-1
  6
CONTINUOUS
 62
     3
100
AcDbCircle
 10
482.008636
 20
384.26432
 30
0.0
 40
5.5
  0
CIRCLE
  5
E5
330
1F
100
AcDbEntity
  8
LAYERGROUP-1
  6
CONTINUOUS
 62
     3
100
AcDbCircle
 10
392.008636
 20
384.26432
 30
0.0
 40
5.5
  0
CIRCLE
  5
E6
330
1F
100
AcDbEntity
  8
LAYERGROUP-1
  6
CONTINUOUS
 62
     3
100
AcDbCircle
 10
392.008636
 20
294.26432
 30
0.0
 40
5.5
  0
CIRCLE
  5
E7
330
1F
100
AcDbEntity
  8
LAYERGROUP-1
  6
CONTINUOUS
 62
     3
100
AcDbCircle
 10
482.008636
 20
294.26432
 30
0.0
 40
5.5
  0
LINE
  5
E8
330
1F
100
AcDbEntity
  8
LAYERGROUP-1
  6
CENTER
 62
     6
100
AcDbLine
 10
482.008636
 20
375.76432
 30
0.0
 11
482.008636
 21
392.76432
 31
0.0
  0
LINE
  5
E9
330
1F
100
AcDbEntity
  8
LAYERGROUP-1
  6
CENTER
 62
     6
100
AcDbLine
 10
473.508636
 20
384.26432
 30
0.0
 11
490.508636
 21
384.26432
 31
0.0
  0
LINE
  5
EA
330
1F
100
AcDbEntity
  8
LAYERGROUP-1
  6
CENTER
 62
     6
100
AcDbLine
 10
383.508636
 20
384.26432
 30
0.0
 11
400.508636
 21
384.26432
 31
0.0
  0
LINE
  5
EB
330
1F
100
AcDbEntity
  8
LAYERGROUP-1
  6
CENTER
 62
     6
100
AcDbLine
 10
392.008636
 20
375.76432
 30
0.0
 11
392.008636
 21
392.76432
 31
0.0
  0
LINE
  5
EC
330
1F
100
AcDbEntity
  8
LAYERGROUP-1
  6
CENTER
 62
     6
100
AcDbLine
 10
383.508636
 20
294.26432
 30
0.0
 11
400.508636
 21
294.26432
 31
0.0
  0
LINE
  5
ED
330
1F
100
AcDbEntity
  8
LAYERGROUP-1
  6
CENTER
 62
     6
100
AcDbLine
 10
392.008636
 20
285.76432
 30
0.0
 11
392.008636
 21
302.76432
 31
0.0
  0
LINE
  5
EE
330
1F
100
AcDbEntity
  8
LAYERGROUP-1
  6
CENTER
 62
     6
100
AcDbLine
 10
473.508636
 20
294.26432
 30
0.0
 11
490.508636
 21
294.26432
 31
0.0
  0
LINE
  5
EF
330
1F
100
AcDbEntity
  8
LAYERGROUP-1
  6
CENTER
 62
     6
100
AcDbLine
 10
482.008636
 20
285.76432
 30
0.0
 11
482.008636
 21
302.76432
 31
0.0
  0
CIRCLE
  5
F0
330
1F
100
AcDbEntity
  8
LAYERGROUP-1
  6
CONTINUOUS
 62
     6
100
AcDbCircle
 10
437.008636
 20
339.26432
 30
0.0
 40
43.0
  0
CIRCLE
  5
F1
330
1F
100
AcDbEntity
  8
LAYERGROUP-1
  6
CONTINUOUS
 62
     6
100
AcDbCircle
 10
437.008636
 20
339.26432
 30
0.0
 40
26.0
  0
LINE
  5
F2
330
1F
100
AcDbEntity
  8
LAYERGROUP-1
  6
CONTINUOUS
 62
     3
100
AcDbLine
 10
375.846651
 20
369.26432
 30
0.0
 11
375.470288
 21
369.26432
 31
0.0
  0
LINE
  5
F3
330
1F
100
AcDbEntity
  8
LAYERGROUP-1
  6
CONTINUOUS
 62
     3
100
AcDbLine
 10
373.16011
 20
309.26432
 30
0.0
 11
375.846651
 21
309.26432
 31
0.0
  0
LINE
  5
F4
330
1F
100
AcDbEntity
  8
LAYERGROUP-1
  6
CONTINUOUS
 62
     3
100
AcDbLine
 10
372.508636
 20
369.26432
 30
0.0
 11
375.846651
 21
369.26432
 31
0.0
  0
LINE
  5
F5
330
1F
100
AcDbEntity
  8
LAYERGROUP-1
  6
CONTINUOUS
 62
     3
100
AcDbLine
 10
374.274396
 20
303.26432
 30
0.0
 11
377.008636
 21
303.26432
 31
0.0
  0
LINE
  5
F6
330
1F
100
AcDbEntity
  8
LAYERGROUP-1
  6
CONTINUOUS
 62
     3
100
AcDbLine
 10
372.508636
 20
375.26432
 30
0.0
 11
377.008636
 21
375.26432
 31
0.0
  0
ARC
  5
F7
330
1F
100
AcDbEntity
  8
LAYERGROUP-1
  6
CONTINUOUS
 62
     3
100
AcDbCircle
 10
450.008636
 20
339.26432
 30
0.0
 40
80.0
100
AcDbArc
 50
155.853152
 51
204.146848
  0
LINE
  5
F8
330
1F
100
AcDbEntity
  8
LAYERGROUP-1
  6
CONTINUOUS
 62
     3
100
AcDbLine
 10
372.508636
 20
369.26432
 30
0.0
 11
372.508636
 21
375.26432
 31
0.0
  0
CIRCLE
  5
F9
330
1F
100
AcDbEntity
  8
LAYERGROUP-1
  6
CONTINUOUS
 62
     3
100
AcDbCircle
 10
437.008636
 20
339.26432
 30
0.0
 40
24.0
  0
CIRCLE
  5
FA
330
1F
100
AcDbEntity
  8
LAYERGROUP-1
  6
CONTINUOUS
 62
     3
100
AcDbCircle
 10
437.008636
 20
339.26432
 30
0.0
 40
15.5
  0
DIMENSION
  5
FB
330
1F
100
AcDbEntity
  8
LAYERGROUP-1
100
AcDbDimension
  2
*D22
 10
508.176978
 20
384.26432
 30
0.0
 11
507.177002
 21
339.264313
 31
0.0
 70
    33
  3
FXDIMINFO
100
AcDbAlignedDimension
 13
490.508636
 23
294.26432
 33
0.0
 14
490.508636
 24
384.26432
 34
0.0
1001
ACAD
1000
DSTYLE
1002
{
1070
     7
1000
FXTIP_ARROW_E
1070
     6
1000
FXTIP_ARROW_S
1070
   173
1070
     1
1002
}
  0
DIMENSION
  5
105
330
1F
100
AcDbEntity
  8
LAYERGROUP-1
100
AcDbDimension
  2
*D23
 10
515.925105
 20
399.26432
 30
0.0
 11
514.92511
 21
339.264313
 31
0.0
 70
    33
  3
FXDIMINFO
100
AcDbAlignedDimension
 13
487.008636
 23
279.26432
 33
0.0
 14
487.008636
 24
399.26432
 34
0.0
1001
ACAD
1000
DSTYLE
1002
{
1070
     7
1000
FXTIP_ARROW_E
1070
     6
1000
FXTIP_ARROW_S
1070
   173
1070
     1
1002
}
  0
DIMENSION
  5
10F
330
1F
100
AcDbEntity
  8
LAYERGROUP-1
100
AcDbDimension
  2
*D24
 10
397.304911
 20
382.781259
 30
0.0
 11
350.40564
 21
395.373871
 31
0.0
 70
   163
  3
FXDIMINFO
100
AcDbDiametricDimension
 15
386.712361
 25
385.747381
 35
0.0
 40
0.0
  0
CIRCLE
  5
11A
330
1F
100
AcDbEntity
  8
LAYERGROUP-1
  6
CONTINUOUS
 62
     6
100
AcDbCircle
 10
437.008636
 20
339.26432
 30
0.0
 40
39.115
  0
LINE
  5
11B
330
1F
100
AcDbEntity
  8
LAYERGROUP-1
  6
CONTINUOUS
 62
     3
100
AcDbLine
 10
389.508636
 20
220.89146
 30
0.0
 11
389.508636
 21
216.89146
 31
0.0
  0
ARC
  5
11C
330
1F
100
AcDbEntity
  8
LAYERGROUP-1
  6
CONTINUOUS
 62
     3
100
AcDbCircle
 10
392.008636
 20
220.89146
 30
0.0
 40
2.5
100
AcDbArc
 50
90.0
 51
180.0
  0
LINE
  5
11D
330
1F
100
AcDbEntity
  8
LAYERGROUP-1
  6
CONTINUOUS
 62
     3
100
AcDbLine
 10
482.008636
 20
223.39146
 30
0.0
 11
475.306524
 21
223.39146
 31
0.0
  0
LINE
  5
11E
330
1F
100
AcDbEntity
  8
LAYERGROUP-1
  6
CONTINUOUS
 62
     3
100
AcDbLine
 10
484.508636
 20
220.89146
 30
0.0
 11
484.508636
 21
216.89146
 31
0.0
  0
ARC
  5
11F
330
1F
100
AcDbEntity
  8
LAYERGROUP-1
  6
CONTINUOUS
 62
     3
100
AcDbCircle
 10
482.008636
 20
220.89146
 30
0.0
 40
2.5
100
AcDbArc
 50
0.0
 51
90.0
  0
LINE
  5
120
330
1F
100
AcDbEntity
  8
LAYERGROUP-1
  6
CONTINUOUS
 62
     3
100
AcDbLine
 10
484.508636
 20
216.89146
 30
0.0
 11
389.508636
 21
216.89146
 31
0.0
  0
LINE
  5
121
330
1F
100
AcDbEntity
  8
LAYERGROUP-1
  6
CENTER
 62
     6
100
AcDbLine
 10
437.008636
 20
84.156696
 30
0.0
 11
437.008636
 21
240.785796
 31
0.0
  0
LINE
  5
122
330
1F
100
AcDbEntity
  8
LAYERGROUP-1
  6
CONTINUOUS
 62
     3
100
AcDbLine
 10
497.008636
 20
234.19146
 30
0.0
 11
497.008636
 21
229.19146
 31
0.0
  0
LINE
  5
123
330
1F
100
AcDbEntity
  8
LAYERGROUP-1
  6
CONTINUOUS
 62
     3
100
AcDbLine
 10
377.008636
 20
229.19146
 30
0.0
 11
497.008636
 21
229.19146
 31
0.0
  0
LINE
  5
124
330
1F
100
AcDbEntity
  8
LAYERGROUP-1
  6
CONTINUOUS
 62
     3
100
AcDbLine
 10
487.70019
 20
234.19146
 30
0.0
 11
497.008636
 21
234.19146
 31
0.0
  0
ARC
  5
125
330
1F
100
AcDbEntity
  8
LAYERGROUP-1
  6
CONTINUOUS
 62
     3
100
AcDbCircle
 10
478.317083
 20
231.39146
 30
0.0
 40
8.0
100
AcDbArc
 50
270.0
 51
344.037986
  0
LINE
  5
126
330
1F
100
AcDbEntity
  8
LAYERGROUP-1
  6
CONTINUOUS
 62
     3
100
AcDbLine
 10
377.008636
 20
234.19146
 30
0.0
 11
377.008636
 21
229.19146
 31
0.0
  0
ARC
  5
127
330
1F
100
AcDbEntity
  8
LAYERGROUP-1
  6
CONTINUOUS
 62
     3
100
AcDbCircle
 10
395.70019
 20
231.39146
 30
0.0
 40
8.0
100
AcDbArc
 50
195.962014
 51
270.0
  0
LINE
  5
128
330
1F
100
AcDbEntity
  8
LAYERGROUP-1
  6
CONTINUOUS
 62
     3
100
AcDbLine
 10
478.317083
 20
223.39146
 30
0.0
 11
392.008636
 21
223.39146
 31
0.0
  0
ARC
  5
129
330
1F
100
AcDbEntity
  8
LAYERGROUP-1
  6
CONTINUOUS
 62
     3
100
AcDbCircle
 10
378.508636
 20
195.66646
 30
0.0
 40
8.5
100
AcDbArc
 50
90.0
 51
173.192314
  0
LINE
  5
12A
330
1F
100
AcDbEntity
  8
LAYERGROUP-1
  6
CONTINUOUS
 62
     3
100
AcDbLine
 10
481.508636
 20
193.16646
 30
0.0
 11
479.147252
 21
193.16646
 31
0.0
  0
LINE
  5
12B
330
1F
100
AcDbEntity
  8
LAYERGROUP-1
  6
CONTINUOUS
 62
     3
100
AcDbLine
 10
380.017166
 20
189.16646
 30
0.0
 11
371.704188
 21
189.16646
 31
0.0
  0
ARC
  5
12C
330
1F
100
AcDbEntity
  8
LAYERGROUP-1
  6
CONTINUOUS
 62
     3
100
AcDbCircle
 10
380.017166
 20
185.16646
 30
0.0
 40
4.0
100
AcDbArc
 50
-8.703994
 51
90.0
  0
LINE
  5
12D
330
1F
100
AcDbEntity
  8
LAYERGROUP-1
  6
CONTINUOUS
 62
     3
100
AcDbLine
 10
383.971099
 20
184.561141
 30
0.0
 11
383.302132
 21
180.19146
 31
0.0
  0
LINE
  5
12E
330
1F
100
AcDbEntity
  8
LAYERGROUP-1
  6
CONTINUOUS
 62
     3
100
AcDbLine
 10
481.508636
 20
193.16646
 30
0.0
 11
481.508636
 21
199.16646
 31
0.0
  0
ARC
  5
12F
330
1F
100
AcDbEntity
  8
LAYERGROUP-1
  6
CONTINUOUS
 62
     3
100
AcDbCircle
 10
401.008636
 20
200.66646
 30
0.0
 40
8.5
100
AcDbArc
 50
90.0
 51
148.411864
  0
LINE
  5
130
330
1F
100
AcDbEntity
  8
LAYERGROUP-1
  6
CONTINUOUS
 62
     6
100
AcDbLine
 10
410.427393
 20
201.661532
 30
0.0
 11
410.427393
 21
120.451019
 31
0.0
  0
LINE
  5
131
330
1F
100
AcDbEntity
  8
LAYERGROUP-1
  6
CONTINUOUS
 62
     3
100
AcDbLine
 10
398.459261
 20
209.16646
 30
0.0
 11
473.008636
 21
209.16646
 31
0.0
  0
ARC
  5
132
330
1F
100
AcDbEntity
  8
LAYERGROUP-1
  6
CONTINUOUS
 62
     3
100
AcDbCircle
 10
479.147252
 20
185.16646
 30
0.0
 40
8.0
100
AcDbArc
 50
90.0
 51
165.0
  0
LINE
  5
133
330
1F
100
AcDbEntity
  8
LAYERGROUP-1
  6
CONTINUOUS
 62
     3
100
AcDbLine
 10
471.419846
 20
187.237012
 30
0.0
 11
464.662454
 21
162.018084
 31
0.0
  0
ARC
  5
134
330
1F
100
AcDbEntity
  8
LAYERGROUP-1
  6
CONTINUOUS
 62
     3
100
AcDbCircle
 10
348.751355
 20
193.07637
 30
0.0
 40
120.0
100
AcDbArc
 50
314.770601
 51
345.0
  0
LINE
  5
135
330
1F
100
AcDbEntity
  8
LAYERGROUP-1
  6
CONTINUOUS
 62
     3
100
AcDbLine
 10
481.508636
 20
193.16646
 30
0.0
 11
479.147252
 21
193.16646
 31
0.0
  0
LINE
  5
136
330
1F
100
AcDbEntity
  8
LAYERGROUP-1
  6
CONTINUOUS
 62
     3
100
AcDbLine
 10
481.508636
 20
193.16646
 30
0.0
 11
481.508636
 21
199.16646
 31
0.0
  0
ARC
  5
137
330
1F
100
AcDbEntity
  8
LAYERGROUP-1
  6
CONTINUOUS
 62
     3
100
AcDbCircle
 10
378.508636
 20
195.66646
 30
0.0
 40
8.5
100
AcDbArc
 50
90.0
 51
173.192314
  0
LINE
  5
138
330
1F
100
AcDbEntity
  8
LAYERGROUP-1
  6
CONTINUOUS
 62
     3
100
AcDbLine
 10
392.064364
 20
204.16646
 30
0.0
 11
378.508636
 21
204.16646
 31
0.0
  0
LINE
  5
139
330
1F
100
AcDbEntity
  8
LAYERGROUP-1
  6
CONTINUOUS
 62
     3
100
AcDbLine
 10
475.523311
 20
209.16646
 30
0.0
 11
463.008636
 21
209.16646
 31
0.0
  0
LINE
  5
13A
330
1F
100
AcDbEntity
  8
LAYERGROUP-1
  6
CONTINUOUS
 62
     3
100
AcDbLine
 10
480.822761
 20
216.89146
 30
0.0
 11
480.756387
 21
214.236501
 31
0.0
  0
ARC
  5
13B
330
1F
100
AcDbEntity
  8
LAYERGROUP-1
  6
CONTINUOUS
 62
     3
100
AcDbCircle
 10
475.558011
 20
214.36646
 30
0.0
 40
5.2
100
AcDbArc
 50
270.0
 51
358.567904
  0
LINE
  5
13C
330
1F
100
AcDbEntity
  8
LAYERGROUP-1
  6
CONTINUOUS
 62
     3
100
AcDbLine
 10
393.194511
 20
216.89146
 30
0.0
 11
393.260885
 21
214.236501
 31
0.0
  0
ARC
  5
13D
330
1F
100
AcDbEntity
  8
LAYERGROUP-1
  6
CONTINUOUS
 62
     3
100
AcDbCircle
 10
398.459261
 20
214.36646
 30
0.0
 40
5.2
100
AcDbArc
 50
181.432096
 51
270.0
  0
LINE
  5
13E
330
1F
100
AcDbEntity
  8
LAYERGROUP-1
  6
CENTER
 62
     6
100
AcDbLine
 10
392.008636
 20
126.150041
 30
0.0
 11
392.008636
 21
100.66646
 31
0.0
  0
LINE
  5
13F
330
1F
100
AcDbEntity
  8
LAYERGROUP-1
  6
CENTER
 62
     6
100
AcDbLine
 10
310.999244
 20
111.19146
 30
0.0
 11
406.616154
 21
111.19146
 31
0.0
  0
DIMENSION
  5
140
330
1F
100
AcDbEntity
  8
LAYERGROUP-1
100
AcDbDimension
  2
*D25
 10
507.070102
 20
234.19146
 30
0.0
 11
506.070129
 21
172.691437
 31
0.0
 70
    32
  3
FXDIMINFO
100
AcDbAlignedDimension
 13
406.616154
 23
111.19146
 33
0.0
 14
497.008636
 24
234.19146
 34
0.0
 50
270.0
100
AcDbRotatedDimension
1001
ACAD
1000
DSTYLE
1002
{
1070
     7
1000
FXTIP_ARROW_E
1070
     6
1000
FXTIP_ARROW_S
1070
   173
1070
     1
1002
}
  0
LINE
  5
14A
330
1F
100
AcDbEntity
  8
LAYERGROUP-1
  6
CONTINUOUS
 62
     3
100
AcDbLine
 10
377.008636
 20
234.19146
 30
0.0
 11
487.70019
 21
234.19146
 31
0.0
  0
ARC
  5
14B
330
1F
100
AcDbEntity
  8
LAYERGROUP-1
  6
CONTINUOUS
 62
     3
100
AcDbCircle
 10
392.064364
 20
206.16646
 30
0.0
 40
2.0
100
AcDbArc
 50
270.0
 51
328.411864
  0
ARC
  5
14C
330
1F
100
AcDbEntity
  8
LAYERGROUP-1
  6
CONTINUOUS
 62
     3
100
AcDbCircle
 10
471.508636
 20
199.16646
 30
0.0
 40
10.0
100
AcDbArc
 50
0.0
 51
90.0
  0
ARC
  5
14D
330
1F
100
AcDbEntity
  8
LAYERGROUP-1
  6
CONTINUOUS
 62
     3
100
AcDbCircle
 10
475.558011
 20
214.36646
 30
0.0
 40
5.2
100
AcDbArc
 50
270.0
 51
360.0
  0
LINE
  5
14E
330
1F
100
AcDbEntity
  8
LAYERGROUP-1
  6
CENTER
 62
     6
100
AcDbLine
 10
165.013268
 20
32.986243
 30
0.0
 11
165.013268
 21
240.544518
 31
0.0
  0
LINE
  5
14F
330
1F
100
AcDbEntity
  8
LAYERGROUP-1
  6
CONTINUOUS
 62
     3
100
AcDbLine
 10
195.013268
 20
88.360343
 30
0.0
 11
195.013268
 21
128.455838
 31
0.0
  0
LINE
  5
150
330
1F
100
AcDbEntity
  8
LAYERGROUP-1
  6
CONTINUOUS
 62
     3
100
AcDbLine
 10
135.013268
 20
88.366554
 30
0.0
 11
135.013268
 21
190.360303
 31
0.0
  0
LINE
  5
151
330
1F
100
AcDbEntity
  8
LAYERGROUP-1
  6
CONTINUOUS
 62
     3
100
AcDbLine
 10
201.013268
 20
88.366554
 30
0.0
 11
201.013268
 21
124.803069
 31
0.0
  0
LINE
  5
152
330
1F
100
AcDbEntity
  8
LAYERGROUP-1
  6
CONTINUOUS
 62
     3
100
AcDbLine
 10
129.013268
 20
88.366554
 30
0.0
 11
129.013268
 21
195.860303
 31
0.0
  0
LINE
  5
153
330
1F
100
AcDbEntity
  8
LAYERGROUP-1
  6
CONTINUOUS
 62
     3
100
AcDbLine
 10
145.013268
 20
190.360303
 30
0.0
 11
132.013268
 21
190.360303
 31
0.0
  0
LINE
  5
154
330
1F
100
AcDbEntity
  8
LAYERGROUP-1
  6
CONTINUOUS
 62
     3
100
AcDbLine
 10
192.513268
 20
204.360303
 30
0.0
 11
137.513268
 21
204.360303
 31
0.0
  0
ARC
  5
155
330
1F
100
AcDbEntity
  8
LAYERGROUP-1
  6
CONTINUOUS
 62
     3
100
AcDbCircle
 10
192.513268
 20
195.860303
 30
0.0
 40
8.5
100
AcDbArc
 50
14.551698
 51
90.0
  0
ARC
  5
156
330
1F
100
AcDbEntity
  8
LAYERGROUP-1
  6
CONTINUOUS
 62
     3
100
AcDbCircle
 10
137.513268
 20
195.860303
 30
0.0
 40
8.5
100
AcDbArc
 50
90.0
 51
180.0
  0
LINE
  5
157
330
1F
100
AcDbEntity
  8
LAYERGROUP-1
  6
CONTINUOUS
 62
     3
100
AcDbLine
 10
201.013268
 20
88.366554
 30
0.0
 11
195.013268
 21
88.366554
 31
0.0
  0
LINE
  5
158
330
1F
100
AcDbEntity
  8
LAYERGROUP-1
  6
CONTINUOUS
 62
     3
100
AcDbLine
 10
135.013268
 20
88.366554
 30
0.0
 11
129.013268
 21
88.366554
 31
0.0
  0
LINE
  5
159
330
1F
100
AcDbEntity
  8
LAYERGROUP-1
  6
CONTINUOUS
 62
     3
100
AcDbLine
 10
209.513268
 20
152.102981
 30
0.0
 11
209.513268
 21
199.16646
 31
0.0
  0
ARC
  5
15A
330
1F
100
AcDbEntity
  8
LAYERGROUP-1
  6
CONTINUOUS
 62
     3
100
AcDbCircle
 10
124.013268
 20
89.290341
 30
0.0
 40
5.0
100
AcDbArc
 50
0.0
 51
44.220044
  0
LINE
  5
15B
330
1F
100
AcDbEntity
  8
LAYERGROUP-1
  6
CONTINUOUS
 62
     3
100
AcDbLine
 10
120.013268
 20
223.39146
 30
0.0
 11
126.71538
 21
223.39146
 31
0.0
  0
LINE
  5
15C
330
1F
100
AcDbEntity
  8
LAYERGROUP-1
  6
CONTINUOUS
 62
     3
100
AcDbLine
 10
117.513268
 20
220.89146
 30
0.0
 11
117.513268
 21
216.89146
 31
0.0
  0
ARC
  5
15D
330
1F
100
AcDbEntity
  8
LAYERGROUP-1
  6
CONTINUOUS
 62
     3
100
AcDbCircle
 10
120.013268
 20
220.89146
 30
0.0
 40
2.5
100
AcDbArc
 50
90.0
 51
180.0
  0
LINE
  5
15E
330
1F
100
AcDbEntity
  8
LAYERGROUP-1
  6
CONTINUOUS
 62
     3
100
AcDbLine
 10
117.513268
 20
216.89146
 30
0.0
 11
119.513268
 21
216.89146
 31
0.0
  0
LINE
  5
15F
330
1F
100
AcDbEntity
  8
LAYERGROUP-1
  6
CONTINUOUS
 62
     3
100
AcDbLine
 10
210.013268
 20
223.39146
 30
0.0
 11
203.311156
 21
223.39146
 31
0.0
  0
LINE
  5
160
330
1F
100
AcDbEntity
  8
LAYERGROUP-1
  6
CONTINUOUS
 62
     3
100
AcDbLine
 10
212.513268
 20
220.89146
 30
0.0
 11
212.513268
 21
216.89146
 31
0.0
  0
ARC
  5
161
330
1F
100
AcDbEntity
  8
LAYERGROUP-1
  6
CONTINUOUS
 62
     3
100
AcDbCircle
 10
210.013268
 20
220.89146
 30
0.0
 40
2.5
100
AcDbArc
 50
0.0
 51
90.0
  0
LINE
  5
162
330
1F
100
AcDbEntity
  8
LAYERGROUP-1
  6
CONTINUOUS
 62
     3
100
AcDbLine
 10
212.513268
 20
216.89146
 30
0.0
 11
210.513268
 21
216.89146
 31
0.0
  0
LINE
  5
163
330
1F
100
AcDbEntity
  8
LAYERGROUP-1
  6
CONTINUOUS
 62
     3
100
AcDbLine
 10
225.013268
 20
234.19146
 30
0.0
 11
225.013268
 21
229.19146
 31
0.0
  0
LINE
  5
164
330
1F
100
AcDbEntity
  8
LAYERGROUP-1
  6
CONTINUOUS
 62
     3
100
AcDbLine
 10
214.013268
 20
229.19146
 30
0.0
 11
225.013268
 21
229.19146
 31
0.0
  0
LINE
  5
165
330
1F
100
AcDbEntity
  8
LAYERGROUP-1
  6
CONTINUOUS
 62
     3
100
AcDbLine
 10
215.704822
 20
234.19146
 30
0.0
 11
225.013268
 21
234.19146
 31
0.0
  0
ARC
  5
166
330
1F
100
AcDbEntity
  8
LAYERGROUP-1
  6
CONTINUOUS
 62
     3
100
AcDbCircle
 10
206.321714
 20
231.39146
 30
0.0
 40
8.0
100
AcDbArc
 50
270.0
 51
344.037986
  0
LINE
  5
167
330
1F
100
AcDbEntity
  8
LAYERGROUP-1
  6
CONTINUOUS
 62
     3
100
AcDbLine
 10
114.321714
 20
234.19146
 30
0.0
 11
105.013268
 21
234.19146
 31
0.0
  0
LINE
  5
168
330
1F
100
AcDbEntity
  8
LAYERGROUP-1
  6
CONTINUOUS
 62
     3
100
AcDbLine
 10
105.013268
 20
234.19146
 30
0.0
 11
105.013268
 21
229.19146
 31
0.0
  0
LINE
  5
169
330
1F
100
AcDbEntity
  8
LAYERGROUP-1
  6
CONTINUOUS
 62
     3
100
AcDbLine
 10
116.013268
 20
229.19146
 30
0.0
 11
105.013268
 21
229.19146
 31
0.0
  0
ARC
  5
16A
330
1F
100
AcDbEntity
  8
LAYERGROUP-1
  6
CONTINUOUS
 62
     3
100
AcDbCircle
 10
123.704822
 20
231.39146
 30
0.0
 40
8.0
100
AcDbArc
 50
195.962014
 51
270.0
  0
LINE
  5
16B
330
1F
100
AcDbEntity
  8
LAYERGROUP-1
  6
CONTINUOUS
 62
     3
100
AcDbLine
 10
123.704822
 20
223.39146
 30
0.0
 11
126.71538
 21
223.39146
 31
0.0
  0
LINE
  5
16C
330
1F
100
AcDbEntity
  8
LAYERGROUP-1
  6
CONTINUOUS
 62
     3
100
AcDbLine
 10
206.321714
 20
223.39146
 30
0.0
 11
203.311156
 21
223.39146
 31
0.0
  0
LINE
  5
16D
330
1F
100
AcDbEntity
  8
LAYERGROUP-1
  6
CONTINUOUS
 62
     3
100
AcDbLine
 10
208.827393
 20
216.89146
 30
0.0
 11
208.761019
 21
214.236501
 31
0.0
  0
ARC
  5
16E
330
1F
100
AcDbEntity
  8
LAYERGROUP-1
  6
CONTINUOUS
 62
     3
100
AcDbCircle
 10
203.562643
 20
214.36646
 30
0.0
 40
5.2
100
AcDbArc
 50
270.0
 51
358.567904
  0
LINE
  5
16F
330
1F
100
AcDbEntity
  8
LAYERGROUP-1
  6
CONTINUOUS
 62
     3
100
AcDbLine
 10
130.135922
 20
199.99146
 30
0.0
 11
130.013268
 21
199.99146
 31
0.0
  0
LINE
  5
170
330
1F
100
AcDbEntity
  8
LAYERGROUP-1
  6
CONTINUOUS
 62
     3
100
AcDbLine
 10
116.013268
 20
229.19146
 30
0.0
 11
215.513655
 21
229.19146
 31
0.0
  0
LINE
  5
171
330
1F
100
AcDbEntity
  8
LAYERGROUP-1
  6
CONTINUOUS
 62
     3
100
AcDbLine
 10
126.135766
 20
209.16646
 30
0.0
 11
203.562643
 21
209.16646
 31
0.0
  0
LINE
  5
172
330
1F
100
AcDbEntity
  8
LAYERGROUP-1
  6
CONTINUOUS
 62
     3
100
AcDbLine
 10
126.71538
 20
223.39146
 30
0.0
 11
203.311156
 21
223.39146
 31
0.0
  0
LINE
  5
173
330
1F
100
AcDbEntity
  8
LAYERGROUP-1
  6
CONTINUOUS
 62
     3
100
AcDbLine
 10
119.513268
 20
216.89146
 30
0.0
 11
210.513268
 21
216.89146
 31
0.0
  0
ARC
  5
174
330
1F
100
AcDbEntity
  8
LAYERGROUP-1
  6
CONTINUOUS
 62
     3
100
AcDbCircle
 10
132.013268
 20
187.360303
 30
0.0
 40
3.0
100
AcDbArc
 50
90.0
 51
180.0
  0
LINE
  5
175
330
1F
100
AcDbEntity
  8
LAYERGROUP-1
  6
CONTINUOUS
 62
     3
100
AcDbLine
 10
121.199143
 20
216.89146
 30
0.0
 11
121.265517
 21
214.236501
 31
0.0
  0
ARC
  5
176
330
1F
100
AcDbEntity
  8
LAYERGROUP-1
  6
CONTINUOUS
 62
     3
100
AcDbCircle
 10
126.463893
 20
214.36646
 30
0.0
 40
5.2
100
AcDbArc
 50
181.432096
 51
270.0
  0
LINE
  5
177
330
1F
100
AcDbEntity
  8
LAYERGROUP-1
  6
CENTER
 62
     6
100
AcDbLine
 10
112.231099
 20
111.19146
 30
0.0
 11
215.704822
 21
111.19146
 31
0.0
  0
ARC
  5
178
330
1F
100
AcDbEntity
  8
LAYERGROUP-1
  6
CONTINUOUS
 62
     3
100
AcDbCircle
 10
199.513268
 20
199.16646
 30
0.0
 40
10.0
100
AcDbArc
 50
0.0
 51
90.0
  0
ARC
  5
179
330
1F
100
AcDbEntity
  8
LAYERGROUP-1
  6
CONTINUOUS
 62
     3
100
AcDbCircle
 10
130.513268
 20
199.16646
 30
0.0
 40
10.0
100
AcDbArc
 50
90.0
 51
180.0
  0
LINE
  5
17A
330
1F
100
AcDbEntity
  8
LAYERGROUP-1
  6
CONTINUOUS
 62
     3
100
AcDbLine
 10
201.013268
 20
124.19146
 30
0.0
 11
201.013268
 21
98.19146
 31
0.0
  0
LINE
  5
17B
330
1F
100
AcDbEntity
  8
LAYERGROUP-1
  6
CONTINUOUS
 62
     3
100
AcDbLine
 10
115.013268
 20
119.19146
 30
0.0
 11
114.013268
 21
119.19146
 31
0.0
  0
LINE
  5
17C
330
1F
100
AcDbEntity
  8
LAYERGROUP-1
  6
CONTINUOUS
 62
     3
100
AcDbLine
 10
114.013268
 20
119.19146
 30
0.0
 11
113.013268
 21
118.37946
 31
0.0
  0
LINE
  5
17D
330
1F
100
AcDbEntity
  8
LAYERGROUP-1
  6
CONTINUOUS
 62
     3
100
AcDbLine
 10
113.013268
 20
118.37946
 30
0.0
 11
113.013268
 21
104.00346
 31
0.0
  0
LINE
  5
17E
330
1F
100
AcDbEntity
  8
LAYERGROUP-1
  6
CONTINUOUS
 62
     3
100
AcDbLine
 10
113.013268
 20
104.00346
 30
0.0
 11
114.013268
 21
103.19146
 31
0.0
  0
LINE
  5
17F
330
1F
100
AcDbEntity
  8
LAYERGROUP-1
  6
CONTINUOUS
 62
     3
100
AcDbLine
 10
114.013268
 20
103.19146
 30
0.0
 11
115.013268
 21
103.19146
 31
0.0
  0
LINE
  5
180
330
1F
100
AcDbEntity
  8
LAYERGROUP-1
  6
CONTINUOUS
 62
     6
100
AcDbLine
 10
114.013268
 20
119.19146
 30
0.0
 11
114.013268
 21
103.19146
 31
0.0
  0
LINE
  5
181
330
1F
100
AcDbEntity
  8
LAYERGROUP-1
  6
CONTINUOUS
 62
     3
100
AcDbLine
 10
129.013268
 20
119.19146
 30
0.0
 11
129.013268
 21
103.19146
 31
0.0
  0
LINE
  5
182
330
1F
100
AcDbEntity
  8
LAYERGROUP-1
  6
CONTINUOUS
 62
     3
100
AcDbLine
 10
129.013268
 20
103.19146
 30
0.0
 11
129.013268
 21
97.89146
 31
0.0
  0
LINE
  5
183
330
1F
100
AcDbEntity
  8
LAYERGROUP-1
  6
CONTINUOUS
 62
     3
100
AcDbLine
 10
125.013268
 20
124.49146
 30
0.0
 11
125.013268
 21
97.89146
 31
0.0
  0
LINE
  5
184
330
1F
100
AcDbEntity
  8
LAYERGROUP-1
  6
CONTINUOUS
 62
     3
100
AcDbLine
 10
128.513268
 20
124.99146
 30
0.0
 11
125.513268
 21
124.99146
 31
0.0
  0
LINE
  5
185
330
1F
100
AcDbEntity
  8
LAYERGROUP-1
  6
CONTINUOUS
 62
     3
100
AcDbLine
 10
125.513268
 20
97.39146
 30
0.0
 11
128.513268
 21
97.39146
 31
0.0
  0
ARC
  5
186
330
1F
100
AcDbEntity
  8
LAYERGROUP-1
  6
CONTINUOUS
 62
     3
100
AcDbCircle
 10
128.513268
 20
124.49146
 30
0.0
 40
0.5
100
AcDbArc
 50
0.0
 51
90.0
  0
ARC
  5
187
330
1F
100
AcDbEntity
  8
LAYERGROUP-1
  6
CONTINUOUS
 62
     3
100
AcDbCircle
 10
125.513268
 20
124.49146
 30
0.0
 40
0.5
100
AcDbArc
 50
90.0
 51
180.0
  0
ARC
  5
188
330
1F
100
AcDbEntity
  8
LAYERGROUP-1
  6
CONTINUOUS
 62
     3
100
AcDbCircle
 10
125.513268
 20
97.89146
 30
0.0
 40
0.5
100
AcDbArc
 50
180.0
 51
270.0
  0
ARC
  5
189
330
1F
100
AcDbEntity
  8
LAYERGROUP-1
  6
CONTINUOUS
 62
     3
100
AcDbCircle
 10
128.513268
 20
97.89146
 30
0.0
 40
0.5
100
AcDbArc
 50
270.0
 51
360.0
  0
INSERT
  5
18D
330
1F
100
AcDbEntity
  8
0
100
AcDbBlockReference
  2
BLKF028
 10
0.0
 20
0.0
 30
0.0
  0
LINE
  5
19E
330
1F
100
AcDbEntity
  8
LAYERGROUP-1
  6
CONTINUOUS
 62
     3
100
AcDbLine
 10
125.013268
 20
107.133841
 30
0.0
 11
129.013268
 21
107.133841
 31
0.0
  0
DIMENSION
  5
19F
330
1F
100
AcDbEntity
  8
LAYERGROUP-1
100
AcDbDimension
  2
*D27
 10
190.013268
 20
26.19146
 30
0.0
 11
165.01326
 21
27.191467
 31
0.0
 70
    33
  3
FXDIMINFO
100
AcDbAlignedDimension
 13
140.013268
 23
51.19146
 33
0.0
 14
190.013268
 24
51.19146
 34
0.0
1001
ACAD
1000
DSTYLE
1002
{
1070
     7
1000
FXTIP_ARROW_E
1070
     6
1000
FXTIP_ARROW_S
1070
   173
1070
     1
1002
}
  0
LINE
  5
1A9
330
1F
100
AcDbEntity
  8
LAYERGROUP-1
  6
CONTINUOUS
 62
     3
100
AcDbLine
 10
120.513268
 20
125.047866
 30
0.0
 11
120.513268
 21
199.16646
 31
0.0
  0
ARC
  5
1AA
330
1F
100
AcDbEntity
  8
LAYERGROUP-1
  6
CONTINUOUS
 62
     3
100
AcDbCircle
 10
145.513268
 20
110.212817
 30
0.0
 40
25.0
100
AcDbArc
 50
210.678235
 51
224.220044
  0
LINE
  5
1AB
330
1F
100
AcDbEntity
  8
LAYERGROUP-1
  6
CENTER
 62
     6
100
AcDbLine
 10
482.008636
 20
240.785796
 30
0.0
 11
482.008636
 21
220.73998
 31
0.0
  0
LINE
  5
1AC
330
1F
100
AcDbEntity
  8
LAYERGROUP-1
  6
CENTER
 62
     6
100
AcDbLine
 10
392.008636
 20
240.785796
 30
0.0
 11
392.008636
 21
220.73998
 31
0.0
  0
LINE
  5
1AD
330
1F
100
AcDbEntity
  8
LAYERGROUP-1
  6
CENTER
 62
     6
100
AcDbLine
 10
210.013268
 20
240.785796
 30
0.0
 11
210.013268
 21
220.73998
 31
0.0
  0
LINE
  5
1AE
330
1F
100
AcDbEntity
  8
LAYERGROUP-1
  6
CENTER
 62
     6
100
AcDbLine
 10
120.013268
 20
240.785796
 30
0.0
 11
120.013268
 21
220.73998
 31
0.0
  0
DIMENSION
  5
1AF
330
1F
100
AcDbEntity
  8
LAYERGROUP-1
100
AcDbDimension
  2
*D28
 10
195.013268
 20
16.101403
 30
0.0
 11
165.013275
 21
17.10141
 31
0.0
 70
    33
  3
FXDIMINFO
100
AcDbAlignedDimension
 13
135.013268
 23
88.366554
 33
0.0
 14
195.013268
 24
88.366554
 34
0.0
1001
ACAD
1000
DSTYLE
1002
{
1070
     7
1000
FXTIP_ARROW_E
1070
     6
1000

1070
   173
1070
     1
1002
}
  0
CIRCLE
  5
1B8
330
1F
100
AcDbEntity
  8
LAYERGROUP-1
  6
DASHED
 62
     6
100
AcDbCircle
 10
437.008636
 20
339.26432
 30
0.0
 40
48.51138
  0
LINE
  5
1B9
330
1F
100
AcDbEntity
  8
LAYERGROUP-1
  6
CONTINUOUS
 62
     3
100
AcDbLine
 10
201.013268
 20
88.366554
 30
0.0
 11
201.013268
 21
124.803069
 31
0.0
  0
LINE
  5
1BA
330
1F
100
AcDbEntity
  8
LAYERGROUP-1
  6
CONTINUOUS
 62
     3
100
AcDbLine
 10
201.013268
 20
124.19146
 30
0.0
 11
201.013268
 21
98.19146
 31
0.0
  0
ARC
  5
1BB
330
1F
100
AcDbEntity
  8
LAYERGROUP-1
  6
CONTINUOUS
 62
     3
100
AcDbCircle
 10
147.013268
 20
195.838174
 30
0.0
 40
2.0
100
AcDbArc
 50
90.0
 51
180.0
  0
ARC
  5
1BC
330
1F
100
AcDbEntity
  8
LAYERGROUP-1
  6
CONTINUOUS
 62
     3
100
AcDbCircle
 10
147.013268
 20
189.317266
 30
0.0
 40
2.0
100
AcDbArc
 50
180.0
 51
270.0
  0
ARC
  5
1BD
330
1F
100
AcDbEntity
  8
LAYERGROUP-1
  6
CONTINUOUS
 62
     3
100
AcDbCircle
 10
147.013268
 20
185.72209
 30
0.0
 40
2.0
100
AcDbArc
 50
180.0
 51
270.0
  0
LINE
  5
1BE
330
1F
100
AcDbEntity
  8
LAYERGROUP-1
  6
CONTINUOUS
 62
     3
100
AcDbLine
 10
145.013268
 20
185.72209
 30
0.0
 11
145.013268
 21
195.838174
 31
0.0
  0
LINE
  5
1BF
330
1F
100
AcDbEntity
  8
LAYERGROUP-1
  6
CONTINUOUS
 62
     3
100
AcDbLine
 10
193.013268
 20
133.747341
 30
0.0
 11
193.013268
 21
177.119227
 31
0.0
  0
ARC
  5
1C0
330
1F
100
AcDbEntity
  8
LAYERGROUP-1
  6
CONTINUOUS
 62
     3
100
AcDbCircle
 10
201.013268
 20
133.747341
 30
0.0
 40
8.0
100
AcDbArc
 50
180.0
 51
270.0
  0
LINE
  5
1C1
330
1F
100
AcDbEntity
  8
LAYERGROUP-1
  6
CONTINUOUS
 62
     3
100
AcDbLine
 10
147.013268
 20
183.72209
 30
0.0
 11
190.171132
 21
183.72209
 31
0.0
  0
LINE
  5
1C2
330
1F
100
AcDbEntity
  8
LAYERGROUP-1
  6
CONTINUOUS
 62
     3
100
AcDbLine
 10
189.013268
 20
197.838174
 30
0.0
 11
147.013268
 21
197.838174
 31
0.0
  0
LINE
  5
1C3
330
1F
100
AcDbEntity
  8
LAYERGROUP-1
  6
CONTINUOUS
 62
     3
100
AcDbLine
 10
147.013268
 20
187.317266
 30
0.0
 11
197.013268
 21
187.317266
 31
0.0
  0
LINE
  5
1C4
330
1F
100
AcDbEntity
  8
LAYERGROUP-1
  6
CONTINUOUS
 62
     3
100
AcDbLine
 10
213.013268
 20
88.19146
 30
0.0
 11
205.013268
 21
88.19146
 31
0.0
  0
LINE
  5
1C5
330
1F
100
AcDbEntity
  8
LAYERGROUP-1
  6
CONTINUOUS
 62
     3
100
AcDbLine
 10
213.013268
 20
84.19146
 30
0.0
 11
213.013268
 21
88.19146
 31
0.0
  0
LINE
  5
1C6
330
1F
100
AcDbEntity
  8
LAYERGROUP-1
  6
CONTINUOUS
 62
     3
100
AcDbLine
 10
213.013268
 20
84.19146
 30
0.0
 11
205.013268
 21
84.19146
 31
0.0
  0
ARC
  5
1C7
330
1F
100
AcDbEntity
  8
LAYERGROUP-1
  6
CONTINUOUS
 62
     3
100
AcDbCircle
 10
205.013268
 20
88.19146
 30
0.0
 40
4.0
100
AcDbArc
 50
180.0
 51
270.0
  0
LINE
  5
1C8
330
1F
100
AcDbEntity
  8
LAYERGROUP-1
  6
CONTINUOUS
 62
     3
100
AcDbLine
 10
201.013268
 20
88.19146
 30
0.0
 11
201.013268
 21
124.803069
 31
0.0
  0
ARC
  5
1C9
330
1F
100
AcDbEntity
  8
LAYERGROUP-1
  6
CONTINUOUS
 62
     3
100
AcDbCircle
 10
197.013268
 20
179.317266
 30
0.0
 40
8.0
100
AcDbArc
 50
0.0
 51
90.0
  0
ARC
  5
1CA
330
1F
100
AcDbEntity
  8
LAYERGROUP-1
  6
CONTINUOUS
 62
     3
100
AcDbCircle
 10
197.013268
 20
190.917328
 30
0.0
 40
8.0
100
AcDbArc
 50
0.0
 51
90.0
  0
LINE
  5
1CB
330
1F
100
AcDbEntity
  8
LAYERGROUP-1
  6
CONTINUOUS
 62
     3
100
AcDbLine
 10
149.013268
 20
180.953053
 30
0.0
 11
181.013268
 21
180.953053
 31
0.0
  0
LINE
  5
1CC
330
1F
100
AcDbEntity
  8
LAYERGROUP-1
  6
CONTINUOUS
 62
     3
100
AcDbLine
 10
149.013268
 20
178.734619
 30
0.0
 11
181.013268
 21
178.734619
 31
0.0
  0
LINE
  5
1CD
330
1F
100
AcDbEntity
  8
LAYERGROUP-1
  6
CONTINUOUS
 62
     3
100
AcDbLine
 10
149.013268
 20
178.734619
 30
0.0
 11
149.013268
 21
183.72209
 31
0.0
  0
LINE
  5
1CE
330
1F
100
AcDbEntity
  8
LAYERGROUP-1
  6
CONTINUOUS
 62
     3
100
AcDbLine
 10
181.013268
 20
178.734619
 30
0.0
 11
181.013268
 21
183.72209
 31
0.0
  0
LINE
  5
1CF
330
1F
100
AcDbEntity
  8
LAYERGROUP-1
  6
CONTINUOUS
 62
     3
100
AcDbLine
 10
205.013268
 20
88.19146
 30
0.0
 11
205.013268
 21
190.917328
 31
0.0
  0
ARC
  5
1D0
330
1F
100
AcDbEntity
  8
LAYERGROUP-1
  6
CONTINUOUS
 62
     3
100
AcDbCircle
 10
178.013268
 20
177.119227
 30
0.0
 40
15.0
100
AcDbArc
 50
0.0
 51
42.833428
  0
ARC
  5
1D1
330
1F
100
AcDbEntity
  8
LAYERGROUP-1
  6
CONTINUOUS
 62
     3
100
AcDbCircle
 10
199.509422
 20
164.19146
 30
0.0
 40
6.803846153845833
100
AcDbArc
 50
-36.008323
 51
36.008323
  0
LINE
  5
1D2
330
1F
100
AcDbEntity
  8
LAYERGROUP-1
  6
CONTINUOUS
 62
     3
100
AcDbLine
 10
197.013268
 20
198.917328
 30
0.0
 11
189.013268
 21
197.838174
 31
0.0
  0
ARC
  5
1D3
330
1F
100
AcDbEntity
  8
LAYERGROUP-1
  6
CONTINUOUS
 62
     3
100
AcDbCircle
 10
201.013268
 20
121.747341
 30
0.0
 40
4.0
100
AcDbArc
 50
0.0
 51
90.0
  0
LINE
  5
1D4
330
1F
100
AcDbEntity
  8
GR1-1
  6
CONTINUOUS
 62
     3
100
AcDbLine
 10
209.813268
 20
126.781726
 30
0.0
 11
212.013268
 21
126.781726
 31
0.0
  0
LINE
  5
1D5
330
1F
100
AcDbEntity
  8
GR1-1
  6
CONTINUOUS
 62
     3
100
AcDbLine
 10
213.513268
 20
122.884612
 30
0.0
 11
213.513268
 21
99.501926
 31
0.0
  0
LINE
  5
1D6
330
1F
100
AcDbEntity
  8
GR1-1
  6
CONTINUOUS
 62
     3
100
AcDbLine
 10
212.013268
 20
95.604811
 30
0.0
 11
208.513268
 21
95.604811
 31
0.0
  0
LINE
  5
1D7
330
1F
100
AcDbEntity
  8
GR1-1
  6
CONTINUOUS
 62
     3
100
AcDbLine
 10
208.513268
 20
95.493269
 30
0.0
 11
208.513268
 21
109.64334
 31
0.0
  0
LINE
  5
1D8
330
1F
100
AcDbEntity
  8
GR1-1
  6
CONTINUOUS
 62
     3
100
AcDbLine
 10
208.213268
 20
108.89334
 30
0.0
 11
209.384128
 21
111.82049
 31
0.0
  0
ARC
  5
1D9
330
1F
100
AcDbEntity
  8
GR1-1
  6
CONTINUOUS
 62
     3
100
AcDbCircle
 10
203.813268
 20
114.048834
 30
0.0
 40
6.0
100
AcDbArc
 50
338.198591
 51
360.0
  0
LINE
  5
1DA
330
1F
100
AcDbEntity
  8
GR1-1
  6
CONTINUOUS
 62
     3
100
AcDbLine
 10
209.813268
 20
114.048834
 30
0.0
 11
209.813268
 21
136.541994
 31
0.0
  0
ARC
  5
1DB
330
1F
100
AcDbEntity
  8
GR1-1
  6
CONTINUOUS
 62
     3
100
AcDbCircle
 10
203.813268
 20
136.541994
 30
0.0
 40
6.0
100
AcDbArc
 50
0.0
 51
21.801409
  0
LINE
  5
1DC
330
1F
100
AcDbEntity
  8
GR1-1
  6
CONTINUOUS
 62
     3
100
AcDbLine
 10
209.384128
 20
138.770338
 30
0.0
 11
208.213268
 21
141.697488
 31
0.0
  0
LINE
  5
1DD
330
1F
100
AcDbEntity
  8
GR1-1
  6
CONTINUOUS
 62
     3
100
AcDbLine
 10
209.252827
 20
139.098592
 30
0.0
 11
230.251947
 21
136.891495
 31
0.0
  0
ARC
  5
1DE
330
1F
100
AcDbEntity
  8
GR1-1
  6
CONTINUOUS
 62
     3
100
AcDbCircle
 10
230.513268
 20
139.3778
 30
0.0
 40
2.5
100
AcDbArc
 50
-96.0
 51
0.0
  0
LINE
  5
1DF
330
1F
100
AcDbEntity
  8
GR1-1
  6
CONTINUOUS
 62
     3
100
AcDbLine
 10
233.013268
 20
139.3778
 30
0.0
 11
233.013268
 21
146.192411
 31
0.0
  0
ARC
  5
1E0
330
1F
100
AcDbEntity
  8
GR1-1
  6
CONTINUOUS
 62
     3
100
AcDbCircle
 10
230.013268
 20
146.192411
 30
0.0
 40
3.0
100
AcDbArc
 50
0.0
 51
82.0
  0
LINE
  5
1E1
330
1F
100
AcDbEntity
  8
GR1-1
  6
CONTINUOUS
 62
     3
100
AcDbLine
 10
230.430788
 20
149.163215
 30
0.0
 11
209.569961
 21
152.095013
 31
0.0
  0
ARC
  5
1E2
330
1F
100
AcDbEntity
  8
GR1-1
  6
CONTINUOUS
 62
     3
100
AcDbCircle
 10
209.013268
 20
148.133941
 30
0.0
 40
4.0
100
AcDbArc
 50
82.0
 51
180.0
  0
LINE
  5
1E3
330
1F
100
AcDbEntity
  8
GR1-1
  6
CONTINUOUS
 62
     3
100
AcDbLine
 10
208.213268
 20
149.532777
 30
0.0
 11
208.213268
 21
88.19146
 31
0.0
  0
LINE
  5
1E4
330
1F
100
AcDbEntity
  8
GR1-1
  6
CONTINUOUS
 62
     3
100
AcDbLine
 10
208.213268
 20
95.493269
 30
0.0
 11
208.513268
 21
95.493269
 31
0.0
  0
ARC
  5
1E5
330
1F
100
AcDbEntity
  8
GR1-1
  6
CONTINUOUS
 62
     3
100
AcDbCircle
 10
207.700768
 20
99.501926
 30
0.0
 40
5.812499999999853
100
AcDbArc
 50
-42.103449
 51
42.103449
  0
LINE
  5
1E6
330
1F
100
AcDbEntity
  8
GR1-1
  6
CONTINUOUS
 62
     3
100
AcDbLine
 10
212.013268
 20
103.39904
 30
0.0
 11
208.513268
 21
103.39904
 31
0.0
  0
ARC
  5
1E7
330
1F
100
AcDbEntity
  8
GR1-1
  6
CONTINUOUS
 62
     3
100
AcDbCircle
 10
192.513268
 20
111.193269
 30
0.0
 40
20.99999999999982
100
AcDbArc
 50
-21.786789
 51
21.786789
  0
LINE
  5
1E8
330
1F
100
AcDbEntity
  8
GR1-1
  6
CONTINUOUS
 62
     3
100
AcDbLine
 10
212.013268
 20
118.987497
 30
0.0
 11
209.813268
 21
118.987497
 31
0.0
  0
ARC
  5
1E9
330
1F
100
AcDbEntity
  8
GR1-1
  6
CONTINUOUS
 62
     3
100
AcDbCircle
 10
207.700768
 20
122.884612
 30
0.0
 40
5.812499999999853
100
AcDbArc
 50
-42.103449
 51
42.103449
  0
ARC
  5
1EA
330
1F
100
AcDbEntity
  8
GR1-1
  6
CONTINUOUS
 62
     3
100
AcDbCircle
 10
214.506017
 20
109.61006
 30
0.0
 40
13.19917200032713
100
AcDbArc
 50
92.13945
 51
94.318227
  0
LINE
  5
1EB
330
1F
100
AcDbEntity
  8
GR1-1
  6
CONTINUOUS
 62
     3
100
AcDbLine
 10
213.513268
 20
121.060232
 30
0.0
 11
214.105782
 21
120.975976
 31
0.0
  0
ARC
  5
1EC
330
1F
100
AcDbEntity
  8
GR1-1
  6
CONTINUOUS
 62
     3
100
AcDbCircle
 10
213.401859
 20
116.025775
 30
0.0
 40
5.0
100
AcDbArc
 50
29.337846
 51
81.906745
  0
ARC
  5
1ED
330
1F
100
AcDbEntity
  8
GR1-1
  6
CONTINUOUS
 62
     3
100
AcDbCircle
 10
228.221538
 20
124.355068
 30
0.0
 40
12.0
100
AcDbArc
 50
209.337846
 51
270.0
  0
LINE
  5
1EE
330
1F
100
AcDbEntity
  8
GR1-1
  6
CONTINUOUS
 62
     3
100
AcDbLine
 10
228.221538
 20
112.355068
 30
0.0
 11
232.513268
 21
112.355068
 31
0.0
  0
LINE
  5
1EF
330
1F
100
AcDbEntity
  8
GR1-1
  6
CONTINUOUS
 62
     3
100
AcDbLine
 10
232.513268
 20
112.355068
 30
0.0
 11
233.632009
 21
112.330005
 31
0.0
  0
LINE
  5
1F0
330
1F
100
AcDbEntity
  8
GR1-1
  6
CONTINUOUS
 62
     3
100
AcDbLine
 10
232.513268
 20
114.197079
 30
0.0
 11
228.121538
 21
114.197079
 31
0.0
  0
ARC
  5
1F1
330
1F
100
AcDbEntity
  8
GR1-1
  6
CONTINUOUS
 62
     3
100
AcDbCircle
 10
228.221538
 20
124.075905
 30
0.0
 40
9.878830000000001
100
AcDbArc
 50
209.337846
 51
270.0
  0
ARC
  5
1F2
330
1F
100
AcDbEntity
  8
GR1-1
  6
CONTINUOUS
 62
     3
100
AcDbCircle
 10
213.401859
 20
115.746613
 30
0.0
 40
7.12117
100
AcDbArc
 50
29.337846
 51
85.074635
  0
LINE
  5
1F3
330
1F
100
AcDbEntity
  8
GR1-1
  6
CONTINUOUS
 62
     3
100
AcDbLine
 10
214.013268
 20
114.450624
 30
0.0
 11
214.013268
 21
79.873688
 31
0.0
  0
LINE
  5
1F4
330
1F
100
AcDbEntity
  8
GR1-1
  6
CONTINUOUS
 62
     3
100
AcDbLine
 10
214.013268
 20
79.873688
 30
0.0
 11
210.813268
 21
79.873688
 31
0.0
  0
LINE
  5
1F5
330
1F
100
AcDbEntity
  8
GR1-1
  6
CONTINUOUS
 62
     3
100
AcDbLine
 10
210.813268
 20
79.873688
 30
0.0
 11
210.813268
 21
83.466072
 31
0.0
  0
LINE
  5
1F6
330
1F
100
AcDbEntity
  8
GR1-1
  6
CONTINUOUS
 62
     3
100
AcDbLine
 10
210.813268
 20
83.466072
 30
0.0
 11
209.274287
 21
84.19146
 31
0.0
  0
LINE
  5
1F7
330
1F
100
AcDbEntity
  8
GR1-1
  6
CONTINUOUS
 62
     3
100
AcDbLine
 10
214.013268
 20
83.500904
 30
0.0
 11
233.035911
 21
85.500264
 31
0.0
  0
ARC
  5
1F8
330
1F
100
AcDbEntity
  8
GR1-1
  6
CONTINUOUS
 62
     3
100
AcDbCircle
 10
232.513268
 20
90.472874
 30
0.0
 40
5.0
100
AcDbArc
 50
276.0
 51
360.0
  0
LINE
  5
1F9
330
1F
100
AcDbEntity
  8
GR1-1
  6
CONTINUOUS
 62
     3
100
AcDbLine
 10
237.513268
 20
90.472874
 30
0.0
 11
237.513268
 21
109.476241
 31
0.0
  0
ARC
  5
1FA
330
1F
100
AcDbEntity
  8
GR1-1
  6
CONTINUOUS
 62
     3
100
AcDbCircle
 10
233.632009
 20
108.330005
 30
0.0
 40
4.0
100
AcDbArc
 50
13.995498
 51
90.0
  0
ARC
  5
1FB
330
1F
100
AcDbEntity
  8
GR1-1
  6
CONTINUOUS
 62
     3
100
AcDbCircle
 10
232.513268
 20
109.197079
 30
0.0
 40
5.0
100
AcDbArc
 50
0.0
 51
90.0
  0
ARC
  5
1FC
330
1F
100
AcDbEntity
  8
GR1-1
  6
CONTINUOUS
 62
     3
100
AcDbCircle
 10
212.013268
 20
114.450624
 30
0.0
 40
2.0
100
AcDbArc
 50
0.0
 51
41.409622
  0
ARC
  5
1FD
330
1F
100
AcDbEntity
  8
GR1-1
  6
CONTINUOUS
 62
     3
100
AcDbCircle
 10
212.013268
 20
82.654317
 30
0.0
 40
2.0
100
AcDbArc
 50
0.0
 51
60.0
  0
ARC
  5
1FE
330
1F
100
AcDbEntity
  8
GR1-1
  6
CONTINUOUS
 62
     3
100
AcDbCircle
 10
230.013268
 20
144.014689
 30
0.0
 40
3.0
100
AcDbArc
 50
0.0
 51
82.0
  0
LINE
  5
1FF
330
1F
100
AcDbEntity
  8
GR1-1
  6
CONTINUOUS
 62
     3
100
AcDbLine
 10
230.430788
 20
146.985493
 30
0.0
 11
208.782855
 21
150.027911
 31
0.0
  0
ARC
  5
200
330
1F
100
AcDbEntity
  8
GR1-1
  6
CONTINUOUS
 62
     3
100
AcDbCircle
 10
208.713268
 20
149.532777
 30
0.0
 40
0.5
100
AcDbArc
 50
82.0
 51
180.0
  0
LINE
  5
201
330
1F
100
AcDbEntity
  8
GR1-1
  6
CONTINUOUS
 62
     6
100
AcDbLine
 10
205.013268
 20
103.59642
 30
0.0
 11
208.213268
 21
103.59642
 31
0.0
  0
LINE
  5
202
330
1F
100
AcDbEntity
  8
GR1-1
  6
CONTINUOUS
 62
     6
100
AcDbLine
 10
214.908588
 20
147.001729
 30
0.0
 11
229.117949
 21
147.001729
 31
0.0
  0
ARC
  5
203
330
1F
100
AcDbEntity
  8
GR1-1
  6
CONTINUOUS
 62
     6
100
AcDbCircle
 10
229.116118
 20
146.604583
 30
0.0
 40
0.3971499999999821
100
AcDbArc
 50
-90.0
 51
89.73591
  0
LINE
  5
204
330
1F
100
AcDbEntity
  8
GR1-1
  6
CONTINUOUS
 62
     6
100
AcDbLine
 10
229.116118
 20
146.207433
 30
0.0
 11
223.513268
 21
146.207433
 31
0.0
  0
LINE
  5
205
330
1F
100
AcDbEntity
  8
GR1-1
  6
CONTINUOUS
 62
     6
100
AcDbLine
 10
223.513268
 20
146.207433
 30
0.0
 11
223.513268
 21
143.03025
 31
0.0
  0
LINE
  5
206
330
1F
100
AcDbEntity
  8
GR1-1
  6
CONTINUOUS
 62
     6
100
AcDbLine
 10
223.513268
 20
143.03025
 30
0.0
 11
227.117949
 21
143.03025
 31
0.0
  0
ARC
  5
207
330
1F
100
AcDbEntity
  8
GR1-1
  6
CONTINUOUS
 62
     6
100
AcDbCircle
 10
227.116118
 20
142.633105
 30
0.0
 40
0.3971499999999821
100
AcDbArc
 50
-90.0
 51
89.73591
  0
LINE
  5
208
330
1F
100
AcDbEntity
  8
GR1-1
  6
CONTINUOUS
 62
     6
100
AcDbLine
 10
227.116118
 20
142.235955
 30
0.0
 11
223.513268
 21
142.235955
 31
0.0
  0
LINE
  5
209
330
1F
100
AcDbEntity
  8
GR1-1
  6
CONTINUOUS
 62
     6
100
AcDbLine
 10
221.513268
 20
142.441659
 30
0.0
 11
221.513268
 21
146.207433
 31
0.0
  0
LINE
  5
20A
330
1F
100
AcDbEntity
  8
GR1-1
  6
CONTINUOUS
 62
     6
100
AcDbLine
 10
221.513268
 20
146.207433
 30
0.0
 11
218.513268
 21
146.207433
 31
0.0
  0
LINE
  5
20B
330
1F
100
AcDbEntity
  8
GR1-1
  6
CONTINUOUS
 62
     6
100
AcDbLine
 10
218.513268
 20
146.207433
 30
0.0
 11
218.513268
 21
144.625972
 31
0.0
  0
LINE
  5
20C
330
1F
100
AcDbEntity
  8
GR1-1
  6
CONTINUOUS
 62
     6
100
AcDbLine
 10
216.513268
 20
144.625972
 30
0.0
 11
216.513268
 21
146.207433
 31
0.0
  0
LINE
  5
20D
330
1F
100
AcDbEntity
  8
GR1-1
  6
CONTINUOUS
 62
     6
100
AcDbLine
 10
216.513268
 20
146.207433
 30
0.0
 11
214.910418
 21
146.207433
 31
0.0
  0
ARC
  5
20E
330
1F
100
AcDbEntity
  8
GR1-1
  6
CONTINUOUS
 62
     6
100
AcDbCircle
 10
214.910418
 20
146.604583
 30
0.0
 40
0.3971499999999821
100
AcDbArc
 50
90.26409
 51
270.0
  0
ARC
  5
20F
330
1F
100
AcDbEntity
  8
GR1-1
  6
CONTINUOUS
 62
     6
100
AcDbCircle
 10
217.513268
 20
144.625972
 30
0.0
 40
1.000000000000028
100
AcDbArc
 50
180.0
 51
360.0
  0
ARC
  5
210
330
1F
100
AcDbEntity
  8
GR1-1
  6
CONTINUOUS
 62
     6
100
AcDbCircle
 10
222.513268
 20
142.441659
 30
0.0
 40
1.000000000000028
100
AcDbArc
 50
180.0
 51
348.376158
  0
ARC
  5
211
330
1F
100
AcDbEntity
  8
GR1-1
  6
CONTINUOUS
 62
     6
100
AcDbCircle
 10
221.063128
 20
105.718656
 30
0.0
 40
1.05011791589153
100
AcDbArc
 50
91.273899
 51
268.730109
  0
LINE
  5
212
330
1F
100
AcDbEntity
  8
GR1-1
  6
CONTINUOUS
 62
     6
100
AcDbLine
 10
221.063128
 20
104.668796
 30
0.0
 11
231.963408
 21
104.668796
 31
0.0
  0
ARC
  5
213
330
1F
100
AcDbEntity
  8
GR1-1
  6
CONTINUOUS
 62
     6
100
AcDbCircle
 10
231.963408
 20
105.718656
 30
0.0
 40
1.05011791589153
100
AcDbArc
 50
-88.730109
 51
88.726101
  0
LINE
  5
214
330
1F
100
AcDbEntity
  8
GR1-1
  6
CONTINUOUS
 62
     6
100
AcDbLine
 10
231.963408
 20
106.768515
 30
0.0
 11
221.063128
 21
106.768515
 31
0.0
  0
LINE
  5
215
330
1F
100
AcDbEntity
  8
GR1-1
  6
CONTINUOUS
 62
     6
100
AcDbLine
 10
221.063128
 20
101.169266
 30
0.0
 11
231.963408
 21
101.169266
 31
0.0
  0
LINE
  5
216
330
1F
100
AcDbEntity
  8
GR1-1
  6
CONTINUOUS
 62
     6
100
AcDbLine
 10
231.963408
 20
99.069547
 30
0.0
 11
221.063128
 21
99.069547
 31
0.0
  0
ARC
  5
217
330
1F
100
AcDbEntity
  8
GR1-1
  6
CONTINUOUS
 62
     6
100
AcDbCircle
 10
221.063128
 20
100.119407
 30
0.0
 40
1.05011791589153
100
AcDbArc
 50
91.273899
 51
268.730109
  0
ARC
  5
218
330
1F
100
AcDbEntity
  8
GR1-1
  6
CONTINUOUS
 62
     6
100
AcDbCircle
 10
221.063128
 20
94.520158
 30
0.0
 40
1.05011791589153
100
AcDbArc
 50
91.273899
 51
268.730109
  0
LINE
  5
219
330
1F
100
AcDbEntity
  8
GR1-1
  6
CONTINUOUS
 62
     6
100
AcDbLine
 10
221.063128
 20
93.470298
 30
0.0
 11
231.963408
 21
93.470298
 31
0.0
  0
ARC
  5
21A
330
1F
100
AcDbEntity
  8
GR1-1
  6
CONTINUOUS
 62
     6
100
AcDbCircle
 10
231.963408
 20
94.520158
 30
0.0
 40
1.05011791589153
100
AcDbArc
 50
-88.730109
 51
88.726101
  0
LINE
  5
21B
330
1F
100
AcDbEntity
  8
GR1-1
  6
CONTINUOUS
 62
     6
100
AcDbLine
 10
231.963408
 20
95.570017
 30
0.0
 11
221.063128
 21
95.570017
 31
0.0
  0
LINE
  5
21C
330
1F
100
AcDbEntity
  8
GR1-1
  6
CONTINUOUS
 62
     6
100
AcDbLine
 10
221.063128
 20
89.970768
 30
0.0
 11
231.963408
 21
89.970768
 31
0.0
  0
LINE
  5
21D
330
1F
100
AcDbEntity
  8
GR1-1
  6
CONTINUOUS
 62
     6
100
AcDbLine
 10
231.963408
 20
87.871049
 30
0.0
 11
221.063128
 21
87.871049
 31
0.0
  0
ARC
  5
21E
330
1F
100
AcDbEntity
  8
GR1-1
  6
CONTINUOUS
 62
     6
100
AcDbCircle
 10
221.063128
 20
88.920909
 30
0.0
 40
1.05011791589153
100
AcDbArc
 50
91.273899
 51
268.730109
  0
ARC
  5
21F
330
1F
100
AcDbEntity
  8
GR1-1
  6
CONTINUOUS
 62
     6
100
AcDbCircle
 10
231.963408
 20
88.920909
 30
0.0
 40
1.05011791589153
100
AcDbArc
 50
-88.730109
 51
88.726101
  0
ARC
  5
220
330
1F
100
AcDbEntity
  8
GR1-1
  6
CONTINUOUS
 62
     6
100
AcDbCircle
 10
231.963408
 20
100.119407
 30
0.0
 40
1.05011791589153
100
AcDbArc
 50
-88.730109
 51
88.726101
  0
LINE
  5
221
330
1F
100
AcDbEntity
  8
LAYERGROUP-1
  6
CONTINUOUS
 62
     3
100
AcDbLine
 10
205.013268
 20
107.030199
 30
0.0
 11
205.013268
 21
148.133941
 31
0.0
  0
ARC
  5
222
330
1F
100
AcDbEntity
  8
LAYERGROUP-1
  6
CONTINUOUS
 62
     3
100
AcDbCircle
 10
190.171132
 20
181.72209
 30
0.0
 40
2.0
100
AcDbArc
 50
20.736235
 51
90.0
  0
ARC
  5
223
330
1F
100
AcDbEntity
  8
LAYERGROUP-1
  6
CONTINUOUS
 62
     7
100
AcDbCircle
 10
157.813268
 20
193.206876
 30
0.0
 40
1.0
100
AcDbArc
 50
0.0
 51
77.319617
  0
ARC
  5
224
330
1F
100
AcDbEntity
  8
LAYERGROUP-1
  6
CONTINUOUS
 62
     7
100
AcDbCircle
 10
156.013268
 20
185.206876
 30
0.0
 40
9.200000000001978
100
AcDbArc
 50
77.319617
 51
102.680383
  0
ARC
  5
225
330
1F
100
AcDbEntity
  8
LAYERGROUP-1
  6
CONTINUOUS
 62
     7
100
AcDbCircle
 10
156.013268
 20
201.206876
 30
0.0
 40
9.2000000000009
100
AcDbArc
 50
257.319617
 51
282.680383
  0
ARC
  5
226
330
1F
100
AcDbEntity
  8
LAYERGROUP-1
  6
CONTINUOUS
 62
     7
100
AcDbCircle
 10
157.813268
 20
193.206876
 30
0.0
 40
1.0
100
AcDbArc
 50
282.680383
 51
360.0
  0
ARC
  5
227
330
1F
100
AcDbEntity
  8
LAYERGROUP-1
  6
CONTINUOUS
 62
     7
100
AcDbCircle
 10
154.213268
 20
193.206876
 30
0.0
 40
1.0
100
AcDbArc
 50
102.680383
 51
257.319617
  0
ARC
  5
228
330
1F
100
AcDbEntity
  8
LAYERGROUP-1
  6
CONTINUOUS
 62
     7
100
AcDbCircle
 10
157.813268
 20
193.206876
 30
0.0
 40
0.8
100
AcDbArc
 50
0.0
 51
77.319617
  0
ARC
  5
229
330
1F
100
AcDbEntity
  8
LAYERGROUP-1
  6
CONTINUOUS
 62
     7
100
AcDbCircle
 10
157.813268
 20
193.206876
 30
0.0
 40
0.8
100
AcDbArc
 50
282.680383
 51
360.0
  0
ARC
  5
22A
330
1F
100
AcDbEntity
  8
LAYERGROUP-1
  6
CONTINUOUS
 62
     7
100
AcDbCircle
 10
156.013268
 20
201.206876
 30
0.0
 40
9.000000000000901
100
AcDbArc
 50
257.319617
 51
282.680383
  0
ARC
  5
22B
330
1F
100
AcDbEntity
  8
LAYERGROUP-1
  6
CONTINUOUS
 62
     7
100
AcDbCircle
 10
154.213268
 20
193.206876
 30
0.0
 40
0.8
100
AcDbArc
 50
102.680383
 51
257.319617
  0
ARC
  5
22C
330
1F
100
AcDbEntity
  8
LAYERGROUP-1
  6
CONTINUOUS
 62
     7
100
AcDbCircle
 10
156.013268
 20
185.206876
 30
0.0
 40
9.000000000001979
100
AcDbArc
 50
77.319617
 51
102.680383
  0
ARC
  5
22D
330
1F
100
AcDbEntity
  8
LAYERGROUP-1
  6
CONTINUOUS
 62
     7
100
AcDbCircle
 10
175.813268
 20
193.206876
 30
0.0
 40
1.0
100
AcDbArc
 50
0.0
 51
77.319617
  0
ARC
  5
22E
330
1F
100
AcDbEntity
  8
LAYERGROUP-1
  6
CONTINUOUS
 62
     7
100
AcDbCircle
 10
174.013268
 20
185.206876
 30
0.0
 40
9.200000000001978
100
AcDbArc
 50
77.319617
 51
102.680383
  0
ARC
  5
22F
330
1F
100
AcDbEntity
  8
LAYERGROUP-1
  6
CONTINUOUS
 62
     7
100
AcDbCircle
 10
174.013268
 20
201.206876
 30
0.0
 40
9.2000000000009
100
AcDbArc
 50
257.319617
 51
282.680383
  0
ARC
  5
230
330
1F
100
AcDbEntity
  8
LAYERGROUP-1
  6
CONTINUOUS
 62
     7
100
AcDbCircle
 10
175.813268
 20
193.206876
 30
0.0
 40
1.0
100
AcDbArc
 50
282.680383
 51
360.0
  0
ARC
  5
231
330
1F
100
AcDbEntity
  8
LAYERGROUP-1
  6
CONTINUOUS
 62
     7
100
AcDbCircle
 10
172.213268
 20
193.206876
 30
0.0
 40
1.0
100
AcDbArc
 50
102.680383
 51
257.319617
  0
ARC
  5
232
330
1F
100
AcDbEntity
  8
LAYERGROUP-1
  6
CONTINUOUS
 62
     7
100
AcDbCircle
 10
175.813268
 20
193.206876
 30
0.0
 40
0.8
100
AcDbArc
 50
0.0
 51
77.319617
  0
ARC
  5
233
330
1F
100
AcDbEntity
  8
LAYERGROUP-1
  6
CONTINUOUS
 62
     7
100
AcDbCircle
 10
175.813268
 20
193.206876
 30
0.0
 40
0.8
100
AcDbArc
 50
282.680383
 51
360.0
  0
ARC
  5
234
330
1F
100
AcDbEntity
  8
LAYERGROUP-1
  6
CONTINUOUS
 62
     7
100
AcDbCircle
 10
174.013268
 20
201.206876
 30
0.0
 40
9.000000000000901
100
AcDbArc
 50
257.319617
 51
282.680383
  0
ARC
  5
235
330
1F
100
AcDbEntity
  8
LAYERGROUP-1
  6
CONTINUOUS
 62
     7
100
AcDbCircle
 10
172.213268
 20
193.206876
 30
0.0
 40
0.8
100
AcDbArc
 50
102.680383
 51
257.319617
  0
ARC
  5
236
330
1F
100
AcDbEntity
  8
LAYERGROUP-1
  6
CONTINUOUS
 62
     7
100
AcDbCircle
 10
174.013268
 20
185.206876
 30
0.0
 40
9.000000000001979
100
AcDbArc
 50
77.319617
 51
102.680383
  0
LINE
  5
237
330
1F
100
AcDbEntity
  8
LAYERGROUP-1
  6
CENTER
 62
     6
100
AcDbLine
 10
174.013268
 20
191.470811
 30
0.0
 11
174.013268
 21
194.765858
 31
0.0
  0
LINE
  5
238
330
1F
100
AcDbEntity
  8
LAYERGROUP-1
  6
CENTER
 62
     6
100
AcDbLine
 10
177.036724
 20
193.206876
 30
0.0
 11
152.933521
 21
193.206876
 31
0.0
  0
LINE
  5
239
330
1F
100
AcDbEntity
  8
LAYERGROUP-1
  6
CENTER
 62
     6
100
AcDbLine
 10
156.013268
 20
191.484128
 30
0.0
 11
156.013268
 21
194.936212
 31
0.0
  0
LINE
  5
23A
330
1F
100
AcDbEntity
  8
GR1-1
  6
CONTINUOUS
 62
     3
100
AcDbLine
 10
386.008636
 20
90.836046
 30
0.0
 11
386.308636
 21
87.601895
 31
0.0
  0
LINE
  5
23B
330
1F
100
AcDbEntity
  8
GR1-1
  6
CONTINUOUS
 62
     3
100
AcDbLine
 10
397.708636
 20
87.601895
 30
0.0
 11
398.008636
 21
90.836046
 31
0.0
  0
ARC
  5
23C
330
1F
100
AcDbEntity
  8
GR1-1
  6
CONTINUOUS
 62
     3
100
AcDbCircle
 10
392.008636
 20
67.598146
 30
0.0
 40
24.0
100
AcDbArc
 50
75.522488
 51
104.477512
  0
ARC
  5
23D
330
1F
100
AcDbEntity
  8
GR1-1
  6
CONTINUOUS
 62
     3
100
AcDbCircle
 10
392.008636
 20
67.598146
 30
0.0
 40
20.8
100
AcDbArc
 50
74.095279
 51
105.904721
  0
LINE
  5
23E
330
1F
100
AcDbEntity
  8
GR1-1
  6
CONTINUOUS
 62
     3
100
AcDbLine
 10
381.155674
 20
180.19146
 30
0.0
 11
390.940198
 21
180.19146
 31
0.0
  0
LINE
  5
23F
330
1F
100
AcDbEntity
  8
LAYERGROUP-1
  6
CENTER
 62
     6
100
AcDbLine
 10
387.006843
 20
154.225952
 30
0.0
 11
387.006843
 21
135.072781
 31
0.0
  0
ARC
  5
240
330
1F
100
AcDbEntity
  8
LAYERGROUP-1
  6
CONTINUOUS
 62
     3
100
AcDbCircle
 10
381.155674
 20
192.19146
 30
0.0
 40
12.0
100
AcDbArc
 50
210.960357
 51
270.0
  0
LINE
  5
241
330
1F
100
AcDbEntity
  8
LAYERGROUP-1
  6
CENTER
 62
     6
100
AcDbLine
 10
392.008636
 20
115.19146
 30
0.0
 11
351.165336
 21
198.932636
 31
0.0
  0
ARC
  5
242
330
1F
100
AcDbEntity
  8
GR1-1
  6
CONTINUOUS
 62
     3
100
AcDbCircle
 10
345.901374
 20
183.491878
 30
0.0
 40
4.5
100
AcDbArc
 50
116.0
 51
206.0
  0
LINE
  5
243
330
1F
100
AcDbEntity
  8
LAYERGROUP-1
  6
CONTINUOUS
 62
     3
100
AcDbLine
 10
410.008636
 20
143.19146
 30
0.0
 11
410.008636
 21
120.67681
 31
0.0
  0
ARC
  5
244
330
1F
100
AcDbEntity
  8
GR1-1
  6
CONTINUOUS
 62
     3
100
AcDbCircle
 10
390.821327
 20
168.19146
 30
0.0
 40
12.0
100
AcDbArc
 50
15.124007
 51
90.0
  0
LINE
  5
245
330
1F
100
AcDbEntity
  8
GR1-1
  6
CONTINUOUS
 62
     3
100
AcDbLine
 10
402.405688
 20
171.322368
 30
0.0
 11
410.008636
 21
143.19146
 31
0.0
  0
LINE
  5
246
330
1F
100
AcDbEntity
  8
LAYERGROUP-1
  6
CENTER
 62
     6
100
AcDbLine
 10
393.685295
 20
142.962067
 30
0.0
 11
380.311664
 21
142.962067
 31
0.0
  0
ARC
  5
247
330
1F
100
AcDbEntity
  8
LAYERGROUP-1
  6
CONTINUOUS
 62
     3
100
AcDbCircle
 10
387.006843
 20
142.962067
 30
0.0
 40
5.0
100
AcDbArc
 50
-225.572996
 51
45.572996
  0
LINE
  5
248
330
1F
100
AcDbEntity
  8
LAYERGROUP-1
  6
CONTINUOUS
 62
     3
100
AcDbLine
 10
383.506843
 20
152.962067
 30
0.0
 11
383.506843
 21
146.532781
 31
0.0
  0
LINE
  5
249
330
1F
100
AcDbEntity
  8
LAYERGROUP-1
  6
CONTINUOUS
 62
     3
100
AcDbLine
 10
390.506843
 20
152.962067
 30
0.0
 11
383.506843
 21
152.962067
 31
0.0
  0
TEXT
  5
24A
330
1F
100
AcDbEntity
  8
LAYERGROUP-1
  6
CONTINUOUS
 62
     7
100
AcDbText
 10
357.544373
 20
167.249237
 30
0.0
 40
4.876588
  1
H-150
 50
26.0
 41
0.669031
  7
FX_VECTOR
 72
     5
 11
372.20636
 21
174.400366
 31
0.0
100
AcDbText
  0
LINE
  5
24B
330
1F
100
AcDbEntity
  8
LAYERGROUP-1
  6
CONTINUOUS
 62
     3
100
AcDbLine
 10
371.870429
 20
192.979655
 30
0.0
 11
369.522283
 21
197.79407
 31
0.0
  0
ARC
  5
24C
330
1F
100
AcDbEntity
  8
LAYERGROUP-1
  6
CONTINUOUS
 62
     3
100
AcDbCircle
 10
367.724694
 20
196.917328
 30
0.0
 40
2.0
100
AcDbArc
 50
26.0
 51
116.0
  0
ARC
  5
24D
330
1F
100
AcDbEntity
  8
LAYERGROUP-1
  6
CONTINUOUS
 62
     3
100
AcDbCircle
 10
372.580439
 20
187.047011
 30
0.0
 40
2.0
100
AcDbArc
 50
135.851007
 51
210.960357
  0
ARC
  5
24E
330
1F
100
AcDbEntity
  8
LAYERGROUP-1
  6
CONTINUOUS
 62
     3
100
AcDbCircle
 10
368.275253
 20
191.226171
 30
0.0
 40
4.0
100
AcDbArc
 50
-44.148993
 51
26.0
  0
LINE
  5
24F
330
1F
100
AcDbEntity
  8
LAYERGROUP-1
  6
CONTINUOUS
 62
     3
100
AcDbLine
 10
366.847952
 20
198.714916
 30
0.0
 11
343.928704
 21
187.536452
 31
0.0
  0
CIRCLE
  5
250
330
1F
100
AcDbEntity
  8
LAYERGROUP-1
  6
CONTINUOUS
 62
     3
100
AcDbCircle
 10
392.008636
 20
168.19146
 30
0.0
 40
4.0
  0
ARC
  5
251
330
1F
100
AcDbEntity
  8
GR1-1
  6
CONTINUOUS
 62
     7
100
AcDbCircle
 10
356.152303
 20
193.498299
 30
0.0
 40
0.6999999999999969
100
AcDbArc
 50
30.411726
 51
116.0
  0
ARC
  5
252
330
1F
100
AcDbEntity
  8
GR1-1
  6
CONTINUOUS
 62
     7
100
AcDbCircle
 10
352.377368
 20
191.65714
 30
0.0
 40
0.7000000000000012
100
AcDbArc
 50
116.0
 51
201.588274
  0
ARC
  5
253
330
1F
100
AcDbEntity
  8
GR1-1
  6
CONTINUOUS
 62
     7
100
AcDbCircle
 10
351.772964
 20
191.417983
 30
0.0
 40
0.05
100
AcDbArc
 50
201.588274
 51
296.0
  0
ARC
  5
254
330
1F
100
AcDbEntity
  8
GR1-1
  6
CONTINUOUS
 62
     7
100
AcDbCircle
 10
356.152303
 20
193.498299
 30
0.0
 40
0.7000000000000012
100
AcDbArc
 50
30.411726
 51
116.0
  0
ARC
  5
255
330
1F
100
AcDbEntity
  8
GR1-1
  6
CONTINUOUS
 62
     7
100
AcDbCircle
 10
356.71287
 20
193.827336
 30
0.0
 40
0.05
100
AcDbArc
 50
-64.0
 51
30.411726
  0
LINE
  5
256
330
1F
100
AcDbEntity
  8
GR1-1
  6
CONTINUOUS
 62
     7
100
AcDbLine
 10
352.070508
 20
192.286296
 30
0.0
 11
355.845443
 21
194.127455
 31
0.0
  0
LINE
  5
257
330
1F
100
AcDbEntity
  8
LAYERGROUP-1
  6
CONTINUOUS
 62
     3
100
AcDbLine
 10
358.792813
 20
146.795237
 30
0.0
 11
341.856801
 21
181.519208
 31
0.0
  0
INSERT
  5
25B
330
1F
100
AcDbEntity
  8
0
100
AcDbBlockReference
  2
BLKF031
 10
0.0
 20
0.0
 30
0.0
  0
LINE
  5
27C
330
1F
100
AcDbEntity
  8
GR1-1
  6
CONTINUOUS
 62
     3
100
AcDbLine
 10
405.508636
 20
118.985689
 30
0.0
 11
392.008636
 21
126.779917
 31
0.0
  0
LINE
  5
27D
330
1F
100
AcDbEntity
  8
GR1-1
  6
CONTINUOUS
 62
     3
100
AcDbLine
 10
392.008636
 20
126.779917
 30
0.0
 11
378.508636
 21
118.985689
 31
0.0
  0
LINE
  5
27E
330
1F
100
AcDbEntity
  8
GR1-1
  6
CONTINUOUS
 62
     3
100
AcDbLine
 10
378.508636
 20
118.985689
 30
0.0
 11
378.508636
 21
103.397231
 31
0.0
  0
LINE
  5
27F
330
1F
100
AcDbEntity
  8
GR1-1
  6
CONTINUOUS
 62
     3
100
AcDbLine
 10
378.508636
 20
103.397231
 30
0.0
 11
392.008636
 21
95.603003
 31
0.0
  0
LINE
  5
280
330
1F
100
AcDbEntity
  8
GR1-1
  6
CONTINUOUS
 62
     3
100
AcDbLine
 10
392.008636
 20
95.603003
 30
0.0
 11
405.508636
 21
103.397231
 31
0.0
  0
LINE
  5
281
330
1F
100
AcDbEntity
  8
GR1-1
  6
CONTINUOUS
 62
     3
100
AcDbLine
 10
405.508636
 20
103.397231
 30
0.0
 11
405.508636
 21
118.985689
 31
0.0
  0
CIRCLE
  5
282
330
1F
100
AcDbEntity
  8
GR1-1
  6
CONTINUOUS
 62
     3
100
AcDbCircle
 10
392.008636
 20
111.19146
 30
0.0
 40
15.5
  0
CIRCLE
  5
283
330
1F
100
AcDbEntity
  8
GR1-1
  6
CONTINUOUS
 62
     6
100
AcDbCircle
 10
392.008636
 20
111.19146
 30
0.0
 40
13.5
  0
LINE
  5
284
330
1F
100
AcDbEntity
  8
LAYERGROUP-1
  6
CONTINUOUS
 62
     3
100
AcDbLine
 10
390.506843
 20
152.962067
 30
0.0
 11
390.506843
 21
146.532781
 31
0.0
  0
TEXT
  5
285
330
1F
100
AcDbEntity
  8
LAYERGROUP-1
  6
CONTINUOUS
 62
     7
100
AcDbText
 10
382.908661
 20
109.085785
 30
0.0
 40
4.692841
  1
H-150S
 41
0.660493
  7
FX_VECTOR
 72
     5
 11
401.358601
 21
109.085785
 31
0.0
100
AcDbText
  0
LINE
  5
286
330
1F
100
AcDbEntity
  8
LAYERGROUP-1
  6
CONTINUOUS
 62
     3
100
AcDbLine
 10
343.479307
 20
357.26432
 30
0.0
 11
343.479307
 21
317.193012
 31
0.0
  0
LINE
  5
287
330
1F
100
AcDbEntity
  8
LAYERGROUP-1
  6
CONTINUOUS
 62
     3
100
AcDbLine
 10
341.401374
 20
309.26432
 30
0.0
 11
341.401374
 21
314.26432
 31
0.0
  0
ARC
  5
288
330
1F
100
AcDbEntity
  8
LAYERGROUP-1
  6
CONTINUOUS
 62
     3
100
AcDbCircle
 10
351.401374
 20
309.26432
 30
0.0
 40
10.0
100
AcDbArc
 50
180.0
 51
270.0
  0
ARC
  5
289
330
1F
100
AcDbEntity
  8
LAYERGROUP-1
  6
CONTINUOUS
 62
     3
100
AcDbCircle
 10
338.634472
 20
318.428963
 30
0.0
 40
5.0
100
AcDbArc
 50
303.599233
 51
345.688693
  0
LINE
  5
28A
330
1F
100
AcDbEntity
  8
LAYERGROUP-1
  6
CONTINUOUS
 62
     3
100
AcDbLine
 10
365.050364
 20
357.26432
 30
0.0
 11
365.050364
 21
318.811421
 31
0.0
  0
LINE
  5
28B
330
1F
100
AcDbEntity
  8
LAYERGROUP-1
  6
CONTINUOUS
 62
     3
100
AcDbLine
 10
345.479307
 20
359.26432
 30
0.0
 11
364.803849
 21
359.26432
 31
0.0
  0
ARC
  5
28C
330
1F
100
AcDbEntity
  8
LAYERGROUP-1
  6
CONTINUOUS
 62
     3
100
AcDbCircle
 10
363.050364
 20
357.26432
 30
0.0
 40
2.0
100
AcDbArc
 50
0.0
 51
90.0
  0
ARC
  5
28D
330
1F
100
AcDbEntity
  8
LAYERGROUP-1
  6
CONTINUOUS
 62
     3
100
AcDbCircle
 10
345.479307
 20
357.26432
 30
0.0
 40
2.0
100
AcDbArc
 50
90.0
 51
180.0
  0
LINE
  5
28E
330
1F
100
AcDbEntity
  8
LAYERGROUP-1
  6
CONTINUOUS
 62
     3
100
AcDbLine
 10
366.803849
 20
357.26432
 30
0.0
 11
366.803849
 21
318.715608
 31
0.0
  0
ARC
  5
28F
330
1F
100
AcDbEntity
  8
LAYERGROUP-1
  6
CONTINUOUS
 62
     3
100
AcDbCircle
 10
364.803849
 20
357.26432
 30
0.0
 40
2.0
100
AcDbArc
 50
0.0
 51
90.0
  0
ARC
  5
290
330
1F
100
AcDbEntity
  8
LAYERGROUP-1
  6
CONTINUOUS
 62
     3
100
AcDbCircle
 10
380.790667
 20
322.612321
 30
0.0
 40
15.0
100
AcDbArc
 50
209.14943
 51
239.019672
  0
ARC
  5
291
330
1F
100
AcDbEntity
  8
LAYERGROUP-1
  6
CONTINUOUS
 62
     3
100
AcDbCircle
 10
371.050364
 20
318.811421
 30
0.0
 40
6.0
100
AcDbArc
 50
180.0
 51
214.691897
  0
LINE
  5
292
330
1F
100
AcDbEntity
  8
LAYERGROUP-1
  6
CONTINUOUS
 62
     3
100
AcDbLine
 10
373.069511
 20
309.752159
 30
0.0
 11
374.274396
 21
303.26432
 31
0.0
  0
ARC
  5
293
330
1F
100
AcDbEntity
  8
LAYERGROUP-1
  6
CONTINUOUS
 62
     3
100
AcDbCircle
 10
378.450385
 20
323.933891
 30
0.0
 40
15.0
100
AcDbArc
 50
214.691897
 51
245.686278
  0
ARC
  5
294
330
1F
100
AcDbEntity
  8
LAYERGROUP-1
  6
CONTINUOUS
 62
     3
100
AcDbCircle
 10
373.803849
 20
318.715608
 30
0.0
 40
7.0
100
AcDbArc
 50
180.0
 51
209.14943
  0
LINE
  5
295
330
1F
100
AcDbEntity
  8
LAYERGROUP-1
  6
CONTINUOUS
 62
     3
100
AcDbLine
 10
351.401374
 20
299.26432
 30
0.0
 11
377.008636
 21
299.26432
 31
0.0
  0
ARC
  5
296
330
1F
100
AcDbEntity
  8
LAYERGROUP-1
  6
CONTINUOUS
 62
     7
100
AcDbCircle
 10
354.241231
 20
330.535131
 30
0.0
 40
2.529298799881457
100
AcDbArc
 50
-6.146426
 51
186.146426
  0
ARC
  5
297
330
1F
100
AcDbEntity
  8
LAYERGROUP-1
  6
CONTINUOUS
 62
     7
100
AcDbCircle
 10
354.241231
 20
329.993509
 30
0.0
 40
2.529298799881514
100
AcDbArc
 50
-186.146426
 51
6.146426
  0
ARC
  5
298
330
1F
100
AcDbEntity
  8
LAYERGROUP-1
  6
CONTINUOUS
 62
     7
100
AcDbCircle
 10
354.241231
 20
348.535131
 30
0.0
 40
2.529298799881457
100
AcDbArc
 50
-6.146426
 51
186.146426
  0
ARC
  5
299
330
1F
100
AcDbEntity
  8
LAYERGROUP-1
  6
CONTINUOUS
 62
     7
100
AcDbCircle
 10
354.241231
 20
347.993509
 30
0.0
 40
2.529298799881514
100
AcDbArc
 50
-186.146426
 51
6.146426
  0
ARC
  5
29A
330
1F
100
AcDbEntity
  8
LAYERGROUP-1
  6
CONTINUOUS
 62
     7
100
AcDbCircle
 10
354.241231
 20
330.535131
 30
0.0
 40
2.229298799881458
100
AcDbArc
 50
-6.146426
 51
186.146426
  0
ARC
  5
29B
330
1F
100
AcDbEntity
  8
LAYERGROUP-1
  6
CONTINUOUS
 62
     7
100
AcDbCircle
 10
354.241231
 20
329.993509
 30
0.0
 40
2.229298799881514
100
AcDbArc
 50
-186.146426
 51
6.146426
  0
ARC
  5
29C
330
1F
100
AcDbEntity
  8
LAYERGROUP-1
  6
CONTINUOUS
 62
     7
100
AcDbCircle
 10
354.241231
 20
347.993509
 30
0.0
 40
2.229298799881514
100
AcDbArc
 50
-186.146426
 51
6.146426
  0
ARC
  5
29D
330
1F
100
AcDbEntity
  8
LAYERGROUP-1
  6
CONTINUOUS
 62
     7
100
AcDbCircle
 10
354.241231
 20
348.535131
 30
0.0
 40
2.229298799881458
100
AcDbArc
 50
-6.146426
 51
186.146426
  0
LINE
  5
29E
330
1F
100
AcDbEntity
  8
LAYERGROUP-1
  6
CENTER
 62
     6
100
AcDbLine
 10
354.264836
 20
326.287624
 30
0.0
 11
354.264836
 21
352.448249
 31
0.0
  0
LINE
  5
29F
330
1F
100
AcDbEntity
  8
LAYERGROUP-1
  6
CENTER
 62
     6
100
AcDbLine
 10
350.582086
 20
348.26432
 30
0.0
 11
357.566929
 21
348.26432
 31
0.0
  0
LINE
  5
2A0
330
1F
100
AcDbEntity
  8
LAYERGROUP-1
  6
CENTER
 62
     6
100
AcDbLine
 10
350.582086
 20
330.26432
 30
0.0
 11
357.566929
 21
330.26432
 31
0.0
  0
LINE
  5
2A1
330
1F
100
AcDbEntity
  8
GR1-1
  6
CONTINUOUS
 62
     3
100
AcDbLine
 10
377.008636
 20
299.26432
 30
0.0
 11
346.744894
 21
299.26432
 31
0.0
  0
ARC
  5
2A2
330
1F
100
AcDbEntity
  8
GR1-1
  6
CONTINUOUS
 62
     3
100
AcDbCircle
 10
349.793955
 20
296.775118
 30
0.0
 40
3.936102064724309
100
AcDbArc
 50
140.772379
 51
190.403792
  0
LINE
  5
2A3
330
1F
100
AcDbEntity
  8
GR1-1
  6
CONTINUOUS
 62
     3
100
AcDbLine
 10
345.922564
 20
296.06432
 30
0.0
 11
348.80307
 21
275.568455
 31
0.0
  0
ARC
  5
2A4
330
1F
100
AcDbEntity
  8
GR1-1
  6
CONTINUOUS
 62
     3
100
AcDbCircle
 10
353.75441
 20
276.26432
 30
0.0
 40
5.0
100
AcDbArc
 50
188.0
 51
270.0
  0
LINE
  5
2A5
330
1F
100
AcDbEntity
  8
GR1-1
  6
CONTINUOUS
 62
     3
100
AcDbLine
 10
352.426906
 20
271.26432
 30
0.0
 11
371.286708
 21
271.26432
 31
0.0
  0
ARC
  5
2A6
330
1F
100
AcDbEntity
  8
GR1-1
  6
CONTINUOUS
 62
     3
100
AcDbCircle
 10
371.286708
 20
276.26432
 30
0.0
 40
5.0
100
AcDbArc
 50
-90.0
 51
6.0
  0
LINE
  5
2A7
330
1F
100
AcDbEntity
  8
GR1-1
  6
CONTINUOUS
 62
     3
100
AcDbLine
 10
376.259317
 20
276.786962
 30
0.0
 11
374.581457
 21
292.750735
 31
0.0
  0
ARC
  5
2A8
330
1F
100
AcDbEntity
  8
GR1-1
  6
CONTINUOUS
 62
     3
100
AcDbCircle
 10
377.565023
 20
293.06432
 30
0.0
 40
3.0
100
AcDbArc
 50
100.688079
 51
186.0
  0
LINE
  5
2A9
330
1F
100
AcDbEntity
  8
GR1-1
  6
CONTINUOUS
 62
     6
100
AcDbLine
 10
364.613166
 20
281.26432
 30
0.0
 11
364.277657
 21
281.26432
 31
0.0
  0
LINE
  5
2AA
330
1F
100
AcDbEntity
  8
GR1-1
  6
CONTINUOUS
 62
     3
100
AcDbLine
 10
347.475566
 20
275.568455
 30
0.0
 11
344.59506
 21
296.06432
 31
0.0
  0
ARC
  5
2AB
330
1F
100
AcDbEntity
  8
GR1-1
  6
CONTINUOUS
 62
     3
100
AcDbCircle
 10
348.662685
 20
295.65375
 30
0.0
 40
4.088293079563504
100
AcDbArc
 50
117.97546
 51
174.236307
  0
ARC
  5
2AC
330
1F
100
AcDbEntity
  8
GR1-1
  6
CONTINUOUS
 62
     3
100
AcDbCircle
 10
352.426906
 20
276.26432
 30
0.0
 40
5.0
100
AcDbArc
 50
188.0
 51
270.0
  0
ARC
  5
2AD
330
1F
100
AcDbEntity
  8
GR1-1
  6
CONTINUOUS
 62
     3
100
AcDbCircle
 10
380.560527
 20
293.26432
 30
0.0
 40
6.0
100
AcDbArc
 50
126.297765
 51
186.0
  0
LINE
  5
2AE
330
1F
100
AcDbEntity
  8
GR1-1
  6
CONTINUOUS
 62
     6
100
AcDbLine
 10
352.346846
 20
276.64095
 30
0.0
 11
352.346846
 21
289.88769
 31
0.0
  0
LINE
  5
2AF
330
1F
100
AcDbEntity
  8
GR1-1
  6
CONTINUOUS
 62
     6
100
AcDbLine
 10
355.10011
 20
289.88769
 30
0.0
 11
355.10011
 21
289.26432
 31
0.0
  0
LINE
  5
2B0
330
1F
100
AcDbEntity
  8
GR1-1
  6
CONTINUOUS
 62
     6
100
AcDbLine
 10
355.10011
 20
289.26432
 30
0.0
 11
359.106638
 21
289.26432
 31
0.0
  0
ARC
  5
2B1
330
1F
100
AcDbEntity
  8
GR1-1
  6
CONTINUOUS
 62
     6
100
AcDbCircle
 10
359.106638
 20
287.76432
 30
0.0
 40
1.499999999999972
100
AcDbArc
 50
-90.0
 51
90.0
  0
LINE
  5
2B2
330
1F
100
AcDbEntity
  8
GR1-1
  6
CONTINUOUS
 62
     6
100
AcDbLine
 10
359.106638
 20
286.26432
 30
0.0
 11
355.10011
 21
286.26432
 31
0.0
  0
LINE
  5
2B3
330
1F
100
AcDbEntity
  8
GR1-1
  6
CONTINUOUS
 62
     6
100
AcDbLine
 10
355.10011
 20
286.26432
 30
0.0
 11
355.10011
 21
284.26432
 31
0.0
  0
LINE
  5
2B4
330
1F
100
AcDbEntity
  8
GR1-1
  6
CONTINUOUS
 62
     6
100
AcDbLine
 10
355.10011
 20
284.26432
 30
0.0
 11
364.613166
 21
284.26432
 31
0.0
  0
ARC
  5
2B5
330
1F
100
AcDbEntity
  8
GR1-1
  6
CONTINUOUS
 62
     6
100
AcDbCircle
 10
364.613166
 20
282.76432
 30
0.0
 40
1.499999999999972
100
AcDbArc
 50
-90.0
 51
90.0
  0
LINE
  5
2B6
330
1F
100
AcDbEntity
  8
GR1-1
  6
CONTINUOUS
 62
     6
100
AcDbLine
 10
364.277657
 20
281.26432
 30
0.0
 11
364.277657
 21
278.64095
 31
0.0
  0
ARC
  5
2B7
330
1F
100
AcDbEntity
  8
GR1-1
  6
CONTINUOUS
 62
     6
100
AcDbCircle
 10
362.901027
 20
278.64095
 30
0.0
 40
1.376630000000034
100
AcDbArc
 50
180.0
 51
360.0
  0
LINE
  5
2B8
330
1F
100
AcDbEntity
  8
GR1-1
  6
CONTINUOUS
 62
     6
100
AcDbLine
 10
361.524393
 20
278.64095
 30
0.0
 11
361.524393
 21
281.26432
 31
0.0
  0
LINE
  5
2B9
330
1F
100
AcDbEntity
  8
GR1-1
  6
CONTINUOUS
 62
     6
100
AcDbLine
 10
361.524393
 20
281.26432
 30
0.0
 11
355.10011
 21
281.26432
 31
0.0
  0
LINE
  5
2BA
330
1F
100
AcDbEntity
  8
GR1-1
  6
CONTINUOUS
 62
     6
100
AcDbLine
 10
355.10011
 20
281.26432
 30
0.0
 11
355.10011
 21
276.64095
 31
0.0
  0
ARC
  5
2BB
330
1F
100
AcDbEntity
  8
GR1-1
  6
CONTINUOUS
 62
     6
100
AcDbCircle
 10
353.72348
 20
276.64095
 30
0.0
 40
1.376630000000034
100
AcDbArc
 50
180.0
 51
360.0
  0
ARC
  5
2BC
330
1F
100
AcDbEntity
  8
GR1-1
  6
CONTINUOUS
 62
     6
100
AcDbCircle
 10
353.72348
 20
289.88769
 30
0.0
 40
1.376630000000034
100
AcDbArc
 50
0.0
 51
180.0
  0
LINE
  5
2BD
330
1F
100
AcDbEntity
  8
LAYERGROUP-1
  6
CONTINUOUS
 62
     3
100
AcDbLine
 10
422.15593
 20
266.76432
 30
0.0
 11
448.983607
 21
266.76432
 31
0.0
  0
ARC
  5
2BE
330
1F
100
AcDbEntity
  8
LAYERGROUP-1
  6
CONTINUOUS
 62
     3
100
AcDbCircle
 10
448.983607
 20
270.76432
 30
0.0
 40
4.0
100
AcDbArc
 50
270.0
 51
351.573031
  0
LINE
  5
2BF
330
1F
100
AcDbEntity
  8
LAYERGROUP-1
  6
CONTINUOUS
 62
     3
100
AcDbLine
 10
454.286524
 20
279.26432
 30
0.0
 11
452.940421
 21
270.178125
 31
0.0
  0
LINE
  5
2C0
330
1F
100
AcDbEntity
  8
LAYERGROUP-1
  6
CONTINUOUS
 62
     3
100
AcDbLine
 10
418.044748
 20
279.26432
 30
0.0
 11
418.676646
 21
271.365594
 31
0.0
  0
LINE
  5
2C1
330
1F
100
AcDbEntity
  8
LAYERGROUP-1
  6
CONTINUOUS
 62
     3
100
AcDbLine
 10
416.549525
 20
279.144702
 30
0.0
 11
417.171854
 21
271.365594
 31
0.0
  0
ARC
  5
2C2
330
1F
100
AcDbEntity
  8
LAYERGROUP-1
  6
CONTINUOUS
 62
     3
100
AcDbCircle
 10
423.660722
 20
271.76432
 30
0.0
 40
5.0
100
AcDbArc
 50
184.573921
 51
270.0
  0
ARC
  5
2C3
330
1F
100
AcDbEntity
  8
LAYERGROUP-1
  6
CONTINUOUS
 62
     3
100
AcDbCircle
 10
422.15593
 20
271.76432
 30
0.0
 40
5.0
100
AcDbArc
 50
184.573921
 51
270.0
  0
LINE
  5
2C4
330
1F
100
AcDbEntity
  8
LAYERGROUP-1
  6
CONTINUOUS
 62
     6
100
AcDbLine
 10
426.660722
 20
272.26432
 30
0.0
 11
426.660722
 21
279.26432
 31
0.0
  0
LINE
  5
2C5
330
1F
100
AcDbEntity
  8
LAYERGROUP-1
  6
CONTINUOUS
 62
     6
100
AcDbLine
 10
423.660722
 20
272.26432
 30
0.0
 11
423.660722
 21
279.26432
 31
0.0
  0
ARC
  5
2C6
330
1F
100
AcDbEntity
  8
LAYERGROUP-1
  6
CONTINUOUS
 62
     6
100
AcDbCircle
 10
425.160722
 20
272.26432
 30
0.0
 40
1.5
100
AcDbArc
 50
180.0
 51
360.0
  0
LINE
  5
2C7
330
1F
100
AcDbEntity
  8
LAYERGROUP-1
  6
CONTINUOUS
 62
     6
100
AcDbLine
 10
448.983607
 20
272.26432
 30
0.0
 11
448.983607
 21
279.26432
 31
0.0
  0
LINE
  5
2C8
330
1F
100
AcDbEntity
  8
LAYERGROUP-1
  6
CONTINUOUS
 62
     6
100
AcDbLine
 10
445.983607
 20
272.26432
 30
0.0
 11
445.983607
 21
279.26432
 31
0.0
  0
ARC
  5
2C9
330
1F
100
AcDbEntity
  8
LAYERGROUP-1
  6
CONTINUOUS
 62
     6
100
AcDbCircle
 10
447.483607
 20
272.26432
 30
0.0
 40
1.5
100
AcDbArc
 50
180.0
 51
360.0
  0
LINE
  5
2CA
330
1F
100
AcDbEntity
  8
LAYERGROUP-1
  6
CONTINUOUS
 62
     6
100
AcDbLine
 10
441.543607
 20
272.26432
 30
0.0
 11
441.543607
 21
279.26432
 31
0.0
  0
LINE
  5
2CB
330
1F
100
AcDbEntity
  8
LAYERGROUP-1
  6
CONTINUOUS
 62
     6
100
AcDbLine
 10
438.543607
 20
272.26432
 30
0.0
 11
438.543607
 21
279.26432
 31
0.0
  0
ARC
  5
2CC
330
1F
100
AcDbEntity
  8
LAYERGROUP-1
  6
CONTINUOUS
 62
     6
100
AcDbCircle
 10
440.043607
 20
272.26432
 30
0.0
 40
1.5
100
AcDbArc
 50
180.0
 51
360.0
  0
LINE
  5
2CD
330
1F
100
AcDbEntity
  8
LAYERGROUP-1
  6
CONTINUOUS
 62
     6
100
AcDbLine
 10
434.100722
 20
272.26432
 30
0.0
 11
434.100722
 21
279.26432
 31
0.0
  0
LINE
  5
2CE
330
1F
100
AcDbEntity
  8
LAYERGROUP-1
  6
CONTINUOUS
 62
     6
100
AcDbLine
 10
431.100722
 20
272.26432
 30
0.0
 11
431.100722
 21
279.26432
 31
0.0
  0
ARC
  5
2CF
330
1F
100
AcDbEntity
  8
LAYERGROUP-1
  6
CONTINUOUS
 62
     6
100
AcDbCircle
 10
432.600722
 20
272.26432
 30
0.0
 40
1.5
100
AcDbArc
 50
180.0
 51
360.0
  0
LINE
  5
2D0
330
1F
100
AcDbEntity
  8
LAYERGROUP-1
  6
CENTER
 62
     6
100
AcDbLine
 10
392.008636
 20
182.193373
 30
0.0
 11
392.008636
 21
31.380422
 31
0.0
  0
LINE
  5
2D1
330
1F
100
AcDbEntity
  8
GR1-1
  6
CENTER
 62
     6
100
AcDbLine
 10
386.273902
 20
168.19146
 30
0.0
 11
397.949951
 21
168.19146
 31
0.0
  0
ARC
  5
2D2
330
1F
100
AcDbEntity
  8
LAYERGROUP-1
  6
CONTINUOUS
 62
     3
100
AcDbCircle
 10
200.013268
 20
124.803069
 30
0.0
 40
1.0
100
AcDbArc
 50
0.0
 51
83.62063
  0
DIMENSION
  5
2D3
330
1F
100
AcDbEntity
  8
LAYERGROUP-1
100
AcDbDimension
  2
*D30
 10
482.008636
 20
258.521716
 30
0.0
 11
437.008636
 21
259.521729
 31
0.0
 70
    33
  3
FXDIMINFO
100
AcDbAlignedDimension
 13
392.008636
 23
285.76432
 33
0.0
 14
482.008636
 24
285.76432
 34
0.0
1001
ACAD
1000
DSTYLE
1002
{
1070
     7
1000
FXTIP_ARROW_E
1070
     6
1000

1070
   173
1070
     1
1002
}
  0
DIMENSION
  5
2DC
330
1F
100
AcDbEntity
  8
LAYERGROUP-1
100
AcDbDimension
  2
*D31
 10
497.008636
 20
247.924615
 30
0.0
 11
437.008636
 21
248.924622
 31
0.0
 70
    33
  3
FXDIMINFO
100
AcDbAlignedDimension
 13
377.008636
 23
289.26432
 33
0.0
 14
497.008636
 24
289.26432
 34
0.0
1001
ACAD
1000
DSTYLE
1002
{
1070
     7
1000
FXTIP_ARROW_E
1070
     6
1000

1070
   173
1070
     1
1002
}
  0
DIMENSION
  5
2E5
330
1F
100
AcDbEntity
  8
LAYERGROUP-1
100
AcDbDimension
  2
*D32
 10
92.841058
 20
186.19146
 30
0.0
 11
91.841057
 21
111.191467
 31
0.0
 70
    33
  3
FXDIMINFO
100
AcDbAlignedDimension
 13
165.013268
 23
36.19146
 33
0.0
 14
165.013268
 24
186.19146
 34
0.0
1001
ACAD
1000
DSTYLE
1002
{
1070
     7
1000
FXTIP_ARROW_E
1070
     6
1000

1070
   173
1070
     1
1002
}
  0
DIMENSION
  5
2EE
330
1F
100
AcDbEntity
  8
LAYERGROUP-1
100
AcDbDimension
  2
*D33
 10
437.008636
 20
27.173654
 30
0.0
 11
414.508636
 21
28.173645
 31
0.0
 70
    32
  3
FXDIMINFO
100
AcDbAlignedDimension
 13
392.008636
 23
31.380422
 33
0.0
 14
437.008636
 24
84.156696
 34
0.0
 50
180.0
100
AcDbRotatedDimension
1001
ACAD
1000
DSTYLE
1002
{
1070
     7
1000
FXTIP_ARROW_E
1070
     6
1000

1070
   173
1070
     1
1002
}
  0
ARC
  5
2F7
330
1F
100
AcDbEntity
  8
LAYERGROUP-1
  6
CONTINUOUS
 62
     3
100
AcDbCircle
 10
392.008636
 20
111.19146
 30
0.0
 40
75.0
100
AcDbArc
 50
-233.049927
 51
27.026661
  0
ARC
  5
2F8
330
1F
100
AcDbEntity
  8
LAYERGROUP-1
  6
CONTINUOUS
 62
     3
100
AcDbCircle
 10
392.008636
 20
111.19146
 30
0.0
 40
23.45
100
AcDbArc
 50
238.0726
 51
255.730427
  0
ARC
  5
2F9
330
1F
100
AcDbEntity
  8
LAYERGROUP-1
  6
CONTINUOUS
 62
     6
100
AcDbCircle
 10
392.008636
 20
111.19146
 30
0.0
 40
43.0
100
AcDbArc
 50
170.126195
 51
314.135441
  0
ARC
  5
2FA
330
1F
100
AcDbEntity
  8
LAYERGROUP-1
  6
CONTINUOUS
 62
     6
100
AcDbCircle
 10
392.008636
 20
111.19146
 30
0.0
 40
30.0
100
AcDbArc
 50
193.752803
 51
295.441924
  0
ARC
  5
2FB
330
1F
100
AcDbEntity
  8
LAYERGROUP-1
  6
CONTINUOUS
 62
     6
100
AcDbCircle
 10
392.008636
 20
111.19146
 30
0.0
 40
27.09999999999997
100
AcDbArc
 50
196.180661
 51
289.106134
  0
ARC
  5
2FC
330
1F
100
AcDbEntity
  8
LAYERGROUP-1
  6
CONTINUOUS
 62
     6
100
AcDbCircle
 10
392.008636
 20
111.19146
 30
0.0
 40
59.99999999999989
100
AcDbArc
 50
129.73561
 51
137.650644
  0
ARC
  5
2FD
330
1F
100
AcDbEntity
  8
LAYERGROUP-1
  6
CONTINUOUS
 62
     3
100
AcDbCircle
 10
392.008636
 20
111.19146
 30
0.0
 40
56.39999999999995
100
AcDbArc
 50
130.631289
 51
136.390129
  0
ARC
  5
2FE
330
1F
100
AcDbEntity
  8
LAYERGROUP-1
  6
CONTINUOUS
 62
     6
100
AcDbCircle
 10
392.008636
 20
111.19146
 30
0.0
 40
52.86676385335315
100
AcDbArc
 50
154.052451
 51
323.798688
  0
ARC
  5
2FF
330
1F
100
AcDbEntity
  8
LAYERGROUP-1
  6
CONTINUOUS
 62
     6
100
AcDbCircle
 10
392.008636
 20
111.19146
 30
0.0
 40
43.0
100
AcDbArc
 50
353.647057
 51
357.908363
  0
ARC
  5
300
330
1F
100
AcDbEntity
  8
LAYERGROUP-1
  6
CONTINUOUS
 62
     6
100
AcDbCircle
 10
392.008636
 20
111.19146
 30
0.0
 40
52.86676385335315
100
AcDbArc
 50
-14.320072
 51
9.828057
  0
ARC
  5
301
330
1F
100
AcDbEntity
  8
LAYERGROUP-1
  6
CONTINUOUS
 62
     3
100
AcDbCircle
 10
392.008636
 20
111.19146
 30
0.0
 40
56.39999999999995
100
AcDbArc
 50
-16.379685
 51
13.192079
  0
ARC
  5
302
330
1F
100
AcDbEntity
  8
LAYERGROUP-1
  6
CONTINUOUS
 62
     6
100
AcDbCircle
 10
392.008636
 20
111.19146
 30
0.0
 40
59.99999999999989
100
AcDbArc
 50
-18.195609
 51
16.303551
  0
ARC
  5
303
330
1F
100
AcDbEntity
  8
LAYERGROUP-1
  6
CONTINUOUS
 62
     3
100
AcDbCircle
 10
392.008636
 20
111.19146
 30
0.0
 40
23.45
100
AcDbArc
 50
284.269573
 51
285.5905
  0
ARC
  5
304
330
1F
100
AcDbEntity
  8
LAYERGROUP-1
  6
CONTINUOUS
 62
     3
100
AcDbCircle
 10
392.008636
 20
111.19146
 30
0.0
 40
23.45
100
AcDbArc
 50
260.697737
 51
279.302263
  0
ARC
  5
305
330
1F
100
AcDbEntity
  8
LAYERGROUP-1
  6
CONTINUOUS
 62
     6
100
AcDbCircle
 10
392.008636
 20
111.19146
 30
0.0
 40
59.99999999999989
100
AcDbArc
 50
142.786687
 51
329.75342
  0
ARC
  5
306
330
1F
100
AcDbEntity
  8
LAYERGROUP-1
  6
CONTINUOUS
 62
     3
100
AcDbCircle
 10
392.008636
 20
111.19146
 30
0.0
 40
56.39999999999995
100
AcDbArc
 50
148.502394
 51
326.82492
  0
LINE
  5
307
330
1F
100
AcDbEntity
  8
LAYERGROUP-1
  6
CONTINUOUS
 62
     3
100
AcDbLine
 10
140.013268
 20
111.19146
 30
0.0
 11
140.013268
 21
171.19146
 31
0.0
  0
LINE
  5
308
330
1F
100
AcDbEntity
  8
LAYERGROUP-1
  6
CONTINUOUS
 62
     3
100
AcDbLine
 10
140.013268
 20
164.058224
 30
0.0
 11
140.013268
 21
171.19146
 31
0.0
  0
ARC
  5
309
330
1F
100
AcDbEntity
  8
LAYERGROUP-1
  6
CONTINUOUS
 62
     3
100
AcDbCircle
 10
144.821185
 20
184.19146
 30
0.0
 40
2.0
100
AcDbArc
 50
90.0
 51
168.0
  0
LINE
  5
30A
330
1F
100
AcDbEntity
  8
LAYERGROUP-1
  6
DASHED
 62
     6
100
AcDbLine
 10
165.013268
 20
186.19146
 30
0.0
 11
145.013268
 21
186.19146
 31
0.0
  0
LINE
  5
30B
330
1F
100
AcDbEntity
  8
LAYERGROUP-1
  6
CONTINUOUS
 62
     3
100
AcDbLine
 10
142.86489
 20
184.607283
 30
0.0
 11
140.013268
 21
171.19146
 31
0.0
  0
ARC
  5
30C
330
1F
100
AcDbEntity
  8
LAYERGROUP-1
  6
DASHED
 62
     6
100
AcDbCircle
 10
185.205352
 20
184.19146
 30
0.0
 40
2.0
100
AcDbArc
 50
12.0
 51
90.0
  0
LINE
  5
30D
330
1F
100
AcDbEntity
  8
LAYERGROUP-1
  6
DASHED
 62
     6
100
AcDbLine
 10
165.013268
 20
186.19146
 30
0.0
 11
185.205352
 21
186.19146
 31
0.0
  0
LINE
  5
30E
330
1F
100
AcDbEntity
  8
LAYERGROUP-1
  6
DASHED
 62
     6
100
AcDbLine
 10
187.161647
 20
184.607283
 30
0.0
 11
187.349801
 21
183.72209
 31
0.0
  0
LINE
  5
30F
330
1F
100
AcDbEntity
  8
LAYERGROUP-1
  6
CONTINUOUS
 62
     3
100
AcDbLine
 10
135.013268
 20
125.69146
 30
0.0
 11
135.013268
 21
111.19146
 31
0.0
  0
LINE
  5
310
330
1F
100
AcDbEntity
  8
LAYERGROUP-1
  6
CONTINUOUS
 62
     3
100
AcDbLine
 10
135.013268
 20
125.69146
 30
0.0
 11
140.013268
 21
125.69146
 31
0.0
  0
LINE
  5
311
330
1F
100
AcDbEntity
  8
LAYERGROUP-1
  6
CONTINUOUS
 62
     3
100
AcDbLine
 10
190.013268
 20
111.19146
 30
0.0
 11
190.013268
 21
171.19146
 31
0.0
  0
LINE
  5
312
330
1F
100
AcDbEntity
  8
LAYERGROUP-1
  6
CONTINUOUS
 62
     3
100
AcDbLine
 10
190.013268
 20
164.058224
 30
0.0
 11
190.013268
 21
171.19146
 31
0.0
  0
LINE
  5
313
330
1F
100
AcDbEntity
  8
LAYERGROUP-1
  6
CONTINUOUS
 62
     3
100
AcDbLine
 10
195.013268
 20
125.69146
 30
0.0
 11
195.013268
 21
111.19146
 31
0.0
  0
LINE
  5
314
330
1F
100
AcDbEntity
  8
LAYERGROUP-1
  6
CONTINUOUS
 62
     3
100
AcDbLine
 10
195.013268
 20
125.69146
 30
0.0
 11
190.013268
 21
125.69146
 31
0.0
  0
LINE
  5
315
330
1F
100
AcDbEntity
  8
LAYERGROUP-1
  6
CONTINUOUS
 62
     3
100
AcDbLine
 10
140.013268
 20
111.19146
 30
0.0
 11
140.013268
 21
51.19146
 31
0.0
  0
LINE
  5
316
330
1F
100
AcDbEntity
  8
LAYERGROUP-1
  6
CONTINUOUS
 62
     3
100
AcDbLine
 10
140.013268
 20
58.324696
 30
0.0
 11
140.013268
 21
51.19146
 31
0.0
  0
ARC
  5
317
330
1F
100
AcDbEntity
  8
LAYERGROUP-1
  6
CONTINUOUS
 62
     3
100
AcDbCircle
 10
144.821185
 20
38.19146
 30
0.0
 40
2.0
100
AcDbArc
 50
192.0
 51
270.0
  0
LINE
  5
318
330
1F
100
AcDbEntity
  8
LAYERGROUP-1
  6
CONTINUOUS
 62
     3
100
AcDbLine
 10
165.013268
 20
36.19146
 30
0.0
 11
144.821185
 21
36.19146
 31
0.0
  0
LINE
  5
319
330
1F
100
AcDbEntity
  8
LAYERGROUP-1
  6
CONTINUOUS
 62
     3
100
AcDbLine
 10
142.86489
 20
37.775637
 30
0.0
 11
140.013268
 21
51.19146
 31
0.0
  0
ARC
  5
31A
330
1F
100
AcDbEntity
  8
LAYERGROUP-1
  6
CONTINUOUS
 62
     3
100
AcDbCircle
 10
185.205352
 20
38.19146
 30
0.0
 40
2.0
100
AcDbArc
 50
270.0
 51
348.0
  0
LINE
  5
31B
330
1F
100
AcDbEntity
  8
LAYERGROUP-1
  6
CONTINUOUS
 62
     3
100
AcDbLine
 10
165.013268
 20
36.19146
 30
0.0
 11
185.205352
 21
36.19146
 31
0.0
  0
LINE
  5
31C
330
1F
100
AcDbEntity
  8
LAYERGROUP-1
  6
CONTINUOUS
 62
     3
100
AcDbLine
 10
187.161647
 20
37.775637
 30
0.0
 11
190.013268
 21
51.19146
 31
0.0
  0
LINE
  5
31D
330
1F
100
AcDbEntity
  8
LAYERGROUP-1
  6
CONTINUOUS
 62
     3
100
AcDbLine
 10
135.013268
 20
96.69146
 30
0.0
 11
135.013268
 21
111.19146
 31
0.0
  0
LINE
  5
31E
330
1F
100
AcDbEntity
  8
LAYERGROUP-1
  6
CONTINUOUS
 62
     3
100
AcDbLine
 10
135.013268
 20
96.69146
 30
0.0
 11
140.013268
 21
96.69146
 31
0.0
  0
LINE
  5
31F
330
1F
100
AcDbEntity
  8
LAYERGROUP-1
  6
CONTINUOUS
 62
     3
100
AcDbLine
 10
190.013268
 20
111.19146
 30
0.0
 11
190.013268
 21
51.19146
 31
0.0
  0
LINE
  5
320
330
1F
100
AcDbEntity
  8
LAYERGROUP-1
  6
CONTINUOUS
 62
     3
100
AcDbLine
 10
190.013268
 20
58.324696
 30
0.0
 11
190.013268
 21
51.19146
 31
0.0
  0
LINE
  5
321
330
1F
100
AcDbEntity
  8
LAYERGROUP-1
  6
CONTINUOUS
 62
     3
100
AcDbLine
 10
195.013268
 20
96.69146
 30
0.0
 11
195.013268
 21
111.19146
 31
0.0
  0
LINE
  5
322
330
1F
100
AcDbEntity
  8
LAYERGROUP-1
  6
CONTINUOUS
 62
     3
100
AcDbLine
 10
195.013268
 20
96.69146
 30
0.0
 11
190.013268
 21
96.69146
 31
0.0
  0
LINE
  5
323
330
1F
100
AcDbEntity
  8
LAYERGROUP-1
  6
CONTINUOUS
 62
     6
100
AcDbLine
 10
142.94196
 20
37.775637
 30
0.0
 11
142.94196
 21
184.875942
 31
0.0
  0
LINE
  5
324
330
1F
100
AcDbEntity
  8
LAYERGROUP-1
  6
CONTINUOUS
 62
     6
100
AcDbLine
 10
187.084576
 20
37.506978
 30
0.0
 11
187.084576
 21
184.875942
 31
0.0
  0
LINE
  5
325
330
1F
100
AcDbEntity
  8
LAYERGROUP-1
  6
CONTINUOUS
 62
     3
100
AcDbLine
 10
187.349801
 20
183.72209
 30
0.0
 11
190.013268
 21
171.19146
 31
0.0
  0
LINE
  5
326
330
1F
100
AcDbEntity
  8
LAYERGROUP-1
  6
CONTINUOUS
 62
     3
100
AcDbLine
 10
145.013268
 20
186.19146
 30
0.0
 11
144.821185
 21
186.19146
 31
0.0
  0
LINE
  5
327
330
1F
100
AcDbEntity
  8
LAYERGROUP-1
  6
CONTINUOUS
 62
     3
100
AcDbLine
 10
374.015216
 20
314.26432
 30
0.0
 11
332.008636
 21
314.26432
 31
0.0
  0
LINE
  5
328
330
1F
100
AcDbEntity
  8
LAYERGROUP-1
  6
CONTINUOUS
 62
     3
100
AcDbLine
 10
339.141872
 20
314.26432
 30
0.0
 11
332.008636
 21
314.26432
 31
0.0
  0
ARC
  5
329
330
1F
100
AcDbEntity
  8
LAYERGROUP-1
  6
CONTINUOUS
 62
     3
100
AcDbCircle
 10
319.008636
 20
319.072237
 30
0.0
 40
2.0
100
AcDbArc
 50
180.0
 51
258.0
  0
LINE
  5
32A
330
1F
100
AcDbEntity
  8
LAYERGROUP-1
  6
CONTINUOUS
 62
     3
100
AcDbLine
 10
317.008636
 20
339.26432
 30
0.0
 11
317.008636
 21
319.072237
 31
0.0
  0
LINE
  5
32B
330
1F
100
AcDbEntity
  8
LAYERGROUP-1
  6
CONTINUOUS
 62
     3
100
AcDbLine
 10
318.592813
 20
317.115941
 30
0.0
 11
332.008636
 21
314.26432
 31
0.0
  0
ARC
  5
32C
330
1F
100
AcDbEntity
  8
LAYERGROUP-1
  6
CONTINUOUS
 62
     3
100
AcDbCircle
 10
319.008636
 20
359.456404
 30
0.0
 40
2.0
100
AcDbArc
 50
102.0
 51
180.0
  0
LINE
  5
32D
330
1F
100
AcDbEntity
  8
LAYERGROUP-1
  6
CONTINUOUS
 62
     3
100
AcDbLine
 10
317.008636
 20
339.26432
 30
0.0
 11
317.008636
 21
359.456404
 31
0.0
  0
LINE
  5
32E
330
1F
100
AcDbEntity
  8
LAYERGROUP-1
  6
CONTINUOUS
 62
     3
100
AcDbLine
 10
318.592813
 20
361.412699
 30
0.0
 11
332.008636
 21
364.26432
 31
0.0
  0
LINE
  5
32F
330
1F
100
AcDbEntity
  8
LAYERGROUP-1
  6
CONTINUOUS
 62
     3
100
AcDbLine
 10
374.015216
 20
364.26432
 30
0.0
 11
332.008636
 21
364.26432
 31
0.0
  0
LINE
  5
330
330
1F
100
AcDbEntity
  8
LAYERGROUP-1
  6
CONTINUOUS
 62
     3
100
AcDbLine
 10
339.141872
 20
364.26432
 30
0.0
 11
332.008636
 21
364.26432
 31
0.0
  0
LINE
  5
331
330
1F
100
AcDbEntity
  8
LAYERGROUP-1
  6
CONTINUOUS
 62
     6
100
AcDbLine
 10
343.479307
 20
317.193012
 30
0.0
 11
318.324154
 21
317.193012
 31
0.0
  0
LINE
  5
332
330
1F
100
AcDbEntity
  8
LAYERGROUP-1
  6
CONTINUOUS
 62
     6
100
AcDbLine
 10
373.11353
 20
361.335628
 30
0.0
 11
318.324154
 21
361.335628
 31
0.0
  0
LINE
  5
333
330
1F
100
AcDbEntity
  8
LAYERGROUP-1
  6
CONTINUOUS
 62
    66
100
AcDbLine
 10
165.013268
 20
215.505826
 30
0.0
 11
165.013268
 21
209.360303
 31
0.0
  0
LINE
  5
334
330
1F
100
AcDbEntity
  8
LAYERGROUP-1
  6
CONTINUOUS
 62
    66
100
AcDbLine
 10
165.013268
 20
215.505826
 30
0.0
 11
165.013268
 21
209.360303
 31
0.0
  0
LINE
  5
335
330
1F
100
AcDbEntity
  8
LAYERGROUP-1
  6
CONTINUOUS
 62
    66
100
AcDbLine
 10
165.013268
 20
215.505826
 30
0.0
 11
165.013268
 21
209.360303
 31
0.0
  0
LINE
  5
336
330
1F
100
AcDbEntity
  8
LAYERGROUP-1
  6
CONTINUOUS
 62
    66
100
AcDbLine
 10
165.013268
 20
215.505826
 30
0.0
 11
165.013268
 21
209.360303
 31
0.0
  0
LINE
  5
337
330
1F
100
AcDbEntity
  8
LAYERGROUP-1
  6
CONTINUOUS
 62
    66
100
AcDbLine
 10
165.013268
 20
215.505826
 30
0.0
 11
165.013268
 21
209.360303
 31
0.0
  0
ARC
  5
338
330
1F
100
AcDbEntity
  8
LAYERGROUP-1
  6
CONTINUOUS
 62
    66
100
AcDbCircle
 10
145.513268
 20
110.212817
 30
0.0
 40
25.0
100
AcDbArc
 50
224.220044
 51
228.700127
  0
ENDSEC
  0
SECTION
  2
OBJECTS
  0
DICTIONARY
  5
C
330
0
100
AcDbDictionary
  3
ACAD_GROUP
350
D
  3
ACAD_LAYOUT
350
1A
  3
ACAD_MLINESTYLE
350
17
  3
ACAD_PLOTSETTINGS
350
19
  3
ACDBHEADERROUNDTRIPXREC
350
339
  0
DICTIONARY
  5
D
102
{ACAD_REACTORS
330
C
102
}
330
C
100
AcDbDictionary
  0
DICTIONARY
  5
1A
102
{ACAD_REACTORS
330
C
102
}
330
C
100
AcDbDictionary
  0
DICTIONARY
  5
17
102
{ACAD_REACTORS
330
C
102
}
330
C
100
AcDbDictionary
  3
STANDARD
350
18
  0
DICTIONARY
  5
19
102
{ACAD_REACTORS
330
C
102
}
330
C
100
AcDbDictionary
  0
DICTIONARY
  5
339
102
{ACAD_REACTORS
330
C
102
}
330
C
100
AcDbDictionary
  3
CEPSNTYPE
350
342
  3
DIMSTYLEDATA
350
358
  3
FINGERPRINTGUID
350
343
  3
HYPERLINKBASE
350
33C
  3
INSUNITS
350
341
  3
LAYOUTDICT
350
33E
  3
LWETCUNION
350
340
  3
PLOTSETDICT
350
33F
  3
PSVPSCALE
350
345
  3
PUCSBASE
350
348
  3
PUCSORGBACK
350
34E
  3
PUCSORGBOTTOM
350
34A
  3
PUCSORGFRONT
350
34D
  3
PUCSORGLEFT
350
34B
  3
PUCSORGRIGHT
350
34C
  3
PUCSORGTOP
350
349
  3
PUCSORTHOREF
350
346
  3
PUCSORTHOVIEW
350
347
  3
STYLESHEET
350
33D
  3
TSTACKALIGN
350
33A
  3
TSTACKSIZE
350
33B
  3
UCSBASE
350
351
  3
UCSORGBACK
350
357
  3
UCSORGBOTTOM
350
353
  3
UCSORGFRONT
350
356
  3
UCSORGLEFT
350
354
  3
UCSORGRIGHT
350
355
  3
UCSORGTOP
350
352
  3
UCSORTHOREF
350
34F
  3
UCSORTHOVIEW
350
350
  3
VERSIONGUID
350
344
  0
MLINESTYLE
  5
18
102
{ACAD_REACTORS
330
17
102
}
330
17
100
AcDbMlineStyle
  2
Standard
 70
     0
  3

 62
   256
 51
90.0
 52
90.0
 71
     2
 49
0.5
 62
   256
  6
BYLAYER
 49
-0.5
 62
   256
  6
BYLAYER
  0
XRECORD
  5
342
102
{ACAD_REACTORS
330
339
102
}
330
339
100
AcDbXrecord
 90
        0
  0
XRECORD
  5
358
102
{ACAD_REACTORS
330
339
102
}
330
339
100
AcDbXrecord
1000
DSTYLE
1002
{
1070
   179
 70
     2
1070
   171
 70
     3
1070
   143
 40
0.03937
1070
   274
 70
     3
1070
    41
 40
4.0
1070
   344
340
47
1070
   141
 40
2.5
1070
   176
 70
     7
1070
   177
 70
     7
1070
   178
 70
     7
1070
   271
 70
     2
1070
    46
 40
6.0
1070
    43
 40
10.0
1070
    44
 40
1.0
1070
    42
 40
1.0
1070
   147
 40
1.0
1070
   173
 70
     1
1070
    77
 70
     1
1070
   272
 70
     2
1070
    73
 70
     0
1070
   172
 70
     1
1070
    74
 70
     0
1070
   283
 70
     0
1070
   340
340
3F
1070
   140
 40
4.0
1070
   284
 70
     8
1070
    78
 70
     8
1002
}
  0
XRECORD
  5
343
102
{ACAD_REACTORS
330
339
102
}
330
339
100
AcDbXrecord
  1
{3F9C10A9-A13B-477B-B469-649EC985FC15}
  0
XRECORD
  5
33C
102
{ACAD_REACTORS
330
339
102
}
330
339
100
AcDbXrecord
  1

  0
XRECORD
  5
341
102
{ACAD_REACTORS
330
339
102
}
330
339
100
AcDbXrecord
 90
        1
  0
XRECORD
  5
33E
102
{ACAD_REACTORS
330
339
102
}
330
339
100
AcDbXrecord
340
1A
  0
XRECORD
  5
340
102
{ACAD_REACTORS
330
339
102
}
330
339
100
AcDbXrecord
 90
    10781
  0
XRECORD
  5
33F
102
{ACAD_REACTORS
330
339
102
}
330
339
100
AcDbXrecord
340
19
  0
XRECORD
  5
345
102
{ACAD_REACTORS
330
339
102
}
330
339
100
AcDbXrecord
 40
0.0
  0
XRECORD
  5
348
102
{ACAD_REACTORS
330
339
102
}
330
339
100
AcDbXrecord
340
0
  0
XRECORD
  5
34E
102
{ACAD_REACTORS
330
339
102
}
330
339
100
AcDbXrecord
 10
0.0
 20
0.0
 30
0.0
  0
XRECORD
  5
34A
102
{ACAD_REACTORS
330
339
102
}
330
339
100
AcDbXrecord
 10
0.0
 20
0.0
 30
0.0
  0
XRECORD
  5
34D
102
{ACAD_REACTORS
330
339
102
}
330
339
100
AcDbXrecord
 10
0.0
 20
0.0
 30
0.0
  0
XRECORD
  5
34B
102
{ACAD_REACTORS
330
339
102
}
330
339
100
AcDbXrecord
 10
0.0
 20
0.0
 30
0.0
  0
XRECORD
  5
34C
102
{ACAD_REACTORS
330
339
102
}
330
339
100
AcDbXrecord
 10
0.0
 20
0.0
 30
0.0
  0
XRECORD
  5
349
102
{ACAD_REACTORS
330
339
102
}
330
339
100
AcDbXrecord
 10
0.0
 20
0.0
 30
0.0
  0
XRECORD
  5
346
102
{ACAD_REACTORS
330
339
102
}
330
339
100
AcDbXrecord
340
0
  0
XRECORD
  5
347
102
{ACAD_REACTORS
330
339
102
}
330
339
100
AcDbXrecord
 70
     0
  0
XRECORD
  5
33D
102
{ACAD_REACTORS
330
339
102
}
330
339
100
AcDbXrecord
  1

  0
XRECORD
  5
33A
102
{ACAD_REACTORS
330
339
102
}
330
339
100
AcDbXrecord
 90
        1
  0
XRECORD
  5
33B
102
{ACAD_REACTORS
330
339
102
}
330
339
100
AcDbXrecord
 90
       70
  0
XRECORD
  5
351
102
{ACAD_REACTORS
330
339
102
}
330
339
100
AcDbXrecord
340
0
  0
XRECORD
  5
357
102
{ACAD_REACTORS
330
339
102
}
330
339
100
AcDbXrecord
 10
0.0
 20
0.0
 30
0.0
  0
XRECORD
  5
353
102
{ACAD_REACTORS
330
339
102
}
330
339
100
AcDbXrecord
 10
0.0
 20
0.0
 30
0.0
  0
XRECORD
  5
356
102
{ACAD_REACTORS
330
339
102
}
330
339
100
AcDbXrecord
 10
0.0
 20
0.0
 30
0.0
  0
XRECORD
  5
354
102
{ACAD_REACTORS
330
339
102
}
330
339
100
AcDbXrecord
 10
0.0
 20
0.0
 30
0.0
  0
XRECORD
  5
355
102
{ACAD_REACTORS
330
339
102
}
330
339
100
AcDbXrecord
 10
0.0
 20
0.0
 30
0.0
  0
XRECORD
  5
352
102
{ACAD_REACTORS
330
339
102
}
330
339
100
AcDbXrecord
 10
0.0
 20
0.0
 30
0.0
  0
XRECORD
  5
34F
102
{ACAD_REACTORS
330
339
102
}
330
339
100
AcDbXrecord
340
0
  0
XRECORD
  5
350
102
{ACAD_REACTORS
330
339
102
}
330
339
100
AcDbXrecord
 70
     0
  0
XRECORD
  5
344
102
{ACAD_REACTORS
330
339
102
}
330
339
100
AcDbXrecord
  1
{FAEB1C32-E019-11D5-929B-00C0DF256EC4}
  0
ENDSEC
  0
EOF
