  0
SECTION
  2
HEADER
  9
$ACADVER
  1
AC1014
  9
$ACADMAINTVER
 70
     9
  9
$DWGCODEPAGE
  3
ANSI_932
  9
$INSBASE
 10
0.0
 20
0.0
 30
0.0
  9
$EXTMIN
 10
0.0
 20
0.0
 30
0.0
  9
$EXTMAX
 10
594.0
 20
420.0
 30
0.0
  9
$LIMMIN
 10
0.0
 20
0.0
  9
$LIMMAX
 10
594.0
 20
420.0
  9
$ORTHOMODE
 70
     0
  9
$REGENMODE
 70
     1
  9
$FILLMODE
 70
     1
  9
$QTEXTMODE
 70
     0
  9
$MIRRTEXT
 70
     1
  9
$DRAGMODE
 70
     2
  9
$LTSCALE
 40
1.0
  9
$OSMODE
 70
    37
  9
$ATTMODE
 70
     1
  9
$TEXTSIZE
 40
0.2
  9
$TRACEWID
 40
0.05
  9
$TEXTSTYLE
  7
STYLE1
  9
$CLAYER
  8
0
  9
$CELTYPE
  6
BYLAYER
  9
$CECOLOR
 62
   256
  9
$CELTSCALE
 40
1.0
  9
$DELOBJ
 70
     1
  9
$DISPSILH
 70
     0
  9
$DIMSCALE
 40
1.0
  9
$DIMASZ
 40
4.0
  9
$DIMEXO
 40
1.0
  9
$DIMDLI
 40
10.0
  9
$DIMRND
 40
0.0
  9
$DIMDLE
 40
6.0
  9
$DIMEXE
 40
1.0
  9
$DIMTP
 40
0.0
  9
$DIMTM
 40
0.0
  9
$DIMTXT
 40
4.0
  9
$DIMCEN
 40
2.5
  9
$DIMTSZ
 40
0.0
  9
$DIMTOL
 70
     0
  9
$DIMLIM
 70
     0
  9
$DIMTIH
 70
     0
  9
$DIMTOH
 70
     0
  9
$DIMSE1
 70
     0
  9
$DIMSE2
 70
     0
  9
$DIMTAD
 70
     1
  9
$DIMZIN
 70
     8
  9
$DIMBLK
  1

  9
$DIMASO
 70
     1
  9
$DIMSHO
 70
     1
  9
$DIMPOST
  1

  9
$DIMAPOST
  1

  9
$DIMALT
 70
     0
  9
$DIMALTD
 70
     3
  9
$DIMALTF
 40
0.03937
  9
$DIMLFAC
 40
1.0
  9
$DIMTOFL
 70
     1
  9
$DIMTVP
 40
0.0
  9
$DIMTIX
 70
     0
  9
$DIMSOXD
 70
     0
  9
$DIMSAH
 70
     1
  9
$DIMBLK1
  1

  9
$DIMBLK2
  1
FXTIP_ARROW_E
  9
$DIMSTYLE
  2
FXDIMINFO
  9
$DIMCLRD
 70
     7
  9
$DIMCLRE
 70
     7
  9
$DIMCLRT
 70
     7
  9
$DIMTFAC
 40
1.0
  9
$DIMGAP
 40
1.0
  9
$DIMJUST
 70
     0
  9
$DIMSD1
 70
     0
  9
$DIMSD2
 70
     0
  9
$DIMTOLJ
 70
     0
  9
$DIMTZIN
 70
     8
  9
$DIMALTZ
 70
     0
  9
$DIMALTTZ
 70
     0
  9
$DIMFIT
 70
     3
  9
$DIMUPT
 70
     0
  9
$DIMUNIT
 70
     2
  9
$DIMDEC
 70
     2
  9
$DIMTDEC
 70
     2
  9
$DIMALTU
 70
     2
  9
$DIMALTTD
 70
     3
  9
$DIMTXSTY
  7
STYLE1
  9
$DIMAUNIT
 70
     0
  9
$LUNITS
 70
     2
  9
$LUPREC
 70
     4
  9
$SKETCHINC
 40
0.1
  9
$FILLETRAD
 40
0.5
  9
$AUNITS
 70
     0
  9
$AUPREC
 70
     0
  9
$MENU
  1
.
  9
$ELEVATION
 40
0.0
  9
$PELEVATION
 40
0.0
  9
$THICKNESS
 40
0.0
  9
$LIMCHECK
 70
     0
  9
$CHAMFERA
 40
0.5
  9
$CHAMFERB
 40
0.5
  9
$CHAMFERC
 40
1.0
  9
$CHAMFERD
 40
0.0
  9
$SKPOLY
 70
     0
  9
$TDCREATE
 40
2455306.714568195
  9
$TDUPDATE
 40
2455306.714568206
  9
$TDINDWG
 40
0.0000000116
  9
$TDUSRTIMER
 40
0.0000000116
  9
$USRTIMER
 70
     1
  9
$ANGBASE
 50
0.0
  9
$ANGDIR
 70
     0
  9
$PDMODE
 70
     0
  9
$PDSIZE
 40
0.0
  9
$PLINEWID
 40
0.0
  9
$COORDS
 70
     1
  9
$SPLFRAME
 70
     0
  9
$SPLINETYPE
 70
     6
  9
$SPLINESEGS
 70
     8
  9
$ATTDIA
 70
     0
  9
$ATTREQ
 70
     1
  9
$HANDLING
 70
     1
  9
$HANDSEED
  5
33B
  9
$SURFTAB1
 70
     6
  9
$SURFTAB2
 70
     6
  9
$SURFTYPE
 70
     6
  9
$SURFU
 70
     6
  9
$SURFV
 70
     6
  9
$UCSNAME
  2

  9
$UCSORG
 10
0.0
 20
0.0
 30
0.0
  9
$UCSXDIR
 10
1.0
 20
0.0
 30
0.0
  9
$UCSYDIR
 10
0.0
 20
1.0
 30
0.0
  9
$PUCSNAME
  2

  9
$PUCSORG
 10
0.0
 20
0.0
 30
0.0
  9
$PUCSXDIR
 10
1.0
 20
0.0
 30
0.0
  9
$PUCSYDIR
 10
0.0
 20
1.0
 30
0.0
  9
$USERI1
 70
     0
  9
$USERI2
 70
     0
  9
$USERI3
 70
     0
  9
$USERI4
 70
     0
  9
$USERI5
 70
     0
  9
$USERR1
 40
0.0
  9
$USERR2
 40
0.0
  9
$USERR3
 40
0.0
  9
$USERR4
 40
0.0
  9
$USERR5
 40
0.0
  9
$WORLDVIEW
 70
     1
  9
$SHADEDGE
 70
     3
  9
$SHADEDIF
 70
    70
  9
$TILEMODE
 70
     1
  9
$MAXACTVP
 70
    64
  9
$PINSBASE
 10
0.0
 20
0.0
 30
0.0
  9
$PLIMCHECK
 70
     0
  9
$PEXTMIN
 10
1.000000E+20
 20
1.000000E+20
 30
1.000000E+20
  9
$PEXTMAX
 10
-1.000000E+20
 20
-1.000000E+20
 30
-1.000000E+20
  9
$PLIMMIN
 10
0.0
 20
0.0
  9
$PLIMMAX
 10
12.0
 20
9.0
  9
$UNITMODE
 70
     0
  9
$VISRETAIN
 70
     1
  9
$PLINEGEN
 70
     0
  9
$PSLTSCALE
 70
     1
  9
$TREEDEPTH
 70
  3020
  9
$PICKSTYLE
 70
     1
  9
$CMLSTYLE
  2
STANDARD
  9
$CMLJUST
 70
     0
  9
$CMLSCALE
 40
1.0
  9
$PROXYGRAPHICS
 70
     1
  9
$MEASUREMENT
 70
     0
  0
ENDSEC
  0
SECTION
  2
CLASSES
  0
CLASS
  1
ACDBDICTIONARYWDFLT
  2
AcDbDictionaryWithDefault
  3
ObjectDBX Classes
 90
        0
280
     0
281
     0
  0
CLASS
  1
XRECORD
  2
AcDbXrecord
  3
AutoCAD 2000
 90
        0
280
     0
281
     0
  0
CLASS
  1
LWPOLYLINE
  2
AcDbPolyline
  3
AutoCAD 2000
 90
        0
280
     0
281
     1
  0
CLASS
  1
HATCH
  2
AcDbHatch
  3
AutoCAD 2000
 90
        0
280
     0
281
     1
  0
CLASS
  1
ACDBPLACEHOLDER
  2
AcDbPlaceHolder
  3
ObjectDBX Classes
 90
        0
280
     0
281
     0
  0
CLASS
  1
LAYOUT
  2
AcDbLayout
  3
ObjectDBX Classes
 90
        0
280
     0
281
     0
  0
ENDSEC
  0
SECTION
  2
TABLES
  0
TABLE
  2
VPORT
  5
8
330
0
100
AcDbSymbolTable
 70
     1
  0
VPORT
  5
29
330
8
100
AcDbSymbolTableRecord
100
AcDbViewportTableRecord
  2
*ACTIVE
 70
     0
 10
0.0
 20
0.0
 11
1.0
 21
1.0
 12
297.0
 22
210.0
 13
0.0
 23
0.0
 14
0.5
 24
0.5
 15
0.5
 25
0.5
 16
0.0
 26
0.0
 36
1.0
 17
0.0
 27
0.0
 37
0.0
 40
420.0
 41
1.414286
 42
50.0
 43
0.0
 44
0.0
 50
0.0
 51
0.0
 71
     0
 72
   100
 73
     1
 74
     3
 75
     0
 76
     0
 77
     0
 78
     0
  0
ENDTAB
  0
TABLE
  2
LTYPE
  5
5
330
0
100
AcDbSymbolTable
 70
     4
  0
LTYPE
  5
14
330
5
100
AcDbSymbolTableRecord
100
AcDbLinetypeTableRecord
  2
BYBLOCK
 70
     0
  3

 72
    65
 73
     0
 40
0.0
  0
LTYPE
  5
15
330
5
100
AcDbSymbolTableRecord
100
AcDbLinetypeTableRecord
  2
BYLAYER
 70
     0
  3

 72
    65
 73
     0
 40
0.0
  0
LTYPE
  5
16
330
5
100
AcDbSymbolTableRecord
100
AcDbLinetypeTableRecord
  2
CONTINUOUS
 70
     0
  3
--------------------
 72
    65
 73
     0
 40
0.0
  0
LTYPE
  5
2A
330
5
100
AcDbSymbolTableRecord
100
AcDbLinetypeTableRecord
  2
CENTER
 70
     0
  3
Center ____ _ ____ _ ____ _ ____ _ ____ _ ____
 72
    65
 73
     4
 40
13.0
 49
10.0
 74
     0
 49
-1.0
 74
     0
 49
1.0
 74
     0
 49
-1.0
 74
     0
  0
LTYPE
  5
2C
330
5
100
AcDbSymbolTableRecord
100
AcDbLinetypeTableRecord
  2
DASHED
 70
     0
  3
Dashed __ __ __ __ __ __ __ __ __ __ __ __ __ _
 72
    65
 73
     2
 40
4.0
 49
3.0
 74
     0
 49
-1.0
 74
     0
  0
ENDTAB
  0
TABLE
  2
LAYER
  5
2
330
0
100
AcDbSymbolTable
 70
    20
  0
LAYER
  5
10
330
2
100
AcDbSymbolTableRecord
100
AcDbLayerTableRecord
  2
0
 70
     0
 62
     7
  6
CONTINUOUS
  0
LAYER
  5
2D
330
2
100
AcDbSymbolTableRecord
100
AcDbLayerTableRecord
  2
LAYERGROUP-1
 70
     0
 62
     3
  6
CONTINUOUS
  0
LAYER
  5
3D
330
2
100
AcDbSymbolTableRecord
100
AcDbLayerTableRecord
  2
}}ﾊﾊGG血CCТ
 70
     0
 62
     3
  6
CONTINUOUS
  0
LAYER
  5
152
330
2
100
AcDbSymbolTableRecord
100
AcDbLayerTableRecord
  2
GR1-1
 70
     0
 62
     7
  6
CONTINUOUS
  0
LAYER
  5
2F7
330
2
100
AcDbSymbolTableRecord
100
AcDbLayerTableRecord
  2
0-1
 70
     0
 62
     7
  6
CONTINUOUS
  0
ENDTAB
  0
TABLE
  2
STYLE
  5
3
330
0
100
AcDbSymbolTable
 70
     4
  0
STYLE
  5
11
330
3
100
AcDbSymbolTableRecord
100
AcDbTextStyleTableRecord
  2
STANDARD
 70
     0
 40
0.0
 41
1.0
 50
0.0
 71
     0
 42
0.2
  3
txt
  4

  0
STYLE
  5
3F
330
3
100
AcDbSymbolTableRecord
100
AcDbTextStyleTableRecord
  2
STYLE1
 70
     0
 40
0.0
 41
1.0
 50
0.0
 71
     0
 42
0.2
  3
MONOTXT.SHX
  4
extfont.shx
  0
STYLE
  5
40
330
3
100
AcDbSymbolTableRecord
100
AcDbTextStyleTableRecord
  2
FX_VECTOR
 70
     0
 40
0.0
 41
1.0
 50
0.0
 71
     0
 42
0.2
  3
MONOTXT.SHX
  4
BIGFONT.SHX
  0
ENDTAB
  0
TABLE
  2
VIEW
  5
6
330
0
100
AcDbSymbolTable
 70
     0
  0
ENDTAB
  0
TABLE
  2
UCS
  5
7
330
0
100
AcDbSymbolTable
 70
     0
  0
ENDTAB
  0
TABLE
  2
APPID
  5
9
330
0
100
AcDbSymbolTable
 70
     1
  0
APPID
  5
12
330
9
100
AcDbSymbolTableRecord
100
AcDbRegAppTableRecord
  2
ACAD
 70
     0
  0
ENDTAB
  0
TABLE
  2
DIMSTYLE
  5
A
330
0
100
AcDbSymbolTable
 70
     2
  0
DIMSTYLE
105
27
330
A
100
AcDbSymbolTableRecord
100
AcDbDimStyleTableRecord
  2
STANDARD
 70
     0
  3

  4

  5

  6

  7

 40
1.0
 41
0.18
 42
0.0625
 43
0.38
 44
0.18
 45
0.0
 46
0.0
 47
0.0
 48
0.0
140
0.18
141
0.09
142
0.0
143
25.4
144
1.0
145
0.0
146
1.0
147
0.09
 71
     0
 72
     0
 73
     1
 74
     1
 75
     0
 76
     0
 77
     0
 78
     0
170
     0
171
     2
172
     0
173
     0
174
     0
175
     0
176
     0
177
     0
178
     0
270
     2
271
     4
272
     4
273
     2
274
     2
340
11
275
     0
280
     0
281
     0
282
     0
283
     1
284
     0
285
     0
286
     0
287
     3
288
     0
  0
DIMSTYLE
105
A7
102
{ACAD_REACTORS
330
EC
330
F6
330
100
330
10A
330
114
330
120
330
175
330
17F
330
189
330
193
330
29A
330
2D2
102
}
330
A
100
AcDbSymbolTableRecord
100
AcDbDimStyleTableRecord
  2
FXDIMINFO
 70
     0
  3

  4

  5

  6

  7
FXTIP_ARROW_E
 40
1.0
 41
4.0
 42
1.0
 43
10.0
 44
1.0
 45
0.0
 46
6.0
 47
0.0
 48
0.0
140
4.0
141
2.5
142
0.0
143
0.03937
144
1.0
145
0.0
146
1.0
147
1.0
 71
     0
 72
     0
 73
     0
 74
     0
 75
     0
 76
     0
 77
     1
 78
     8
170
     0
171
     3
172
     1
173
     1
174
     0
175
     0
176
     7
177
     7
178
     7
179
     2
270
     2
271
     2
272
     2
273
     2
274
     3
340
3F
275
     0
280
     0
281
     0
282
     0
283
     0
284
     8
285
     0
286
     0
287
     3
288
     0
  0
ENDTAB
  0
TABLE
  2
BLOCK_RECORD
  5
1
330
0
100
AcDbSymbolTable
 70
    35
  0
BLOCK_RECORD
  5
1F
330
1
100
AcDbSymbolTableRecord
100
AcDbBlockTableRecord
  2
*MODEL_SPACE
  0
BLOCK_RECORD
  5
1B
330
1
100
AcDbSymbolTableRecord
100
AcDbBlockTableRecord
  2
*PAPER_SPACE
  0
BLOCK_RECORD
  5
41
330
1
100
AcDbSymbolTableRecord
100
AcDbBlockTableRecord
  2
FXTIP_ARROW_S
  0
BLOCK_RECORD
  5
47
330
1
100
AcDbSymbolTableRecord
100
AcDbBlockTableRecord
  2
FXTIP_ARROW_E
  0
BLOCK_RECORD
  5
4D
330
1
100
AcDbSymbolTableRecord
100
AcDbBlockTableRecord
  2
FXTIP_BLACKDOT_S
  0
BLOCK_RECORD
  5
53
330
1
100
AcDbSymbolTableRecord
100
AcDbBlockTableRecord
  2
FXTIP_BLACKDOT_E
  0
BLOCK_RECORD
  5
59
330
1
100
AcDbSymbolTableRecord
100
AcDbBlockTableRecord
  2
FXTIP_TRIANGLE_S
  0
BLOCK_RECORD
  5
60
330
1
100
AcDbSymbolTableRecord
100
AcDbBlockTableRecord
  2
FXTIP_TRIANGLE_E
  0
BLOCK_RECORD
  5
67
330
1
100
AcDbSymbolTableRecord
100
AcDbBlockTableRecord
  2
FXTIP_ARCHITECT_S
  0
BLOCK_RECORD
  5
6D
330
1
100
AcDbSymbolTableRecord
100
AcDbBlockTableRecord
  2
FXTIP_ARCHITECT_E
  0
BLOCK_RECORD
  5
73
330
1
100
AcDbSymbolTableRecord
100
AcDbBlockTableRecord
  2
FXTIP_CIVIL_S
  0
BLOCK_RECORD
  5
79
330
1
100
AcDbSymbolTableRecord
100
AcDbBlockTableRecord
  2
FXTIP_CIVIL_E
  0
BLOCK_RECORD
  5
7F
330
1
100
AcDbSymbolTableRecord
100
AcDbBlockTableRecord
  2
FXTIP_WHITEDOT_S
  0
BLOCK_RECORD
  5
84
330
1
100
AcDbSymbolTableRecord
100
AcDbBlockTableRecord
  2
FXTIP_WHITEDOT_E
  0
BLOCK_RECORD
  5
89
330
1
100
AcDbSymbolTableRecord
100
AcDbBlockTableRecord
  2
FXTIP_UPARROW_S
  0
BLOCK_RECORD
  5
8E
330
1
100
AcDbSymbolTableRecord
100
AcDbBlockTableRecord
  2
FXTIP_UPARROW_E
  0
BLOCK_RECORD
  5
93
330
1
100
AcDbSymbolTableRecord
100
AcDbBlockTableRecord
  2
FXTIP_DOWNARROW_S
  0
BLOCK_RECORD
  5
98
330
1
100
AcDbSymbolTableRecord
100
AcDbBlockTableRecord
  2
FXTIP_DOWNARROW_E
  0
BLOCK_RECORD
  5
9D
330
1
100
AcDbSymbolTableRecord
100
AcDbBlockTableRecord
  2
FXTIP_BLACKTRIANGLE_S
  0
BLOCK_RECORD
  5
A2
330
1
100
AcDbSymbolTableRecord
100
AcDbBlockTableRecord
  2
FXTIP_BLACKTRIANGLE_E
  0
BLOCK_RECORD
  5
ED
330
1
100
AcDbSymbolTableRecord
100
AcDbBlockTableRecord
  2
*D19
  0
BLOCK_RECORD
  5
F7
330
1
100
AcDbSymbolTableRecord
100
AcDbBlockTableRecord
  2
*D20
  0
BLOCK_RECORD
  5
101
330
1
100
AcDbSymbolTableRecord
100
AcDbBlockTableRecord
  2
*D21
  0
BLOCK_RECORD
  5
10B
330
1
100
AcDbSymbolTableRecord
100
AcDbBlockTableRecord
  2
*D22
  0
BLOCK_RECORD
  5
115
330
1
100
AcDbSymbolTableRecord
100
AcDbBlockTableRecord
  2
*D23
  0
BLOCK_RECORD
  5
121
330
1
100
AcDbSymbolTableRecord
100
AcDbBlockTableRecord
  2
*D24
  0
BLOCK_RECORD
  5
15C
330
1
100
AcDbSymbolTableRecord
100
AcDbBlockTableRecord
  2
BLKF027
  0
BLOCK_RECORD
  5
176
330
1
100
AcDbSymbolTableRecord
100
AcDbBlockTableRecord
  2
*D26
  0
BLOCK_RECORD
  5
180
330
1
100
AcDbSymbolTableRecord
100
AcDbBlockTableRecord
  2
*D27
  0
BLOCK_RECORD
  5
18A
330
1
100
AcDbSymbolTableRecord
100
AcDbBlockTableRecord
  2
*D28
  0
BLOCK_RECORD
  5
194
330
1
100
AcDbSymbolTableRecord
100
AcDbBlockTableRecord
  2
*D29
  0
BLOCK_RECORD
  5
29B
330
1
100
AcDbSymbolTableRecord
100
AcDbBlockTableRecord
  2
*D30
  0
BLOCK_RECORD
  5
2D3
330
1
100
AcDbSymbolTableRecord
100
AcDbBlockTableRecord
  2
*D31
  0
BLOCK_RECORD
  5
2E7
330
1
100
AcDbSymbolTableRecord
100
AcDbBlockTableRecord
  2
BLKF034
  0
BLOCK_RECORD
  5
2F3
330
1
100
AcDbSymbolTableRecord
100
AcDbBlockTableRecord
  2
BLKF035
  0
BLOCK_RECORD
  5
2FC
330
1
100
AcDbSymbolTableRecord
100
AcDbBlockTableRecord
  2
BLKF036
  0
ENDTAB
  0
ENDSEC
  0
SECTION
  2
BLOCKS
  0
BLOCK
  5
20
330
1F
100
AcDbEntity
  8
0
100
AcDbBlockBegin
  2
*MODEL_SPACE
 70
     0
 71
     0
 10
0.0
 20
0.0
 30
0.0
  3
*MODEL_SPACE
  1

  0
ENDBLK
  5
21
330
1F
100
AcDbEntity
  8
0
100
AcDbBlockEnd
  0
BLOCK
  5
1C
330
1B
100
AcDbEntity
 67
     1
  8
0
100
AcDbBlockBegin
  2
*PAPER_SPACE
 70
     0
 71
     0
 10
0.0
 20
0.0
 30
0.0
  3
*PAPER_SPACE
  1

  0
ENDBLK
  5
1D
330
1B
100
AcDbEntity
 67
     1
  8
0
100
AcDbBlockEnd
  0
BLOCK
  5
42
330
41
100
AcDbEntity
  8
0
100
AcDbBlockBegin
  2
FXTIP_ARROW_S
 70
     0
 71
     0
 10
0.0
 20
0.0
 30
0.0
  3
FXTIP_ARROW_S
  1

  0
LINE
  5
44
330
41
100
AcDbEntity
  8
0
  6
CONTINUOUS
 62
     0
100
AcDbLine
 10
0.0
 20
0.0
 30
0.0
 11
-1.0
 21
0.0
 31
0.0
  0
LINE
  5
45
330
41
100
AcDbEntity
  8
0
  6
CONTINUOUS
 62
     0
100
AcDbLine
 10
0.0
 20
0.0
 30
0.0
 11
-0.965926
 21
-0.258819
 31
0.0
  0
LINE
  5
46
330
41
100
AcDbEntity
  8
0
  6
CONTINUOUS
 62
     0
100
AcDbLine
 10
0.0
 20
0.0
 30
0.0
 11
-0.965926
 21
0.258819
 31
0.0
  0
ENDBLK
  5
43
330
41
100
AcDbEntity
  8
0
100
AcDbBlockEnd
  0
BLOCK
  5
48
330
47
100
AcDbEntity
  8
0
100
AcDbBlockBegin
  2
FXTIP_ARROW_E
 70
     0
 71
     0
 10
0.0
 20
0.0
 30
0.0
  3
FXTIP_ARROW_E
  1

  0
LINE
  5
4A
330
47
100
AcDbEntity
  8
0
  6
CONTINUOUS
 62
     0
100
AcDbLine
 10
0.0
 20
0.0
 30
0.0
 11
-1.0
 21
0.0
 31
0.0
  0
LINE
  5
4B
330
47
100
AcDbEntity
  8
0
  6
CONTINUOUS
 62
     0
100
AcDbLine
 10
0.0
 20
0.0
 30
0.0
 11
-0.965926
 21
0.258819
 31
0.0
  0
LINE
  5
4C
330
47
100
AcDbEntity
  8
0
  6
CONTINUOUS
 62
     0
100
AcDbLine
 10
0.0
 20
0.0
 30
0.0
 11
-0.965926
 21
-0.258819
 31
0.0
  0
ENDBLK
  5
49
330
47
100
AcDbEntity
  8
0
100
AcDbBlockEnd
  0
BLOCK
  5
4E
330
4D
100
AcDbEntity
  8
0
100
AcDbBlockBegin
  2
FXTIP_BLACKDOT_S
 70
     0
 71
     0
 10
0.0
 20
0.0
 30
0.0
  3
FXTIP_BLACKDOT_S
  1

  0
LINE
  5
50
330
4D
100
AcDbEntity
  8
0
  6
CONTINUOUS
 62
     0
100
AcDbLine
 10
0.0
 20
0.0
 30
0.0
 11
-1.0
 21
0.0
 31
0.0
  0
LWPOLYLINE
  5
51
330
4D
100
AcDbEntity
  8
0
  6
CONTINUOUS
 62
     0
100
AcDbPolyline
 90
        2
 70
     1
 10
-0.25
 20
0.0
 40
0.5
 41
0.5
 42
1.0
 10
0.25
 20
0.0
 40
0.5
 41
0.5
 42
1.0
  0
CIRCLE
  5
52
330
4D
100
AcDbEntity
  8
0
  6
CONTINUOUS
 62
     0
100
AcDbCircle
 10
0.0
 20
0.0
 30
0.0
 40
0.5
  0
ENDBLK
  5
4F
330
4D
100
AcDbEntity
  8
0
100
AcDbBlockEnd
  0
BLOCK
  5
54
330
53
100
AcDbEntity
  8
0
100
AcDbBlockBegin
  2
FXTIP_BLACKDOT_E
 70
     0
 71
     0
 10
0.0
 20
0.0
 30
0.0
  3
FXTIP_BLACKDOT_E
  1

  0
LINE
  5
56
330
53
100
AcDbEntity
  8
0
  6
CONTINUOUS
 62
     0
100
AcDbLine
 10
0.0
 20
0.0
 30
0.0
 11
-1.0
 21
0.0
 31
0.0
  0
LWPOLYLINE
  5
57
330
53
100
AcDbEntity
  8
0
  6
CONTINUOUS
 62
     0
100
AcDbPolyline
 90
        2
 70
     1
 10
-0.25
 20
0.0
 40
0.5
 41
0.5
 42
1.0
 10
0.25
 20
0.0
 40
0.5
 41
0.5
 42
1.0
  0
CIRCLE
  5
58
330
53
100
AcDbEntity
  8
0
  6
CONTINUOUS
 62
     0
100
AcDbCircle
 10
0.0
 20
0.0
 30
0.0
 40
0.5
  0
ENDBLK
  5
55
330
53
100
AcDbEntity
  8
0
100
AcDbBlockEnd
  0
BLOCK
  5
5A
330
59
100
AcDbEntity
  8
0
100
AcDbBlockBegin
  2
FXTIP_TRIANGLE_S
 70
     0
 71
     0
 10
0.0
 20
0.0
 30
0.0
  3
FXTIP_TRIANGLE_S
  1

  0
LINE
  5
5C
330
59
100
AcDbEntity
  8
0
  6
CONTINUOUS
 62
     0
100
AcDbLine
 10
0.0
 20
0.0
 30
0.0
 11
-1.0
 21
0.0
 31
0.0
  0
LINE
  5
5D
330
59
100
AcDbEntity
  8
0
  6
CONTINUOUS
 62
     0
100
AcDbLine
 10
0.0
 20
0.0
 30
0.0
 11
-0.965926
 21
-0.258819
 31
0.0
  0
LINE
  5
5E
330
59
100
AcDbEntity
  8
0
  6
CONTINUOUS
 62
     0
100
AcDbLine
 10
0.0
 20
0.0
 30
0.0
 11
-0.965926
 21
0.258819
 31
0.0
  0
LINE
  5
5F
330
59
100
AcDbEntity
  8
0
  6
CONTINUOUS
 62
     0
100
AcDbLine
 10
-0.965926
 20
-0.258819
 30
0.0
 11
-0.965926
 21
0.258819
 31
0.0
  0
ENDBLK
  5
5B
330
59
100
AcDbEntity
  8
0
100
AcDbBlockEnd
  0
BLOCK
  5
61
330
60
100
AcDbEntity
  8
0
100
AcDbBlockBegin
  2
FXTIP_TRIANGLE_E
 70
     0
 71
     0
 10
0.0
 20
0.0
 30
0.0
  3
FXTIP_TRIANGLE_E
  1

  0
LINE
  5
63
330
60
100
AcDbEntity
  8
0
  6
CONTINUOUS
 62
     0
100
AcDbLine
 10
0.0
 20
0.0
 30
0.0
 11
-1.0
 21
0.0
 31
0.0
  0
LINE
  5
64
330
60
100
AcDbEntity
  8
0
  6
CONTINUOUS
 62
     0
100
AcDbLine
 10
0.0
 20
0.0
 30
0.0
 11
-0.965926
 21
0.258819
 31
0.0
  0
LINE
  5
65
330
60
100
AcDbEntity
  8
0
  6
CONTINUOUS
 62
     0
100
AcDbLine
 10
0.0
 20
0.0
 30
0.0
 11
-0.965926
 21
-0.258819
 31
0.0
  0
LINE
  5
66
330
60
100
AcDbEntity
  8
0
  6
CONTINUOUS
 62
     0
100
AcDbLine
 10
-0.965926
 20
0.258819
 30
0.0
 11
-0.965926
 21
-0.258819
 31
0.0
  0
ENDBLK
  5
62
330
60
100
AcDbEntity
  8
0
100
AcDbBlockEnd
  0
BLOCK
  5
68
330
67
100
AcDbEntity
  8
0
100
AcDbBlockBegin
  2
FXTIP_ARCHITECT_S
 70
     0
 71
     0
 10
0.0
 20
0.0
 30
0.0
  3
FXTIP_ARCHITECT_S
  1

  0
LINE
  5
6A
330
67
100
AcDbEntity
  8
0
  6
CONTINUOUS
 62
     0
100
AcDbLine
 10
0.0
 20
0.0
 30
0.0
 11
-1.0
 21
0.0
 31
0.0
  0
LINE
  5
6B
330
67
100
AcDbEntity
  8
0
  6
CONTINUOUS
 62
     0
100
AcDbLine
 10
0.0
 20
0.0
 30
0.0
 11
-0.707107
 21
-0.707107
 31
0.0
  0
LINE
  5
6C
330
67
100
AcDbEntity
  8
0
  6
CONTINUOUS
 62
     0
100
AcDbLine
 10
0.0
 20
0.0
 30
0.0
 11
0.707107
 21
0.707107
 31
0.0
  0
ENDBLK
  5
69
330
67
100
AcDbEntity
  8
0
100
AcDbBlockEnd
  0
BLOCK
  5
6E
330
6D
100
AcDbEntity
  8
0
100
AcDbBlockBegin
  2
FXTIP_ARCHITECT_E
 70
     0
 71
     0
 10
0.0
 20
0.0
 30
0.0
  3
FXTIP_ARCHITECT_E
  1

  0
LINE
  5
70
330
6D
100
AcDbEntity
  8
0
  6
CONTINUOUS
 62
     0
100
AcDbLine
 10
0.0
 20
0.0
 30
0.0
 11
-1.0
 21
0.0
 31
0.0
  0
LINE
  5
71
330
6D
100
AcDbEntity
  8
0
  6
CONTINUOUS
 62
     0
100
AcDbLine
 10
0.0
 20
0.0
 30
0.0
 11
0.707107
 21
0.707107
 31
0.0
  0
LINE
  5
72
330
6D
100
AcDbEntity
  8
0
  6
CONTINUOUS
 62
     0
100
AcDbLine
 10
0.0
 20
0.0
 30
0.0
 11
-0.707107
 21
-0.707107
 31
0.0
  0
ENDBLK
  5
6F
330
6D
100
AcDbEntity
  8
0
100
AcDbBlockEnd
  0
BLOCK
  5
74
330
73
100
AcDbEntity
  8
0
100
AcDbBlockBegin
  2
FXTIP_CIVIL_S
 70
     0
 71
     0
 10
0.0
 20
0.0
 30
0.0
  3
FXTIP_CIVIL_S
  1

  0
LINE
  5
76
330
73
100
AcDbEntity
  8
0
  6
CONTINUOUS
 62
     0
100
AcDbLine
 10
0.0
 20
0.0
 30
0.0
 11
-1.0
 21
0.0
 31
0.0
  0
LINE
  5
77
330
73
100
AcDbEntity
  8
0
  6
CONTINUOUS
 62
     0
100
AcDbLine
 10
0.0
 20
-0.0625
 30
0.0
 11
-1.0
 21
-0.0625
 31
0.0
  0
LINE
  5
78
330
73
100
AcDbEntity
  8
0
  6
CONTINUOUS
 62
     0
100
AcDbLine
 10
0.0
 20
-0.125
 30
0.0
 11
-1.0
 21
-0.125
 31
0.0
  0
ENDBLK
  5
75
330
73
100
AcDbEntity
  8
0
100
AcDbBlockEnd
  0
BLOCK
  5
7A
330
79
100
AcDbEntity
  8
0
100
AcDbBlockBegin
  2
FXTIP_CIVIL_E
 70
     0
 71
     0
 10
0.0
 20
0.0
 30
0.0
  3
FXTIP_CIVIL_E
  1

  0
LINE
  5
7C
330
79
100
AcDbEntity
  8
0
  6
CONTINUOUS
 62
     0
100
AcDbLine
 10
0.0
 20
0.0
 30
0.0
 11
-1.0
 21
0.0
 31
0.0
  0
LINE
  5
7D
330
79
100
AcDbEntity
  8
0
  6
CONTINUOUS
 62
     0
100
AcDbLine
 10
0.0
 20
0.0625
 30
0.0
 11
-1.0
 21
0.0625
 31
0.0
  0
LINE
  5
7E
330
79
100
AcDbEntity
  8
0
  6
CONTINUOUS
 62
     0
100
AcDbLine
 10
0.0
 20
0.125
 30
0.0
 11
-1.0
 21
0.125
 31
0.0
  0
ENDBLK
  5
7B
330
79
100
AcDbEntity
  8
0
100
AcDbBlockEnd
  0
BLOCK
  5
80
330
7F
100
AcDbEntity
  8
0
100
AcDbBlockBegin
  2
FXTIP_WHITEDOT_S
 70
     0
 71
     0
 10
0.0
 20
0.0
 30
0.0
  3
FXTIP_WHITEDOT_S
  1

  0
LINE
  5
82
330
7F
100
AcDbEntity
  8
0
  6
CONTINUOUS
 62
     0
100
AcDbLine
 10
0.0
 20
0.0
 30
0.0
 11
-1.0
 21
0.0
 31
0.0
  0
CIRCLE
  5
83
330
7F
100
AcDbEntity
  8
0
  6
CONTINUOUS
 62
     0
100
AcDbCircle
 10
0.0
 20
0.0
 30
0.0
 40
0.5
  0
ENDBLK
  5
81
330
7F
100
AcDbEntity
  8
0
100
AcDbBlockEnd
  0
BLOCK
  5
85
330
84
100
AcDbEntity
  8
0
100
AcDbBlockBegin
  2
FXTIP_WHITEDOT_E
 70
     0
 71
     0
 10
0.0
 20
0.0
 30
0.0
  3
FXTIP_WHITEDOT_E
  1

  0
LINE
  5
87
330
84
100
AcDbEntity
  8
0
  6
CONTINUOUS
 62
     0
100
AcDbLine
 10
0.0
 20
0.0
 30
0.0
 11
-1.0
 21
0.0
 31
0.0
  0
CIRCLE
  5
88
330
84
100
AcDbEntity
  8
0
  6
CONTINUOUS
 62
     0
100
AcDbCircle
 10
0.0
 20
0.0
 30
0.0
 40
0.5
  0
ENDBLK
  5
86
330
84
100
AcDbEntity
  8
0
100
AcDbBlockEnd
  0
BLOCK
  5
8A
330
89
100
AcDbEntity
  8
0
100
AcDbBlockBegin
  2
FXTIP_UPARROW_S
 70
     0
 71
     0
 10
0.0
 20
0.0
 30
0.0
  3
FXTIP_UPARROW_S
  1

  0
LINE
  5
8C
330
89
100
AcDbEntity
  8
0
  6
CONTINUOUS
 62
     0
100
AcDbLine
 10
0.0
 20
0.0
 30
0.0
 11
-1.0
 21
0.0
 31
0.0
  0
LINE
  5
8D
330
89
100
AcDbEntity
  8
0
  6
CONTINUOUS
 62
     0
100
AcDbLine
 10
0.0
 20
0.0
 30
0.0
 11
-0.965926
 21
-0.258819
 31
0.0
  0
ENDBLK
  5
8B
330
89
100
AcDbEntity
  8
0
100
AcDbBlockEnd
  0
BLOCK
  5
8F
330
8E
100
AcDbEntity
  8
0
100
AcDbBlockBegin
  2
FXTIP_UPARROW_E
 70
     0
 71
     0
 10
0.0
 20
0.0
 30
0.0
  3
FXTIP_UPARROW_E
  1

  0
LINE
  5
91
330
8E
100
AcDbEntity
  8
0
  6
CONTINUOUS
 62
     0
100
AcDbLine
 10
0.0
 20
0.0
 30
0.0
 11
-1.0
 21
0.0
 31
0.0
  0
LINE
  5
92
330
8E
100
AcDbEntity
  8
0
  6
CONTINUOUS
 62
     0
100
AcDbLine
 10
0.0
 20
0.0
 30
0.0
 11
-0.965926
 21
0.258819
 31
0.0
  0
ENDBLK
  5
90
330
8E
100
AcDbEntity
  8
0
100
AcDbBlockEnd
  0
BLOCK
  5
94
330
93
100
AcDbEntity
  8
0
100
AcDbBlockBegin
  2
FXTIP_DOWNARROW_S
 70
     0
 71
     0
 10
0.0
 20
0.0
 30
0.0
  3
FXTIP_DOWNARROW_S
  1

  0
LINE
  5
96
330
93
100
AcDbEntity
  8
0
  6
CONTINUOUS
 62
     0
100
AcDbLine
 10
0.0
 20
0.0
 30
0.0
 11
-1.0
 21
0.0
 31
0.0
  0
LINE
  5
97
330
93
100
AcDbEntity
  8
0
  6
CONTINUOUS
 62
     0
100
AcDbLine
 10
0.0
 20
0.0
 30
0.0
 11
-0.965926
 21
0.258819
 31
0.0
  0
ENDBLK
  5
95
330
93
100
AcDbEntity
  8
0
100
AcDbBlockEnd
  0
BLOCK
  5
99
330
98
100
AcDbEntity
  8
0
100
AcDbBlockBegin
  2
FXTIP_DOWNARROW_E
 70
     0
 71
     0
 10
0.0
 20
0.0
 30
0.0
  3
FXTIP_DOWNARROW_E
  1

  0
LINE
  5
9B
330
98
100
AcDbEntity
  8
0
  6
CONTINUOUS
 62
     0
100
AcDbLine
 10
0.0
 20
0.0
 30
0.0
 11
-1.0
 21
0.0
 31
0.0
  0
LINE
  5
9C
330
98
100
AcDbEntity
  8
0
  6
CONTINUOUS
 62
     0
100
AcDbLine
 10
0.0
 20
0.0
 30
0.0
 11
-0.965926
 21
-0.258819
 31
0.0
  0
ENDBLK
  5
9A
330
98
100
AcDbEntity
  8
0
100
AcDbBlockEnd
  0
BLOCK
  5
9E
330
9D
100
AcDbEntity
  8
0
100
AcDbBlockBegin
  2
FXTIP_BLACKTRIANGLE_S
 70
     0
 71
     0
 10
0.0
 20
0.0
 30
0.0
  3
FXTIP_BLACKTRIANGLE_S
  1

  0
LINE
  5
A0
330
9D
100
AcDbEntity
  8
0
  6
CONTINUOUS
 62
     0
100
AcDbLine
 10
0.0
 20
0.0
 30
0.0
 11
-1.0
 21
0.0
 31
0.0
  0
SOLID
  5
A1
330
9D
100
AcDbEntity
  8
0
  6
CONTINUOUS
 62
     0
100
AcDbTrace
 10
0.0
 20
0.0
 30
0.0
 11
-0.965926
 21
-0.258819
 31
0.0
 12
-0.965926
 22
0.258819
 32
0.0
 13
-0.965926
 23
0.258819
 33
0.0
  0
ENDBLK
  5
9F
330
9D
100
AcDbEntity
  8
0
100
AcDbBlockEnd
  0
BLOCK
  5
A3
330
A2
100
AcDbEntity
  8
0
100
AcDbBlockBegin
  2
FXTIP_BLACKTRIANGLE_E
 70
     0
 71
     0
 10
0.0
 20
0.0
 30
0.0
  3
FXTIP_BLACKTRIANGLE_E
  1

  0
LINE
  5
A5
330
A2
100
AcDbEntity
  8
0
  6
CONTINUOUS
 62
     0
100
AcDbLine
 10
0.0
 20
0.0
 30
0.0
 11
-1.0
 21
0.0
 31
0.0
  0
SOLID
  5
A6
330
A2
100
AcDbEntity
  8
0
  6
CONTINUOUS
 62
     0
100
AcDbTrace
 10
0.0
 20
0.0
 30
0.0
 11
-0.965926
 21
0.258819
 31
0.0
 12
-0.965926
 22
-0.258819
 32
0.0
 13
-0.965926
 23
-0.258819
 33
0.0
  0
ENDBLK
  5
A4
330
A2
100
AcDbEntity
  8
0
100
AcDbBlockEnd
  0
BLOCK
  5
EE
330
ED
100
AcDbEntity
  8
0
100
AcDbBlockBegin
  2
*D19
 70
     1
 71
     0
 10
0.0
 20
0.0
 30
0.0
  3
*D19
  1

  0
TEXT
  5
F0
330
ED
100
AcDbEntity
  8
LAYERGROUP-1
  6
CONTINUOUS
 62
     7
100
AcDbText
 10
447.987915
 20
318.077423
 30
0.0
 40
4.0
  1
80
 50
90.0
 41
0.851351
  7
FX_VECTOR
 72
     5
 11
447.987915
 21
324.077423
 31
0.0
100
AcDbText
  0
LINE
  5
F1
330
ED
100
AcDbEntity
  8
LAYERGROUP-1
  6
CONTINUOUS
 62
     7
100
AcDbLine
 10
448.987904
 20
281.077434
 30
0.0
 11
448.987904
 21
361.077434
 31
0.0
  0
INSERT
  5
F2
330
ED
100
AcDbEntity
  8
LAYERGROUP-1
  6
CONTINUOUS
 62
     7
100
AcDbBlockReference
  2
FXTIP_ARROW_S
 10
448.987904
 20
281.077434
 30
0.0
 41
4.0
 42
4.0
 50
270.0
  0
INSERT
  5
F3
330
ED
100
AcDbEntity
  8
LAYERGROUP-1
  6
CONTINUOUS
 62
     7
100
AcDbBlockReference
  2
FXTIP_ARROW_E
 10
448.987904
 20
361.077434
 30
0.0
 41
4.0
 42
4.0
 50
90.0
  0
LINE
  5
F4
330
ED
100
AcDbEntity
  8
LAYERGROUP-1
  6
CONTINUOUS
 62
     7
100
AcDbLine
 10
430.078541
 20
281.077434
 30
0.0
 11
449.987904
 21
281.077434
 31
0.0
  0
LINE
  5
F5
330
ED
100
AcDbEntity
  8
LAYERGROUP-1
  6
CONTINUOUS
 62
     7
100
AcDbLine
 10
430.078541
 20
361.077434
 30
0.0
 11
449.987904
 21
361.077434
 31
0.0
  0
ENDBLK
  5
EF
330
ED
100
AcDbEntity
  8
0
100
AcDbBlockEnd
  0
BLOCK
  5
F8
330
F7
100
AcDbEntity
  8
0
100
AcDbBlockBegin
  2
*D20
 70
     1
 71
     0
 10
0.0
 20
0.0
 30
0.0
  3
*D20
  1

  0
TEXT
  5
FA
330
F7
100
AcDbEntity
  8
LAYERGROUP-1
  6
CONTINUOUS
 62
     7
100
AcDbText
 10
459.464844
 20
316.577423
 30
0.0
 40
4.0
  1
108
 50
90.0
 41
0.828947
  7
FX_VECTOR
 72
     5
 11
459.464844
 21
325.577423
 31
0.0
100
AcDbText
  0
LINE
  5
FB
330
F7
100
AcDbEntity
  8
LAYERGROUP-1
  6
CONTINUOUS
 62
     7
100
AcDbLine
 10
460.464826
 20
267.077434
 30
0.0
 11
460.464826
 21
375.077434
 31
0.0
  0
INSERT
  5
FC
330
F7
100
AcDbEntity
  8
LAYERGROUP-1
  6
CONTINUOUS
 62
     7
100
AcDbBlockReference
  2
FXTIP_ARROW_S
 10
460.464826
 20
267.077434
 30
0.0
 41
4.0
 42
4.0
 50
270.0
  0
INSERT
  5
FD
330
F7
100
AcDbEntity
  8
LAYERGROUP-1
  6
CONTINUOUS
 62
     7
100
AcDbBlockReference
  2
FXTIP_ARROW_E
 10
460.464826
 20
375.077434
 30
0.0
 41
4.0
 42
4.0
 50
90.0
  0
LINE
  5
FE
330
F7
100
AcDbEntity
  8
LAYERGROUP-1
  6
CONTINUOUS
 62
     7
100
AcDbLine
 10
425.578541
 20
267.077434
 30
0.0
 11
461.464826
 21
267.077434
 31
0.0
  0
LINE
  5
FF
330
F7
100
AcDbEntity
  8
LAYERGROUP-1
  6
CONTINUOUS
 62
     7
100
AcDbLine
 10
425.578541
 20
375.077434
 30
0.0
 11
461.464826
 21
375.077434
 31
0.0
  0
ENDBLK
  5
F9
330
F7
100
AcDbEntity
  8
0
100
AcDbBlockEnd
  0
BLOCK
  5
102
330
101
100
AcDbEntity
  8
0
100
AcDbBlockBegin
  2
*D21
 70
     1
 71
     0
 10
0.0
 20
0.0
 30
0.0
  3
*D21
  1

  0
TEXT
  5
104
330
101
100
AcDbEntity
  8
LAYERGROUP-1
  6
CONTINUOUS
 62
     7
100
AcDbText
 10
380.578552
 20
251.257858
 30
0.0
 40
4.0
  1
80
 41
0.851351
  7
FX_VECTOR
 72
     5
 11
386.578552
 21
251.257858
 31
0.0
100
AcDbText
  0
LINE
  5
105
330
101
100
AcDbEntity
  8
LAYERGROUP-1
  6
CONTINUOUS
 62
     7
100
AcDbLine
 10
343.578541
 20
250.257845
 30
0.0
 11
423.578541
 21
250.257845
 31
0.0
  0
INSERT
  5
106
330
101
100
AcDbEntity
  8
LAYERGROUP-1
  6
CONTINUOUS
 62
     7
100
AcDbBlockReference
  2
FXTIP_ARROW_S
 10
343.578541
 20
250.257845
 30
0.0
 41
4.0
 42
4.0
 50
180.0
  0
INSERT
  5
107
330
101
100
AcDbEntity
  8
LAYERGROUP-1
  6
CONTINUOUS
 62
     7
100
AcDbBlockReference
  2
FXTIP_ARROW_E
 10
423.578541
 20
250.257845
 30
0.0
 41
4.0
 42
4.0
 50
360.0
  0
LINE
  5
108
330
101
100
AcDbEntity
  8
LAYERGROUP-1
  6
CONTINUOUS
 62
     7
100
AcDbLine
 10
343.578541
 20
274.577434
 30
0.0
 11
343.578541
 21
249.257845
 31
0.0
  0
LINE
  5
109
330
101
100
AcDbEntity
  8
LAYERGROUP-1
  6
CONTINUOUS
 62
     7
100
AcDbLine
 10
423.578541
 20
274.577434
 30
0.0
 11
423.578541
 21
249.257845
 31
0.0
  0
ENDBLK
  5
103
330
101
100
AcDbEntity
  8
0
100
AcDbBlockEnd
  0
BLOCK
  5
10C
330
10B
100
AcDbEntity
  8
0
100
AcDbBlockBegin
  2
*D22
 70
     1
 71
     0
 10
0.0
 20
0.0
 30
0.0
  3
*D22
  1

  0
TEXT
  5
10E
330
10B
100
AcDbEntity
  8
LAYERGROUP-1
  6
CONTINUOUS
 62
     7
100
AcDbText
 10
379.078552
 20
243.180679
 30
0.0
 40
4.0
  1
108
 41
0.828947
  7
FX_VECTOR
 72
     5
 11
388.078552
 21
243.180679
 31
0.0
100
AcDbText
  0
LINE
  5
10F
330
10B
100
AcDbEntity
  8
LAYERGROUP-1
  6
CONTINUOUS
 62
     7
100
AcDbLine
 10
329.578541
 20
242.180665
 30
0.0
 11
437.578541
 21
242.180665
 31
0.0
  0
INSERT
  5
110
330
10B
100
AcDbEntity
  8
LAYERGROUP-1
  6
CONTINUOUS
 62
     7
100
AcDbBlockReference
  2
FXTIP_ARROW_S
 10
329.578541
 20
242.180665
 30
0.0
 41
4.0
 42
4.0
 50
180.0
  0
INSERT
  5
111
330
10B
100
AcDbEntity
  8
LAYERGROUP-1
  6
CONTINUOUS
 62
     7
100
AcDbBlockReference
  2
FXTIP_ARROW_E
 10
437.578541
 20
242.180665
 30
0.0
 41
4.0
 42
4.0
 50
360.0
  0
LINE
  5
112
330
10B
100
AcDbEntity
  8
LAYERGROUP-1
  6
CONTINUOUS
 62
     7
100
AcDbLine
 10
329.578541
 20
279.077434
 30
0.0
 11
329.578541
 21
241.180665
 31
0.0
  0
LINE
  5
113
330
10B
100
AcDbEntity
  8
LAYERGROUP-1
  6
CONTINUOUS
 62
     7
100
AcDbLine
 10
437.578541
 20
279.077434
 30
0.0
 11
437.578541
 21
241.180665
 31
0.0
  0
ENDBLK
  5
10D
330
10B
100
AcDbEntity
  8
0
100
AcDbBlockEnd
  0
BLOCK
  5
116
330
115
100
AcDbEntity
  8
0
100
AcDbBlockBegin
  2
*D23
 70
     1
 71
     0
 10
0.0
 20
0.0
 30
0.0
  3
*D23
  1

  0
TEXT
  5
118
330
115
100
AcDbEntity
  8
LAYERGROUP-1
  6
CONTINUOUS
 62
     7
100
AcDbText
 10
296.677429
 20
378.478943
 30
0.0
 40
4.0
  1
4-%%c11
 41
0.820313
  7
FX_VECTOR
 72
     5
 11
311.677429
 21
378.478943
 31
0.0
100
AcDbText
  0
LINE
  5
119
330
115
100
AcDbEntity
  8
LAYERGROUP-1
  6
CONTINUOUS
 62
     7
100
AcDbLine
 10
338.668983
 20
363.556596
 30
0.0
 11
348.488098
 21
358.598272
 31
0.0
  0
LINE
  5
11A
330
115
100
AcDbEntity
  8
LAYERGROUP-1
  6
CONTINUOUS
 62
     7
100
AcDbLine
 10
338.668983
 20
363.556596
 30
0.0
 11
311.264834
 21
377.394771
 31
0.0
  0
INSERT
  5
11B
330
115
100
AcDbEntity
  8
LAYERGROUP-1
  6
CONTINUOUS
 62
     7
100
AcDbBlockReference
  2
FXTIP_ARROW_S
 10
338.668983
 20
363.556596
 30
0.0
 41
4.0
 42
4.0
 50
333.207756
  0
LINE
  5
11C
330
115
100
AcDbEntity
  8
LAYERGROUP-1
  6
CONTINUOUS
 62
     7
100
AcDbLine
 10
311.264834
 20
377.394771
 30
0.0
 11
300.264834
 21
377.394771
 31
0.0
  0
LINE
  5
11D
330
115
100
AcDbEntity
  8
LAYERGROUP-1
  6
CONTINUOUS
 62
     7
100
AcDbLine
 10
348.488098
 20
358.598272
 30
0.0
 11
353.843979
 21
355.893732
 31
0.0
  0
INSERT
  5
11E
330
115
100
AcDbEntity
  8
LAYERGROUP-1
  6
CONTINUOUS
 62
     7
100
AcDbBlockReference
  2
FXTIP_ARROW_S
 10
348.488098
 20
358.598272
 30
0.0
 41
4.0
 42
4.0
 50
153.207756
  0
ENDBLK
  5
117
330
115
100
AcDbEntity
  8
0
100
AcDbBlockEnd
  0
BLOCK
  5
122
330
121
100
AcDbEntity
  8
0
100
AcDbBlockBegin
  2
*D24
 70
     1
 71
     0
 10
0.0
 20
0.0
 30
0.0
  3
*D24
  1

  0
TEXT
  5
124
330
121
100
AcDbEntity
  8
LAYERGROUP-1
  6
CONTINUOUS
 62
     7
100
AcDbText
 10
302.275513
 20
242.275497
 30
0.0
 40
4.0
  1
4-R13
 41
0.757212
  7
FX_VECTOR
 72
     5
 11
317.275513
 21
242.275497
 31
0.0
100
AcDbText
  0
LINE
  5
125
330
121
100
AcDbEntity
  8
LAYERGROUP-1
  6
CONTINUOUS
 62
     7
100
AcDbLine
 10
335.655106
 20
269.074432
 30
0.0
 11
342.578541
 21
280.077434
 31
0.0
  0
LINE
  5
126
330
121
100
AcDbEntity
  8
LAYERGROUP-1
  6
CONTINUOUS
 62
     7
100
AcDbLine
 10
335.655106
 20
269.074432
 30
0.0
 11
318.038907
 21
241.078058
 31
0.0
  0
INSERT
  5
127
330
121
100
AcDbEntity
  8
LAYERGROUP-1
  6
CONTINUOUS
 62
     7
100
AcDbBlockReference
  2
FXTIP_ARROW_S
 10
335.655106
 20
269.074432
 30
0.0
 41
4.0
 42
4.0
 50
57.820606
  0
LINE
  5
128
330
121
100
AcDbEntity
  8
LAYERGROUP-1
  6
CONTINUOUS
 62
     7
100
AcDbLine
 10
318.038907
 20
241.078058
 30
0.0
 11
307.038907
 21
241.078058
 31
0.0
  0
ENDBLK
  5
123
330
121
100
AcDbEntity
  8
0
100
AcDbBlockEnd
  0
BLOCK
  5
15D
330
15C
100
AcDbEntity
  8
0
100
AcDbBlockBegin
  2
BLKF027
 70
     0
 71
     0
 10
0.0
 20
0.0
 30
0.0
  3
BLKF027
  1

  0
LINE
  5
160
330
15C
100
AcDbEntity
  8
LAYERGROUP-1
  6
CONTINUOUS
 62
     3
100
AcDbLine
 10
126.352622
 20
101.789618
 30
0.0
 11
126.352622
 21
118.350308
 31
0.0
  0
LINE
  5
161
330
15C
100
AcDbEntity
  8
LAYERGROUP-1
  6
CONTINUOUS
 62
     3
100
AcDbLine
 10
133.352622
 20
118.350308
 30
0.0
 11
133.352622
 21
101.789618
 31
0.0
  0
ENDBLK
  5
15E
330
15C
100
AcDbEntity
  8
0
100
AcDbBlockEnd
  0
BLOCK
  5
177
330
176
100
AcDbEntity
  8
0
100
AcDbBlockBegin
  2
*D26
 70
     1
 71
     0
 10
0.0
 20
0.0
 30
0.0
  3
*D26
  1

  0
TEXT
  5
179
330
176
100
AcDbEntity
  8
LAYERGROUP-1
  6
CONTINUOUS
 62
     7
100
AcDbText
 10
447.121277
 20
154.069962
 30
0.0
 40
4.0
  1
94
 50
90.0
 41
0.828947
  7
FX_VECTOR
 72
     5
 11
447.121277
 21
160.069962
 31
0.0
100
AcDbText
  0
LINE
  5
17A
330
176
100
AcDbEntity
  8
LAYERGROUP-1
  6
CONTINUOUS
 62
     7
100
AcDbLine
 10
448.121279
 20
110.069963
 30
0.0
 11
448.121279
 21
204.069963
 31
0.0
  0
INSERT
  5
17B
330
176
100
AcDbEntity
  8
LAYERGROUP-1
  6
CONTINUOUS
 62
     7
100
AcDbBlockReference
  2
FXTIP_ARROW_S
 10
448.121279
 20
110.069963
 30
0.0
 41
4.0
 42
4.0
 50
270.0
  0
INSERT
  5
17C
330
176
100
AcDbEntity
  8
LAYERGROUP-1
  6
CONTINUOUS
 62
     7
100
AcDbBlockReference
  2
FXTIP_ARROW_E
 10
448.121279
 20
204.069963
 30
0.0
 41
4.0
 42
4.0
 50
90.0
  0
LINE
  5
17D
330
176
100
AcDbEntity
  8
LAYERGROUP-1
  6
CONTINUOUS
 62
     7
100
AcDbLine
 10
357.828541
 20
110.069963
 30
0.0
 11
449.121279
 21
110.069963
 31
0.0
  0
LINE
  5
17E
330
176
100
AcDbEntity
  8
LAYERGROUP-1
  6
CONTINUOUS
 62
     7
100
AcDbLine
 10
438.578541
 20
204.069963
 30
0.0
 11
449.121279
 21
204.069963
 31
0.0
  0
ENDBLK
  5
178
330
176
100
AcDbEntity
  8
0
100
AcDbBlockEnd
  0
BLOCK
  5
181
330
180
100
AcDbEntity
  8
0
100
AcDbBlockBegin
  2
*D27
 70
     1
 71
     0
 10
0.0
 20
0.0
 30
0.0
  3
*D27
  1

  0
TEXT
  5
183
330
180
100
AcDbEntity
  8
LAYERGROUP-1
  6
CONTINUOUS
 62
     7
100
AcDbText
 10
459.865692
 20
127.569962
 30
0.0
 40
4.0
  1
144
 50
90.0
 41
0.814655
  7
FX_VECTOR
 72
     5
 11
459.865692
 21
136.569962
 31
0.0
100
AcDbText
  0
LINE
  5
184
330
180
100
AcDbEntity
  8
LAYERGROUP-1
  6
CONTINUOUS
 62
     7
100
AcDbLine
 10
460.865682
 20
60.069963
 30
0.0
 11
460.865682
 21
204.069963
 31
0.0
  0
INSERT
  5
185
330
180
100
AcDbEntity
  8
LAYERGROUP-1
  6
CONTINUOUS
 62
     7
100
AcDbBlockReference
  2
FXTIP_ARROW_S
 10
460.865682
 20
60.069963
 30
0.0
 41
4.0
 42
4.0
 50
270.0
  0
INSERT
  5
186
330
180
100
AcDbEntity
  8
LAYERGROUP-1
  6
CONTINUOUS
 62
     7
100
AcDbBlockReference
  2
FXTIP_ARROW_E
 10
460.865682
 20
204.069963
 30
0.0
 41
4.0
 42
4.0
 50
90.0
  0
LINE
  5
187
330
180
100
AcDbEntity
  8
LAYERGROUP-1
  6
CONTINUOUS
 62
     7
100
AcDbLine
 10
349.578541
 20
60.069963
 30
0.0
 11
461.865682
 21
60.069963
 31
0.0
  0
LINE
  5
188
330
180
100
AcDbEntity
  8
LAYERGROUP-1
  6
CONTINUOUS
 62
     7
100
AcDbLine
 10
438.578541
 20
204.069963
 30
0.0
 11
461.865682
 21
204.069963
 31
0.0
  0
ENDBLK
  5
182
330
180
100
AcDbEntity
  8
0
100
AcDbBlockEnd
  0
BLOCK
  5
18B
330
18A
100
AcDbEntity
  8
0
100
AcDbBlockBegin
  2
*D28
 70
     1
 71
     0
 10
0.0
 20
0.0
 30
0.0
  3
*D28
  1

  0
TEXT
  5
18D
330
18A
100
AcDbEntity
  8
LAYERGROUP-1
  6
CONTINUOUS
 62
     7
100
AcDbText
 10
363.078552
 20
38.128654
 30
0.0
 40
4.0
  1
35
 41
0.851351
  7
FX_VECTOR
 72
     5
 11
369.078552
 21
38.128654
 31
0.0
100
AcDbText
  0
LINE
  5
18E
330
18A
100
AcDbEntity
  8
LAYERGROUP-1
  6
CONTINUOUS
 62
     7
100
AcDbLine
 10
348.578541
 20
37.128658
 30
0.0
 11
383.578541
 21
37.128658
 31
0.0
  0
INSERT
  5
18F
330
18A
100
AcDbEntity
  8
LAYERGROUP-1
  6
CONTINUOUS
 62
     7
100
AcDbBlockReference
  2
FXTIP_ARROW_S
 10
348.578541
 20
37.128658
 30
0.0
 41
4.0
 42
4.0
 50
180.0
  0
INSERT
  5
190
330
18A
100
AcDbEntity
  8
LAYERGROUP-1
  6
CONTINUOUS
 62
     7
100
AcDbBlockReference
  2
FXTIP_ARROW_E
 10
383.578541
 20
37.128658
 30
0.0
 41
4.0
 42
4.0
 50
360.0
  0
LINE
  5
191
330
18A
100
AcDbEntity
  8
LAYERGROUP-1
  6
CONTINUOUS
 62
     7
100
AcDbLine
 10
348.578541
 20
95.343437
 30
0.0
 11
348.578541
 21
36.128658
 31
0.0
  0
LINE
  5
192
330
18A
100
AcDbEntity
  8
LAYERGROUP-1
  6
CONTINUOUS
 62
     7
100
AcDbLine
 10
383.578541
 20
99.977259
 30
0.0
 11
383.578541
 21
36.128658
 31
0.0
  0
ENDBLK
  5
18C
330
18A
100
AcDbEntity
  8
0
100
AcDbBlockEnd
  0
BLOCK
  5
195
330
194
100
AcDbEntity
  8
0
100
AcDbBlockBegin
  2
*D29
 70
     1
 71
     0
 10
0.0
 20
0.0
 30
0.0
  3
*D29
  1

  0
TEXT
  5
197
330
194
100
AcDbEntity
  8
LAYERGROUP-1
  6
CONTINUOUS
 62
     7
100
AcDbText
 10
165.852615
 20
37.61256
 30
0.0
 40
4.0
  1
57
 41
0.851351
  7
FX_VECTOR
 72
     5
 11
171.852615
 21
37.61256
 31
0.0
100
AcDbText
  0
LINE
  5
198
330
194
100
AcDbEntity
  8
LAYERGROUP-1
  6
CONTINUOUS
 62
     7
100
AcDbLine
 10
140.352622
 20
36.61256
 30
0.0
 11
197.352622
 21
36.61256
 31
0.0
  0
INSERT
  5
199
330
194
100
AcDbEntity
  8
LAYERGROUP-1
  6
CONTINUOUS
 62
     7
100
AcDbBlockReference
  2
FXTIP_ARROW_S
 10
140.352622
 20
36.61256
 30
0.0
 41
4.0
 42
4.0
 50
180.0
  0
INSERT
  5
19A
330
194
100
AcDbEntity
  8
LAYERGROUP-1
  6
CONTINUOUS
 62
     7
100
AcDbBlockReference
  2
FXTIP_ARROW_E
 10
197.352622
 20
36.61256
 30
0.0
 41
4.0
 42
4.0
 50
360.0
  0
LINE
  5
19B
330
194
100
AcDbEntity
  8
LAYERGROUP-1
  6
CONTINUOUS
 62
     7
100
AcDbLine
 10
140.352622
 20
93.069968
 30
0.0
 11
140.352622
 21
35.61256
 31
0.0
  0
LINE
  5
19C
330
194
100
AcDbEntity
  8
LAYERGROUP-1
  6
CONTINUOUS
 62
     7
100
AcDbLine
 10
197.352622
 20
93.069968
 30
0.0
 11
197.352622
 21
35.61256
 31
0.0
  0
ENDBLK
  5
196
330
194
100
AcDbEntity
  8
0
100
AcDbBlockEnd
  0
BLOCK
  5
29C
330
29B
100
AcDbEntity
  8
0
100
AcDbBlockBegin
  2
*D30
 70
     1
 71
     0
 10
0.0
 20
0.0
 30
0.0
  3
*D30
  1

  0
TEXT
  5
29E
330
29B
100
AcDbEntity
  8
LAYERGROUP-1
  6
CONTINUOUS
 62
     7
100
AcDbText
 10
100.99958
 20
104.069969
 30
0.0
 40
4.0
  1
%%c100
 50
90.0
 41
0.828947
  7
FX_VECTOR
 72
     5
 11
100.99958
 21
116.069969
 31
0.0
100
AcDbText
  0
LINE
  5
29F
330
29B
100
AcDbEntity
  8
LAYERGROUP-1
  6
CONTINUOUS
 62
     7
100
AcDbLine
 10
101.999582
 20
60.069963
 30
0.0
 11
101.999582
 21
160.069963
 31
0.0
  0
INSERT
  5
2A0
330
29B
100
AcDbEntity
  8
LAYERGROUP-1
  6
CONTINUOUS
 62
     7
100
AcDbBlockReference
  2
FXTIP_ARROW_S
 10
101.999582
 20
60.069963
 30
0.0
 41
4.0
 42
4.0
 50
270.0
  0
INSERT
  5
2A1
330
29B
100
AcDbEntity
  8
LAYERGROUP-1
  6
CONTINUOUS
 62
     7
100
AcDbBlockReference
  2
FXTIP_ARROW_E
 10
101.999582
 20
160.069963
 30
0.0
 41
4.0
 42
4.0
 50
90.0
  0
LINE
  5
2A2
330
29B
100
AcDbEntity
  8
LAYERGROUP-1
  6
CONTINUOUS
 62
     7
100
AcDbLine
 10
148.62068
 20
60.069963
 30
0.0
 11
100.999582
 21
60.069963
 31
0.0
  0
LINE
  5
2A3
330
29B
100
AcDbEntity
  8
LAYERGROUP-1
  6
CONTINUOUS
 62
     7
100
AcDbLine
 10
167.660758
 20
160.069963
 30
0.0
 11
100.999582
 21
160.069963
 31
0.0
  0
ENDBLK
  5
29D
330
29B
100
AcDbEntity
  8
0
100
AcDbBlockEnd
  0
BLOCK
  5
2D4
330
2D3
100
AcDbEntity
  8
0
100
AcDbBlockBegin
  2
*D31
 70
     1
 71
     0
 10
0.0
 20
0.0
 30
0.0
  3
*D31
  1

  0
TEXT
  5
2D6
330
2D3
100
AcDbEntity
  8
LAYERGROUP-1
  6
CONTINUOUS
 62
     7
100
AcDbText
 10
165.852615
 20
48.697983
 30
0.0
 40
4.0
  1
50
 41
0.851351
  7
FX_VECTOR
 72
     5
 11
171.852615
 21
48.697983
 31
0.0
100
AcDbText
  0
LINE
  5
2D7
330
2D3
100
AcDbEntity
  8
LAYERGROUP-1
  6
CONTINUOUS
 62
     7
100
AcDbLine
 10
143.852622
 20
47.697984
 30
0.0
 11
193.852622
 21
47.697984
 31
0.0
  0
INSERT
  5
2D8
330
2D3
100
AcDbEntity
  8
LAYERGROUP-1
  6
CONTINUOUS
 62
     7
100
AcDbBlockReference
  2
FXTIP_ARROW_E
 10
193.852622
 20
47.697984
 30
0.0
 41
4.0
 42
4.0
 50
360.0
  0
LINE
  5
2D9
330
2D3
100
AcDbEntity
  8
LAYERGROUP-1
  6
CONTINUOUS
 62
     7
100
AcDbLine
 10
143.852622
 20
71.069963
 30
0.0
 11
143.852622
 21
46.697984
 31
0.0
  0
LINE
  5
2DA
330
2D3
100
AcDbEntity
  8
LAYERGROUP-1
  6
CONTINUOUS
 62
     7
100
AcDbLine
 10
193.852622
 20
71.069963
 30
0.0
 11
193.852622
 21
46.697984
 31
0.0
  0
ENDBLK
  5
2D5
330
2D3
100
AcDbEntity
  8
0
100
AcDbBlockEnd
  0
BLOCK
  5
2E8
330
2E7
100
AcDbEntity
  8
0
100
AcDbBlockBegin
  2
BLKF034
 70
     0
 71
     0
 10
0.0
 20
0.0
 30
0.0
  3
BLKF034
  1

  0
LINE
  5
2EB
330
2E7
100
AcDbEntity
  8
}}ﾊﾊGG血CCТ
  6
CONTINUOUS
 62
     7
100
AcDbLine
 10
10.0
 20
10.0
 30
0.0
 11
584.0
 21
10.0
 31
0.0
  0
LINE
  5
2EC
330
2E7
100
AcDbEntity
  8
}}ﾊﾊGG血CCТ
  6
CONTINUOUS
 62
     7
100
AcDbLine
 10
10.0
 20
10.0
 30
0.0
 11
10.0
 21
410.0
 31
0.0
  0
LINE
  5
2ED
330
2E7
100
AcDbEntity
  8
}}ﾊﾊGG血CCТ
  6
CONTINUOUS
 62
     7
100
AcDbLine
 10
10.0
 20
410.0
 30
0.0
 11
584.0
 21
410.0
 31
0.0
  0
LINE
  5
2EE
330
2E7
100
AcDbEntity
  8
}}ﾊﾊGG血CCТ
  6
CONTINUOUS
 62
     7
100
AcDbLine
 10
584.0
 20
410.0
 30
0.0
 11
584.0
 21
10.0
 31
0.0
  0
LINE
  5
2EF
330
2E7
100
AcDbEntity
  8
}}ﾊﾊGG血CCТ
  6
CONTINUOUS
 62
     7
100
AcDbLine
 10
327.0
 20
10.0
 30
0.0
 11
327.0
 21
20.0
 31
0.0
  0
TEXT
  5
2F0
330
2E7
100
AcDbEntity
  8
}}ﾊﾊGG血CCТ
  6
CONTINUOUS
 62
     7
100
AcDbText
 10
311.738831
 20
11.596879
 30
0.0
 40
6.648749
  1
品名
 41
1.083413
  7
FX_VECTOR
 72
     5
 11
323.058371
 21
11.596879
 31
0.0
100
AcDbText
  0
LINE
  5
2F1
330
2E7
100
AcDbEntity
  8
}}ﾊﾊGG血CCТ
  6
CONTINUOUS
 62
     7
100
AcDbLine
 10
407.0
 20
20.0
 30
0.0
 11
407.0
 21
10.0
 31
0.0
  0
LINE
  5
2F2
330
2E7
100
AcDbEntity
  8
}}ﾊﾊGG血CCТ
  6
CONTINUOUS
 62
     7
100
AcDbLine
 10
307.0
 20
20.0
 30
0.0
 11
584.0
 21
20.0
 31
0.0
  0
INSERT
  5
2F6
330
2E7
100
AcDbEntity
  8
0
100
AcDbBlockReference
  2
BLKF035
 10
0.0
 20
0.0
 30
0.0
  0
INSERT
  5
2FF
330
2E7
100
AcDbEntity
  8
0
100
AcDbBlockReference
  2
BLKF036
 10
0.0
 20
0.0
 30
0.0
  0
HATCH
  5
30F
330
2E7
100
AcDbEntity
  8
GR1-1
  6
CONTINUOUS
 62
     7
100
AcDbHatch
 10
0.0
 20
0.0
 30
0.0
210
0.0
220
0.0
230
1.0
  2

 70
     0
 71
     1
 91
        2
 92
        0
 93
        4
 72
     1
 10
512.8018997861325
 20
17.91346152
 11
518.8018997861325
 21
17.91346152
 72
     1
 10
518.8018997861325
 20
17.91346152
 11
518.8018997861325
 21
11.91346152
 72
     1
 10
518.8018997861325
 20
11.91346152
 11
512.8018997861325
 21
11.91346152
 72
     1
 10
512.8018997861325
 20
11.91346152
 11
512.8018997861325
 21
17.91346152
 97
        0
 92
        0
 93
       15
 72
     1
 10
515.8018997861325
 20
17.76923076000002
 11
512.9461305461325
 21
14.91346152
 72
     1
 10
512.9461305461325
 20
14.91346152
 11
515.8018997861325
 21
12.05769228000001
 72
     1
 10
515.8018997861325
 20
12.05769228000001
 11
517.3595920661326
 21
13.61538462
 72
     1
 10
517.3595920661326
 20
13.61538462
 11
517.3595920661326
 21
12.98076924
 72
     1
 10
517.3595920661326
 20
12.98076924
 11
518.2249766861326
 21
12.98076924
 72
     1
 10
518.2249766861326
 20
12.98076924
 11
518.2249766861326
 21
15.00000000000001
 72
     1
 10
518.2249766861326
 20
15.00000000000001
 11
515.8018997861325
 21
15.00000000000001
 72
     1
 10
515.8018997861325
 20
15.00000000000001
 11
515.8018997861325
 21
14.13461538000001
 72
     1
 10
515.8018997861325
 20
14.13461538000001
 11
516.2461305461325
 21
14.13461538000001
 72
     1
 10
516.2461305461325
 20
14.13461538000001
 11
515.8018997861325
 21
13.69038462
 72
     1
 10
515.8018997861325
 20
13.69038462
 11
514.5788228861325
 21
14.91346152
 72
     1
 10
514.5788228861325
 20
14.91346152
 11
515.8018997861325
 21
16.13653842000003
 72
     1
 10
515.8018997861325
 20
16.13653842000003
 11
516.5922844061325
 21
15.3461538
 72
     1
 10
516.5922844061325
 20
15.3461538
 11
518.2249766861326
 21
15.3461538
 72
     1
 10
518.2249766861326
 20
15.3461538
 11
515.8018997861325
 21
17.76923076000002
 97
        0
 75
     0
 76
     0
 52
45.0
 41
0.05
 77
     0
 78
     1
 53
45.0
 43
0.0
 44
0.0
 45
-0.0353553390593274
 46
0.0353553390593274
 79
     0
 98
        0
  0
TEXT
  5
310
330
2E7
100
AcDbEntity
  8
}}ﾊﾊGG血CCТ
  6
CONTINUOUS
 62
     7
100
AcDbText
 10
523.225769
 20
11.461285
 30
0.0
 40
6.0
  1
GOLD CASTER
 41
0.719626
  7
FX_VECTOR
 72
     5
 11
567.225769
 21
11.461285
 31
0.0
100
AcDbText
  0
LINE
  5
311
330
2E7
100
AcDbEntity
  8
}}ﾊﾊGG血CCТ
  6
CONTINUOUS
 62
     7
100
AcDbLine
 10
427.0
 20
10.0
 30
0.0
 11
427.0
 21
20.0
 31
0.0
  0
TEXT
  5
312
330
2E7
100
AcDbEntity
  8
}}ﾊﾊGG血CCТ
  6
CONTINUOUS
 62
     7
100
AcDbText
 10
411.738831
 20
11.596879
 30
0.0
 40
6.648749
  1
図番
 41
1.083413
  7
FX_VECTOR
 72
     5
 11
423.058371
 21
11.596879
 31
0.0
100
AcDbText
  0
LINE
  5
313
330
2E7
100
AcDbEntity
  8
}}ﾊﾊGG血CCТ
  6
CONTINUOUS
 62
     7
100
AcDbLine
 10
507.0
 20
20.0
 30
0.0
 11
507.0
 21
10.0
 31
0.0
  0
LINE
  5
314
330
2E7
100
AcDbEntity
  8
}}ﾊﾊGG血CCТ
  6
CONTINUOUS
 62
     7
100
AcDbLine
 10
307.0
 20
20.0
 30
0.0
 11
307.0
 21
10.0
 31
0.0
  0
ENDBLK
  5
2E9
330
2E7
100
AcDbEntity
  8
0
100
AcDbBlockEnd
  0
BLOCK
  5
2F4
330
2F3
100
AcDbEntity
  8
0
100
AcDbBlockBegin
  2
BLKF035
 70
     0
 71
     0
 10
0.0
 20
0.0
 30
0.0
  3
BLKF035
  1

  0
LINE
  5
2F8
330
2F3
100
AcDbEntity
  8
0-1
  6
CONTINUOUS
 62
     7
100
AcDbLine
 10
518.8019
 20
17.913462
 30
0.0
 11
512.8019
 21
17.913462
 31
0.0
  0
LINE
  5
2F9
330
2F3
100
AcDbEntity
  8
0-1
  6
CONTINUOUS
 62
     7
100
AcDbLine
 10
512.8019
 20
17.913462
 30
0.0
 11
512.8019
 21
11.913462
 31
0.0
  0
LINE
  5
2FA
330
2F3
100
AcDbEntity
  8
0-1
  6
CONTINUOUS
 62
     7
100
AcDbLine
 10
512.8019
 20
11.913462
 30
0.0
 11
518.8019
 21
11.913462
 31
0.0
  0
LINE
  5
2FB
330
2F3
100
AcDbEntity
  8
0-1
  6
CONTINUOUS
 62
     7
100
AcDbLine
 10
518.8019
 20
11.913462
 30
0.0
 11
518.8019
 21
17.913462
 31
0.0
  0
ENDBLK
  5
2F5
330
2F3
100
AcDbEntity
  8
0
100
AcDbBlockEnd
  0
BLOCK
  5
2FD
330
2FC
100
AcDbEntity
  8
0
100
AcDbBlockBegin
  2
BLKF036
 70
     0
 71
     0
 10
0.0
 20
0.0
 30
0.0
  3
BLKF036
  1

  0
LINE
  5
300
330
2FC
100
AcDbEntity
  8
0-1
  6
CONTINUOUS
 62
     7
100
AcDbLine
 10
518.224977
 20
15.346154
 30
0.0
 11
515.8019
 21
17.769231
 31
0.0
  0
LINE
  5
301
330
2FC
100
AcDbEntity
  8
0-1
  6
CONTINUOUS
 62
     7
100
AcDbLine
 10
515.8019
 20
17.769231
 30
0.0
 11
512.946131
 21
14.913462
 31
0.0
  0
LINE
  5
302
330
2FC
100
AcDbEntity
  8
0-1
  6
CONTINUOUS
 62
     7
100
AcDbLine
 10
512.946131
 20
14.913462
 30
0.0
 11
515.8019
 21
12.057692
 31
0.0
  0
LINE
  5
303
330
2FC
100
AcDbEntity
  8
0-1
  6
CONTINUOUS
 62
     7
100
AcDbLine
 10
515.8019
 20
12.057692
 30
0.0
 11
517.359592
 21
13.615385
 31
0.0
  0
LINE
  5
304
330
2FC
100
AcDbEntity
  8
0-1
  6
CONTINUOUS
 62
     7
100
AcDbLine
 10
517.359592
 20
13.615385
 30
0.0
 11
517.359592
 21
12.980769
 31
0.0
  0
LINE
  5
305
330
2FC
100
AcDbEntity
  8
0-1
  6
CONTINUOUS
 62
     7
100
AcDbLine
 10
517.359592
 20
12.980769
 30
0.0
 11
518.224977
 21
12.980769
 31
0.0
  0
LINE
  5
306
330
2FC
100
AcDbEntity
  8
0-1
  6
CONTINUOUS
 62
     7
100
AcDbLine
 10
518.224977
 20
12.980769
 30
0.0
 11
518.224977
 21
15.0
 31
0.0
  0
LINE
  5
307
330
2FC
100
AcDbEntity
  8
0-1
  6
CONTINUOUS
 62
     7
100
AcDbLine
 10
518.224977
 20
15.0
 30
0.0
 11
515.8019
 21
15.0
 31
0.0
  0
LINE
  5
308
330
2FC
100
AcDbEntity
  8
0-1
  6
CONTINUOUS
 62
     7
100
AcDbLine
 10
515.8019
 20
15.0
 30
0.0
 11
515.8019
 21
14.134615
 31
0.0
  0
LINE
  5
309
330
2FC
100
AcDbEntity
  8
0-1
  6
CONTINUOUS
 62
     7
100
AcDbLine
 10
515.8019
 20
14.134615
 30
0.0
 11
516.246131
 21
14.134615
 31
0.0
  0
LINE
  5
30A
330
2FC
100
AcDbEntity
  8
0-1
  6
CONTINUOUS
 62
     7
100
AcDbLine
 10
516.246131
 20
14.134615
 30
0.0
 11
515.8019
 21
13.690385
 31
0.0
  0
LINE
  5
30B
330
2FC
100
AcDbEntity
  8
0-1
  6
CONTINUOUS
 62
     7
100
AcDbLine
 10
515.8019
 20
13.690385
 30
0.0
 11
514.578823
 21
14.913462
 31
0.0
  0
LINE
  5
30C
330
2FC
100
AcDbEntity
  8
0-1
  6
CONTINUOUS
 62
     7
100
AcDbLine
 10
514.578823
 20
14.913462
 30
0.0
 11
515.8019
 21
16.136538
 31
0.0
  0
LINE
  5
30D
330
2FC
100
AcDbEntity
  8
0-1
  6
CONTINUOUS
 62
     7
100
AcDbLine
 10
515.8019
 20
16.136538
 30
0.0
 11
516.592284
 21
15.346154
 31
0.0
  0
LINE
  5
30E
330
2FC
100
AcDbEntity
  8
0-1
  6
CONTINUOUS
 62
     7
100
AcDbLine
 10
516.592284
 20
15.346154
 30
0.0
 11
518.224977
 21
15.346154
 31
0.0
  0
ENDBLK
  5
2FE
330
2FC
100
AcDbEntity
  8
0
100
AcDbBlockEnd
  0
ENDSEC
  0
SECTION
  2
ENTITIES
  0
LINE
  5
A8
330
1F
100
AcDbEntity
  8
LAYERGROUP-1
  6
CONTINUOUS
 62
     3
100
AcDbLine
 10
417.528541
 20
179.344963
 30
0.0
 11
338.578541
 21
179.344963
 31
0.0
  0
LINE
  5
A9
330
1F
100
AcDbEntity
  8
LAYERGROUP-1
  6
CONTINUOUS
 62
     3
100
AcDbLine
 10
422.470991
 20
165.344963
 30
0.0
 11
422.578541
 21
165.344963
 31
0.0
  0
LINE
  5
AA
330
1F
100
AcDbEntity
  8
LAYERGROUP-1
  6
CONTINUOUS
 62
     3
100
AcDbLine
 10
422.578541
 20
165.344963
 30
0.0
 11
422.578541
 21
173.344963
 31
0.0
  0
ARC
  5
AB
330
1F
100
AcDbEntity
  8
LAYERGROUP-1
  6
CONTINUOUS
 62
     3
100
AcDbCircle
 10
416.578541
 20
173.344963
 30
0.0
 40
6.0
100
AcDbArc
 50
0.0
 51
90.0
  0
LINE
  5
AC
330
1F
100
AcDbEntity
  8
LAYERGROUP-1
  6
CONTINUOUS
 62
     3
100
AcDbLine
 10
342.878541
 20
187.569963
 30
0.0
 11
342.878541
 21
185.344963
 31
0.0
  0
ARC
  5
AD
330
1F
100
AcDbEntity
  8
LAYERGROUP-1
  6
CONTINUOUS
 62
     3
100
AcDbCircle
 10
348.878541
 20
185.344963
 30
0.0
 40
6.0
100
AcDbArc
 50
180.0
 51
270.0
  0
LINE
  5
AE
330
1F
100
AcDbEntity
  8
LAYERGROUP-1
  6
CONTINUOUS
 62
     3
100
AcDbLine
 10
338.627405
 20
167.344963
 30
0.0
 11
334.751026
 21
167.344963
 31
0.0
  0
ARC
  5
AF
330
1F
100
AcDbEntity
  8
LAYERGROUP-1
  6
CONTINUOUS
 62
     3
100
AcDbCircle
 10
338.578541
 20
173.344963
 30
0.0
 40
6.0
100
AcDbArc
 50
90.0
 51
180.0
  0
LINE
  5
B0
330
1F
100
AcDbEntity
  8
LAYERGROUP-1
  6
CENTER
 62
     6
100
AcDbLine
 10
383.578541
 20
208.236114
 30
0.0
 11
383.578541
 21
100.977259
 31
0.0
  0
ARC
  5
B1
330
1F
100
AcDbEntity
  8
LAYERGROUP-1
  6
CONTINUOUS
 62
     3
100
AcDbCircle
 10
292.09116
 20
195.360667
 30
0.0
 40
130.0
100
AcDbArc
 50
323.852415
 51
344.966985
  0
LINE
  5
B2
330
1F
100
AcDbEntity
  8
LAYERGROUP-1
  6
CONTINUOUS
 62
     3
100
AcDbLine
 10
424.278541
 20
187.569963
 30
0.0
 11
424.278541
 21
186.094963
 31
0.0
  0
ARC
  5
B3
330
1F
100
AcDbEntity
  8
LAYERGROUP-1
  6
CONTINUOUS
 62
     3
100
AcDbCircle
 10
338.627405
 20
163.344963
 30
0.0
 40
4.0
100
AcDbArc
 50
-26.485273
 51
90.0
  0
ARC
  5
B4
330
1F
100
AcDbEntity
  8
LAYERGROUP-1
  6
CONTINUOUS
 62
     3
100
AcDbCircle
 10
422.470991
 20
160.344963
 30
0.0
 40
5.0
100
AcDbArc
 50
90.0
 51
164.966985
  0
LINE
  5
B5
330
1F
100
AcDbEntity
  8
LAYERGROUP-1
  6
CONTINUOUS
 62
     3
100
AcDbLine
 10
437.578541
 20
204.069963
 30
0.0
 11
437.578541
 21
199.069963
 31
0.0
  0
LINE
  5
B6
330
1F
100
AcDbEntity
  8
LAYERGROUP-1
  6
CONTINUOUS
 62
     3
100
AcDbLine
 10
437.578541
 20
199.069963
 30
0.0
 11
329.578541
 21
199.069963
 31
0.0
  0
ARC
  5
B7
330
1F
100
AcDbEntity
  8
LAYERGROUP-1
  6
CONTINUOUS
 62
     3
100
AcDbCircle
 10
423.59941
 20
199.569963
 30
0.0
 40
6.0
100
AcDbArc
 50
270.0
 51
347.626375
  0
ARC
  5
B8
330
1F
100
AcDbEntity
  8
LAYERGROUP-1
  6
CONTINUOUS
 62
     3
100
AcDbCircle
 10
430.436807
 20
198.069963
 30
0.0
 40
1.0
100
AcDbArc
 50
90.0
 51
167.626375
  0
LINE
  5
B9
330
1F
100
AcDbEntity
  8
LAYERGROUP-1
  6
CONTINUOUS
 62
     3
100
AcDbLine
 10
427.328541
 20
187.569963
 30
0.0
 11
339.828541
 21
187.569963
 31
0.0
  0
LINE
  5
BA
330
1F
100
AcDbEntity
  8
LAYERGROUP-1
  6
CONTINUOUS
 62
     3
100
AcDbLine
 10
427.328541
 20
187.569963
 30
0.0
 11
427.328541
 21
190.569963
 31
0.0
  0
LINE
  5
BB
330
1F
100
AcDbEntity
  8
LAYERGROUP-1
  6
CONTINUOUS
 62
     3
100
AcDbLine
 10
437.578541
 20
204.069963
 30
0.0
 11
329.578541
 21
204.069963
 31
0.0
  0
LINE
  5
BC
330
1F
100
AcDbEntity
  8
LAYERGROUP-1
  6
CONTINUOUS
 62
     3
100
AcDbLine
 10
424.328541
 20
193.569963
 30
0.0
 11
342.828541
 21
193.569963
 31
0.0
  0
LINE
  5
BD
330
1F
100
AcDbEntity
  8
LAYERGROUP-1
  6
CONTINUOUS
 62
     3
100
AcDbLine
 10
329.578541
 20
204.069963
 30
0.0
 11
329.578541
 21
199.069963
 31
0.0
  0
ARC
  5
BE
330
1F
100
AcDbEntity
  8
LAYERGROUP-1
  6
CONTINUOUS
 62
     3
100
AcDbCircle
 10
336.720274
 20
198.069963
 30
0.0
 40
1.0
100
AcDbArc
 50
12.373625
 51
90.0
  0
ARC
  5
BF
330
1F
100
AcDbEntity
  8
LAYERGROUP-1
  6
CONTINUOUS
 62
     3
100
AcDbCircle
 10
343.557671
 20
199.569963
 30
0.0
 40
6.0
100
AcDbArc
 50
192.373625
 51
270.0
  0
LINE
  5
C0
330
1F
100
AcDbEntity
  8
LAYERGROUP-1
  6
CONTINUOUS
 62
     3
100
AcDbLine
 10
339.828541
 20
187.569963
 30
0.0
 11
339.828541
 21
190.569963
 31
0.0
  0
ARC
  5
C1
330
1F
100
AcDbEntity
  8
LAYERGROUP-1
  6
CONTINUOUS
 62
     3
100
AcDbCircle
 10
342.828541
 20
190.569963
 30
0.0
 40
3.0
100
AcDbArc
 50
90.0
 51
180.0
  0
ARC
  5
C2
330
1F
100
AcDbEntity
  8
LAYERGROUP-1
  6
CONTINUOUS
 62
     3
100
AcDbCircle
 10
424.328541
 20
190.569963
 30
0.0
 40
3.0
100
AcDbArc
 50
0.0
 51
90.0
  0
CIRCLE
  5
C3
330
1F
100
AcDbEntity
  8
LAYERGROUP-1
  6
CONTINUOUS
 62
     6
100
AcDbCircle
 10
383.578541
 20
321.077434
 30
0.0
 40
35.89300751546466
  0
CIRCLE
  5
C4
330
1F
100
AcDbEntity
  8
LAYERGROUP-1
  6
CONTINUOUS
 62
     6
100
AcDbCircle
 10
383.578541
 20
321.077434
 30
0.0
 40
40.00000000000011
  0
LINE
  5
C5
330
1F
100
AcDbEntity
  8
LAYERGROUP-1
  6
CONTINUOUS
 62
     3
100
AcDbLine
 10
424.578541
 20
375.077434
 30
0.0
 11
342.578541
 21
375.077434
 31
0.0
  0
LINE
  5
C6
330
1F
100
AcDbEntity
  8
LAYERGROUP-1
  6
CONTINUOUS
 62
     3
100
AcDbLine
 10
329.578541
 20
362.077434
 30
0.0
 11
329.578541
 21
280.077434
 31
0.0
  0
LINE
  5
C7
330
1F
100
AcDbEntity
  8
LAYERGROUP-1
  6
CONTINUOUS
 62
     3
100
AcDbLine
 10
342.578541
 20
267.077434
 30
0.0
 11
424.578541
 21
267.077434
 31
0.0
  0
LINE
  5
C8
330
1F
100
AcDbEntity
  8
LAYERGROUP-1
  6
CONTINUOUS
 62
     3
100
AcDbLine
 10
437.578541
 20
280.077434
 30
0.0
 11
437.578541
 21
362.077434
 31
0.0
  0
CIRCLE
  5
C9
330
1F
100
AcDbEntity
  8
LAYERGROUP-1
  6
CONTINUOUS
 62
     3
100
AcDbCircle
 10
423.578541
 20
281.077434
 30
0.0
 40
5.5
  0
CIRCLE
  5
CA
330
1F
100
AcDbEntity
  8
LAYERGROUP-1
  6
CONTINUOUS
 62
     3
100
AcDbCircle
 10
343.578541
 20
281.077434
 30
0.0
 40
5.5
  0
LINE
  5
CB
330
1F
100
AcDbEntity
  8
LAYERGROUP-1
  6
CONTINUOUS
 62
     6
100
AcDbLine
 10
341.578541
 20
281.077434
 30
0.0
 11
345.578541
 21
281.077434
 31
0.0
  0
LINE
  5
CC
330
1F
100
AcDbEntity
  8
LAYERGROUP-1
  6
CONTINUOUS
 62
     6
100
AcDbLine
 10
346.578541
 20
281.077434
 30
0.0
 11
350.578541
 21
281.077434
 31
0.0
  0
LINE
  5
CD
330
1F
100
AcDbEntity
  8
LAYERGROUP-1
  6
CONTINUOUS
 62
     6
100
AcDbLine
 10
340.578541
 20
281.077434
 30
0.0
 11
336.578541
 21
281.077434
 31
0.0
  0
LINE
  5
CE
330
1F
100
AcDbEntity
  8
LAYERGROUP-1
  6
CONTINUOUS
 62
     6
100
AcDbLine
 10
343.578541
 20
279.077434
 30
0.0
 11
343.578541
 21
283.077434
 31
0.0
  0
LINE
  5
CF
330
1F
100
AcDbEntity
  8
LAYERGROUP-1
  6
CONTINUOUS
 62
     6
100
AcDbLine
 10
343.578541
 20
284.077434
 30
0.0
 11
343.578541
 21
288.077434
 31
0.0
  0
LINE
  5
D0
330
1F
100
AcDbEntity
  8
LAYERGROUP-1
  6
CONTINUOUS
 62
     6
100
AcDbLine
 10
343.578541
 20
278.077434
 30
0.0
 11
343.578541
 21
274.077434
 31
0.0
  0
LINE
  5
D1
330
1F
100
AcDbEntity
  8
LAYERGROUP-1
  6
CONTINUOUS
 62
     6
100
AcDbLine
 10
421.578541
 20
281.077434
 30
0.0
 11
425.578541
 21
281.077434
 31
0.0
  0
LINE
  5
D2
330
1F
100
AcDbEntity
  8
LAYERGROUP-1
  6
CONTINUOUS
 62
     6
100
AcDbLine
 10
426.578541
 20
281.077434
 30
0.0
 11
430.578541
 21
281.077434
 31
0.0
  0
LINE
  5
D3
330
1F
100
AcDbEntity
  8
LAYERGROUP-1
  6
CONTINUOUS
 62
     6
100
AcDbLine
 10
420.578541
 20
281.077434
 30
0.0
 11
416.578541
 21
281.077434
 31
0.0
  0
LINE
  5
D4
330
1F
100
AcDbEntity
  8
LAYERGROUP-1
  6
CONTINUOUS
 62
     6
100
AcDbLine
 10
423.578541
 20
279.077434
 30
0.0
 11
423.578541
 21
283.077434
 31
0.0
  0
LINE
  5
D5
330
1F
100
AcDbEntity
  8
LAYERGROUP-1
  6
CONTINUOUS
 62
     6
100
AcDbLine
 10
423.578541
 20
284.077434
 30
0.0
 11
423.578541
 21
288.077434
 31
0.0
  0
LINE
  5
D6
330
1F
100
AcDbEntity
  8
LAYERGROUP-1
  6
CONTINUOUS
 62
     6
100
AcDbLine
 10
423.578541
 20
278.077434
 30
0.0
 11
423.578541
 21
274.077434
 31
0.0
  0
LINE
  5
D7
330
1F
100
AcDbEntity
  8
LAYERGROUP-1
  6
CONTINUOUS
 62
     6
100
AcDbLine
 10
341.578541
 20
361.077434
 30
0.0
 11
345.578541
 21
361.077434
 31
0.0
  0
LINE
  5
D8
330
1F
100
AcDbEntity
  8
LAYERGROUP-1
  6
CONTINUOUS
 62
     6
100
AcDbLine
 10
346.578541
 20
361.077434
 30
0.0
 11
350.578541
 21
361.077434
 31
0.0
  0
LINE
  5
D9
330
1F
100
AcDbEntity
  8
LAYERGROUP-1
  6
CONTINUOUS
 62
     6
100
AcDbLine
 10
340.578541
 20
361.077434
 30
0.0
 11
336.578541
 21
361.077434
 31
0.0
  0
LINE
  5
DA
330
1F
100
AcDbEntity
  8
LAYERGROUP-1
  6
CONTINUOUS
 62
     6
100
AcDbLine
 10
343.578541
 20
363.077434
 30
0.0
 11
343.578541
 21
359.077434
 31
0.0
  0
LINE
  5
DB
330
1F
100
AcDbEntity
  8
LAYERGROUP-1
  6
CONTINUOUS
 62
     6
100
AcDbLine
 10
343.578541
 20
358.077434
 30
0.0
 11
343.578541
 21
354.077434
 31
0.0
  0
LINE
  5
DC
330
1F
100
AcDbEntity
  8
LAYERGROUP-1
  6
CONTINUOUS
 62
     6
100
AcDbLine
 10
343.578541
 20
364.077434
 30
0.0
 11
343.578541
 21
368.077434
 31
0.0
  0
LINE
  5
DD
330
1F
100
AcDbEntity
  8
LAYERGROUP-1
  6
CONTINUOUS
 62
     6
100
AcDbLine
 10
421.578541
 20
361.077434
 30
0.0
 11
425.578541
 21
361.077434
 31
0.0
  0
LINE
  5
DE
330
1F
100
AcDbEntity
  8
LAYERGROUP-1
  6
CONTINUOUS
 62
     6
100
AcDbLine
 10
426.578541
 20
361.077434
 30
0.0
 11
430.578541
 21
361.077434
 31
0.0
  0
LINE
  5
DF
330
1F
100
AcDbEntity
  8
LAYERGROUP-1
  6
CONTINUOUS
 62
     6
100
AcDbLine
 10
420.578541
 20
361.077434
 30
0.0
 11
416.578541
 21
361.077434
 31
0.0
  0
LINE
  5
E0
330
1F
100
AcDbEntity
  8
LAYERGROUP-1
  6
CONTINUOUS
 62
     6
100
AcDbLine
 10
423.578541
 20
363.077434
 30
0.0
 11
423.578541
 21
359.077434
 31
0.0
  0
LINE
  5
E1
330
1F
100
AcDbEntity
  8
LAYERGROUP-1
  6
CONTINUOUS
 62
     6
100
AcDbLine
 10
423.578541
 20
358.077434
 30
0.0
 11
423.578541
 21
354.077434
 31
0.0
  0
LINE
  5
E2
330
1F
100
AcDbEntity
  8
LAYERGROUP-1
  6
CONTINUOUS
 62
     6
100
AcDbLine
 10
423.578541
 20
364.077434
 30
0.0
 11
423.578541
 21
368.077434
 31
0.0
  0
CIRCLE
  5
E3
330
1F
100
AcDbEntity
  8
LAYERGROUP-1
  6
CONTINUOUS
 62
     3
100
AcDbCircle
 10
423.578541
 20
361.077434
 30
0.0
 40
5.5
  0
CIRCLE
  5
E4
330
1F
100
AcDbEntity
  8
LAYERGROUP-1
  6
CONTINUOUS
 62
     3
100
AcDbCircle
 10
343.578541
 20
361.077434
 30
0.0
 40
5.5
  0
ARC
  5
E5
330
1F
100
AcDbEntity
  8
LAYERGROUP-1
  6
CONTINUOUS
 62
     3
100
AcDbCircle
 10
424.578541
 20
362.077434
 30
0.0
 40
13.0
100
AcDbArc
 50
0.0
 51
90.0
  0
ARC
  5
E6
330
1F
100
AcDbEntity
  8
LAYERGROUP-1
  6
CONTINUOUS
 62
     3
100
AcDbCircle
 10
342.578541
 20
362.077434
 30
0.0
 40
13.0
100
AcDbArc
 50
90.0
 51
180.0
  0
ARC
  5
E7
330
1F
100
AcDbEntity
  8
LAYERGROUP-1
  6
CONTINUOUS
 62
     3
100
AcDbCircle
 10
342.578541
 20
280.077434
 30
0.0
 40
13.0
100
AcDbArc
 50
180.0
 51
270.0
  0
ARC
  5
E8
330
1F
100
AcDbEntity
  8
LAYERGROUP-1
  6
CONTINUOUS
 62
     3
100
AcDbCircle
 10
424.578541
 20
280.077434
 30
0.0
 40
13.0
100
AcDbArc
 50
270.0
 51
360.0
  0
LINE
  5
E9
330
1F
100
AcDbEntity
  8
LAYERGROUP-1
  6
CENTER
 62
     6
100
AcDbLine
 10
383.578541
 20
378.679841
 30
0.0
 11
383.578541
 21
264.722106
 31
0.0
  0
LINE
  5
EA
330
1F
100
AcDbEntity
  8
LAYERGROUP-1
  6
CENTER
 62
     6
100
AcDbLine
 10
296.111839
 20
321.077434
 30
0.0
 11
440.275133
 21
321.077434
 31
0.0
  0
CIRCLE
  5
EB
330
1F
100
AcDbEntity
  8
LAYERGROUP-1
  6
CONTINUOUS
 62
     6
100
AcDbCircle
 10
383.578541
 20
321.077434
 30
0.0
 40
21.5
  0
DIMENSION
  5
EC
330
1F
100
AcDbEntity
  8
LAYERGROUP-1
100
AcDbDimension
  2
*D19
 10
448.987904
 20
361.077434
 30
0.0
 11
447.987915
 21
321.077423
 31
0.0
 70
    33
  3
FXDIMINFO
100
AcDbAlignedDimension
 13
429.078541
 23
281.077434
 33
0.0
 14
429.078541
 24
361.077434
 34
0.0
1001
ACAD
1000
DSTYLE
1002
{
1070
     7
1000
FXTIP_ARROW_E
1070
     6
1000
FXTIP_ARROW_S
1070
   173
1070
     1
1002
}
  0
DIMENSION
  5
F6
330
1F
100
AcDbEntity
  8
LAYERGROUP-1
100
AcDbDimension
  2
*D20
 10
460.464826
 20
375.077434
 30
0.0
 11
459.464844
 21
321.077423
 31
0.0
 70
    33
  3
FXDIMINFO
100
AcDbAlignedDimension
 13
424.578541
 23
267.077434
 33
0.0
 14
424.578541
 24
375.077434
 34
0.0
1001
ACAD
1000
DSTYLE
1002
{
1070
     7
1000
FXTIP_ARROW_E
1070
     6
1000
FXTIP_ARROW_S
1070
   173
1070
     1
1002
}
  0
DIMENSION
  5
100
330
1F
100
AcDbEntity
  8
LAYERGROUP-1
100
AcDbDimension
  2
*D21
 10
423.578541
 20
250.257845
 30
0.0
 11
383.578552
 21
251.257858
 31
0.0
 70
    33
  3
FXDIMINFO
100
AcDbAlignedDimension
 13
343.578541
 23
275.577434
 33
0.0
 14
423.578541
 24
275.577434
 34
0.0
1001
ACAD
1000
DSTYLE
1002
{
1070
     7
1000
FXTIP_ARROW_E
1070
     6
1000
FXTIP_ARROW_S
1070
   173
1070
     1
1002
}
  0
DIMENSION
  5
10A
330
1F
100
AcDbEntity
  8
LAYERGROUP-1
100
AcDbDimension
  2
*D22
 10
437.578541
 20
242.180665
 30
0.0
 11
383.578552
 21
243.180679
 31
0.0
 70
    33
  3
FXDIMINFO
100
AcDbAlignedDimension
 13
329.578541
 23
280.077434
 33
0.0
 14
437.578541
 24
280.077434
 34
0.0
1001
ACAD
1000
DSTYLE
1002
{
1070
     7
1000
FXTIP_ARROW_E
1070
     6
1000
FXTIP_ARROW_S
1070
   173
1070
     1
1002
}
  0
DIMENSION
  5
114
330
1F
100
AcDbEntity
  8
LAYERGROUP-1
100
AcDbDimension
  2
*D23
 10
348.488098
 20
358.598272
 30
0.0
 11
304.177429
 21
378.478943
 31
0.0
 70
   163
  3
FXDIMINFO
100
AcDbDiametricDimension
 15
338.668983
 25
363.556596
 35
0.0
 40
0.0
  0
LINE
  5
11F
330
1F
100
AcDbEntity
  8
LAYERGROUP-1
  6
CONTINUOUS
 62
     7
100
AcDbLine
 10
296.211651
 20
377.394771
 30
0.0
 11
300.264834
 21
377.394771
 31
0.0
  0
DIMENSION
  5
120
330
1F
100
AcDbEntity
  8
LAYERGROUP-1
100
AcDbDimension
  2
*D24
 10
342.578541
 20
280.077434
 30
0.0
 11
309.775513
 21
242.275497
 31
0.0
 70
   164
  3
FXDIMINFO
100
AcDbRadialDimension
 15
335.655106
 25
269.074432
 35
0.0
 40
0.0
  0
LINE
  5
129
330
1F
100
AcDbEntity
  8
LAYERGROUP-1
  6
CONTINUOUS
 62
     7
100
AcDbLine
 10
301.741677
 20
241.078058
 30
0.0
 11
307.038907
 21
241.078058
 31
0.0
  0
LINE
  5
12A
330
1F
100
AcDbEntity
  8
LAYERGROUP-1
  6
CONTINUOUS
 62
     3
100
AcDbLine
 10
203.552622
 20
179.344963
 30
0.0
 11
134.152622
 21
179.344963
 31
0.0
  0
LINE
  5
12B
330
1F
100
AcDbEntity
  8
LAYERGROUP-1
  6
CONTINUOUS
 62
     3
100
AcDbLine
 10
207.852622
 20
173.344963
 30
0.0
 11
207.852622
 21
144.748694
 31
0.0
  0
ARC
  5
12C
330
1F
100
AcDbEntity
  8
LAYERGROUP-1
  6
CONTINUOUS
 62
     3
100
AcDbCircle
 10
201.852622
 20
173.344963
 30
0.0
 40
6.0
100
AcDbArc
 50
0.0
 51
90.0
  0
LINE
  5
12D
330
1F
100
AcDbEntity
  8
LAYERGROUP-1
  6
CENTER
 62
     6
100
AcDbLine
 10
168.852622
 20
208.743238
 30
0.0
 11
168.852622
 21
55.538351
 31
0.0
  0
ARC
  5
12E
330
1F
100
AcDbEntity
  8
LAYERGROUP-1
  6
CONTINUOUS
 62
     3
100
AcDbCircle
 10
203.552622
 20
185.344963
 30
0.0
 40
6.0
100
AcDbArc
 50
270.0
 51
360.0
  0
LINE
  5
12F
330
1F
100
AcDbEntity
  8
LAYERGROUP-1
  6
CONTINUOUS
 62
     3
100
AcDbLine
 10
209.552622
 20
187.569963
 30
0.0
 11
209.552622
 21
185.344963
 31
0.0
  0
LINE
  5
130
330
1F
100
AcDbEntity
  8
LAYERGROUP-1
  6
CONTINUOUS
 62
     3
100
AcDbLine
 10
222.852622
 20
204.069963
 30
0.0
 11
222.852622
 21
199.069963
 31
0.0
  0
ARC
  5
131
330
1F
100
AcDbEntity
  8
LAYERGROUP-1
  6
CONTINUOUS
 62
     3
100
AcDbCircle
 10
208.873492
 20
199.569963
 30
0.0
 40
6.0
100
AcDbArc
 50
270.0
 51
347.626375
  0
ARC
  5
132
330
1F
100
AcDbEntity
  8
LAYERGROUP-1
  6
CONTINUOUS
 62
     3
100
AcDbCircle
 10
215.710889
 20
198.069963
 30
0.0
 40
1.0
100
AcDbArc
 50
90.0
 51
167.626375
  0
LINE
  5
133
330
1F
100
AcDbEntity
  8
LAYERGROUP-1
  6
CONTINUOUS
 62
     3
100
AcDbLine
 10
212.602622
 20
187.569963
 30
0.0
 11
125.102622
 21
187.569963
 31
0.0
  0
LINE
  5
134
330
1F
100
AcDbEntity
  8
LAYERGROUP-1
  6
CONTINUOUS
 62
     3
100
AcDbLine
 10
212.602622
 20
187.569963
 30
0.0
 11
212.602622
 21
190.569963
 31
0.0
  0
LINE
  5
135
330
1F
100
AcDbEntity
  8
LAYERGROUP-1
  6
CONTINUOUS
 62
     3
100
AcDbLine
 10
209.602622
 20
193.569963
 30
0.0
 11
128.102622
 21
193.569963
 31
0.0
  0
ARC
  5
136
330
1F
100
AcDbEntity
  8
LAYERGROUP-1
  6
CONTINUOUS
 62
     3
100
AcDbCircle
 10
209.602622
 20
190.569963
 30
0.0
 40
3.0
100
AcDbArc
 50
0.0
 51
90.0
  0
LINE
  5
137
330
1F
100
AcDbEntity
  8
LAYERGROUP-1
  6
CONTINUOUS
 62
     3
100
AcDbLine
 10
129.852622
 20
173.344963
 30
0.0
 11
129.852622
 21
120.630918
 31
0.0
  0
ARC
  5
138
330
1F
100
AcDbEntity
  8
LAYERGROUP-1
  6
CONTINUOUS
 62
     3
100
AcDbCircle
 10
135.852622
 20
173.344963
 30
0.0
 40
6.0
100
AcDbArc
 50
90.0
 51
180.0
  0
ARC
  5
139
330
1F
100
AcDbEntity
  8
LAYERGROUP-1
  6
CONTINUOUS
 62
     3
100
AcDbCircle
 10
134.152622
 20
185.344963
 30
0.0
 40
6.0
100
AcDbArc
 50
180.0
 51
270.0
  0
LINE
  5
13A
330
1F
100
AcDbEntity
  8
LAYERGROUP-1
  6
CONTINUOUS
 62
     3
100
AcDbLine
 10
128.152622
 20
187.569963
 30
0.0
 11
128.152622
 21
185.344963
 31
0.0
  0
LINE
  5
13B
330
1F
100
AcDbEntity
  8
LAYERGROUP-1
  6
CONTINUOUS
 62
     3
100
AcDbLine
 10
114.852622
 20
204.069963
 30
0.0
 11
114.852622
 21
199.069963
 31
0.0
  0
LINE
  5
13C
330
1F
100
AcDbEntity
  8
LAYERGROUP-1
  6
CONTINUOUS
 62
     3
100
AcDbLine
 10
114.852622
 20
199.069963
 30
0.0
 11
222.852622
 21
199.069963
 31
0.0
  0
ARC
  5
13D
330
1F
100
AcDbEntity
  8
LAYERGROUP-1
  6
CONTINUOUS
 62
     3
100
AcDbCircle
 10
128.831752
 20
199.569963
 30
0.0
 40
6.0
100
AcDbArc
 50
192.373625
 51
270.0
  0
ARC
  5
13E
330
1F
100
AcDbEntity
  8
LAYERGROUP-1
  6
CONTINUOUS
 62
     3
100
AcDbCircle
 10
121.994355
 20
198.069963
 30
0.0
 40
1.0
100
AcDbArc
 50
12.373625
 51
90.0
  0
LINE
  5
13F
330
1F
100
AcDbEntity
  8
LAYERGROUP-1
  6
CONTINUOUS
 62
     3
100
AcDbLine
 10
125.102622
 20
187.569963
 30
0.0
 11
125.102622
 21
190.569963
 31
0.0
  0
LINE
  5
140
330
1F
100
AcDbEntity
  8
LAYERGROUP-1
  6
CONTINUOUS
 62
     3
100
AcDbLine
 10
114.852622
 20
204.069963
 30
0.0
 11
222.852622
 21
204.069963
 31
0.0
  0
ARC
  5
141
330
1F
100
AcDbEntity
  8
LAYERGROUP-1
  6
CONTINUOUS
 62
     3
100
AcDbCircle
 10
128.102622
 20
190.569963
 30
0.0
 40
3.0
100
AcDbArc
 50
90.0
 51
180.0
  0
LINE
  5
142
330
1F
100
AcDbEntity
  8
LAYERGROUP-1
  6
CONTINUOUS
 62
     3
100
AcDbLine
 10
201.352622
 20
94.069968
 30
0.0
 11
197.352622
 21
94.069968
 31
0.0
  0
LINE
  5
143
330
1F
100
AcDbEntity
  8
LAYERGROUP-1
  6
CONTINUOUS
 62
     3
100
AcDbLine
 10
140.352622
 20
167.344963
 30
0.0
 11
140.352622
 21
94.069968
 31
0.0
  0
LINE
  5
144
330
1F
100
AcDbEntity
  8
LAYERGROUP-1
  6
CONTINUOUS
 62
     3
100
AcDbLine
 10
201.352622
 20
173.844963
 30
0.0
 11
201.352622
 21
169.569963
 31
0.0
  0
LINE
  5
145
330
1F
100
AcDbEntity
  8
LAYERGROUP-1
  6
CONTINUOUS
 62
     3
100
AcDbLine
 10
136.352622
 20
173.844963
 30
0.0
 11
136.352622
 21
94.069968
 31
0.0
  0
ARC
  5
146
330
1F
100
AcDbEntity
  8
LAYERGROUP-1
  6
CONTINUOUS
 62
     3
100
AcDbCircle
 10
139.352622
 20
164.344963
 30
0.0
 40
3.0
100
AcDbArc
 50
90.0
 51
180.0
  0
ARC
  5
147
330
1F
100
AcDbEntity
  8
LAYERGROUP-1
  6
CONTINUOUS
 62
     3
100
AcDbCircle
 10
195.852622
 20
173.844963
 30
0.0
 40
5.5
100
AcDbArc
 50
0.0
 51
90.0
  0
ARC
  5
148
330
1F
100
AcDbEntity
  8
LAYERGROUP-1
  6
CONTINUOUS
 62
     3
100
AcDbCircle
 10
141.852622
 20
173.844963
 30
0.0
 40
5.5
100
AcDbArc
 50
90.0
 51
180.0
  0
LINE
  5
149
330
1F
100
AcDbEntity
  8
LAYERGROUP-1
  6
CONTINUOUS
 62
     3
100
AcDbLine
 10
140.352622
 20
94.069968
 30
0.0
 11
136.352622
 21
94.069968
 31
0.0
  0
ARC
  5
14A
330
1F
100
AcDbEntity
  8
LAYERGROUP-1
  6
CONTINUOUS
 62
     3
100
AcDbCircle
 10
149.852622
 20
120.630918
 30
0.0
 40
20.0
100
AcDbArc
 50
180.0
 51
182.323851
  0
CIRCLE
  5
14B
330
1F
100
AcDbEntity
  8
LAYERGROUP-1
  6
CONTINUOUS
 62
     3
100
AcDbCircle
 10
383.578541
 20
321.077434
 30
0.0
 40
13.0
  0
CIRCLE
  5
14C
330
1F
100
AcDbEntity
  8
LAYERGROUP-1
  6
CONTINUOUS
 62
     3
100
AcDbCircle
 10
383.578541
 20
321.077434
 30
0.0
 40
18.9
  0
ARC
  5
14D
330
1F
100
AcDbEntity
  8
LAYERGROUP-1
  6
CONTINUOUS
 62
     3
100
AcDbCircle
 10
417.528541
 20
186.094963
 30
0.0
 40
6.75
100
AcDbArc
 50
270.0
 51
360.0
  0
LINE
  5
14E
330
1F
100
AcDbEntity
  8
LAYERGROUP-1
  6
CONTINUOUS
 62
     3
100
AcDbLine
 10
197.352622
 20
119.403296
 30
0.0
 11
197.352622
 21
94.069968
 31
0.0
  0
LINE
  5
14F
330
1F
100
AcDbEntity
  8
LAYERGROUP-1
  6
CONTINUOUS
 62
     3
100
AcDbLine
 10
143.852622
 20
141.877012
 30
0.0
 11
140.352622
 21
135.069963
 31
0.0
  0
LINE
  5
150
330
1F
100
AcDbEntity
  8
LAYERGROUP-1
  6
CONTINUOUS
 62
     3
100
AcDbLine
 10
193.852622
 20
141.877012
 30
0.0
 11
196.352622
 21
137.014834
 31
0.0
  0
LINE
  5
151
330
1F
100
AcDbEntity
  8
LAYERGROUP-1
  6
CONTINUOUS
 62
     6
100
AcDbLine
 10
362.020479
 20
175.720168
 30
0.0
 11
362.020479
 21
118.909477
 31
0.0
  0
LINE
  5
153
330
1F
100
AcDbEntity
  8
GR1-1
  6
CONTINUOUS
 62
     3
100
AcDbLine
 10
125.352622
 20
104.069963
 30
0.0
 11
126.352622
 21
104.069963
 31
0.0
  0
LINE
  5
154
330
1F
100
AcDbEntity
  8
GR1-1
  6
CONTINUOUS
 62
     3
100
AcDbLine
 10
201.352622
 20
116.240251
 30
0.0
 11
201.352622
 21
101.819963
 31
0.0
  0
LINE
  5
155
330
1F
100
AcDbEntity
  8
GR1-1
  6
CONTINUOUS
 62
     3
100
AcDbLine
 10
124.352622
 20
115.393463
 30
0.0
 11
124.352622
 21
104.746463
 31
0.0
  0
LINE
  5
156
330
1F
100
AcDbEntity
  8
GR1-1
  6
CENTER
 62
     6
100
AcDbLine
 10
122.270483
 20
110.069963
 30
0.0
 11
217.254942
 21
110.069963
 31
0.0
  0
LINE
  5
157
330
1F
100
AcDbEntity
  8
GR1-1
  6
CONTINUOUS
 62
     6
100
AcDbLine
 10
125.352622
 20
116.069963
 30
0.0
 11
125.352622
 21
104.069963
 31
0.0
  0
LINE
  5
158
330
1F
100
AcDbEntity
  8
LAYERGROUP-1
  6
CONTINUOUS
 62
     6
100
AcDbLine
 10
124.352622
 20
115.393463
 30
0.0
 11
126.352622
 21
115.393463
 31
0.0
  0
LINE
  5
159
330
1F
100
AcDbEntity
  8
LAYERGROUP-1
  6
CONTINUOUS
 62
     3
100
AcDbLine
 10
125.352622
 20
116.069963
 30
0.0
 11
124.352622
 21
115.393463
 31
0.0
  0
LINE
  5
15A
330
1F
100
AcDbEntity
  8
LAYERGROUP-1
  6
CONTINUOUS
 62
     6
100
AcDbLine
 10
124.352622
 20
104.746463
 30
0.0
 11
126.352622
 21
104.746463
 31
0.0
  0
LINE
  5
15B
330
1F
100
AcDbEntity
  8
LAYERGROUP-1
  6
CONTINUOUS
 62
     3
100
AcDbLine
 10
125.352622
 20
104.069963
 30
0.0
 11
124.352622
 21
104.746463
 31
0.0
  0
INSERT
  5
15F
330
1F
100
AcDbEntity
  8
0
100
AcDbBlockReference
  2
BLKF027
 10
0.0
 20
0.0
 30
0.0
  0
LINE
  5
162
330
1F
100
AcDbEntity
  8
LAYERGROUP-1
  6
CONTINUOUS
 62
     3
100
AcDbLine
 10
127.201128
 20
119.819963
 30
0.0
 11
132.504116
 21
119.819963
 31
0.0
  0
LINE
  5
163
330
1F
100
AcDbEntity
  8
LAYERGROUP-1
  6
CONTINUOUS
 62
     3
100
AcDbLine
 10
127.201128
 20
100.319963
 30
0.0
 11
132.504116
 21
100.319963
 31
0.0
  0
LINE
  5
164
330
1F
100
AcDbEntity
  8
LAYERGROUP-1
  6
CONTINUOUS
 62
     3
100
AcDbLine
 10
127.201128
 20
115.069963
 30
0.0
 11
132.504116
 21
115.069963
 31
0.0
  0
LINE
  5
165
330
1F
100
AcDbEntity
  8
LAYERGROUP-1
  6
CONTINUOUS
 62
     3
100
AcDbLine
 10
127.201128
 20
105.069963
 30
0.0
 11
132.504116
 21
105.069963
 31
0.0
  0
ARC
  5
166
330
1F
100
AcDbEntity
  8
LAYERGROUP-1
  6
CONTINUOUS
 62
     3
100
AcDbCircle
 10
141.508655
 20
110.069963
 30
0.0
 40
15.15603239157741
100
AcDbArc
 50
160.737194
 51
199.262806
  0
LINE
  5
167
330
1F
100
AcDbEntity
  8
LAYERGROUP-1
  6
CONTINUOUS
 62
     3
100
AcDbLine
 10
127.201128
 20
119.819963
 30
0.0
 11
126.352622
 21
118.350308
 31
0.0
  0
ARC
  5
168
330
1F
100
AcDbEntity
  8
LAYERGROUP-1
  6
CONTINUOUS
 62
     3
100
AcDbCircle
 10
129.943542
 20
117.388124
 30
0.0
 40
3.590919554682634
100
AcDbArc
 50
150.0
 51
220.207819
  0
LINE
  5
169
330
1F
100
AcDbEntity
  8
LAYERGROUP-1
  6
CONTINUOUS
 62
     3
100
AcDbLine
 10
132.504116
 20
119.819963
 30
0.0
 11
133.352622
 21
118.350308
 31
0.0
  0
ARC
  5
16A
330
1F
100
AcDbEntity
  8
LAYERGROUP-1
  6
CONTINUOUS
 62
     3
100
AcDbCircle
 10
129.761703
 20
117.388124
 30
0.0
 40
3.590919554682634
100
AcDbArc
 50
-40.207819
 51
30.0
  0
LINE
  5
16B
330
1F
100
AcDbEntity
  8
LAYERGROUP-1
  6
CONTINUOUS
 62
     3
100
AcDbLine
 10
127.201128
 20
100.319963
 30
0.0
 11
126.352622
 21
101.789618
 31
0.0
  0
ARC
  5
16C
330
1F
100
AcDbEntity
  8
LAYERGROUP-1
  6
CONTINUOUS
 62
     3
100
AcDbCircle
 10
129.943542
 20
102.751802
 30
0.0
 40
3.590919554682634
100
AcDbArc
 50
139.792181
 51
210.0
  0
LINE
  5
16D
330
1F
100
AcDbEntity
  8
LAYERGROUP-1
  6
CONTINUOUS
 62
     3
100
AcDbLine
 10
132.504116
 20
100.319963
 30
0.0
 11
133.352622
 21
101.789618
 31
0.0
  0
ARC
  5
16E
330
1F
100
AcDbEntity
  8
LAYERGROUP-1
  6
CONTINUOUS
 62
     3
100
AcDbCircle
 10
129.761703
 20
102.751802
 30
0.0
 40
3.590919554682634
100
AcDbArc
 50
-30.0
 51
40.207819
  0
ARC
  5
16F
330
1F
100
AcDbEntity
  8
LAYERGROUP-1
  6
CONTINUOUS
 62
     3
100
AcDbCircle
 10
118.19659
 20
110.069963
 30
0.0
 40
15.15603239157738
100
AcDbArc
 50
-19.262806
 51
19.262806
  0
LINE
  5
170
330
1F
100
AcDbEntity
  8
GR1-1
  6
CONTINUOUS
 62
     3
100
AcDbLine
 10
133.352622
 20
119.069963
 30
0.0
 11
133.352622
 21
101.069963
 31
0.0
  0
LINE
  5
171
330
1F
100
AcDbEntity
  8
GR1-1
  6
CONTINUOUS
 62
     3
100
AcDbLine
 10
136.352622
 20
119.069963
 30
0.0
 11
133.352622
 21
119.069963
 31
0.0
  0
LINE
  5
172
330
1F
100
AcDbEntity
  8
GR1-1
  6
CONTINUOUS
 62
     3
100
AcDbLine
 10
133.352622
 20
101.069963
 30
0.0
 11
136.352622
 21
101.069963
 31
0.0
  0
LINE
  5
173
330
1F
100
AcDbEntity
  8
GR1-1
  6
CONTINUOUS
 62
     3
100
AcDbLine
 10
126.352622
 20
116.069963
 30
0.0
 11
125.352622
 21
116.069963
 31
0.0
  0
LINE
  5
174
330
1F
100
AcDbEntity
  8
LAYERGROUP-1
  6
CONTINUOUS
 62
     3
100
AcDbLine
 10
136.352622
 20
108.721733
 30
0.0
 11
133.352622
 21
108.721733
 31
0.0
  0
DIMENSION
  5
175
330
1F
100
AcDbEntity
  8
LAYERGROUP-1
100
AcDbDimension
  2
*D26
 10
448.121279
 20
204.069963
 30
0.0
 11
447.121277
 21
157.069962
 31
0.0
 70
    32
  3
FXDIMINFO
100
AcDbAlignedDimension
 13
356.828541
 23
110.069963
 33
0.0
 14
437.578541
 24
204.069963
 34
0.0
 50
270.0
100
AcDbRotatedDimension
1001
ACAD
1000
DSTYLE
1002
{
1070
     7
1000
FXTIP_ARROW_E
1070
     6
1000
FXTIP_ARROW_S
1070
   173
1070
     1
1002
}
  0
DIMENSION
  5
17F
330
1F
100
AcDbEntity
  8
LAYERGROUP-1
100
AcDbDimension
  2
*D27
 10
460.865682
 20
204.069963
 30
0.0
 11
459.865692
 21
132.069962
 31
0.0
 70
    32
  3
FXDIMINFO
100
AcDbAlignedDimension
 13
348.578541
 23
60.069963
 33
0.0
 14
437.578541
 24
204.069963
 34
0.0
 50
270.0
100
AcDbRotatedDimension
1001
ACAD
1000
DSTYLE
1002
{
1070
     7
1000
FXTIP_ARROW_E
1070
     6
1000
FXTIP_ARROW_S
1070
   173
1070
     1
1002
}
  0
DIMENSION
  5
189
330
1F
100
AcDbEntity
  8
LAYERGROUP-1
100
AcDbDimension
  2
*D28
 10
383.578541
 20
37.128658
 30
0.0
 11
366.078552
 21
38.128654
 31
0.0
 70
    32
  3
FXDIMINFO
100
AcDbAlignedDimension
 13
348.578541
 23
96.343437
 33
0.0
 14
383.578541
 24
100.977259
 34
0.0
 50
180.0
100
AcDbRotatedDimension
1001
ACAD
1000
DSTYLE
1002
{
1070
     7
1000
FXTIP_ARROW_E
1070
     6
1000
FXTIP_ARROW_S
1070
   173
1070
     1
1002
}
  0
DIMENSION
  5
193
330
1F
100
AcDbEntity
  8
LAYERGROUP-1
100
AcDbDimension
  2
*D29
 10
197.352622
 20
36.61256
 30
0.0
 11
168.852615
 21
37.61256
 31
0.0
 70
    33
  3
FXDIMINFO
100
AcDbAlignedDimension
 13
140.352622
 23
94.069968
 33
0.0
 14
197.352622
 24
94.069968
 34
0.0
1001
ACAD
1000
DSTYLE
1002
{
1070
     7
1000
FXTIP_ARROW_E
1070
     6
1000
FXTIP_ARROW_S
1070
   173
1070
     1
1002
}
  0
LINE
  5
19D
330
1F
100
AcDbEntity
  8
GR1-1
  6
CONTINUOUS
 62
     6
100
AcDbLine
 10
376.749424
 20
114.716426
 30
0.0
 11
378.961546
 21
117.028679
 31
0.0
  0
ARC
  5
19E
330
1F
100
AcDbEntity
  8
LAYERGROUP-1
  6
CONTINUOUS
 62
     3
100
AcDbCircle
 10
348.616179
 20
154.069963
 30
0.0
 40
60.0
100
AcDbArc
 50
310.732218
 51
323.852415
  0
ARC
  5
19F
330
1F
100
AcDbEntity
  8
GR1-1
  6
CONTINUOUS
 62
     3
100
AcDbCircle
 10
399.413002
 20
94.876211
 30
0.0
 40
6.0
100
AcDbArc
 50
300.315479
 51
303.451609
  0
LINE
  5
1A0
330
1F
100
AcDbEntity
  8
GR1-1
  6
CONTINUOUS
 62
     3
100
AcDbLine
 10
402.720397
 20
89.870101
 30
0.0
 11
404.910631
 21
92.203294
 31
0.0
  0
LINE
  5
1A1
330
1F
100
AcDbEntity
  8
GR1-1
  6
CONTINUOUS
 62
     3
100
AcDbLine
 10
404.910631
 20
92.203294
 30
0.0
 11
375.142376
 21
120.682464
 31
0.0
  0
ARC
  5
1A2
330
1F
100
AcDbEntity
  8
GR1-1
  6
CONTINUOUS
 62
     3
100
AcDbCircle
 10
377.633073
 20
115.223853
 30
0.0
 40
6.0
100
AcDbArc
 50
114.526633
 51
129.148762
  0
LINE
  5
1A3
330
1F
100
AcDbEntity
  8
GR1-1
  6
CONTINUOUS
 62
     3
100
AcDbLine
 10
373.845057
 20
119.87691
 30
0.0
 11
368.983448
 21
116.239985
 31
0.0
  0
LINE
  5
1A4
330
1F
100
AcDbEntity
  8
GR1-1
  6
CONTINUOUS
 62
     3
100
AcDbLine
 10
372.447881
 20
118.831695
 30
0.0
 11
402.720397
 21
89.870101
 31
0.0
  0
ARC
  5
1A5
330
1F
100
AcDbEntity
  8
GR1-1
  6
CONTINUOUS
 62
     3
100
AcDbCircle
 10
327.756071
 20
98.270913
 30
0.0
 40
40.0
100
AcDbArc
 50
28.857172
 51
53.123439
  0
ARC
  5
1A6
330
1F
100
AcDbEntity
  8
GR1-1
  6
CONTINUOUS
 62
     3
100
AcDbCircle
 10
348.159234
 20
125.468541
 30
0.0
 40
6.0
100
AcDbArc
 50
53.123439
 51
108.001832
  0
ARC
  5
1A7
330
1F
100
AcDbEntity
  8
GR1-1
  6
CONTINUOUS
 62
     3
100
AcDbCircle
 10
340.612404
 20
132.288609
 30
0.0
 40
1.2
100
AcDbArc
 50
30.930163
 51
145.6163
  0
ARC
  5
1A8
330
1F
100
AcDbEntity
  8
GR1-1
  6
CONTINUOUS
 62
     3
100
AcDbCircle
 10
345.098692
 20
135.072428
 30
0.0
 40
4.08
100
AcDbArc
 50
211.558512
 51
287.196604
  0
LINE
  5
1A9
330
1F
100
AcDbEntity
  8
GR1-1
  6
CONTINUOUS
 62
     3
100
AcDbLine
 10
336.77621
 20
131.81097
 30
0.0
 11
332.658561
 21
132.440727
 31
0.0
  0
LINE
  5
1AA
330
1F
100
AcDbEntity
  8
GR1-1
  6
CONTINUOUS
 62
     3
100
AcDbLine
 10
332.412221
 20
132.509287
 30
0.0
 11
307.102306
 21
141.744799
 31
0.0
  0
LINE
  5
1AB
330
1F
100
AcDbEntity
  8
GR1-1
  6
CONTINUOUS
 62
     3
100
AcDbLine
 10
307.102306
 20
141.744799
 30
0.0
 11
308.205328
 21
144.748694
 31
0.0
  0
LINE
  5
1AC
330
1F
100
AcDbEntity
  8
GR1-1
  6
CONTINUOUS
 62
     3
100
AcDbLine
 10
308.199102
 20
144.750966
 30
0.0
 11
332.624215
 21
135.838316
 31
0.0
  0
LINE
  5
1AD
330
1F
100
AcDbEntity
  8
GR1-1
  6
CONTINUOUS
 62
     3
100
AcDbLine
 10
332.624215
 20
135.838316
 30
0.0
 11
331.870317
 21
133.771981
 31
0.0
  0
ARC
  5
1AE
330
1F
100
AcDbEntity
  8
GR1-1
  6
CONTINUOUS
 62
     3
100
AcDbCircle
 10
332.809744
 20
133.429233
 30
0.0
 40
1.0
100
AcDbArc
 50
159.955596
 51
261.304519
  0
ARC
  5
1AF
330
1F
100
AcDbEntity
  8
GR1-1
  6
CONTINUOUS
 62
     3
100
AcDbCircle
 10
366.467559
 20
119.603065
 30
0.0
 40
4.2
100
AcDbArc
 50
208.857172
 51
306.79982
  0
ARC
  5
1B0
330
1F
100
AcDbEntity
  8
GR1-1
  6
CONTINUOUS
 62
     3
100
AcDbCircle
 10
344.727604
 20
54.358062
 30
0.0
 40
39.8
100
AcDbArc
 50
77.465584
 51
84.008269
  0
LINE
  5
1B1
330
1F
100
AcDbEntity
  8
GR1-1
  6
CONTINUOUS
 62
     3
100
AcDbLine
 10
348.882124
 20
93.940633
 30
0.0
 11
337.621286
 21
95.122552
 31
0.0
  0
LINE
  5
1B2
330
1F
100
AcDbEntity
  8
GR1-1
  6
CONTINUOUS
 62
     3
100
AcDbLine
 10
353.365079
 20
93.209091
 30
0.0
 11
353.362191
 21
89.509809
 31
0.0
  0
ARC
  5
1B3
330
1F
100
AcDbEntity
  8
GR1-1
  6
CONTINUOUS
 62
     3
100
AcDbCircle
 10
354.36219
 20
89.509029
 30
0.0
 40
1.0
100
AcDbArc
 50
179.955262
 51
242.215348
  0
ARC
  5
1B4
330
1F
100
AcDbEntity
  8
GR1-1
  6
CONTINUOUS
 62
     3
100
AcDbCircle
 10
377.203524
 20
132.859616
 30
0.0
 40
50.0
100
AcDbArc
 50
242.215348
 51
300.315479
  0
ARC
  5
1B5
330
1F
100
AcDbEntity
  8
GR1-1
  6
CONTINUOUS
 62
     3
100
AcDbCircle
 10
346.833692
 20
137.117439
 30
0.0
 40
40.0
100
AcDbArc
 50
173.397306
 51
229.393375
  0
ARC
  5
1B6
330
1F
100
AcDbEntity
  8
GR1-1
  6
CONTINUOUS
 62
     3
100
AcDbCircle
 10
321.450074
 20
107.508793
 30
0.0
 40
1.0
100
AcDbArc
 50
229.393375
 51
289.317592
  0
LINE
  5
1B7
330
1F
100
AcDbEntity
  8
GR1-1
  6
CONTINUOUS
 62
     3
100
AcDbLine
 10
321.780878
 20
106.565093
 30
0.0
 11
326.278155
 21
108.141568
 31
0.0
  0
ARC
  5
1B8
330
1F
100
AcDbEntity
  8
GR1-1
  6
CONTINUOUS
 62
     3
100
AcDbCircle
 10
338.665135
 20
105.067922
 30
0.0
 40
10.0
100
AcDbArc
 50
198.378651
 51
264.008269
  0
ARC
  5
1B9
330
1F
100
AcDbEntity
  8
GR1-1
  6
CONTINUOUS
 62
     3
100
AcDbCircle
 10
300.705393
 20
92.456103
 30
0.0
 40
30.0
100
AcDbArc
 50
18.378651
 51
31.52354
  0
ARC
  5
1BA
330
1F
100
AcDbEntity
  8
GR1-1
  6
CONTINUOUS
 62
     3
100
AcDbCircle
 10
337.229759
 20
134.776488
 30
0.0
 40
3.0
100
AcDbArc
 50
261.304519
 51
322.886212
  0
LINE
  5
1BB
330
1F
100
AcDbEntity
  8
GR1-1
  6
CONTINUOUS
 62
     6
100
AcDbLine
 10
372.447881
 20
118.831695
 30
0.0
 11
355.327797
 21
87.89905
 31
0.0
  0
LINE
  5
1BC
330
1F
100
AcDbEntity
  8
GR1-1
  6
CONTINUOUS
 62
     6
100
AcDbLine
 10
360.907377
 20
85.5898
 30
0.0
 11
376.931492
 21
114.542242
 31
0.0
  0
ARC
  5
1BD
330
1F
100
AcDbEntity
  8
GR1-1
  6
CONTINUOUS
 62
     6
100
AcDbCircle
 10
313.06214
 20
133.183257
 30
0.0
 40
3.0
100
AcDbArc
 50
69.954699
 51
186.642857
  0
ARC
  5
1BE
330
1F
100
AcDbEntity
  8
GR1-1
  6
CONTINUOUS
 62
     6
100
AcDbCircle
 10
346.833881
 20
137.116382
 30
0.0
 40
37.0
100
AcDbArc
 50
186.642857
 51
222.060611
  0
ARC
  5
1BF
330
1F
100
AcDbEntity
  8
GR1-1
  6
CONTINUOUS
 62
     6
100
AcDbCircle
 10
321.591038
 20
114.339225
 30
0.0
 40
3.0
100
AcDbArc
 50
222.060611
 51
289.330878
  0
LINE
  5
1C0
330
1F
100
AcDbEntity
  8
GR1-1
  6
CONTINUOUS
 62
     6
100
AcDbLine
 10
322.584107
 20
111.508357
 30
0.0
 11
330.051886
 21
114.128055
 31
0.0
  0
ARC
  5
1C1
330
1F
100
AcDbEntity
  8
GR1-1
  6
CONTINUOUS
 62
     6
100
AcDbCircle
 10
329.058817
 20
116.958923
 30
0.0
 40
3.0
100
AcDbArc
 50
289.330878
 51
340.56151
  0
ARC
  5
1C2
330
1F
100
AcDbEntity
  8
GR1-1
  6
CONTINUOUS
 62
     6
100
AcDbCircle
 10
334.590467
 20
125.328305
 30
0.0
 40
3.0
100
AcDbArc
 50
-47.486035
 51
69.954699
  0
LINE
  5
1C3
330
1F
100
AcDbEntity
  8
GR1-1
  6
CONTINUOUS
 62
     6
100
AcDbLine
 10
335.618756
 20
128.146571
 30
0.0
 11
314.090429
 21
136.001522
 31
0.0
  0
ARC
  5
1C4
330
1F
100
AcDbEntity
  8
GR1-1
  6
CONTINUOUS
 62
     3
100
AcDbCircle
 10
313.059201
 20
141.02689
 30
0.0
 40
6.0
100
AcDbArc
 50
173.128013
 51
173.397306
  0
ARC
  5
1C5
330
1F
100
AcDbEntity
  8
GR1-1
  6
CONTINUOUS
 62
     6
100
AcDbCircle
 10
348.578903
 20
110.070073
 30
0.0
 40
17.7
100
AcDbArc
 50
132.513965
 51
160.56151
  0
LINE
  5
1C6
330
1F
100
AcDbEntity
  8
GR1-1
  6
CONTINUOUS
 62
     3
100
AcDbLine
 10
343.778541
 20
94.513005
 30
0.0
 11
343.778541
 21
93.103285
 31
0.0
  0
LINE
  5
1C7
330
1F
100
AcDbEntity
  8
GR1-1
  6
CONTINUOUS
 62
     3
100
AcDbLine
 10
353.078541
 20
89.840694
 30
0.0
 11
353.378541
 21
93.103285
 31
0.0
  0
ARC
  5
1C8
330
1F
100
AcDbEntity
  8
GR1-1
  6
CONTINUOUS
 62
     3
100
AcDbCircle
 10
348.578541
 20
76.795005
 30
0.0
 40
17.0
100
AcDbArc
 50
73.599314
 51
106.400686
  0
ARC
  5
1C9
330
1F
100
AcDbEntity
  8
GR1-1
  6
CONTINUOUS
 62
     3
100
AcDbCircle
 10
348.578541
 20
76.795005
 30
0.0
 40
13.8
100
AcDbArc
 50
70.968559
 51
109.031441
  0
LINE
  5
1CA
330
1F
100
AcDbEntity
  8
GR1-1
  6
CONTINUOUS
 62
     3
100
AcDbLine
 10
343.778541
 20
93.103285
 30
0.0
 11
344.078541
 21
89.840694
 31
0.0
  0
ARC
  5
1CB
330
1F
100
AcDbEntity
  8
GR1-1
  6
CONTINUOUS
 62
     3
100
AcDbCircle
 10
350.578541
 20
150.069963
 30
0.0
 40
10.0
100
AcDbArc
 50
-2.862405
 51
80.771903
  0
LINE
  5
1CC
330
1F
100
AcDbEntity
  8
GR1-1
  6
CONTINUOUS
 62
     3
100
AcDbLine
 10
337.710314
 20
162.291757
 30
0.0
 11
352.182193
 21
159.94054
 31
0.0
  0
LINE
  5
1CD
330
1F
100
AcDbEntity
  8
LAYERGROUP-1
  6
CENTER
 62
     6
100
AcDbLine
 10
348.578541
 20
112.395005
 30
0.0
 11
316.334841
 21
168.242731
 31
0.0
  0
ARC
  5
1CE
330
1F
100
AcDbEntity
  8
LAYERGROUP-1
  6
CONTINUOUS
 62
     3
100
AcDbCircle
 10
310.507656
 20
155.335712
 30
0.0
 40
4.0
100
AcDbArc
 50
120.5
 51
210.0
  0
ARC
  5
1CF
330
1F
100
AcDbEntity
  8
LAYERGROUP-1
  6
CONTINUOUS
 62
     3
100
AcDbCircle
 10
345.078541
 20
134.995005
 30
0.0
 40
4.0
100
AcDbArc
 50
-221.409622
 51
41.409622
  0
LINE
  5
1D0
330
1F
100
AcDbEntity
  8
GR1-1
  6
CONTINUOUS
 62
     3
100
AcDbLine
 10
342.078541
 20
141.995005
 30
0.0
 11
342.078541
 21
137.640757
 31
0.0
  0
LINE
  5
1D1
330
1F
100
AcDbEntity
  8
GR1-1
  6
CONTINUOUS
 62
     3
100
AcDbLine
 10
348.078541
 20
141.995005
 30
0.0
 11
348.078541
 21
137.640757
 31
0.0
  0
LINE
  5
1D2
330
1F
100
AcDbEntity
  8
GR1-1
  6
CONTINUOUS
 62
     6
100
AcDbLine
 10
342.078541
 20
141.995005
 30
0.0
 11
348.078541
 21
141.995005
 31
0.0
  0
TEXT
  5
1D3
330
1F
100
AcDbEntity
  8
LAYERGROUP-1
  6
CONTINUOUS
 62
     7
100
AcDbText
 10
321.138184
 20
143.874268
 30
0.0
 40
5.089438
  1
H-100
 50
30.5
 41
0.64793
  7
FX_VECTOR
 72
     5
 11
335.344723
 21
152.242559
 31
0.0
100
AcDbText
  0
ARC
  5
1D4
330
1F
100
AcDbEntity
  8
LAYERGROUP-1
  6
CONTINUOUS
 62
     3
100
AcDbCircle
 10
335.272888
 20
164.120588
 30
0.0
 40
1.0
100
AcDbArc
 50
120.5
 51
243.319899
  0
ARC
  5
1D5
330
1F
100
AcDbEntity
  8
LAYERGROUP-1
  6
CONTINUOUS
 62
     3
100
AcDbCircle
 10
334.410924
 20
165.934037
 30
0.0
 40
1.0
100
AcDbArc
 50
-59.5
 51
30.0
  0
LINE
  5
1D6
330
1F
100
AcDbEntity
  8
LAYERGROUP-1
  6
CONTINUOUS
 62
     3
100
AcDbLine
 10
335.27695
 20
166.434037
 30
0.0
 11
333.789983
 21
169.009539
 31
0.0
  0
LINE
  5
1D7
330
1F
100
AcDbEntity
  8
LAYERGROUP-1
  6
CONTINUOUS
 62
     3
100
AcDbLine
 10
334.918463
 20
165.072407
 30
0.0
 11
334.76535
 21
164.982217
 31
0.0
  0
ARC
  5
1D8
330
1F
100
AcDbEntity
  8
LAYERGROUP-1
  6
CONTINUOUS
 62
     3
100
AcDbCircle
 10
330.325881
 20
167.009539
 30
0.0
 40
4.0
100
AcDbArc
 50
30.0
 51
120.5
  0
LINE
  5
1D9
330
1F
100
AcDbEntity
  8
LAYERGROUP-1
  6
CONTINUOUS
 62
     3
100
AcDbLine
 10
328.295728
 20
170.456055
 30
0.0
 11
308.477502
 21
158.782228
 31
0.0
  0
ARC
  5
1DA
330
1F
100
AcDbEntity
  8
GR1-1
  6
CONTINUOUS
 62
     3
100
AcDbCircle
 10
339.313967
 20
172.162334
 30
0.0
 40
10.0
100
AcDbArc
 50
243.319899
 51
260.771903
  0
LINE
  5
1DB
330
1F
100
AcDbEntity
  8
LAYERGROUP-1
  6
CONTINUOUS
 62
     3
100
AcDbLine
 10
313.014419
 20
142.993871
 30
0.0
 11
307.043554
 21
153.335712
 31
0.0
  0
LINE
  5
1DC
330
1F
100
AcDbEntity
  8
GR1-1
  6
CONTINUOUS
 62
     3
100
AcDbLine
 10
360.578541
 20
121.133229
 30
0.0
 11
360.578541
 21
149.569963
 31
0.0
  0
LINE
  5
1DD
330
1F
100
AcDbEntity
  8
LAYERGROUP-1
  6
CONTINUOUS
 62
     3
100
AcDbLine
 10
332.578541
 20
170.17339
 30
0.0
 11
332.578541
 21
173.344963
 31
0.0
  0
CIRCLE
  5
1DE
330
1F
100
AcDbEntity
  8
LAYERGROUP-1
  6
CONTINUOUS
 62
     3
100
AcDbCircle
 10
350.578541
 20
150.069963
 30
0.0
 40
3.15
  0
LINE
  5
1DF
330
1F
100
AcDbEntity
  8
GR1-1
  6
CENTER
 62
     6
100
AcDbLine
 10
348.578541
 20
96.6729
 30
0.0
 11
348.578541
 21
122.87491
 31
0.0
  0
LINE
  5
1E0
330
1F
100
AcDbEntity
  8
GR1-1
  6
CONTINUOUS
 62
     3
100
AcDbLine
 10
339.178541
 20
115.497056
 30
0.0
 11
339.178541
 21
104.64287
 31
0.0
  0
LINE
  5
1E1
330
1F
100
AcDbEntity
  8
GR1-1
  6
CONTINUOUS
 62
     3
100
AcDbLine
 10
357.978541
 20
115.497056
 30
0.0
 11
357.978541
 21
104.64287
 31
0.0
  0
LINE
  5
1E2
330
1F
100
AcDbEntity
  8
GR1-1
  6
CONTINUOUS
 62
     3
100
AcDbLine
 10
357.978541
 20
104.64287
 30
0.0
 11
348.578541
 21
99.215778
 31
0.0
  0
LINE
  5
1E3
330
1F
100
AcDbEntity
  8
GR1-1
  6
CONTINUOUS
 62
     3
100
AcDbLine
 10
348.578541
 20
99.215778
 30
0.0
 11
339.178541
 21
104.64287
 31
0.0
  0
LINE
  5
1E4
330
1F
100
AcDbEntity
  8
GR1-1
  6
CONTINUOUS
 62
     3
100
AcDbLine
 10
348.578541
 20
120.924148
 30
0.0
 11
339.178541
 21
115.497056
 31
0.0
  0
LINE
  5
1E5
330
1F
100
AcDbEntity
  8
GR1-1
  6
CONTINUOUS
 62
     3
100
AcDbLine
 10
357.978541
 20
115.497056
 30
0.0
 11
348.578541
 21
120.924148
 31
0.0
  0
TEXT
  5
1E6
330
1F
100
AcDbEntity
  8
LAYERGROUP-1
  6
CONTINUOUS
 62
     7
100
AcDbText
 10
340.804169
 20
107.670113
 30
0.0
 40
4.868113
  1
H-100S
 41
0.540684
  7
FX_VECTOR
 72
     5
 11
356.471509
 21
107.670113
 31
0.0
100
AcDbText
  0
CIRCLE
  5
1E7
330
1F
100
AcDbEntity
  8
GR1-1
  6
CONTINUOUS
 62
     6
100
AcDbCircle
 10
348.578541
 20
110.069963
 30
0.0
 40
9.0
  0
LINE
  5
1E8
330
1F
100
AcDbEntity
  8
GR1-1
  6
CENTER
 62
     6
100
AcDbLine
 10
336.193257
 20
110.069963
 30
0.0
 11
360.474522
 21
110.069963
 31
0.0
  0
CIRCLE
  5
1E9
330
1F
100
AcDbEntity
  8
LAYERGROUP-1
  6
CONTINUOUS
 62
     3
100
AcDbCircle
 10
348.578541
 20
110.069963
 30
0.0
 40
11.25
  0
LINE
  5
1EA
330
1F
100
AcDbEntity
  8
LAYERGROUP-1
  6
CONTINUOUS
 62
     3
100
AcDbLine
 10
319.738293
 20
166.227756
 30
0.0
 11
316.384538
 21
164.252243
 31
0.0
  0
ARC
  5
1EB
330
1F
100
AcDbEntity
  8
LAYERGROUP-1
  6
CONTINUOUS
 62
     3
100
AcDbCircle
 10
320.245832
 20
165.366127
 30
0.0
 40
1.0
100
AcDbArc
 50
47.957603
 51
120.5
  0
ARC
  5
1EC
330
1F
100
AcDbEntity
  8
LAYERGROUP-1
  6
CONTINUOUS
 62
     3
100
AcDbCircle
 10
316.892076
 20
163.390613
 30
0.0
 40
1.0
100
AcDbArc
 50
120.5
 51
193.042397
  0
LINE
  5
1ED
330
1F
100
AcDbEntity
  8
LAYERGROUP-1
  6
CONTINUOUS
 62
     3
100
AcDbLine
 10
150.852622
 20
169.569963
 30
0.0
 11
201.49852
 21
169.569963
 31
0.0
  0
LINE
  5
1EE
330
1F
100
AcDbEntity
  8
LAYERGROUP-1
  6
CONTINUOUS
 62
     3
100
AcDbLine
 10
150.350166
 20
158.069963
 30
0.0
 11
201.49852
 21
158.069963
 31
0.0
  0
LINE
  5
1EF
330
1F
100
AcDbEntity
  8
LAYERGROUP-1
  6
CONTINUOUS
 62
     3
100
AcDbLine
 10
150.352622
 20
155.069963
 30
0.0
 11
193.627586
 21
155.069963
 31
0.0
  0
LINE
  5
1F0
330
1F
100
AcDbEntity
  8
LAYERGROUP-1
  6
CONTINUOUS
 62
     3
100
AcDbLine
 10
149.352622
 20
168.069963
 30
0.0
 11
149.352622
 21
156.069963
 31
0.0
  0
LINE
  5
1F1
330
1F
100
AcDbEntity
  8
LAYERGROUP-1
  6
CONTINUOUS
 62
     3
100
AcDbLine
 10
149.352622
 20
167.344963
 30
0.0
 11
139.352622
 21
167.344963
 31
0.0
  0
LINE
  5
1F2
330
1F
100
AcDbEntity
  8
LAYERGROUP-1
  6
CONTINUOUS
 62
     3
100
AcDbLine
 10
204.852622
 20
167.069963
 30
0.0
 11
204.852622
 21
93.103285
 31
0.0
  0
LINE
  5
1F3
330
1F
100
AcDbEntity
  8
LAYERGROUP-1
  6
CONTINUOUS
 62
     3
100
AcDbLine
 10
196.352622
 20
142.069963
 30
0.0
 11
196.352622
 21
122.948455
 31
0.0
  0
LINE
  5
1F4
330
1F
100
AcDbEntity
  8
LAYERGROUP-1
  6
CONTINUOUS
 62
     3
100
AcDbLine
 10
201.352622
 20
116.240251
 30
0.0
 11
201.352622
 21
93.103285
 31
0.0
  0
ARC
  5
1F5
330
1F
100
AcDbEntity
  8
LAYERGROUP-1
  6
CONTINUOUS
 62
     3
100
AcDbCircle
 10
203.352622
 20
122.948455
 30
0.0
 40
7.0
100
AcDbArc
 50
180.0
 51
270.0
  0
LINE
  5
1F6
330
1F
100
AcDbEntity
  8
LAYERGROUP-1
  6
CONTINUOUS
 62
     3
100
AcDbLine
 10
204.852622
 20
115.948455
 30
0.0
 11
203.352622
 21
115.948455
 31
0.0
  0
ARC
  5
1F7
330
1F
100
AcDbEntity
  8
LAYERGROUP-1
  6
CONTINUOUS
 62
     3
100
AcDbCircle
 10
201.49852
 20
166.069963
 30
0.0
 40
3.5
100
AcDbArc
 50
16.60155
 51
90.0
  0
ARC
  5
1F8
330
1F
100
AcDbEntity
  8
LAYERGROUP-1
  6
CONTINUOUS
 62
     3
100
AcDbCircle
 10
201.49852
 20
154.569963
 30
0.0
 40
3.5
100
AcDbArc
 50
16.60155
 51
90.0
  0
LINE
  5
1F9
330
1F
100
AcDbEntity
  8
LAYERGROUP-1
  6
CONTINUOUS
 62
     3
100
AcDbLine
 10
194.852622
 20
152.069963
 30
0.0
 11
194.852622
 21
148.608311
 31
0.0
  0
ARC
  5
1FA
330
1F
100
AcDbEntity
  8
LAYERGROUP-1
  6
CONTINUOUS
 62
     3
100
AcDbCircle
 10
150.852622
 20
168.069963
 30
0.0
 40
1.5
100
AcDbArc
 50
90.0
 51
180.0
  0
ARC
  5
1FB
330
1F
100
AcDbEntity
  8
LAYERGROUP-1
  6
CONTINUOUS
 62
     3
100
AcDbCircle
 10
209.852622
 20
148.608311
 30
0.0
 40
15.0
100
AcDbArc
 50
180.0
 51
205.841933
  0
ARC
  5
1FC
330
1F
100
AcDbEntity
  8
LAYERGROUP-1
  6
CONTINUOUS
 62
     3
100
AcDbCircle
 10
184.852622
 20
152.069963
 30
0.0
 40
10.0
100
AcDbArc
 50
0.0
 51
36.869898
  0
ARC
  5
1FD
330
1F
100
AcDbEntity
  8
LAYERGROUP-1
  6
CONTINUOUS
 62
     3
100
AcDbCircle
 10
193.627586
 20
154.069963
 30
0.0
 40
1.0
100
AcDbArc
 50
12.839588
 51
90.0
  0
LINE
  5
1FE
330
1F
100
AcDbEntity
  8
LAYERGROUP-1
  6
CENTER
 62
     6
100
AcDbLine
 10
180.598423
 20
164.636859
 30
0.0
 11
174.993331
 21
164.636859
 31
0.0
  0
LINE
  5
1FF
330
1F
100
AcDbEntity
  8
LAYERGROUP-1
  6
CENTER
 62
     6
100
AcDbLine
 10
177.852622
 20
166.505131
 30
0.0
 11
177.852622
 21
162.772117
 31
0.0
  0
LINE
  5
200
330
1F
100
AcDbEntity
  8
LAYERGROUP-1
  6
CONTINUOUS
 62
     3
100
AcDbLine
 10
210.352622
 20
89.840694
 30
0.0
 11
204.852622
 21
89.840694
 31
0.0
  0
LINE
  5
201
330
1F
100
AcDbEntity
  8
LAYERGROUP-1
  6
CONTINUOUS
 62
     3
100
AcDbLine
 10
210.352622
 20
93.103285
 30
0.0
 11
204.852622
 21
93.103285
 31
0.0
  0
LINE
  5
202
330
1F
100
AcDbEntity
  8
LAYERGROUP-1
  6
CONTINUOUS
 62
     3
100
AcDbLine
 10
210.352622
 20
93.795005
 30
0.0
 11
210.352622
 21
89.840694
 31
0.0
  0
ARC
  5
203
330
1F
100
AcDbEntity
  8
LAYERGROUP-1
  6
CONTINUOUS
 62
     3
100
AcDbCircle
 10
204.852622
 20
93.340694
 30
0.0
 40
3.5
100
AcDbArc
 50
180.0
 51
270.0
  0
LINE
  5
204
330
1F
100
AcDbEntity
  8
LAYERGROUP-1
  6
CONTINUOUS
 62
     3
100
AcDbLine
 10
205.652622
 20
151.619963
 30
0.0
 11
205.652622
 21
148.519963
 31
0.0
  0
ARC
  5
205
330
1F
100
AcDbEntity
  8
LAYERGROUP-1
  6
CONTINUOUS
 62
     3
100
AcDbCircle
 10
203.652622
 20
148.519963
 30
0.0
 40
2.0
100
AcDbArc
 50
306.869898
 51
360.0
  0
ARC
  5
206
330
1F
100
AcDbEntity
  8
LAYERGROUP-1
  6
CONTINUOUS
 62
     3
100
AcDbCircle
 10
203.652622
 20
151.619963
 30
0.0
 40
2.0
100
AcDbArc
 50
0.0
 51
53.130102
  0
LINE
  5
207
330
1F
100
AcDbEntity
  8
GR1-1
  6
CONTINUOUS
 62
     3
100
AcDbLine
 10
209.852622
 20
82.859694
 30
0.0
 11
209.852622
 21
85.5898
 31
0.0
  0
LINE
  5
208
330
1F
100
AcDbEntity
  8
GR1-1
  6
CONTINUOUS
 62
     3
100
AcDbLine
 10
209.852622
 20
85.5898
 30
0.0
 11
206.234588
 21
86.76537
 31
0.0
  0
LINE
  5
209
330
1F
100
AcDbEntity
  8
GR1-1
  6
CONTINUOUS
 62
     3
100
AcDbLine
 10
208.052622
 20
87.89905
 30
0.0
 11
208.052622
 21
89.840694
 31
0.0
  0
LINE
  5
20A
330
1F
100
AcDbEntity
  8
GR1-1
  6
CONTINUOUS
 62
     3
100
AcDbLine
 10
208.052622
 20
87.89905
 30
0.0
 11
211.670656
 21
86.723479
 31
0.0
  0
ARC
  5
20B
330
1F
100
AcDbEntity
  8
GR1-1
  6
CONTINUOUS
 62
     3
100
AcDbCircle
 10
211.052622
 20
84.821366
 30
0.0
 40
2.0
100
AcDbArc
 50
0.0
 51
72.0
  0
LINE
  5
20C
330
1F
100
AcDbEntity
  8
GR1-1
  6
CONTINUOUS
 62
     3
100
AcDbLine
 10
210.352622
 20
93.795005
 30
0.0
 11
204.852622
 21
93.795005
 31
0.0
  0
LINE
  5
20D
330
1F
100
AcDbEntity
  8
GR1-1
  6
CONTINUOUS
 62
     3
100
AcDbLine
 10
204.852622
 20
93.103285
 30
0.0
 11
204.852622
 21
140.644293
 31
0.0
  0
LINE
  5
20E
330
1F
100
AcDbEntity
  8
GR1-1
  6
CONTINUOUS
 62
     3
100
AcDbLine
 10
209.265181
 20
144.62296
 30
0.0
 11
224.507332
 21
143.042459
 31
0.0
  0
LINE
  5
20F
330
1F
100
AcDbEntity
  8
GR1-1
  6
CONTINUOUS
 62
     3
100
AcDbLine
 10
225.852622
 20
141.716794
 30
0.0
 11
225.852622
 21
134.332196
 31
0.0
  0
ARC
  5
210
330
1F
100
AcDbEntity
  8
GR1-1
  6
CONTINUOUS
 62
     3
100
AcDbCircle
 10
224.352622
 20
134.332196
 30
0.0
 40
1.5
100
AcDbArc
 50
270.0
 51
360.0
  0
LINE
  5
211
330
1F
100
AcDbEntity
  8
GR1-1
  6
CONTINUOUS
 62
     3
100
AcDbLine
 10
224.352622
 20
132.832196
 30
0.0
 11
209.303077
 21
132.832196
 31
0.0
  0
LINE
  5
212
330
1F
100
AcDbEntity
  8
GR1-1
  6
CONTINUOUS
 62
     3
100
AcDbLine
 10
209.552622
 20
132.166743
 30
0.0
 11
208.052622
 21
136.166743
 31
0.0
  0
LINE
  5
213
330
1F
100
AcDbEntity
  8
GR1-1
  6
CONTINUOUS
 62
     3
100
AcDbLine
 10
209.552622
 20
132.166743
 30
0.0
 11
209.552622
 21
115.339231
 31
0.0
  0
LINE
  5
214
330
1F
100
AcDbEntity
  8
GR1-1
  6
CONTINUOUS
 62
     3
100
AcDbLine
 10
209.552622
 20
115.339231
 30
0.0
 11
208.052622
 21
111.339231
 31
0.0
  0
LINE
  5
215
330
1F
100
AcDbEntity
  8
GR1-1
  6
CONTINUOUS
 62
     3
100
AcDbLine
 10
208.652622
 20
112.939231
 30
0.0
 11
208.652622
 21
98.819963
 31
0.0
  0
LINE
  5
216
330
1F
100
AcDbEntity
  8
GR1-1
  6
CONTINUOUS
 62
     3
100
AcDbLine
 10
208.652622
 20
98.819963
 30
0.0
 11
208.052622
 21
98.819963
 31
0.0
  0
LINE
  5
217
330
1F
100
AcDbEntity
  8
GR1-1
  6
CONTINUOUS
 62
     3
100
AcDbLine
 10
208.652622
 20
99.100308
 30
0.0
 11
212.152622
 21
99.100308
 31
0.0
  0
ARC
  5
218
330
1F
100
AcDbEntity
  8
GR1-1
  6
CONTINUOUS
 62
     3
100
AcDbCircle
 10
208.892205
 20
101.842722
 30
0.0
 40
4.260416666666139
100
AcDbArc
 50
-40.067987
 51
40.067987
  0
LINE
  5
219
330
1F
100
AcDbEntity
  8
GR1-1
  6
CONTINUOUS
 62
     3
100
AcDbLine
 10
212.152622
 20
104.585135
 30
0.0
 11
208.652622
 21
104.585135
 31
0.0
  0
ARC
  5
21A
330
1F
100
AcDbEntity
  8
GR1-1
  6
CONTINUOUS
 62
     3
100
AcDbCircle
 10
197.610955
 20
110.069963
 30
0.0
 40
15.54166666666642
100
AcDbArc
 50
-20.665478
 51
20.665478
  0
LINE
  5
21B
330
1F
100
AcDbEntity
  8
GR1-1
  6
CONTINUOUS
 62
     3
100
AcDbLine
 10
212.152622
 20
115.554791
 30
0.0
 11
209.552622
 21
115.554791
 31
0.0
  0
ARC
  5
21C
330
1F
100
AcDbEntity
  8
GR1-1
  6
CONTINUOUS
 62
     3
100
AcDbCircle
 10
208.892205
 20
118.297204
 30
0.0
 40
4.260416666666139
100
AcDbArc
 50
-40.067987
 51
40.067987
  0
LINE
  5
21D
330
1F
100
AcDbEntity
  8
GR1-1
  6
CONTINUOUS
 62
     3
100
AcDbLine
 10
212.152622
 20
121.039618
 30
0.0
 11
209.552622
 21
121.039618
 31
0.0
  0
LINE
  5
21E
330
1F
100
AcDbEntity
  8
GR1-1
  6
CONTINUOUS
 62
     3
100
AcDbLine
 10
213.152622
 20
118.297204
 30
0.0
 11
213.152622
 21
101.842722
 31
0.0
  0
LINE
  5
21F
330
1F
100
AcDbEntity
  8
GR1-1
  6
CONTINUOUS
 62
     3
100
AcDbLine
 10
213.052622
 20
100.925071
 30
0.0
 11
213.052622
 21
82.859694
 31
0.0
  0
LINE
  5
220
330
1F
100
AcDbEntity
  8
GR1-1
  6
CONTINUOUS
 62
     3
100
AcDbLine
 10
213.052622
 20
82.859694
 30
0.0
 11
209.852622
 21
82.859694
 31
0.0
  0
LINE
  5
221
330
1F
100
AcDbEntity
  8
GR1-1
  6
CONTINUOUS
 62
     3
100
AcDbLine
 10
204.852622
 20
89.853575
 30
0.0
 11
204.852622
 21
88.667483
 31
0.0
  0
ARC
  5
222
330
1F
100
AcDbEntity
  8
GR1-1
  6
CONTINUOUS
 62
     3
100
AcDbCircle
 10
206.852622
 20
88.667483
 30
0.0
 40
2.0
100
AcDbArc
 50
180.0
 51
252.0
  0
LINE
  5
223
330
1F
100
AcDbEntity
  8
GR1-1
  6
CONTINUOUS
 62
     3
100
AcDbLine
 10
208.052622
 20
93.795005
 30
0.0
 11
208.052622
 21
141.162266
 31
0.0
  0
LINE
  5
224
330
1F
100
AcDbEntity
  8
GR1-1
  6
CONTINUOUS
 62
     3
100
AcDbLine
 10
208.604192
 20
141.6596
 30
0.0
 11
224.507332
 21
140.010559
 31
0.0
  0
ARC
  5
225
330
1F
100
AcDbEntity
  8
GR1-1
  6
CONTINUOUS
 62
     3
100
AcDbCircle
 10
224.352622
 20
138.518559
 30
0.0
 40
1.5
100
AcDbArc
 50
0.0
 51
84.08
  0
ARC
  5
226
330
1F
100
AcDbEntity
  8
GR1-1
  6
CONTINUOUS
 62
     3
100
AcDbCircle
 10
224.352622
 20
141.550459
 30
0.0
 40
1.5
100
AcDbArc
 50
0.0
 51
84.08
  0
ARC
  5
227
330
1F
100
AcDbEntity
  8
GR1-1
  6
CONTINUOUS
 62
     3
100
AcDbCircle
 10
208.852622
 20
140.644293
 30
0.0
 40
4.0
100
AcDbArc
 50
84.08
 51
180.0
  0
ARC
  5
228
330
1F
100
AcDbEntity
  8
GR1-1
  6
CONTINUOUS
 62
     3
100
AcDbCircle
 10
208.552622
 20
141.162266
 30
0.0
 40
0.5
100
AcDbArc
 50
84.08
 51
180.0
  0
LINE
  5
229
330
1F
100
AcDbEntity
  8
GR1-1
  6
CONTINUOUS
 62
     3
100
AcDbLine
 10
213.052622
 20
89.799436
 30
0.0
 11
229.324158
 21
91.731059
 31
0.0
  0
ARC
  5
22A
330
1F
100
AcDbEntity
  8
GR1-1
  6
CONTINUOUS
 62
     3
100
AcDbCircle
 10
228.852622
 20
95.703168
 30
0.0
 40
4.0
100
AcDbArc
 50
276.77
 51
360.0
  0
LINE
  5
22B
330
1F
100
AcDbEntity
  8
GR1-1
  6
CONTINUOUS
 62
     3
100
AcDbLine
 10
232.852622
 20
95.703168
 30
0.0
 11
232.852622
 21
112.0418
 31
0.0
  0
ARC
  5
22C
330
1F
100
AcDbEntity
  8
GR1-1
  6
CONTINUOUS
 62
     3
100
AcDbCircle
 10
228.852622
 20
112.0418
 30
0.0
 40
4.0
100
AcDbArc
 50
0.0
 51
84.47
  0
LINE
  5
22D
330
1F
100
AcDbEntity
  8
GR1-1
  6
CONTINUOUS
 62
     3
100
AcDbLine
 10
229.23809
 20
116.023184
 30
0.0
 11
219.749661
 21
116.94183
 31
0.0
  0
ARC
  5
22E
330
1F
100
AcDbEntity
  8
GR1-1
  6
CONTINUOUS
 62
     3
100
AcDbCircle
 10
219.942395
 20
118.932522
 30
0.0
 40
2.0
100
AcDbArc
 50
218.682613
 51
264.47
  0
ARC
  5
22F
330
1F
100
AcDbEntity
  8
GR1-1
  6
CONTINUOUS
 62
     3
100
AcDbCircle
 10
212.136194
 20
112.682464
 30
0.0
 40
8.0
100
AcDbArc
 50
38.682613
 51
87.924993
  0
ARC
  5
230
330
1F
100
AcDbEntity
  8
GR1-1
  6
CONTINUOUS
 62
     3
100
AcDbCircle
 10
220.018659
 20
116.612885
 30
0.0
 40
2.0
100
AcDbArc
 50
215.318354
 51
264.47
  0
LINE
  5
231
330
1F
100
AcDbEntity
  8
GR1-1
  6
CONTINUOUS
 62
     3
100
AcDbLine
 10
219.825926
 20
114.622194
 30
0.0
 11
229.23809
 21
113.710931
 31
0.0
  0
ARC
  5
232
330
1F
100
AcDbEntity
  8
GR1-1
  6
CONTINUOUS
 62
     3
100
AcDbCircle
 10
228.852622
 20
109.729548
 30
0.0
 40
4.0
100
AcDbArc
 50
0.0
 51
84.47
  0
ARC
  5
233
330
1F
100
AcDbEntity
  8
GR1-1
  6
CONTINUOUS
 62
     3
100
AcDbCircle
 10
211.859135
 20
110.831695
 30
0.0
 40
8.0
100
AcDbArc
 50
35.318354
 51
80.855162
  0
LINE
  5
234
330
1F
100
AcDbEntity
  8
GR1-1
  6
CONTINUOUS
 62
     6
100
AcDbLine
 10
214.775437
 20
139.550856
 30
0.0
 11
223.629807
 21
139.550856
 31
0.0
  0
LINE
  5
235
330
1F
100
AcDbEntity
  8
GR1-1
  6
CONTINUOUS
 62
     6
100
AcDbLine
 10
223.628378
 20
139.10523
 30
0.0
 11
219.852622
 21
139.10523
 31
0.0
  0
LINE
  5
236
330
1F
100
AcDbEntity
  8
GR1-1
  6
CONTINUOUS
 62
     6
100
AcDbLine
 10
219.852622
 20
139.10523
 30
0.0
 11
219.852622
 21
137.151334
 31
0.0
  0
LINE
  5
237
330
1F
100
AcDbEntity
  8
GR1-1
  6
CONTINUOUS
 62
     6
100
AcDbLine
 10
219.852622
 20
137.151334
 30
0.0
 11
222.631236
 21
137.151334
 31
0.0
  0
ARC
  5
238
330
1F
100
AcDbEntity
  8
GR1-1
  6
CONTINUOUS
 62
     6
100
AcDbCircle
 10
222.629807
 20
136.928524
 30
0.0
 40
0.2228149999999971
100
AcDbArc
 50
-90.0
 51
89.63251
  0
LINE
  5
239
330
1F
100
AcDbEntity
  8
GR1-1
  6
CONTINUOUS
 62
     6
100
AcDbLine
 10
222.629807
 20
136.705709
 30
0.0
 11
219.852622
 21
136.705709
 31
0.0
  0
LINE
  5
23A
330
1F
100
AcDbEntity
  8
GR1-1
  6
CONTINUOUS
 62
     6
100
AcDbLine
 10
219.852622
 20
136.705709
 30
0.0
 11
219.852622
 21
136.327343
 31
0.0
  0
LINE
  5
23B
330
1F
100
AcDbEntity
  8
GR1-1
  6
CONTINUOUS
 62
     6
100
AcDbLine
 10
218.552622
 20
136.327343
 30
0.0
 11
218.552622
 21
139.10523
 31
0.0
  0
LINE
  5
23C
330
1F
100
AcDbEntity
  8
GR1-1
  6
CONTINUOUS
 62
     6
100
AcDbLine
 10
218.552622
 20
139.10523
 30
0.0
 11
216.852622
 21
139.10523
 31
0.0
  0
LINE
  5
23D
330
1F
100
AcDbEntity
  8
GR1-1
  6
CONTINUOUS
 62
     6
100
AcDbLine
 10
216.852622
 20
139.10523
 30
0.0
 11
216.852622
 21
138.041286
 31
0.0
  0
LINE
  5
23E
330
1F
100
AcDbEntity
  8
GR1-1
  6
CONTINUOUS
 62
     6
100
AcDbLine
 10
215.552622
 20
138.041286
 30
0.0
 11
215.552622
 21
139.10523
 31
0.0
  0
LINE
  5
23F
330
1F
100
AcDbEntity
  8
GR1-1
  6
CONTINUOUS
 62
     6
100
AcDbLine
 10
215.552622
 20
139.10523
 30
0.0
 11
214.776866
 21
139.10523
 31
0.0
  0
ARC
  5
240
330
1F
100
AcDbEntity
  8
GR1-1
  6
CONTINUOUS
 62
     6
100
AcDbCircle
 10
214.775437
 20
139.328041
 30
0.0
 40
0.2228149999999971
100
AcDbArc
 50
90.0
 51
269.63251
  0
ARC
  5
241
330
1F
100
AcDbEntity
  8
GR1-1
  6
CONTINUOUS
 62
     6
100
AcDbCircle
 10
216.202622
 20
138.041286
 30
0.0
 40
0.6500000000000341
100
AcDbArc
 50
180.0
 51
360.0
  0
ARC
  5
242
330
1F
100
AcDbEntity
  8
GR1-1
  6
CONTINUOUS
 62
     6
100
AcDbCircle
 10
219.202622
 20
136.327343
 30
0.0
 40
0.6500000000000341
100
AcDbArc
 50
180.0
 51
360.0
  0
ARC
  5
243
330
1F
100
AcDbEntity
  8
GR1-1
  6
CONTINUOUS
 62
     6
100
AcDbCircle
 10
223.629807
 20
139.328041
 30
0.0
 40
0.2228149999999971
100
AcDbArc
 50
-89.63251
 51
90.0
  0
ARC
  5
244
330
1F
100
AcDbEntity
  8
GR1-1
  6
CONTINUOUS
 62
     6
100
AcDbCircle
 10
221.389557
 20
108.210186
 30
0.0
 40
1.036935
100
AcDbArc
 50
89.82503
 51
270.0
  0
LINE
  5
245
330
1F
100
AcDbEntity
  8
GR1-1
  6
CONTINUOUS
 62
     6
100
AcDbLine
 10
221.389557
 20
107.173251
 30
0.0
 11
228.315687
 21
107.173251
 31
0.0
  0
ARC
  5
246
330
1F
100
AcDbEntity
  8
GR1-1
  6
CONTINUOUS
 62
     6
100
AcDbCircle
 10
228.315687
 20
108.210186
 30
0.0
 40
1.036935
100
AcDbArc
 50
-90.0
 51
90.17497
  0
LINE
  5
247
330
1F
100
AcDbEntity
  8
GR1-1
  6
CONTINUOUS
 62
     6
100
AcDbLine
 10
228.312521
 20
109.247116
 30
0.0
 11
221.392724
 21
109.247116
 31
0.0
  0
LINE
  5
248
330
1F
100
AcDbEntity
  8
GR1-1
  6
CONTINUOUS
 62
     6
100
AcDbLine
 10
221.392724
 20
103.371165
 30
0.0
 11
228.312521
 21
103.371165
 31
0.0
  0
LINE
  5
249
330
1F
100
AcDbEntity
  8
GR1-1
  6
CONTINUOUS
 62
     6
100
AcDbLine
 10
228.315687
 20
101.2973
 30
0.0
 11
221.389557
 21
101.2973
 31
0.0
  0
ARC
  5
24A
330
1F
100
AcDbEntity
  8
GR1-1
  6
CONTINUOUS
 62
     6
100
AcDbCircle
 10
221.389557
 20
102.334235
 30
0.0
 40
1.036935
100
AcDbArc
 50
89.82503
 51
270.0
  0
LINE
  5
24B
330
1F
100
AcDbEntity
  8
GR1-1
  6
CONTINUOUS
 62
     6
100
AcDbLine
 10
221.392724
 20
97.495214
 30
0.0
 11
228.312521
 21
97.495214
 31
0.0
  0
LINE
  5
24C
330
1F
100
AcDbEntity
  8
GR1-1
  6
CONTINUOUS
 62
     6
100
AcDbLine
 10
228.315687
 20
95.421349
 30
0.0
 11
221.389557
 21
95.421349
 31
0.0
  0
ARC
  5
24D
330
1F
100
AcDbEntity
  8
GR1-1
  6
CONTINUOUS
 62
     6
100
AcDbCircle
 10
221.389557
 20
96.458284
 30
0.0
 40
1.036935
100
AcDbArc
 50
89.82503
 51
270.0
  0
ARC
  5
24E
330
1F
100
AcDbEntity
  8
GR1-1
  6
CONTINUOUS
 62
     6
100
AcDbCircle
 10
228.315687
 20
96.458284
 30
0.0
 40
1.036935
100
AcDbArc
 50
-90.0
 51
90.17497
  0
ARC
  5
24F
330
1F
100
AcDbEntity
  8
GR1-1
  6
CONTINUOUS
 62
     6
100
AcDbCircle
 10
228.315687
 20
102.334235
 30
0.0
 40
1.036935
100
AcDbArc
 50
-90.0
 51
90.17497
  0
LINE
  5
250
330
1F
100
AcDbEntity
  8
GR1-1
  6
CONTINUOUS
 62
     3
100
AcDbLine
 10
204.852622
 20
106.510188
 30
0.0
 11
208.052622
 21
106.510188
 31
0.0
  0
LINE
  5
251
330
1F
100
AcDbEntity
  8
GR1-1
  6
CONTINUOUS
 62
     3
100
AcDbLine
 10
204.852622
 20
88.910003
 30
0.0
 11
208.052622
 21
88.910003
 31
0.0
  0
LINE
  5
252
330
1F
100
AcDbEntity
  8
LAYERGROUP-1
  6
CONTINUOUS
 62
     3
100
AcDbLine
 10
152.852622
 20
152.584629
 30
0.0
 11
184.852622
 21
152.584629
 31
0.0
  0
LINE
  5
253
330
1F
100
AcDbEntity
  8
LAYERGROUP-1
  6
CONTINUOUS
 62
     3
100
AcDbLine
 10
184.852622
 20
155.069963
 30
0.0
 11
184.852622
 21
152.084629
 31
0.0
  0
LINE
  5
254
330
1F
100
AcDbEntity
  8
LAYERGROUP-1
  6
CONTINUOUS
 62
     3
100
AcDbLine
 10
152.852622
 20
155.069963
 30
0.0
 11
152.852622
 21
152.084629
 31
0.0
  0
LINE
  5
255
330
1F
100
AcDbEntity
  8
LAYERGROUP-1
  6
CONTINUOUS
 62
     3
100
AcDbLine
 10
153.352622
 20
151.584629
 30
0.0
 11
184.352622
 21
151.584629
 31
0.0
  0
ARC
  5
256
330
1F
100
AcDbEntity
  8
LAYERGROUP-1
  6
CONTINUOUS
 62
     3
100
AcDbCircle
 10
184.352622
 20
152.084629
 30
0.0
 40
0.5
100
AcDbArc
 50
270.0
 51
360.0
  0
ARC
  5
257
330
1F
100
AcDbEntity
  8
LAYERGROUP-1
  6
CONTINUOUS
 62
     3
100
AcDbCircle
 10
153.352622
 20
152.084629
 30
0.0
 40
0.5
100
AcDbArc
 50
180.0
 51
270.0
  0
ELLIPSE
  5
258
330
1F
100
AcDbEntity
  8
GR1-1
  6
CONTINUOUS
 62
     7
100
AcDbEllipse
 10
177.852622
 20
164.667863
 30
0.0
 11
-2.049999999999955
 21
2.510443025335818E-16
 31
0.0
210
0.0
220
0.0
230
1.0
 40
0.51512
 41
0.0
 42
6.283185307179586
  0
ELLIPSE
  5
259
330
1F
100
AcDbEntity
  8
LAYERGROUP-1
  6
CONTINUOUS
 62
     7
100
AcDbEllipse
 10
177.852622
 20
164.636859
 30
0.0
 11
-2.549116250869218
 21
3.121663957446322E-16
 31
0.0
210
0.0
220
0.0
230
1.0
 40
0.598243
 41
0.0
 42
6.283185307179586
  0
ELLIPSE
  5
25A
330
1F
100
AcDbEntity
  8
GR1-1
  6
CONTINUOUS
 62
     7
100
AcDbEllipse
 10
159.852622
 20
164.667863
 30
0.0
 11
-2.049999999999955
 21
2.510443025335818E-16
 31
0.0
210
0.0
220
0.0
230
1.0
 40
0.51512
 41
0.0
 42
6.283185307179586
  0
ELLIPSE
  5
25B
330
1F
100
AcDbEntity
  8
LAYERGROUP-1
  6
CONTINUOUS
 62
     7
100
AcDbEllipse
 10
159.852622
 20
164.636859
 30
0.0
 11
-2.549116250869218
 21
3.121663957446322E-16
 31
0.0
210
0.0
220
0.0
230
1.0
 40
0.598243
 41
0.0
 42
6.283185307179586
  0
LINE
  5
25C
330
1F
100
AcDbEntity
  8
GR1-1
  6
CONTINUOUS
 62
     3
100
AcDbLine
 10
326.695652
 20
340.577434
 30
0.0
 11
310.009463
 21
340.577434
 31
0.0
  0
LINE
  5
25D
330
1F
100
AcDbEntity
  8
LAYERGROUP-1
  6
CONTINUOUS
 62
     3
100
AcDbLine
 10
328.695652
 20
298.577434
 30
0.0
 11
328.695652
 21
338.577434
 31
0.0
  0
LINE
  5
25E
330
1F
100
AcDbEntity
  8
LAYERGROUP-1
  6
CONTINUOUS
 62
     3
100
AcDbLine
 10
308.009463
 20
299.258814
 30
0.0
 11
308.009463
 21
338.577434
 31
0.0
  0
ARC
  5
25F
330
1F
100
AcDbEntity
  8
LAYERGROUP-1
  6
CONTINUOUS
 62
     3
100
AcDbCircle
 10
310.009463
 20
338.577434
 30
0.0
 40
2.0
100
AcDbArc
 50
90.0
 51
180.0
  0
ARC
  5
260
330
1F
100
AcDbEntity
  8
LAYERGROUP-1
  6
CONTINUOUS
 62
     3
100
AcDbCircle
 10
326.695652
 20
338.577434
 30
0.0
 40
2.0
100
AcDbArc
 50
0.0
 51
90.0
  0
LINE
  5
261
330
1F
100
AcDbEntity
  8
LAYERGROUP-1
  6
CONTINUOUS
 62
     3
100
AcDbLine
 10
306.380329
 20
291.077434
 30
0.0
 11
306.380329
 21
294.577434
 31
0.0
  0
ARC
  5
262
330
1F
100
AcDbEntity
  8
LAYERGROUP-1
  6
CONTINUOUS
 62
     3
100
AcDbCircle
 10
312.380329
 20
291.077434
 30
0.0
 40
6.0
100
AcDbArc
 50
180.0
 51
270.0
  0
ARC
  5
263
330
1F
100
AcDbEntity
  8
LAYERGROUP-1
  6
CONTINUOUS
 62
     3
100
AcDbCircle
 10
300.011049
 20
299.418124
 30
0.0
 40
8.0
100
AcDbArc
 50
-37.235052
 51
1.141046
  0
ELLIPSE
  5
264
330
1F
100
AcDbEntity
  8
GR1-1
  6
CONTINUOUS
 62
     7
100
AcDbEllipse
 10
318.321553
 20
330.077434
 30
0.0
 11
-3.765664538003726E-16
 21
-2.049999999999955
 31
0.0
210
0.0
220
0.0
230
1.0
 40
0.51512
 41
0.0
 42
6.283185307179586
  0
ELLIPSE
  5
265
330
1F
100
AcDbEntity
  8
LAYERGROUP-1
  6
CONTINUOUS
 62
     7
100
AcDbEllipse
 10
318.352557
 20
330.077434
 30
0.0
 11
-4.682495936169483E-16
 21
-2.549116250869218
 31
0.0
210
0.0
220
0.0
230
1.0
 40
0.598243
 41
0.0
 42
6.283185307179586
  0
ELLIPSE
  5
266
330
1F
100
AcDbEntity
  8
GR1-1
  6
CONTINUOUS
 62
     7
100
AcDbEllipse
 10
318.321553
 20
312.077434
 30
0.0
 11
-3.765664538003726E-16
 21
-2.049999999999955
 31
0.0
210
0.0
220
0.0
230
1.0
 40
0.51512
 41
0.0
 42
6.283185307179586
  0
ELLIPSE
  5
267
330
1F
100
AcDbEntity
  8
LAYERGROUP-1
  6
CONTINUOUS
 62
     7
100
AcDbEllipse
 10
318.352557
 20
312.077434
 30
0.0
 11
-4.682495936169483E-16
 21
-2.549116250869218
 31
0.0
210
0.0
220
0.0
230
1.0
 40
0.598243
 41
0.0
 42
6.283185307179586
  0
LINE
  5
268
330
1F
100
AcDbEntity
  8
GR1-1
  6
CONTINUOUS
 62
     3
100
AcDbLine
 10
308.205328
 20
285.077434
 30
0.0
 11
308.205328
 21
281.877434
 31
0.0
  0
LINE
  5
269
330
1F
100
AcDbEntity
  8
GR1-1
  6
CONTINUOUS
 62
     3
100
AcDbLine
 10
308.205328
 20
281.877434
 30
0.0
 11
309.58607
 21
268.561735
 31
0.0
  0
ARC
  5
26A
330
1F
100
AcDbEntity
  8
GR1-1
  6
CONTINUOUS
 62
     3
100
AcDbCircle
 10
314.559404
 20
269.077434
 30
0.0
 40
5.0
100
AcDbArc
 50
185.92
 51
270.0
  0
LINE
  5
26B
330
1F
100
AcDbEntity
  8
GR1-1
  6
CONTINUOUS
 62
     3
100
AcDbLine
 10
313.453073
 20
264.077434
 30
0.0
 11
327.624215
 21
264.077434
 31
0.0
  0
ARC
  5
26C
330
1F
100
AcDbEntity
  8
GR1-1
  6
CONTINUOUS
 62
     3
100
AcDbCircle
 10
327.624215
 20
269.077434
 30
0.0
 40
5.0
100
AcDbArc
 50
270.0
 51
360.0
  0
LINE
  5
26D
330
1F
100
AcDbEntity
  8
GR1-1
  6
CONTINUOUS
 62
     3
100
AcDbLine
 10
332.624215
 20
269.077434
 30
0.0
 11
332.624215
 21
271.71613
 31
0.0
  0
LINE
  5
26E
330
1F
100
AcDbEntity
  8
GR1-1
  6
CONTINUOUS
 62
     3
100
AcDbLine
 10
308.205328
 20
285.077434
 30
0.0
 11
307.098997
 21
281.877434
 31
0.0
  0
LINE
  5
26F
330
1F
100
AcDbEntity
  8
GR1-1
  6
CONTINUOUS
 62
     3
100
AcDbLine
 10
307.098997
 20
281.877434
 30
0.0
 11
308.479739
 21
268.561735
 31
0.0
  0
ARC
  5
270
330
1F
100
AcDbEntity
  8
GR1-1
  6
CONTINUOUS
 62
     3
100
AcDbCircle
 10
313.453073
 20
269.077434
 30
0.0
 40
5.0
100
AcDbArc
 50
185.92
 51
270.0
  0
LINE
  5
271
330
1F
100
AcDbEntity
  8
GR1-1
  6
CONTINUOUS
 62
     3
100
AcDbLine
 10
329.578541
 20
285.077434
 30
0.0
 11
308.205328
 21
285.077434
 31
0.0
  0
ARC
  5
272
330
1F
100
AcDbEntity
  8
GR1-1
  6
CONTINUOUS
 62
     6
100
AcDbCircle
 10
314.681436
 20
267.110787
 30
0.0
 40
1.03335375329108
100
AcDbArc
 50
180.0
 51
360.0
  0
LINE
  5
273
330
1F
100
AcDbEntity
  8
GR1-1
  6
CONTINUOUS
 62
     6
100
AcDbLine
 10
315.71479
 20
267.110787
 30
0.0
 11
315.71479
 21
270.077434
 31
0.0
  0
LINE
  5
274
330
1F
100
AcDbEntity
  8
GR1-1
  6
CONTINUOUS
 62
     6
100
AcDbLine
 10
315.71479
 20
270.077434
 30
0.0
 11
320.22397
 21
270.077434
 31
0.0
  0
LINE
  5
275
330
1F
100
AcDbEntity
  8
GR1-1
  6
CONTINUOUS
 62
     6
100
AcDbLine
 10
320.22397
 20
270.077434
 30
0.0
 11
320.22397
 21
268.109182
 31
0.0
  0
ARC
  5
276
330
1F
100
AcDbEntity
  8
GR1-1
  6
CONTINUOUS
 62
     6
100
AcDbCircle
 10
321.257323
 20
268.110787
 30
0.0
 40
1.03335375329108
100
AcDbArc
 50
180.089001
 51
359.999964
  0
LINE
  5
277
330
1F
100
AcDbEntity
  8
GR1-1
  6
CONTINUOUS
 62
     6
100
AcDbLine
 10
322.290676
 20
268.110787
 30
0.0
 11
322.290678
 21
270.077434
 31
0.0
  0
LINE
  5
278
330
1F
100
AcDbEntity
  8
GR1-1
  6
CONTINUOUS
 62
     6
100
AcDbLine
 10
322.290678
 20
270.077434
 30
0.0
 11
323.821033
 21
270.077434
 31
0.0
  0
ARC
  5
279
330
1F
100
AcDbEntity
  8
GR1-1
  6
CONTINUOUS
 62
     6
100
AcDbCircle
 10
323.821033
 20
271.177434
 30
0.0
 40
1.099999999999966
100
AcDbArc
 50
-90.000077
 51
90.0
  0
LINE
  5
27A
330
1F
100
AcDbEntity
  8
GR1-1
  6
CONTINUOUS
 62
     6
100
AcDbLine
 10
323.821033
 20
272.277434
 30
0.0
 11
315.71479
 21
272.277434
 31
0.0
  0
LINE
  5
27B
330
1F
100
AcDbEntity
  8
GR1-1
  6
CONTINUOUS
 62
     6
100
AcDbLine
 10
315.71479
 20
272.277434
 30
0.0
 11
315.71479
 21
273.277434
 31
0.0
  0
LINE
  5
27C
330
1F
100
AcDbEntity
  8
GR1-1
  6
CONTINUOUS
 62
     6
100
AcDbLine
 10
315.71479
 20
273.277434
 30
0.0
 11
319.311853
 21
273.277434
 31
0.0
  0
ARC
  5
27D
330
1F
100
AcDbEntity
  8
GR1-1
  6
CONTINUOUS
 62
     6
100
AcDbCircle
 10
319.311853
 20
274.377434
 30
0.0
 40
1.099999999999966
100
AcDbArc
 50
-90.0
 51
90.0
  0
LINE
  5
27E
330
1F
100
AcDbEntity
  8
GR1-1
  6
CONTINUOUS
 62
     6
100
AcDbLine
 10
319.311853
 20
275.477434
 30
0.0
 11
315.71479
 21
275.477434
 31
0.0
  0
ARC
  5
27F
330
1F
100
AcDbEntity
  8
GR1-1
  6
CONTINUOUS
 62
     6
100
AcDbCircle
 10
314.681436
 20
275.44408
 30
0.0
 40
1.03335375329108
100
AcDbArc
 50
0.0
 51
180.0
  0
LINE
  5
280
330
1F
100
AcDbEntity
  8
GR1-1
  6
CONTINUOUS
 62
     6
100
AcDbLine
 10
313.648083
 20
275.44408
 30
0.0
 11
313.648083
 21
267.110787
 31
0.0
  0
ARC
  5
281
330
1F
100
AcDbEntity
  8
GR1-1
  6
CONTINUOUS
 62
     3
100
AcDbCircle
 10
382.594142
 20
262.077434
 30
0.0
 40
5.0
100
AcDbArc
 50
185.23
 51
270.0
  0
LINE
  5
282
330
1F
100
AcDbEntity
  8
GR1-1
  6
CONTINUOUS
 62
     3
100
AcDbLine
 10
382.594142
 20
257.077434
 30
0.0
 11
398.118589
 21
257.077434
 31
0.0
  0
ARC
  5
283
330
1F
100
AcDbEntity
  8
GR1-1
  6
CONTINUOUS
 62
     3
100
AcDbCircle
 10
398.118589
 20
262.077434
 30
0.0
 40
5.0
100
AcDbArc
 50
270.0
 51
353.23
  0
ARC
  5
284
330
1F
100
AcDbEntity
  8
GR1-1
  6
CONTINUOUS
 62
     3
100
AcDbCircle
 10
384.806265
 20
262.077434
 30
0.0
 40
5.0
100
AcDbArc
 50
185.23
 51
270.0
  0
ARC
  5
285
330
1F
100
AcDbEntity
  8
GR1-1
  6
CONTINUOUS
 62
     6
100
AcDbCircle
 10
386.123576
 20
261.522594
 30
0.0
 40
1.445159999999987
100
AcDbArc
 50
180.136983
 51
360.0
  0
LINE
  5
286
330
1F
100
AcDbEntity
  8
GR1-1
  6
CONTINUOUS
 62
     6
100
AcDbLine
 10
387.568736
 20
261.522594
 30
0.0
 11
387.568736
 21
267.077434
 31
0.0
  0
ARC
  5
287
330
1F
100
AcDbEntity
  8
GR1-1
  6
CONTINUOUS
 62
     6
100
AcDbCircle
 10
392.265497
 20
261.522594
 30
0.0
 40
1.445159999999987
100
AcDbArc
 50
180.136983
 51
360.0
  0
LINE
  5
288
330
1F
100
AcDbEntity
  8
GR1-1
  6
CONTINUOUS
 62
     6
100
AcDbLine
 10
393.710657
 20
261.522594
 30
0.0
 11
393.710657
 21
267.077434
 31
0.0
  0
ARC
  5
289
330
1F
100
AcDbEntity
  8
GR1-1
  6
CONTINUOUS
 62
     6
100
AcDbCircle
 10
398.407418
 20
261.522594
 30
0.0
 40
1.445159999999987
100
AcDbArc
 50
180.136983
 51
360.0
  0
LINE
  5
28A
330
1F
100
AcDbEntity
  8
GR1-1
  6
CONTINUOUS
 62
     6
100
AcDbLine
 10
399.852578
 20
261.522594
 30
0.0
 11
399.852578
 21
267.077434
 31
0.0
  0
LINE
  5
28B
330
1F
100
AcDbEntity
  8
GR1-1
  6
CONTINUOUS
 62
     3
100
AcDbLine
 10
377.115564
 20
267.077434
 30
0.0
 11
377.614958
 21
261.621664
 31
0.0
  0
LINE
  5
28C
330
1F
100
AcDbEntity
  8
GR1-1
  6
CONTINUOUS
 62
     3
100
AcDbLine
 10
379.327687
 20
267.077434
 30
0.0
 11
379.827081
 21
261.621664
 31
0.0
  0
LINE
  5
28D
330
1F
100
AcDbEntity
  8
GR1-1
  6
CONTINUOUS
 62
     6
100
AcDbLine
 10
396.962262
 20
267.077434
 30
0.0
 11
396.962262
 21
261.519139
 31
0.0
  0
LINE
  5
28E
330
1F
100
AcDbEntity
  8
GR1-1
  6
CONTINUOUS
 62
     6
100
AcDbLine
 10
390.820341
 20
267.077434
 30
0.0
 11
390.820341
 21
261.519139
 31
0.0
  0
LINE
  5
28F
330
1F
100
AcDbEntity
  8
GR1-1
  6
CONTINUOUS
 62
     6
100
AcDbLine
 10
384.67842
 20
267.077434
 30
0.0
 11
384.67842
 21
261.519139
 31
0.0
  0
LINE
  5
290
330
1F
100
AcDbEntity
  8
GR1-1
  6
CONTINUOUS
 62
     3
100
AcDbLine
 10
403.083726
 20
261.488014
 30
0.0
 11
403.747256
 21
267.077434
 31
0.0
  0
ARC
  5
291
330
1F
100
AcDbEntity
  8
LAYERGROUP-1
  6
CONTINUOUS
 62
     3
100
AcDbCircle
 10
330.195652
 20
298.577434
 30
0.0
 40
1.5
100
AcDbArc
 50
180.0
 51
245.706731
  0
LINE
  5
292
330
1F
100
AcDbEntity
  8
GR1-1
  6
CENTER
 62
     6
100
AcDbLine
 10
159.852622
 20
162.659601
 30
0.0
 11
159.852622
 21
167.031038
 31
0.0
  0
LINE
  5
293
330
1F
100
AcDbEntity
  8
LAYERGROUP-1
  6
CENTER
 62
     6
100
AcDbLine
 10
162.702244
 20
164.636859
 30
0.0
 11
157.019148
 21
164.636859
 31
0.0
  0
LINE
  5
294
330
1F
100
AcDbEntity
  8
LAYERGROUP-1
  6
CENTER
 62
     6
100
AcDbLine
 10
318.352557
 20
333.114202
 30
0.0
 11
318.352557
 21
326.71737
 31
0.0
  0
LINE
  5
295
330
1F
100
AcDbEntity
  8
GR1-1
  6
CENTER
 62
     6
100
AcDbLine
 10
320.400372
 20
330.077434
 30
0.0
 11
316.17531
 21
330.077434
 31
0.0
  0
LINE
  5
296
330
1F
100
AcDbEntity
  8
GR1-1
  6
CENTER
 62
     6
100
AcDbLine
 10
320.329815
 20
312.077434
 30
0.0
 11
315.958378
 21
312.077434
 31
0.0
  0
LINE
  5
297
330
1F
100
AcDbEntity
  8
LAYERGROUP-1
  6
CENTER
 62
     6
100
AcDbLine
 10
318.352557
 20
315.523191
 30
0.0
 11
318.352557
 21
308.88762
 31
0.0
  0
ARC
  5
298
330
1F
100
AcDbEntity
  8
LAYERGROUP-1
  6
CONTINUOUS
 62
     3
100
AcDbCircle
 10
150.352622
 20
159.069963
 30
0.0
 40
1.0
100
AcDbArc
 50
180.0
 51
270.0
  0
ARC
  5
299
330
1F
100
AcDbEntity
  8
LAYERGROUP-1
  6
CONTINUOUS
 62
     3
100
AcDbCircle
 10
150.352622
 20
156.069963
 30
0.0
 40
1.0
100
AcDbArc
 50
180.0
 51
270.0
  0
DIMENSION
  5
29A
330
1F
100
AcDbEntity
  8
LAYERGROUP-1
100
AcDbDimension
  2
*D30
 10
101.999582
 20
160.069963
 30
0.0
 11
100.99958
 21
110.069969
 31
0.0
 70
    32
  3
FXDIMINFO
100
AcDbAlignedDimension
 13
149.62068
 23
60.069963
 33
0.0
 14
168.660758
 24
160.069963
 34
0.0
 50
270.0
100
AcDbRotatedDimension
1001
ACAD
1000
DSTYLE
1002
{
1070
     7
1000
FXTIP_ARROW_E
1070
     6
1000
FXTIP_ARROW_S
1070
   173
1070
     1
1002
}
  0
LINE
  5
2A4
330
1F
100
AcDbEntity
  8
LAYERGROUP-1
  6
CONTINUOUS
 62
     3
100
AcDbLine
 10
208.052622
 20
138.013978
 30
0.0
 11
208.352622
 21
137.640757
 31
0.0
  0
LINE
  5
2A5
330
1F
100
AcDbEntity
  8
LAYERGROUP-1
  6
CENTER
 62
     6
100
AcDbLine
 10
343.578541
 20
208.236114
 30
0.0
 11
343.578541
 21
195.691361
 31
0.0
  0
LINE
  5
2A6
330
1F
100
AcDbEntity
  8
LAYERGROUP-1
  6
CENTER
 62
     6
100
AcDbLine
 10
423.578541
 20
208.236114
 30
0.0
 11
423.578541
 21
195.691361
 31
0.0
  0
LINE
  5
2A7
330
1F
100
AcDbEntity
  8
LAYERGROUP-1
  6
CENTER
 62
     6
100
AcDbLine
 10
128.852622
 20
208.236114
 30
0.0
 11
128.852622
 21
195.691361
 31
0.0
  0
LINE
  5
2A8
330
1F
100
AcDbEntity
  8
LAYERGROUP-1
  6
CENTER
 62
     6
100
AcDbLine
 10
208.852622
 20
208.236114
 30
0.0
 11
208.852622
 21
195.691361
 31
0.0
  0
TEXT
  5
2A9
330
1F
100
AcDbEntity
  8
LAYERGROUP-1
  6
CONTINUOUS
 62
     7
100
AcDbText
 10
330.393066
 20
11.711168
 30
0.0
 40
6.0
  1
ＨＪ－１００　ＲＢ　Ｓ
 41
0.789744
  7
FX_VECTOR
 72
     5
 11
374.393066
 21
11.711168
 31
0.0
100
AcDbText
  0
LINE
  5
2AA
330
1F
100
AcDbEntity
  8
LAYERGROUP-1
  6
CONTINUOUS
 62
     3
100
AcDbLine
 10
193.852622
 20
72.069963
 30
0.0
 11
193.852622
 21
75.333266
 31
0.0
  0
LINE
  5
2AB
330
1F
100
AcDbEntity
  8
LAYERGROUP-1
  6
CONTINUOUS
 62
     3
100
AcDbLine
 10
194.352622
 20
88.944729
 30
0.0
 11
194.352622
 21
131.195197
 31
0.0
  0
ARC
  5
2AC
330
1F
100
AcDbEntity
  8
LAYERGROUP-1
  6
CONTINUOUS
 62
     3
100
AcDbCircle
 10
191.052622
 20
88.944729
 30
0.0
 40
3.3
100
AcDbArc
 50
328.047254
 51
360.0
  0
ARC
  5
2AD
330
1F
100
AcDbEntity
  8
LAYERGROUP-1
  6
CONTINUOUS
 62
     3
100
AcDbCircle
 10
168.852622
 20
-19.930037
 30
0.0
 40
180.0
100
AcDbArc
 50
96.218687
 51
96.341214
  0
ARC
  5
2AE
330
1F
100
AcDbEntity
  8
LAYERGROUP-1
  6
CONTINUOUS
 62
     3
100
AcDbCircle
 10
149.413554
 20
154.993154
 30
0.0
 40
4.0
100
AcDbArc
 50
96.341214
 51
168.0
  0
LINE
  5
2AF
330
1F
100
AcDbEntity
  8
LAYERGROUP-1
  6
CONTINUOUS
 62
     3
100
AcDbLine
 10
145.500964
 20
155.8248
 30
0.0
 11
143.852622
 21
148.069963
 31
0.0
  0
LINE
  5
2B0
330
1F
100
AcDbEntity
  8
LAYERGROUP-1
  6
CONTINUOUS
 62
     3
100
AcDbLine
 10
192.364726
 20
155.069963
 30
0.0
 11
193.852622
 21
148.069963
 31
0.0
  0
ARC
  5
2B1
330
1F
100
AcDbEntity
  8
LAYERGROUP-1
  6
CONTINUOUS
 62
     3
100
AcDbCircle
 10
168.852622
 20
240.069963
 30
0.0
 40
180.0
100
AcDbArc
 50
263.658786
 51
276.341214
  0
ARC
  5
2B2
330
1F
100
AcDbEntity
  8
LAYERGROUP-1
  6
CONTINUOUS
 62
     3
100
AcDbCircle
 10
149.413554
 20
65.146772
 30
0.0
 40
4.0
100
AcDbArc
 50
192.0
 51
263.658786
  0
LINE
  5
2B3
330
1F
100
AcDbEntity
  8
LAYERGROUP-1
  6
CONTINUOUS
 62
     3
100
AcDbLine
 10
145.500964
 20
64.315126
 30
0.0
 11
143.852622
 21
72.069963
 31
0.0
  0
ARC
  5
2B4
330
1F
100
AcDbEntity
  8
LAYERGROUP-1
  6
CONTINUOUS
 62
     3
100
AcDbCircle
 10
188.29169
 20
65.146772
 30
0.0
 40
4.0
100
AcDbArc
 50
276.341214
 51
348.0
  0
LINE
  5
2B5
330
1F
100
AcDbEntity
  8
LAYERGROUP-1
  6
CONTINUOUS
 62
     3
100
AcDbLine
 10
192.204281
 20
64.315126
 30
0.0
 11
193.852622
 21
72.069963
 31
0.0
  0
LINE
  5
2B6
330
1F
100
AcDbEntity
  8
GR1-1
  6
CONTINUOUS
 62
     3
100
AcDbLine
 10
194.352622
 20
100.73663
 30
0.0
 11
197.352622
 21
100.73663
 31
0.0
  0
LINE
  5
2B7
330
1F
100
AcDbEntity
  8
LAYERGROUP-1
  6
CONTINUOUS
 62
     3
100
AcDbLine
 10
143.852622
 20
72.069963
 30
0.0
 11
143.852622
 21
75.333266
 31
0.0
  0
LINE
  5
2B8
330
1F
100
AcDbEntity
  8
LAYERGROUP-1
  6
CONTINUOUS
 62
     3
100
AcDbLine
 10
143.352622
 20
88.944729
 30
0.0
 11
143.352622
 21
131.195197
 31
0.0
  0
ARC
  5
2B9
330
1F
100
AcDbEntity
  8
LAYERGROUP-1
  6
CONTINUOUS
 62
     3
100
AcDbCircle
 10
146.652622
 20
88.944729
 30
0.0
 40
3.3
100
AcDbArc
 50
180.0
 51
211.952746
  0
LINE
  5
2BA
330
1F
100
AcDbEntity
  8
GR1-1
  6
CONTINUOUS
 62
     3
100
AcDbLine
 10
143.352622
 20
100.73663
 30
0.0
 11
140.352622
 21
100.73663
 31
0.0
  0
LINE
  5
2BB
330
1F
100
AcDbEntity
  8
LAYERGROUP-1
  6
CONTINUOUS
 62
     3
100
AcDbLine
 10
193.852622
 20
144.769963
 30
0.0
 11
193.852622
 21
75.369963
 31
0.0
  0
LINE
  5
2BC
330
1F
100
AcDbEntity
  8
LAYERGROUP-1
  6
CONTINUOUS
 62
     3
100
AcDbLine
 10
193.852622
 20
148.069963
 30
0.0
 11
193.852622
 21
144.80666
 31
0.0
  0
ARC
  5
2BD
330
1F
100
AcDbEntity
  8
LAYERGROUP-1
  6
CONTINUOUS
 62
     3
100
AcDbCircle
 10
191.052622
 20
131.195197
 30
0.0
 40
3.3
100
AcDbArc
 50
0.0
 51
31.952746
  0
LINE
  5
2BE
330
1F
100
AcDbEntity
  8
GR1-1
  6
CONTINUOUS
 62
     3
100
AcDbLine
 10
194.352622
 20
119.403296
 30
0.0
 11
197.352622
 21
119.403296
 31
0.0
  0
LINE
  5
2BF
330
1F
100
AcDbEntity
  8
LAYERGROUP-1
  6
CONTINUOUS
 62
     3
100
AcDbLine
 10
143.852622
 20
144.769963
 30
0.0
 11
143.852622
 21
75.369963
 31
0.0
  0
LINE
  5
2C0
330
1F
100
AcDbEntity
  8
LAYERGROUP-1
  6
CONTINUOUS
 62
     3
100
AcDbLine
 10
143.852622
 20
148.069963
 30
0.0
 11
143.852622
 21
144.80666
 31
0.0
  0
ARC
  5
2C1
330
1F
100
AcDbEntity
  8
LAYERGROUP-1
  6
CONTINUOUS
 62
     3
100
AcDbCircle
 10
146.652622
 20
131.195197
 30
0.0
 40
3.3
100
AcDbArc
 50
148.047254
 51
180.0
  0
LINE
  5
2C2
330
1F
100
AcDbEntity
  8
GR1-1
  6
CONTINUOUS
 62
     3
100
AcDbLine
 10
143.352622
 20
119.403296
 30
0.0
 11
140.352622
 21
119.403296
 31
0.0
  0
LINE
  5
2C3
330
1F
100
AcDbEntity
  8
GR1-1
  6
CONTINUOUS
 62
     6
100
AcDbLine
 10
191.608931
 20
62.911619
 30
0.0
 11
191.608931
 21
155.069963
 31
0.0
  0
LINE
  5
2C4
330
1F
100
AcDbEntity
  8
GR1-1
  6
CONTINUOUS
 62
     6
100
AcDbLine
 10
146.096313
 20
62.911619
 30
0.0
 11
146.096313
 21
157.228307
 31
0.0
  0
ARC
  5
2C5
330
1F
100
AcDbEntity
  8
LAYERGROUP-1
  6
CONTINUOUS
 62
     3
100
AcDbCircle
 10
348.578541
 20
110.069963
 30
0.0
 40
38.0
100
AcDbArc
 50
167.377437
 51
314.361013
  0
ARC
  5
2C6
330
1F
100
AcDbEntity
  8
LAYERGROUP-1
  6
CONTINUOUS
 62
     6
100
AcDbCircle
 10
348.578541
 20
110.069963
 30
0.0
 40
21.5
100
AcDbArc
 50
203.928196
 51
282.147876
  0
ARC
  5
2C7
330
1F
100
AcDbEntity
  8
LAYERGROUP-1
  6
CONTINUOUS
 62
     6
100
AcDbCircle
 10
348.578541
 20
110.069963
 30
0.0
 40
32.69999999999999
100
AcDbArc
 50
177.085703
 51
306.322667
  0
ARC
  5
2C8
330
1F
100
AcDbEntity
  8
LAYERGROUP-1
  6
CONTINUOUS
 62
     6
100
AcDbCircle
 10
348.578541
 20
110.069963
 30
0.0
 40
27.5
100
AcDbArc
 50
187.889649
 51
296.914915
  0
ARC
  5
2C9
330
1F
100
AcDbEntity
  8
LAYERGROUP-1
  6
CONTINUOUS
 62
     3
100
AcDbCircle
 10
348.578541
 20
110.069963
 30
0.0
 40
50.00000000000003
100
AcDbArc
 50
-12.357473
 51
10.896042
  0
TEXT
  5
2CA
330
1F
100
AcDbEntity
  8
LAYERGROUP-1
  6
CONTINUOUS
 62
     7
100
AcDbText
 10
323.503357
 20
80.095886
 30
0.0
 40
5.714172
  1
0
 50
135.45163
 41
1.36475
  7
FX_VECTOR
 72
     5
 11
319.004341
 21
84.524529
 31
0.0
100
AcDbText
  0
TEXT
  5
2CB
330
1F
100
AcDbEntity
  8
LAYERGROUP-1
  6
CONTINUOUS
 62
     7
100
AcDbText
 10
332.736725
 20
74.34536
 30
0.0
 40
5.714172
  1
×
 50
151.45163
 41
1.546717
  7
FX_VECTOR
 72
     5
 11
327.191294
 21
77.362348
 31
0.0
100
AcDbText
  0
TEXT
  5
2CC
330
1F
100
AcDbEntity
  8
LAYERGROUP-1
  6
CONTINUOUS
 62
     7
100
AcDbText
 10
343.196228
 20
71.36293
 30
0.0
 40
5.714172
  1
0
 50
167.45163
 41
1.36475
  7
FX_VECTOR
 72
     5
 11
337.034023
 21
72.734517
 31
0.0
100
AcDbText
  0
TEXT
  5
2CD
330
1F
100
AcDbEntity
  8
LAYERGROUP-1
  6
CONTINUOUS
 62
     7
100
AcDbText
 10
337.861664
 20
72.488678
 30
0.0
 40
5.714172
  1
0
 50
159.45163
 41
1.36475
  7
FX_VECTOR
 72
     5
 11
331.950317
 21
74.70453
 31
0.0
100
AcDbText
  0
TEXT
  5
2CE
330
1F
100
AcDbEntity
  8
LAYERGROUP-1
  6
CONTINUOUS
 62
     7
100
AcDbText
 10
347.953552
 20
70.995514
 30
0.0
 40
5.714172
  1
1
 50
174.45163
 41
2.109159
  7
FX_VECTOR
 72
     5
 11
341.670125
 21
71.605893
 31
0.0
100
AcDbText
  0
TEXT
  5
2CF
330
1F
100
AcDbEntity
  8
LAYERGROUP-1
  6
CONTINUOUS
 62
     7
100
AcDbText
 10
327.918976
 20
76.897804
 30
0.0
 40
5.714172
  1
5
 50
143.45163
 41
1.36475
  7
FX_VECTOR
 72
     5
 11
322.847396
 21
80.657206
 31
0.0
100
AcDbText
  0
ARC
  5
2D0
330
1F
100
AcDbEntity
  8
LAYERGROUP-1
  6
CONTINUOUS
 62
     3
100
AcDbCircle
 10
348.578541
 20
110.069963
 30
0.0
 40
50.00000000000003
100
AcDbArc
 50
146.599188
 51
329.987285
  0
ARC
  5
2D1
330
1F
100
AcDbEntity
  8
LAYERGROUP-1
  6
CONTINUOUS
 62
     3
100
AcDbCircle
 10
348.578541
 20
110.069963
 30
0.0
 40
50.00000000000003
100
AcDbArc
 50
136.663458
 51
137.943463
  0
DIMENSION
  5
2D2
330
1F
100
AcDbEntity
  8
LAYERGROUP-1
100
AcDbDimension
  2
*D31
 10
193.852622
 20
47.697984
 30
0.0
 11
168.852615
 21
48.697983
 31
0.0
 70
    33
  3
FXDIMINFO
100
AcDbAlignedDimension
 13
143.852622
 23
72.069963
 33
0.0
 14
193.852622
 24
72.069963
 34
0.0
1001
ACAD
1000
DSTYLE
1002
{
1070
     7
1000
FXTIP_ARROW_E
1070
     6
1000

1070
   173
1070
     1
1002
}
  0
ARC
  5
2DB
330
1F
100
AcDbEntity
  8
LAYERGROUP-1
  6
CONTINUOUS
 62
     3
100
AcDbCircle
 10
478.578541
 20
321.077434
 30
0.0
 40
180.0
100
AcDbArc
 50
173.658786
 51
186.341214
  0
ARC
  5
2DC
330
1F
100
AcDbEntity
  8
LAYERGROUP-1
  6
CONTINUOUS
 62
     3
100
AcDbCircle
 10
303.65535
 20
340.516502
 30
0.0
 40
4.0
100
AcDbArc
 50
102.0
 51
173.658786
  0
LINE
  5
2DD
330
1F
100
AcDbEntity
  8
LAYERGROUP-1
  6
CONTINUOUS
 62
     3
100
AcDbLine
 10
302.823703
 20
344.429092
 30
0.0
 11
310.578541
 21
346.077434
 31
0.0
  0
ARC
  5
2DE
330
1F
100
AcDbEntity
  8
LAYERGROUP-1
  6
CONTINUOUS
 62
     3
100
AcDbCircle
 10
303.65535
 20
301.638366
 30
0.0
 40
4.0
100
AcDbArc
 50
186.341214
 51
258.0
  0
LINE
  5
2DF
330
1F
100
AcDbEntity
  8
LAYERGROUP-1
  6
CONTINUOUS
 62
     3
100
AcDbLine
 10
302.823703
 20
297.725775
 30
0.0
 11
307.543258
 21
296.722603
 31
0.0
  0
LINE
  5
2E0
330
1F
100
AcDbEntity
  8
LAYERGROUP-1
  6
CONTINUOUS
 62
     3
100
AcDbLine
 10
310.578541
 20
346.077434
 30
0.0
 11
329.578541
 21
346.077434
 31
0.0
  0
LINE
  5
2E1
330
1F
100
AcDbEntity
  8
GR1-1
  6
CONTINUOUS
 62
     6
100
AcDbLine
 10
301.420197
 20
298.321124
 30
0.0
 11
307.935479
 21
298.321124
 31
0.0
  0
LINE
  5
2E2
330
1F
100
AcDbEntity
  8
GR1-1
  6
CONTINUOUS
 62
     6
100
AcDbLine
 10
301.420197
 20
343.833743
 30
0.0
 11
329.578541
 21
343.833743
 31
0.0
  0
ARC
  5
2E3
330
1F
100
AcDbEntity
  8
LAYERGROUP-1
  6
DASHED
 62
     6
100
AcDbCircle
 10
168.852622
 20
-19.930037
 30
0.0
 40
180.0
100
AcDbArc
 50
83.658786
 51
96.219248
  0
ARC
  5
2E4
330
1F
100
AcDbEntity
  8
LAYERGROUP-1
  6
DASHED
 62
     6
100
AcDbCircle
 10
188.29169
 20
154.993154
 30
0.0
 40
4.0
100
AcDbArc
 50
12.0
 51
83.658786
  0
LINE
  5
2E5
330
1F
100
AcDbEntity
  8
LAYERGROUP-1
  6
DASHED
 62
     6
100
AcDbLine
 10
192.204281
 20
155.8248
 30
0.0
 11
192.364726
 21
155.069963
 31
0.0
  0
TEXT
  5
2E6
330
1F
100
AcDbEntity
  8
LAYERGROUP-1
  6
CONTINUOUS
 62
     7
100
AcDbText
 10
429.161255
 20
12.0
 30
0.0
 40
6.0
  1
H30B1AAA-C02
 41
0.697095
  7
FX_VECTOR
 72
     5
 11
477.161255
 21
12.0
 31
0.0
100
AcDbText
  0
INSERT
  5
2EA
330
1F
100
AcDbEntity
  8
0
100
AcDbBlockReference
  2
BLKF034
 10
0.0
 20
0.0
 30
0.0
  0
LINE
  5
315
330
1F
100
AcDbEntity
  8
LAYERGROUP-1
  6
CONTINUOUS
 62
    66
100
AcDbLine
 10
383.578541
 20
349.577434
 30
0.0
 11
383.578541
 21
292.577434
 31
0.0
  0
LINE
  5
316
330
1F
100
AcDbEntity
  8
LAYERGROUP-1
  6
CONTINUOUS
 62
    66
100
AcDbLine
 10
339.245207
 20
321.077434
 30
0.0
 11
355.178541
 21
321.077434
 31
0.0
  0
LINE
  5
317
330
1F
100
AcDbEntity
  8
LAYERGROUP-1
  6
CONTINUOUS
 62
    66
100
AcDbLine
 10
335.772605
 20
165.575536
 30
0.0
 11
335.27695
 21
166.434037
 31
0.0
  0
LINE
  5
318
330
1F
100
AcDbEntity
  8
LAYERGROUP-1
  6
CONTINUOUS
 62
    66
100
AcDbLine
 10
335.776365
 20
165.577751
 30
0.0
 11
334.918463
 21
165.072407
 31
0.0
  0
LINE
  5
319
330
1F
100
AcDbEntity
  8
GR1-1
  6
CONTINUOUS
 62
    66
100
AcDbLine
 10
331.870317
 20
133.771981
 30
0.0
 11
331.527421
 21
132.832148
 31
0.0
  0
LINE
  5
31A
330
1F
100
AcDbEntity
  8
GR1-1
  6
CONTINUOUS
 62
    66
100
AcDbLine
 10
320.329815
 20
321.077434
 30
0.0
 11
315.958378
 21
321.077434
 31
0.0
  0
ENDSEC
  0
SECTION
  2
OBJECTS
  0
DICTIONARY
  5
C
330
0
100
AcDbDictionary
  3
ACAD_GROUP
350
D
  3
ACAD_LAYOUT
350
1A
  3
ACAD_MLINESTYLE
350
17
  3
ACAD_PLOTSETTINGS
350
19
  3
ACDBHEADERROUNDTRIPXREC
350
31B
  0
DICTIONARY
  5
D
102
{ACAD_REACTORS
330
C
102
}
330
C
100
AcDbDictionary
  0
DICTIONARY
  5
1A
102
{ACAD_REACTORS
330
C
102
}
330
C
100
AcDbDictionary
  0
DICTIONARY
  5
17
102
{ACAD_REACTORS
330
C
102
}
330
C
100
AcDbDictionary
  3
STANDARD
350
18
  0
DICTIONARY
  5
19
102
{ACAD_REACTORS
330
C
102
}
330
C
100
AcDbDictionary
  0
DICTIONARY
  5
31B
102
{ACAD_REACTORS
330
C
102
}
330
C
100
AcDbDictionary
  3
CEPSNTYPE
350
324
  3
DIMSTYLEDATA
350
33A
  3
FINGERPRINTGUID
350
325
  3
HYPERLINKBASE
350
31E
  3
INSUNITS
350
323
  3
LAYOUTDICT
350
320
  3
LWETCUNION
350
322
  3
PLOTSETDICT
350
321
  3
PSVPSCALE
350
327
  3
PUCSBASE
350
32A
  3
PUCSORGBACK
350
330
  3
PUCSORGBOTTOM
350
32C
  3
PUCSORGFRONT
350
32F
  3
PUCSORGLEFT
350
32D
  3
PUCSORGRIGHT
350
32E
  3
PUCSORGTOP
350
32B
  3
PUCSORTHOREF
350
328
  3
PUCSORTHOVIEW
350
329
  3
STYLESHEET
350
31F
  3
TSTACKALIGN
350
31C
  3
TSTACKSIZE
350
31D
  3
UCSBASE
350
333
  3
UCSORGBACK
350
339
  3
UCSORGBOTTOM
350
335
  3
UCSORGFRONT
350
338
  3
UCSORGLEFT
350
336
  3
UCSORGRIGHT
350
337
  3
UCSORGTOP
350
334
  3
UCSORTHOREF
350
331
  3
UCSORTHOVIEW
350
332
  3
VERSIONGUID
350
326
  0
MLINESTYLE
  5
18
102
{ACAD_REACTORS
330
17
102
}
330
17
100
AcDbMlineStyle
  2
Standard
 70
     0
  3

 62
   256
 51
90.0
 52
90.0
 71
     2
 49
0.5
 62
   256
  6
BYLAYER
 49
-0.5
 62
   256
  6
BYLAYER
  0
XRECORD
  5
324
102
{ACAD_REACTORS
330
31B
102
}
330
31B
100
AcDbXrecord
 90
        0
  0
XRECORD
  5
33A
102
{ACAD_REACTORS
330
31B
102
}
330
31B
100
AcDbXrecord
1000
DSTYLE
1002
{
1070
   179
 70
     2
1070
   171
 70
     3
1070
   143
 40
0.03937
1070
   274
 70
     3
1070
    41
 40
4.0
1070
   344
340
47
1070
   141
 40
2.5
1070
   176
 70
     7
1070
   177
 70
     7
1070
   178
 70
     7
1070
   271
 70
     2
1070
    46
 40
6.0
1070
    43
 40
10.0
1070
    44
 40
1.0
1070
    42
 40
1.0
1070
   147
 40
1.0
1070
   173
 70
     1
1070
    77
 70
     1
1070
   272
 70
     2
1070
    73
 70
     0
1070
   172
 70
     1
1070
    74
 70
     0
1070
   283
 70
     0
1070
   340
340
3F
1070
   140
 40
4.0
1070
   284
 70
     8
1070
    78
 70
     8
1002
}
  0
XRECORD
  5
325
102
{ACAD_REACTORS
330
31B
102
}
330
31B
100
AcDbXrecord
  1
{7449893E-2FDD-440C-BC8E-46D20E7CCE47}
  0
XRECORD
  5
31E
102
{ACAD_REACTORS
330
31B
102
}
330
31B
100
AcDbXrecord
  1

  0
XRECORD
  5
323
102
{ACAD_REACTORS
330
31B
102
}
330
31B
100
AcDbXrecord
 90
        1
  0
XRECORD
  5
320
102
{ACAD_REACTORS
330
31B
102
}
330
31B
100
AcDbXrecord
340
1A
  0
XRECORD
  5
322
102
{ACAD_REACTORS
330
31B
102
}
330
31B
100
AcDbXrecord
 90
    10781
  0
XRECORD
  5
321
102
{ACAD_REACTORS
330
31B
102
}
330
31B
100
AcDbXrecord
340
19
  0
XRECORD
  5
327
102
{ACAD_REACTORS
330
31B
102
}
330
31B
100
AcDbXrecord
 40
0.0
  0
XRECORD
  5
32A
102
{ACAD_REACTORS
330
31B
102
}
330
31B
100
AcDbXrecord
340
0
  0
XRECORD
  5
330
102
{ACAD_REACTORS
330
31B
102
}
330
31B
100
AcDbXrecord
 10
0.0
 20
0.0
 30
0.0
  0
XRECORD
  5
32C
102
{ACAD_REACTORS
330
31B
102
}
330
31B
100
AcDbXrecord
 10
0.0
 20
0.0
 30
0.0
  0
XRECORD
  5
32F
102
{ACAD_REACTORS
330
31B
102
}
330
31B
100
AcDbXrecord
 10
0.0
 20
0.0
 30
0.0
  0
XRECORD
  5
32D
102
{ACAD_REACTORS
330
31B
102
}
330
31B
100
AcDbXrecord
 10
0.0
 20
0.0
 30
0.0
  0
XRECORD
  5
32E
102
{ACAD_REACTORS
330
31B
102
}
330
31B
100
AcDbXrecord
 10
0.0
 20
0.0
 30
0.0
  0
XRECORD
  5
32B
102
{ACAD_REACTORS
330
31B
102
}
330
31B
100
AcDbXrecord
 10
0.0
 20
0.0
 30
0.0
  0
XRECORD
  5
328
102
{ACAD_REACTORS
330
31B
102
}
330
31B
100
AcDbXrecord
340
0
  0
XRECORD
  5
329
102
{ACAD_REACTORS
330
31B
102
}
330
31B
100
AcDbXrecord
 70
     0
  0
XRECORD
  5
31F
102
{ACAD_REACTORS
330
31B
102
}
330
31B
100
AcDbXrecord
  1

  0
XRECORD
  5
31C
102
{ACAD_REACTORS
330
31B
102
}
330
31B
100
AcDbXrecord
 90
        1
  0
XRECORD
  5
31D
102
{ACAD_REACTORS
330
31B
102
}
330
31B
100
AcDbXrecord
 90
       70
  0
XRECORD
  5
333
102
{ACAD_REACTORS
330
31B
102
}
330
31B
100
AcDbXrecord
340
0
  0
XRECORD
  5
339
102
{ACAD_REACTORS
330
31B
102
}
330
31B
100
AcDbXrecord
 10
0.0
 20
0.0
 30
0.0
  0
XRECORD
  5
335
102
{ACAD_REACTORS
330
31B
102
}
330
31B
100
AcDbXrecord
 10
0.0
 20
0.0
 30
0.0
  0
XRECORD
  5
338
102
{ACAD_REACTORS
330
31B
102
}
330
31B
100
AcDbXrecord
 10
0.0
 20
0.0
 30
0.0
  0
XRECORD
  5
336
102
{ACAD_REACTORS
330
31B
102
}
330
31B
100
AcDbXrecord
 10
0.0
 20
0.0
 30
0.0
  0
XRECORD
  5
337
102
{ACAD_REACTORS
330
31B
102
}
330
31B
100
AcDbXrecord
 10
0.0
 20
0.0
 30
0.0
  0
XRECORD
  5
334
102
{ACAD_REACTORS
330
31B
102
}
330
31B
100
AcDbXrecord
 10
0.0
 20
0.0
 30
0.0
  0
XRECORD
  5
331
102
{ACAD_REACTORS
330
31B
102
}
330
31B
100
AcDbXrecord
340
0
  0
XRECORD
  5
332
102
{ACAD_REACTORS
330
31B
102
}
330
31B
100
AcDbXrecord
 70
     0
  0
XRECORD
  5
326
102
{ACAD_REACTORS
330
31B
102
}
330
31B
100
AcDbXrecord
  1
{FAEB1C32-E019-11D5-929B-00C0DF256EC4}
  0
ENDSEC
  0
EOF
