  0
SECTION
  2
HEADER
  9
$ACADVER
  1
AC1014
  9
$ACADMAINTVER
 70
     9
  9
$DWGCODEPAGE
  3
ANSI_932
  9
$INSBASE
 10
0.0
 20
0.0
 30
0.0
  9
$EXTMIN
 10
0.0
 20
0.0
 30
0.0
  9
$EXTMAX
 10
420.0
 20
297.0
 30
0.0
  9
$LIMMIN
 10
0.0
 20
0.0
  9
$LIMMAX
 10
420.0
 20
297.0
  9
$ORTHOMODE
 70
     0
  9
$REGENMODE
 70
     1
  9
$FILLMODE
 70
     1
  9
$QTEXTMODE
 70
     0
  9
$MIRRTEXT
 70
     1
  9
$DRAGMODE
 70
     2
  9
$LTSCALE
 40
1.0
  9
$OSMODE
 70
    37
  9
$ATTMODE
 70
     1
  9
$TEXTSIZE
 40
0.2
  9
$TRACEWID
 40
0.05
  9
$TEXTSTYLE
  7
STYLE1
  9
$CLAYER
  8
0
  9
$CELTYPE
  6
BYLAYER
  9
$CECOLOR
 62
   256
  9
$CELTSCALE
 40
1.0
  9
$DELOBJ
 70
     1
  9
$DISPSILH
 70
     0
  9
$DIMSCALE
 40
1.0
  9
$DIMASZ
 40
4.0
  9
$DIMEXO
 40
1.0
  9
$DIMDLI
 40
10.0
  9
$DIMRND
 40
0.0
  9
$DIMDLE
 40
6.0
  9
$DIMEXE
 40
1.0
  9
$DIMTP
 40
0.0
  9
$DIMTM
 40
0.0
  9
$DIMTXT
 40
4.0
  9
$DIMCEN
 40
2.5
  9
$DIMTSZ
 40
0.0
  9
$DIMTOL
 70
     0
  9
$DIMLIM
 70
     0
  9
$DIMTIH
 70
     0
  9
$DIMTOH
 70
     0
  9
$DIMSE1
 70
     0
  9
$DIMSE2
 70
     0
  9
$DIMTAD
 70
     1
  9
$DIMZIN
 70
     8
  9
$DIMBLK
  1

  9
$DIMASO
 70
     1
  9
$DIMSHO
 70
     1
  9
$DIMPOST
  1

  9
$DIMAPOST
  1

  9
$DIMALT
 70
     0
  9
$DIMALTD
 70
     3
  9
$DIMALTF
 40
0.03937
  9
$DIMLFAC
 40
1.0
  9
$DIMTOFL
 70
     1
  9
$DIMTVP
 40
0.0
  9
$DIMTIX
 70
     0
  9
$DIMSOXD
 70
     0
  9
$DIMSAH
 70
     1
  9
$DIMBLK1
  1
FXTIP_ARROW_S
  9
$DIMBLK2
  1
FXTIP_ARROW_E
  9
$DIMSTYLE
  2
FXDIMINFO
  9
$DIMCLRD
 70
     7
  9
$DIMCLRE
 70
     7
  9
$DIMCLRT
 70
     7
  9
$DIMTFAC
 40
1.0
  9
$DIMGAP
 40
1.0
  9
$DIMJUST
 70
     0
  9
$DIMSD1
 70
     0
  9
$DIMSD2
 70
     0
  9
$DIMTOLJ
 70
     0
  9
$DIMTZIN
 70
     8
  9
$DIMALTZ
 70
     0
  9
$DIMALTTZ
 70
     0
  9
$DIMFIT
 70
     3
  9
$DIMUPT
 70
     0
  9
$DIMUNIT
 70
     2
  9
$DIMDEC
 70
     2
  9
$DIMTDEC
 70
     2
  9
$DIMALTU
 70
     2
  9
$DIMALTTD
 70
     3
  9
$DIMTXSTY
  7
STYLE1
  9
$DIMAUNIT
 70
     0
  9
$LUNITS
 70
     2
  9
$LUPREC
 70
     4
  9
$SKETCHINC
 40
0.1
  9
$FILLETRAD
 40
0.5
  9
$AUNITS
 70
     0
  9
$AUPREC
 70
     0
  9
$MENU
  1
.
  9
$ELEVATION
 40
0.0
  9
$PELEVATION
 40
0.0
  9
$THICKNESS
 40
0.0
  9
$LIMCHECK
 70
     0
  9
$CHAMFERA
 40
0.5
  9
$CHAMFERB
 40
0.5
  9
$CHAMFERC
 40
1.0
  9
$CHAMFERD
 40
0.0
  9
$SKPOLY
 70
     0
  9
$TDCREATE
 40
2455303.46841912
  9
$TDUPDATE
 40
2455303.468419132
  9
$TDINDWG
 40
0.0000000116
  9
$TDUSRTIMER
 40
0.0000000116
  9
$USRTIMER
 70
     1
  9
$ANGBASE
 50
0.0
  9
$ANGDIR
 70
     0
  9
$PDMODE
 70
     0
  9
$PDSIZE
 40
0.0
  9
$PLINEWID
 40
0.0
  9
$COORDS
 70
     1
  9
$SPLFRAME
 70
     0
  9
$SPLINETYPE
 70
     6
  9
$SPLINESEGS
 70
     8
  9
$ATTDIA
 70
     0
  9
$ATTREQ
 70
     1
  9
$HANDLING
 70
     1
  9
$HANDSEED
  5
35D
  9
$SURFTAB1
 70
     6
  9
$SURFTAB2
 70
     6
  9
$SURFTYPE
 70
     6
  9
$SURFU
 70
     6
  9
$SURFV
 70
     6
  9
$UCSNAME
  2

  9
$UCSORG
 10
0.0
 20
0.0
 30
0.0
  9
$UCSXDIR
 10
1.0
 20
0.0
 30
0.0
  9
$UCSYDIR
 10
0.0
 20
1.0
 30
0.0
  9
$PUCSNAME
  2

  9
$PUCSORG
 10
0.0
 20
0.0
 30
0.0
  9
$PUCSXDIR
 10
1.0
 20
0.0
 30
0.0
  9
$PUCSYDIR
 10
0.0
 20
1.0
 30
0.0
  9
$USERI1
 70
     0
  9
$USERI2
 70
     0
  9
$USERI3
 70
     0
  9
$USERI4
 70
     0
  9
$USERI5
 70
     0
  9
$USERR1
 40
0.0
  9
$USERR2
 40
0.0
  9
$USERR3
 40
0.0
  9
$USERR4
 40
0.0
  9
$USERR5
 40
0.0
  9
$WORLDVIEW
 70
     1
  9
$SHADEDGE
 70
     3
  9
$SHADEDIF
 70
    70
  9
$TILEMODE
 70
     1
  9
$MAXACTVP
 70
    64
  9
$PINSBASE
 10
0.0
 20
0.0
 30
0.0
  9
$PLIMCHECK
 70
     0
  9
$PEXTMIN
 10
1.000000E+20
 20
1.000000E+20
 30
1.000000E+20
  9
$PEXTMAX
 10
-1.000000E+20
 20
-1.000000E+20
 30
-1.000000E+20
  9
$PLIMMIN
 10
0.0
 20
0.0
  9
$PLIMMAX
 10
12.0
 20
9.0
  9
$UNITMODE
 70
     0
  9
$VISRETAIN
 70
     1
  9
$PLINEGEN
 70
     0
  9
$PSLTSCALE
 70
     1
  9
$TREEDEPTH
 70
  3020
  9
$PICKSTYLE
 70
     1
  9
$CMLSTYLE
  2
STANDARD
  9
$CMLJUST
 70
     0
  9
$CMLSCALE
 40
1.0
  9
$PROXYGRAPHICS
 70
     1
  9
$MEASUREMENT
 70
     0
  0
ENDSEC
  0
SECTION
  2
CLASSES
  0
CLASS
  1
ACDBDICTIONARYWDFLT
  2
AcDbDictionaryWithDefault
  3
ObjectDBX Classes
 90
        0
280
     0
281
     0
  0
CLASS
  1
XRECORD
  2
AcDbXrecord
  3
AutoCAD 2000
 90
        0
280
     0
281
     0
  0
CLASS
  1
LWPOLYLINE
  2
AcDbPolyline
  3
AutoCAD 2000
 90
        0
280
     0
281
     1
  0
CLASS
  1
HATCH
  2
AcDbHatch
  3
AutoCAD 2000
 90
        0
280
     0
281
     1
  0
CLASS
  1
ACDBPLACEHOLDER
  2
AcDbPlaceHolder
  3
ObjectDBX Classes
 90
        0
280
     0
281
     0
  0
CLASS
  1
LAYOUT
  2
AcDbLayout
  3
ObjectDBX Classes
 90
        0
280
     0
281
     0
  0
ENDSEC
  0
SECTION
  2
TABLES
  0
TABLE
  2
VPORT
  5
8
330
0
100
AcDbSymbolTable
 70
     1
  0
VPORT
  5
29
330
8
100
AcDbSymbolTableRecord
100
AcDbViewportTableRecord
  2
*ACTIVE
 70
     0
 10
0.0
 20
0.0
 11
1.0
 21
1.0
 12
210.0
 22
148.5
 13
0.0
 23
0.0
 14
0.5
 24
0.5
 15
0.5
 25
0.5
 16
0.0
 26
0.0
 36
1.0
 17
0.0
 27
0.0
 37
0.0
 40
297.0
 41
1.414141
 42
50.0
 43
0.0
 44
0.0
 50
0.0
 51
0.0
 71
     0
 72
   100
 73
     1
 74
     3
 75
     0
 76
     0
 77
     0
 78
     0
  0
ENDTAB
  0
TABLE
  2
LTYPE
  5
5
330
0
100
AcDbSymbolTable
 70
     4
  0
LTYPE
  5
14
330
5
100
AcDbSymbolTableRecord
100
AcDbLinetypeTableRecord
  2
BYBLOCK
 70
     0
  3

 72
    65
 73
     0
 40
0.0
  0
LTYPE
  5
15
330
5
100
AcDbSymbolTableRecord
100
AcDbLinetypeTableRecord
  2
BYLAYER
 70
     0
  3

 72
    65
 73
     0
 40
0.0
  0
LTYPE
  5
16
330
5
100
AcDbSymbolTableRecord
100
AcDbLinetypeTableRecord
  2
CONTINUOUS
 70
     0
  3
--------------------
 72
    65
 73
     0
 40
0.0
  0
LTYPE
  5
2A
330
5
100
AcDbSymbolTableRecord
100
AcDbLinetypeTableRecord
  2
CENTER
 70
     0
  3
Center ____ _ ____ _ ____ _ ____ _ ____ _ ____
 72
    65
 73
     4
 40
13.0
 49
10.0
 74
     0
 49
-1.0
 74
     0
 49
1.0
 74
     0
 49
-1.0
 74
     0
  0
ENDTAB
  0
TABLE
  2
LAYER
  5
2
330
0
100
AcDbSymbolTable
 70
    20
  0
LAYER
  5
10
330
2
100
AcDbSymbolTableRecord
100
AcDbLayerTableRecord
  2
0
 70
     0
 62
     7
  6
CONTINUOUS
  0
LAYER
  5
2D
330
2
100
AcDbSymbolTableRecord
100
AcDbLayerTableRecord
  2
LAYERGROUP-1
 70
     0
 62
     3
  6
CONTINUOUS
  0
LAYER
  5
3D
330
2
100
AcDbSymbolTableRecord
100
AcDbLayerTableRecord
  2
}}ﾊﾊGG血CCТ
 70
     0
 62
     3
  6
CONTINUOUS
  0
LAYER
  5
B8
330
2
100
AcDbSymbolTableRecord
100
AcDbLayerTableRecord
  2
0-1
 70
     0
 62
     7
  6
CONTINUOUS
  0
LAYER
  5
D0
330
2
100
AcDbSymbolTableRecord
100
AcDbLayerTableRecord
  2
GR1-1
 70
     0
 62
     7
  6
CONTINUOUS
  0
ENDTAB
  0
TABLE
  2
STYLE
  5
3
330
0
100
AcDbSymbolTable
 70
     4
  0
STYLE
  5
11
330
3
100
AcDbSymbolTableRecord
100
AcDbTextStyleTableRecord
  2
STANDARD
 70
     0
 40
0.0
 41
1.0
 50
0.0
 71
     0
 42
0.2
  3
txt
  4

  0
STYLE
  5
3F
330
3
100
AcDbSymbolTableRecord
100
AcDbTextStyleTableRecord
  2
STYLE1
 70
     0
 40
0.0
 41
1.0
 50
0.0
 71
     0
 42
0.2
  3
MONOTXT.SHX
  4
extfont.shx
  0
STYLE
  5
40
330
3
100
AcDbSymbolTableRecord
100
AcDbTextStyleTableRecord
  2
FX_VECTOR
 70
     0
 40
0.0
 41
1.0
 50
0.0
 71
     0
 42
0.2
  3
MONOTXT.SHX
  4
BIGFONT.SHX
  0
ENDTAB
  0
TABLE
  2
VIEW
  5
6
330
0
100
AcDbSymbolTable
 70
     0
  0
ENDTAB
  0
TABLE
  2
UCS
  5
7
330
0
100
AcDbSymbolTable
 70
     0
  0
ENDTAB
  0
TABLE
  2
APPID
  5
9
330
0
100
AcDbSymbolTable
 70
     1
  0
APPID
  5
12
330
9
100
AcDbSymbolTableRecord
100
AcDbRegAppTableRecord
  2
ACAD
 70
     0
  0
ENDTAB
  0
TABLE
  2
DIMSTYLE
  5
A
330
0
100
AcDbSymbolTable
 70
     2
  0
DIMSTYLE
105
27
330
A
100
AcDbSymbolTableRecord
100
AcDbDimStyleTableRecord
  2
STANDARD
 70
     0
  3

  4

  5

  6

  7

 40
1.0
 41
0.18
 42
0.0625
 43
0.38
 44
0.18
 45
0.0
 46
0.0
 47
0.0
 48
0.0
140
0.18
141
0.09
142
0.0
143
25.4
144
1.0
145
0.0
146
1.0
147
0.09
 71
     0
 72
     0
 73
     1
 74
     1
 75
     0
 76
     0
 77
     0
 78
     0
170
     0
171
     2
172
     0
173
     0
174
     0
175
     0
176
     0
177
     0
178
     0
270
     2
271
     4
272
     4
273
     2
274
     2
340
11
275
     0
280
     0
281
     0
282
     0
283
     1
284
     0
285
     0
286
     0
287
     3
288
     0
  0
DIMSTYLE
105
A7
102
{ACAD_REACTORS
330
124
330
12E
330
138
330
141
330
1C9
330
20F
330
223
330
22D
330
237
330
241
330
24D
330
331
102
}
330
A
100
AcDbSymbolTableRecord
100
AcDbDimStyleTableRecord
  2
FXDIMINFO
 70
     0
  3

  4

  5

  6
FXTIP_ARROW_S
  7
FXTIP_ARROW_E
 40
1.0
 41
4.0
 42
1.0
 43
10.0
 44
1.0
 45
0.0
 46
6.0
 47
0.0
 48
0.0
140
4.0
141
2.5
142
0.0
143
0.03937
144
1.0
145
0.0
146
1.0
147
1.0
 71
     0
 72
     0
 73
     0
 74
     0
 75
     0
 76
     0
 77
     1
 78
     8
170
     0
171
     3
172
     1
173
     1
174
     0
175
     0
176
     7
177
     7
178
     7
179
     2
270
     2
271
     2
272
     2
273
     2
274
     3
340
3F
275
     0
280
     0
281
     0
282
     0
283
     0
284
     8
285
     0
286
     0
287
     3
288
     0
  0
ENDTAB
  0
TABLE
  2
BLOCK_RECORD
  5
1
330
0
100
AcDbSymbolTable
 70
    39
  0
BLOCK_RECORD
  5
1F
330
1
100
AcDbSymbolTableRecord
100
AcDbBlockTableRecord
  2
*MODEL_SPACE
  0
BLOCK_RECORD
  5
1B
330
1
100
AcDbSymbolTableRecord
100
AcDbBlockTableRecord
  2
*PAPER_SPACE
  0
BLOCK_RECORD
  5
41
330
1
100
AcDbSymbolTableRecord
100
AcDbBlockTableRecord
  2
FXTIP_ARROW_S
  0
BLOCK_RECORD
  5
47
330
1
100
AcDbSymbolTableRecord
100
AcDbBlockTableRecord
  2
FXTIP_ARROW_E
  0
BLOCK_RECORD
  5
4D
330
1
100
AcDbSymbolTableRecord
100
AcDbBlockTableRecord
  2
FXTIP_BLACKDOT_S
  0
BLOCK_RECORD
  5
53
330
1
100
AcDbSymbolTableRecord
100
AcDbBlockTableRecord
  2
FXTIP_BLACKDOT_E
  0
BLOCK_RECORD
  5
59
330
1
100
AcDbSymbolTableRecord
100
AcDbBlockTableRecord
  2
FXTIP_TRIANGLE_S
  0
BLOCK_RECORD
  5
60
330
1
100
AcDbSymbolTableRecord
100
AcDbBlockTableRecord
  2
FXTIP_TRIANGLE_E
  0
BLOCK_RECORD
  5
67
330
1
100
AcDbSymbolTableRecord
100
AcDbBlockTableRecord
  2
FXTIP_ARCHITECT_S
  0
BLOCK_RECORD
  5
6D
330
1
100
AcDbSymbolTableRecord
100
AcDbBlockTableRecord
  2
FXTIP_ARCHITECT_E
  0
BLOCK_RECORD
  5
73
330
1
100
AcDbSymbolTableRecord
100
AcDbBlockTableRecord
  2
FXTIP_CIVIL_S
  0
BLOCK_RECORD
  5
79
330
1
100
AcDbSymbolTableRecord
100
AcDbBlockTableRecord
  2
FXTIP_CIVIL_E
  0
BLOCK_RECORD
  5
7F
330
1
100
AcDbSymbolTableRecord
100
AcDbBlockTableRecord
  2
FXTIP_WHITEDOT_S
  0
BLOCK_RECORD
  5
84
330
1
100
AcDbSymbolTableRecord
100
AcDbBlockTableRecord
  2
FXTIP_WHITEDOT_E
  0
BLOCK_RECORD
  5
89
330
1
100
AcDbSymbolTableRecord
100
AcDbBlockTableRecord
  2
FXTIP_UPARROW_S
  0
BLOCK_RECORD
  5
8E
330
1
100
AcDbSymbolTableRecord
100
AcDbBlockTableRecord
  2
FXTIP_UPARROW_E
  0
BLOCK_RECORD
  5
93
330
1
100
AcDbSymbolTableRecord
100
AcDbBlockTableRecord
  2
FXTIP_DOWNARROW_S
  0
BLOCK_RECORD
  5
98
330
1
100
AcDbSymbolTableRecord
100
AcDbBlockTableRecord
  2
FXTIP_DOWNARROW_E
  0
BLOCK_RECORD
  5
9D
330
1
100
AcDbSymbolTableRecord
100
AcDbBlockTableRecord
  2
FXTIP_BLACKTRIANGLE_S
  0
BLOCK_RECORD
  5
A2
330
1
100
AcDbSymbolTableRecord
100
AcDbBlockTableRecord
  2
FXTIP_BLACKTRIANGLE_E
  0
BLOCK_RECORD
  5
A8
330
1
100
AcDbSymbolTableRecord
100
AcDbBlockTableRecord
  2
BLKF021
  0
BLOCK_RECORD
  5
B4
330
1
100
AcDbSymbolTableRecord
100
AcDbBlockTableRecord
  2
BLKF022
  0
BLOCK_RECORD
  5
BD
330
1
100
AcDbSymbolTableRecord
100
AcDbBlockTableRecord
  2
BLKF023
  0
BLOCK_RECORD
  5
125
330
1
100
AcDbSymbolTableRecord
100
AcDbBlockTableRecord
  2
*D22
  0
BLOCK_RECORD
  5
12F
330
1
100
AcDbSymbolTableRecord
100
AcDbBlockTableRecord
  2
*D23
  0
BLOCK_RECORD
  5
139
330
1
100
AcDbSymbolTableRecord
100
AcDbBlockTableRecord
  2
*D24
  0
BLOCK_RECORD
  5
142
330
1
100
AcDbSymbolTableRecord
100
AcDbBlockTableRecord
  2
*D25
  0
BLOCK_RECORD
  5
14F
330
1
100
AcDbSymbolTableRecord
100
AcDbBlockTableRecord
  2
BLKF028
  0
BLOCK_RECORD
  5
1CA
330
1
100
AcDbSymbolTableRecord
100
AcDbBlockTableRecord
  2
*D27
  0
BLOCK_RECORD
  5
210
330
1
100
AcDbSymbolTableRecord
100
AcDbBlockTableRecord
  2
*D28
  0
BLOCK_RECORD
  5
224
330
1
100
AcDbSymbolTableRecord
100
AcDbBlockTableRecord
  2
*D29
  0
BLOCK_RECORD
  5
22E
330
1
100
AcDbSymbolTableRecord
100
AcDbBlockTableRecord
  2
*D30
  0
BLOCK_RECORD
  5
238
330
1
100
AcDbSymbolTableRecord
100
AcDbBlockTableRecord
  2
*D31
  0
BLOCK_RECORD
  5
242
330
1
100
AcDbSymbolTableRecord
100
AcDbBlockTableRecord
  2
*D32
  0
BLOCK_RECORD
  5
24E
330
1
100
AcDbSymbolTableRecord
100
AcDbBlockTableRecord
  2
*D33
  0
BLOCK_RECORD
  5
257
330
1
100
AcDbSymbolTableRecord
100
AcDbBlockTableRecord
  2
BLKF036
  0
BLOCK_RECORD
  5
284
330
1
100
AcDbSymbolTableRecord
100
AcDbBlockTableRecord
  2
BLKF037
  0
BLOCK_RECORD
  5
302
330
1
100
AcDbSymbolTableRecord
100
AcDbBlockTableRecord
  2
BLKF038
  0
BLOCK_RECORD
  5
326
330
1
100
AcDbSymbolTableRecord
100
AcDbBlockTableRecord
  2
BLKF039
  0
BLOCK_RECORD
  5
332
330
1
100
AcDbSymbolTableRecord
100
AcDbBlockTableRecord
  2
*D38
  0
ENDTAB
  0
ENDSEC
  0
SECTION
  2
BLOCKS
  0
BLOCK
  5
20
330
1F
100
AcDbEntity
  8
0
100
AcDbBlockBegin
  2
*MODEL_SPACE
 70
     0
 71
     0
 10
0.0
 20
0.0
 30
0.0
  3
*MODEL_SPACE
  1

  0
ENDBLK
  5
21
330
1F
100
AcDbEntity
  8
0
100
AcDbBlockEnd
  0
BLOCK
  5
1C
330
1B
100
AcDbEntity
 67
     1
  8
0
100
AcDbBlockBegin
  2
*PAPER_SPACE
 70
     0
 71
     0
 10
0.0
 20
0.0
 30
0.0
  3
*PAPER_SPACE
  1

  0
ENDBLK
  5
1D
330
1B
100
AcDbEntity
 67
     1
  8
0
100
AcDbBlockEnd
  0
BLOCK
  5
42
330
41
100
AcDbEntity
  8
0
100
AcDbBlockBegin
  2
FXTIP_ARROW_S
 70
     0
 71
     0
 10
0.0
 20
0.0
 30
0.0
  3
FXTIP_ARROW_S
  1

  0
LINE
  5
44
330
41
100
AcDbEntity
  8
0
  6
CONTINUOUS
 62
     0
100
AcDbLine
 10
0.0
 20
0.0
 30
0.0
 11
-1.0
 21
0.0
 31
0.0
  0
LINE
  5
45
330
41
100
AcDbEntity
  8
0
  6
CONTINUOUS
 62
     0
100
AcDbLine
 10
0.0
 20
0.0
 30
0.0
 11
-0.965926
 21
-0.258819
 31
0.0
  0
LINE
  5
46
330
41
100
AcDbEntity
  8
0
  6
CONTINUOUS
 62
     0
100
AcDbLine
 10
0.0
 20
0.0
 30
0.0
 11
-0.965926
 21
0.258819
 31
0.0
  0
ENDBLK
  5
43
330
41
100
AcDbEntity
  8
0
100
AcDbBlockEnd
  0
BLOCK
  5
48
330
47
100
AcDbEntity
  8
0
100
AcDbBlockBegin
  2
FXTIP_ARROW_E
 70
     0
 71
     0
 10
0.0
 20
0.0
 30
0.0
  3
FXTIP_ARROW_E
  1

  0
LINE
  5
4A
330
47
100
AcDbEntity
  8
0
  6
CONTINUOUS
 62
     0
100
AcDbLine
 10
0.0
 20
0.0
 30
0.0
 11
-1.0
 21
0.0
 31
0.0
  0
LINE
  5
4B
330
47
100
AcDbEntity
  8
0
  6
CONTINUOUS
 62
     0
100
AcDbLine
 10
0.0
 20
0.0
 30
0.0
 11
-0.965926
 21
0.258819
 31
0.0
  0
LINE
  5
4C
330
47
100
AcDbEntity
  8
0
  6
CONTINUOUS
 62
     0
100
AcDbLine
 10
0.0
 20
0.0
 30
0.0
 11
-0.965926
 21
-0.258819
 31
0.0
  0
ENDBLK
  5
49
330
47
100
AcDbEntity
  8
0
100
AcDbBlockEnd
  0
BLOCK
  5
4E
330
4D
100
AcDbEntity
  8
0
100
AcDbBlockBegin
  2
FXTIP_BLACKDOT_S
 70
     0
 71
     0
 10
0.0
 20
0.0
 30
0.0
  3
FXTIP_BLACKDOT_S
  1

  0
LINE
  5
50
330
4D
100
AcDbEntity
  8
0
  6
CONTINUOUS
 62
     0
100
AcDbLine
 10
0.0
 20
0.0
 30
0.0
 11
-1.0
 21
0.0
 31
0.0
  0
LWPOLYLINE
  5
51
330
4D
100
AcDbEntity
  8
0
  6
CONTINUOUS
 62
     0
100
AcDbPolyline
 90
        2
 70
     1
 10
-0.25
 20
0.0
 40
0.5
 41
0.5
 42
1.0
 10
0.25
 20
0.0
 40
0.5
 41
0.5
 42
1.0
  0
CIRCLE
  5
52
330
4D
100
AcDbEntity
  8
0
  6
CONTINUOUS
 62
     0
100
AcDbCircle
 10
0.0
 20
0.0
 30
0.0
 40
0.5
  0
ENDBLK
  5
4F
330
4D
100
AcDbEntity
  8
0
100
AcDbBlockEnd
  0
BLOCK
  5
54
330
53
100
AcDbEntity
  8
0
100
AcDbBlockBegin
  2
FXTIP_BLACKDOT_E
 70
     0
 71
     0
 10
0.0
 20
0.0
 30
0.0
  3
FXTIP_BLACKDOT_E
  1

  0
LINE
  5
56
330
53
100
AcDbEntity
  8
0
  6
CONTINUOUS
 62
     0
100
AcDbLine
 10
0.0
 20
0.0
 30
0.0
 11
-1.0
 21
0.0
 31
0.0
  0
LWPOLYLINE
  5
57
330
53
100
AcDbEntity
  8
0
  6
CONTINUOUS
 62
     0
100
AcDbPolyline
 90
        2
 70
     1
 10
-0.25
 20
0.0
 40
0.5
 41
0.5
 42
1.0
 10
0.25
 20
0.0
 40
0.5
 41
0.5
 42
1.0
  0
CIRCLE
  5
58
330
53
100
AcDbEntity
  8
0
  6
CONTINUOUS
 62
     0
100
AcDbCircle
 10
0.0
 20
0.0
 30
0.0
 40
0.5
  0
ENDBLK
  5
55
330
53
100
AcDbEntity
  8
0
100
AcDbBlockEnd
  0
BLOCK
  5
5A
330
59
100
AcDbEntity
  8
0
100
AcDbBlockBegin
  2
FXTIP_TRIANGLE_S
 70
     0
 71
     0
 10
0.0
 20
0.0
 30
0.0
  3
FXTIP_TRIANGLE_S
  1

  0
LINE
  5
5C
330
59
100
AcDbEntity
  8
0
  6
CONTINUOUS
 62
     0
100
AcDbLine
 10
0.0
 20
0.0
 30
0.0
 11
-1.0
 21
0.0
 31
0.0
  0
LINE
  5
5D
330
59
100
AcDbEntity
  8
0
  6
CONTINUOUS
 62
     0
100
AcDbLine
 10
0.0
 20
0.0
 30
0.0
 11
-0.965926
 21
-0.258819
 31
0.0
  0
LINE
  5
5E
330
59
100
AcDbEntity
  8
0
  6
CONTINUOUS
 62
     0
100
AcDbLine
 10
0.0
 20
0.0
 30
0.0
 11
-0.965926
 21
0.258819
 31
0.0
  0
LINE
  5
5F
330
59
100
AcDbEntity
  8
0
  6
CONTINUOUS
 62
     0
100
AcDbLine
 10
-0.965926
 20
-0.258819
 30
0.0
 11
-0.965926
 21
0.258819
 31
0.0
  0
ENDBLK
  5
5B
330
59
100
AcDbEntity
  8
0
100
AcDbBlockEnd
  0
BLOCK
  5
61
330
60
100
AcDbEntity
  8
0
100
AcDbBlockBegin
  2
FXTIP_TRIANGLE_E
 70
     0
 71
     0
 10
0.0
 20
0.0
 30
0.0
  3
FXTIP_TRIANGLE_E
  1

  0
LINE
  5
63
330
60
100
AcDbEntity
  8
0
  6
CONTINUOUS
 62
     0
100
AcDbLine
 10
0.0
 20
0.0
 30
0.0
 11
-1.0
 21
0.0
 31
0.0
  0
LINE
  5
64
330
60
100
AcDbEntity
  8
0
  6
CONTINUOUS
 62
     0
100
AcDbLine
 10
0.0
 20
0.0
 30
0.0
 11
-0.965926
 21
0.258819
 31
0.0
  0
LINE
  5
65
330
60
100
AcDbEntity
  8
0
  6
CONTINUOUS
 62
     0
100
AcDbLine
 10
0.0
 20
0.0
 30
0.0
 11
-0.965926
 21
-0.258819
 31
0.0
  0
LINE
  5
66
330
60
100
AcDbEntity
  8
0
  6
CONTINUOUS
 62
     0
100
AcDbLine
 10
-0.965926
 20
0.258819
 30
0.0
 11
-0.965926
 21
-0.258819
 31
0.0
  0
ENDBLK
  5
62
330
60
100
AcDbEntity
  8
0
100
AcDbBlockEnd
  0
BLOCK
  5
68
330
67
100
AcDbEntity
  8
0
100
AcDbBlockBegin
  2
FXTIP_ARCHITECT_S
 70
     0
 71
     0
 10
0.0
 20
0.0
 30
0.0
  3
FXTIP_ARCHITECT_S
  1

  0
LINE
  5
6A
330
67
100
AcDbEntity
  8
0
  6
CONTINUOUS
 62
     0
100
AcDbLine
 10
0.0
 20
0.0
 30
0.0
 11
-1.0
 21
0.0
 31
0.0
  0
LINE
  5
6B
330
67
100
AcDbEntity
  8
0
  6
CONTINUOUS
 62
     0
100
AcDbLine
 10
0.0
 20
0.0
 30
0.0
 11
-0.707107
 21
-0.707107
 31
0.0
  0
LINE
  5
6C
330
67
100
AcDbEntity
  8
0
  6
CONTINUOUS
 62
     0
100
AcDbLine
 10
0.0
 20
0.0
 30
0.0
 11
0.707107
 21
0.707107
 31
0.0
  0
ENDBLK
  5
69
330
67
100
AcDbEntity
  8
0
100
AcDbBlockEnd
  0
BLOCK
  5
6E
330
6D
100
AcDbEntity
  8
0
100
AcDbBlockBegin
  2
FXTIP_ARCHITECT_E
 70
     0
 71
     0
 10
0.0
 20
0.0
 30
0.0
  3
FXTIP_ARCHITECT_E
  1

  0
LINE
  5
70
330
6D
100
AcDbEntity
  8
0
  6
CONTINUOUS
 62
     0
100
AcDbLine
 10
0.0
 20
0.0
 30
0.0
 11
-1.0
 21
0.0
 31
0.0
  0
LINE
  5
71
330
6D
100
AcDbEntity
  8
0
  6
CONTINUOUS
 62
     0
100
AcDbLine
 10
0.0
 20
0.0
 30
0.0
 11
0.707107
 21
0.707107
 31
0.0
  0
LINE
  5
72
330
6D
100
AcDbEntity
  8
0
  6
CONTINUOUS
 62
     0
100
AcDbLine
 10
0.0
 20
0.0
 30
0.0
 11
-0.707107
 21
-0.707107
 31
0.0
  0
ENDBLK
  5
6F
330
6D
100
AcDbEntity
  8
0
100
AcDbBlockEnd
  0
BLOCK
  5
74
330
73
100
AcDbEntity
  8
0
100
AcDbBlockBegin
  2
FXTIP_CIVIL_S
 70
     0
 71
     0
 10
0.0
 20
0.0
 30
0.0
  3
FXTIP_CIVIL_S
  1

  0
LINE
  5
76
330
73
100
AcDbEntity
  8
0
  6
CONTINUOUS
 62
     0
100
AcDbLine
 10
0.0
 20
0.0
 30
0.0
 11
-1.0
 21
0.0
 31
0.0
  0
LINE
  5
77
330
73
100
AcDbEntity
  8
0
  6
CONTINUOUS
 62
     0
100
AcDbLine
 10
0.0
 20
-0.0625
 30
0.0
 11
-1.0
 21
-0.0625
 31
0.0
  0
LINE
  5
78
330
73
100
AcDbEntity
  8
0
  6
CONTINUOUS
 62
     0
100
AcDbLine
 10
0.0
 20
-0.125
 30
0.0
 11
-1.0
 21
-0.125
 31
0.0
  0
ENDBLK
  5
75
330
73
100
AcDbEntity
  8
0
100
AcDbBlockEnd
  0
BLOCK
  5
7A
330
79
100
AcDbEntity
  8
0
100
AcDbBlockBegin
  2
FXTIP_CIVIL_E
 70
     0
 71
     0
 10
0.0
 20
0.0
 30
0.0
  3
FXTIP_CIVIL_E
  1

  0
LINE
  5
7C
330
79
100
AcDbEntity
  8
0
  6
CONTINUOUS
 62
     0
100
AcDbLine
 10
0.0
 20
0.0
 30
0.0
 11
-1.0
 21
0.0
 31
0.0
  0
LINE
  5
7D
330
79
100
AcDbEntity
  8
0
  6
CONTINUOUS
 62
     0
100
AcDbLine
 10
0.0
 20
0.0625
 30
0.0
 11
-1.0
 21
0.0625
 31
0.0
  0
LINE
  5
7E
330
79
100
AcDbEntity
  8
0
  6
CONTINUOUS
 62
     0
100
AcDbLine
 10
0.0
 20
0.125
 30
0.0
 11
-1.0
 21
0.125
 31
0.0
  0
ENDBLK
  5
7B
330
79
100
AcDbEntity
  8
0
100
AcDbBlockEnd
  0
BLOCK
  5
80
330
7F
100
AcDbEntity
  8
0
100
AcDbBlockBegin
  2
FXTIP_WHITEDOT_S
 70
     0
 71
     0
 10
0.0
 20
0.0
 30
0.0
  3
FXTIP_WHITEDOT_S
  1

  0
LINE
  5
82
330
7F
100
AcDbEntity
  8
0
  6
CONTINUOUS
 62
     0
100
AcDbLine
 10
0.0
 20
0.0
 30
0.0
 11
-1.0
 21
0.0
 31
0.0
  0
CIRCLE
  5
83
330
7F
100
AcDbEntity
  8
0
  6
CONTINUOUS
 62
     0
100
AcDbCircle
 10
0.0
 20
0.0
 30
0.0
 40
0.5
  0
ENDBLK
  5
81
330
7F
100
AcDbEntity
  8
0
100
AcDbBlockEnd
  0
BLOCK
  5
85
330
84
100
AcDbEntity
  8
0
100
AcDbBlockBegin
  2
FXTIP_WHITEDOT_E
 70
     0
 71
     0
 10
0.0
 20
0.0
 30
0.0
  3
FXTIP_WHITEDOT_E
  1

  0
LINE
  5
87
330
84
100
AcDbEntity
  8
0
  6
CONTINUOUS
 62
     0
100
AcDbLine
 10
0.0
 20
0.0
 30
0.0
 11
-1.0
 21
0.0
 31
0.0
  0
CIRCLE
  5
88
330
84
100
AcDbEntity
  8
0
  6
CONTINUOUS
 62
     0
100
AcDbCircle
 10
0.0
 20
0.0
 30
0.0
 40
0.5
  0
ENDBLK
  5
86
330
84
100
AcDbEntity
  8
0
100
AcDbBlockEnd
  0
BLOCK
  5
8A
330
89
100
AcDbEntity
  8
0
100
AcDbBlockBegin
  2
FXTIP_UPARROW_S
 70
     0
 71
     0
 10
0.0
 20
0.0
 30
0.0
  3
FXTIP_UPARROW_S
  1

  0
LINE
  5
8C
330
89
100
AcDbEntity
  8
0
  6
CONTINUOUS
 62
     0
100
AcDbLine
 10
0.0
 20
0.0
 30
0.0
 11
-1.0
 21
0.0
 31
0.0
  0
LINE
  5
8D
330
89
100
AcDbEntity
  8
0
  6
CONTINUOUS
 62
     0
100
AcDbLine
 10
0.0
 20
0.0
 30
0.0
 11
-0.965926
 21
-0.258819
 31
0.0
  0
ENDBLK
  5
8B
330
89
100
AcDbEntity
  8
0
100
AcDbBlockEnd
  0
BLOCK
  5
8F
330
8E
100
AcDbEntity
  8
0
100
AcDbBlockBegin
  2
FXTIP_UPARROW_E
 70
     0
 71
     0
 10
0.0
 20
0.0
 30
0.0
  3
FXTIP_UPARROW_E
  1

  0
LINE
  5
91
330
8E
100
AcDbEntity
  8
0
  6
CONTINUOUS
 62
     0
100
AcDbLine
 10
0.0
 20
0.0
 30
0.0
 11
-1.0
 21
0.0
 31
0.0
  0
LINE
  5
92
330
8E
100
AcDbEntity
  8
0
  6
CONTINUOUS
 62
     0
100
AcDbLine
 10
0.0
 20
0.0
 30
0.0
 11
-0.965926
 21
0.258819
 31
0.0
  0
ENDBLK
  5
90
330
8E
100
AcDbEntity
  8
0
100
AcDbBlockEnd
  0
BLOCK
  5
94
330
93
100
AcDbEntity
  8
0
100
AcDbBlockBegin
  2
FXTIP_DOWNARROW_S
 70
     0
 71
     0
 10
0.0
 20
0.0
 30
0.0
  3
FXTIP_DOWNARROW_S
  1

  0
LINE
  5
96
330
93
100
AcDbEntity
  8
0
  6
CONTINUOUS
 62
     0
100
AcDbLine
 10
0.0
 20
0.0
 30
0.0
 11
-1.0
 21
0.0
 31
0.0
  0
LINE
  5
97
330
93
100
AcDbEntity
  8
0
  6
CONTINUOUS
 62
     0
100
AcDbLine
 10
0.0
 20
0.0
 30
0.0
 11
-0.965926
 21
0.258819
 31
0.0
  0
ENDBLK
  5
95
330
93
100
AcDbEntity
  8
0
100
AcDbBlockEnd
  0
BLOCK
  5
99
330
98
100
AcDbEntity
  8
0
100
AcDbBlockBegin
  2
FXTIP_DOWNARROW_E
 70
     0
 71
     0
 10
0.0
 20
0.0
 30
0.0
  3
FXTIP_DOWNARROW_E
  1

  0
LINE
  5
9B
330
98
100
AcDbEntity
  8
0
  6
CONTINUOUS
 62
     0
100
AcDbLine
 10
0.0
 20
0.0
 30
0.0
 11
-1.0
 21
0.0
 31
0.0
  0
LINE
  5
9C
330
98
100
AcDbEntity
  8
0
  6
CONTINUOUS
 62
     0
100
AcDbLine
 10
0.0
 20
0.0
 30
0.0
 11
-0.965926
 21
-0.258819
 31
0.0
  0
ENDBLK
  5
9A
330
98
100
AcDbEntity
  8
0
100
AcDbBlockEnd
  0
BLOCK
  5
9E
330
9D
100
AcDbEntity
  8
0
100
AcDbBlockBegin
  2
FXTIP_BLACKTRIANGLE_S
 70
     0
 71
     0
 10
0.0
 20
0.0
 30
0.0
  3
FXTIP_BLACKTRIANGLE_S
  1

  0
LINE
  5
A0
330
9D
100
AcDbEntity
  8
0
  6
CONTINUOUS
 62
     0
100
AcDbLine
 10
0.0
 20
0.0
 30
0.0
 11
-1.0
 21
0.0
 31
0.0
  0
SOLID
  5
A1
330
9D
100
AcDbEntity
  8
0
  6
CONTINUOUS
 62
     0
100
AcDbTrace
 10
0.0
 20
0.0
 30
0.0
 11
-0.965926
 21
-0.258819
 31
0.0
 12
-0.965926
 22
0.258819
 32
0.0
 13
-0.965926
 23
0.258819
 33
0.0
  0
ENDBLK
  5
9F
330
9D
100
AcDbEntity
  8
0
100
AcDbBlockEnd
  0
BLOCK
  5
A3
330
A2
100
AcDbEntity
  8
0
100
AcDbBlockBegin
  2
FXTIP_BLACKTRIANGLE_E
 70
     0
 71
     0
 10
0.0
 20
0.0
 30
0.0
  3
FXTIP_BLACKTRIANGLE_E
  1

  0
LINE
  5
A5
330
A2
100
AcDbEntity
  8
0
  6
CONTINUOUS
 62
     0
100
AcDbLine
 10
0.0
 20
0.0
 30
0.0
 11
-1.0
 21
0.0
 31
0.0
  0
SOLID
  5
A6
330
A2
100
AcDbEntity
  8
0
  6
CONTINUOUS
 62
     0
100
AcDbTrace
 10
0.0
 20
0.0
 30
0.0
 11
-0.965926
 21
0.258819
 31
0.0
 12
-0.965926
 22
-0.258819
 32
0.0
 13
-0.965926
 23
-0.258819
 33
0.0
  0
ENDBLK
  5
A4
330
A2
100
AcDbEntity
  8
0
100
AcDbBlockEnd
  0
BLOCK
  5
A9
330
A8
100
AcDbEntity
  8
0
100
AcDbBlockBegin
  2
BLKF021
 70
     0
 71
     0
 10
0.0
 20
0.0
 30
0.0
  3
BLKF021
  1

  0
LINE
  5
AC
330
A8
100
AcDbEntity
  8
}}ﾊﾊGG血CCТ
  6
CONTINUOUS
 62
     7
100
AcDbLine
 10
10.0
 20
10.0
 30
0.0
 11
410.0
 21
10.0
 31
0.0
  0
LINE
  5
AD
330
A8
100
AcDbEntity
  8
}}ﾊﾊGG血CCТ
  6
CONTINUOUS
 62
     7
100
AcDbLine
 10
10.0
 20
10.0
 30
0.0
 11
10.0
 21
287.0
 31
0.0
  0
LINE
  5
AE
330
A8
100
AcDbEntity
  8
}}ﾊﾊGG血CCТ
  6
CONTINUOUS
 62
     7
100
AcDbLine
 10
10.0
 20
287.0
 30
0.0
 11
410.0
 21
287.0
 31
0.0
  0
LINE
  5
AF
330
A8
100
AcDbEntity
  8
}}ﾊﾊGG血CCТ
  6
CONTINUOUS
 62
     7
100
AcDbLine
 10
410.0
 20
287.0
 30
0.0
 11
410.0
 21
10.0
 31
0.0
  0
LINE
  5
B0
330
A8
100
AcDbEntity
  8
}}ﾊﾊGG血CCТ
  6
CONTINUOUS
 62
     7
100
AcDbLine
 10
153.0
 20
10.0
 30
0.0
 11
153.0
 21
20.0
 31
0.0
  0
TEXT
  5
B1
330
A8
100
AcDbEntity
  8
}}ﾊﾊGG血CCТ
  6
CONTINUOUS
 62
     7
100
AcDbText
 10
137.738815
 20
11.596879
 30
0.0
 40
6.648749
  1
品名
 41
1.083413
  7
FX_VECTOR
 72
     5
 11
149.058355
 21
11.596879
 31
0.0
100
AcDbText
  0
LINE
  5
B2
330
A8
100
AcDbEntity
  8
}}ﾊﾊGG血CCТ
  6
CONTINUOUS
 62
     7
100
AcDbLine
 10
233.0
 20
20.0
 30
0.0
 11
233.0
 21
10.0
 31
0.0
  0
LINE
  5
B3
330
A8
100
AcDbEntity
  8
}}ﾊﾊGG血CCТ
  6
CONTINUOUS
 62
     7
100
AcDbLine
 10
133.0
 20
20.0
 30
0.0
 11
410.0
 21
20.0
 31
0.0
  0
INSERT
  5
B7
330
A8
100
AcDbEntity
  8
0
100
AcDbBlockReference
  2
BLKF022
 10
0.0
 20
0.0
 30
0.0
  0
INSERT
  5
C0
330
A8
100
AcDbEntity
  8
0
100
AcDbBlockReference
  2
BLKF023
 10
0.0
 20
0.0
 30
0.0
  0
HATCH
  5
D1
330
A8
100
AcDbEntity
  8
GR1-1
  6
CONTINUOUS
 62
     7
100
AcDbHatch
 10
0.0
 20
0.0
 30
0.0
210
0.0
220
0.0
230
1.0
  2

 70
     0
 71
     1
 91
        2
 92
        0
 93
        4
 72
     1
 10
338.8018997861325
 20
17.91346152
 11
344.8018997861325
 21
17.91346152
 72
     1
 10
344.8018997861325
 20
17.91346152
 11
344.8018997861325
 21
11.91346152
 72
     1
 10
344.8018997861325
 20
11.91346152
 11
338.8018997861325
 21
11.91346152
 72
     1
 10
338.8018997861325
 20
11.91346152
 11
338.8018997861325
 21
17.91346152
 97
        0
 92
        0
 93
       15
 72
     1
 10
341.8018997861325
 20
17.76923076000002
 11
338.9461305461325
 21
14.91346152
 72
     1
 10
338.9461305461325
 20
14.91346152
 11
341.8018997861325
 21
12.05769228000001
 72
     1
 10
341.8018997861325
 20
12.05769228000001
 11
343.3595920661325
 21
13.61538462
 72
     1
 10
343.3595920661325
 20
13.61538462
 11
343.3595920661325
 21
12.98076924
 72
     1
 10
343.3595920661325
 20
12.98076924
 11
344.2249766861325
 21
12.98076924
 72
     1
 10
344.2249766861325
 20
12.98076924
 11
344.2249766861325
 21
15.00000000000001
 72
     1
 10
344.2249766861325
 20
15.00000000000001
 11
341.8018997861325
 21
15.00000000000001
 72
     1
 10
341.8018997861325
 20
15.00000000000001
 11
341.8018997861325
 21
14.13461538000001
 72
     1
 10
341.8018997861325
 20
14.13461538000001
 11
342.2461305461325
 21
14.13461538000001
 72
     1
 10
342.2461305461325
 20
14.13461538000001
 11
341.8018997861325
 21
13.69038462
 72
     1
 10
341.8018997861325
 20
13.69038462
 11
340.5788228861325
 21
14.91346152
 72
     1
 10
340.5788228861325
 20
14.91346152
 11
341.8018997861325
 21
16.13653842000003
 72
     1
 10
341.8018997861325
 20
16.13653842000003
 11
342.5922844061325
 21
15.3461538
 72
     1
 10
342.5922844061325
 20
15.3461538
 11
344.2249766861325
 21
15.3461538
 72
     1
 10
344.2249766861325
 20
15.3461538
 11
341.8018997861325
 21
17.76923076000002
 97
        0
 75
     0
 76
     0
 52
45.0
 41
0.05
 77
     0
 78
     1
 53
45.0
 43
0.0
 44
0.0
 45
-0.0353553390593274
 46
0.0353553390593274
 79
     0
 98
        0
  0
TEXT
  5
D2
330
A8
100
AcDbEntity
  8
}}ﾊﾊGG血CCТ
  6
CONTINUOUS
 62
     7
100
AcDbText
 10
349.225769
 20
11.461285
 30
0.0
 40
7.170908
  1
GOLD CASTER
 41
0.63978
  7
FX_VECTOR
 72
     5
 11
395.977636
 21
11.461285
 31
0.0
100
AcDbText
  0
LINE
  5
D3
330
A8
100
AcDbEntity
  8
}}ﾊﾊGG血CCТ
  6
CONTINUOUS
 62
     7
100
AcDbLine
 10
253.0
 20
10.0
 30
0.0
 11
253.0
 21
20.0
 31
0.0
  0
TEXT
  5
D4
330
A8
100
AcDbEntity
  8
}}ﾊﾊGG血CCТ
  6
CONTINUOUS
 62
     7
100
AcDbText
 10
237.738815
 20
11.596879
 30
0.0
 40
6.648749
  1
図番
 41
1.083413
  7
FX_VECTOR
 72
     5
 11
249.058355
 21
11.596879
 31
0.0
100
AcDbText
  0
LINE
  5
D5
330
A8
100
AcDbEntity
  8
}}ﾊﾊGG血CCТ
  6
CONTINUOUS
 62
     7
100
AcDbLine
 10
333.0
 20
20.0
 30
0.0
 11
333.0
 21
10.0
 31
0.0
  0
LINE
  5
D6
330
A8
100
AcDbEntity
  8
}}ﾊﾊGG血CCТ
  6
CONTINUOUS
 62
     7
100
AcDbLine
 10
133.0
 20
20.0
 30
0.0
 11
133.0
 21
10.0
 31
0.0
  0
ENDBLK
  5
AA
330
A8
100
AcDbEntity
  8
0
100
AcDbBlockEnd
  0
BLOCK
  5
B5
330
B4
100
AcDbEntity
  8
0
100
AcDbBlockBegin
  2
BLKF022
 70
     0
 71
     0
 10
0.0
 20
0.0
 30
0.0
  3
BLKF022
  1

  0
LINE
  5
B9
330
B4
100
AcDbEntity
  8
0-1
  6
CONTINUOUS
 62
     7
100
AcDbLine
 10
344.8019
 20
17.913462
 30
0.0
 11
338.8019
 21
17.913462
 31
0.0
  0
LINE
  5
BA
330
B4
100
AcDbEntity
  8
0-1
  6
CONTINUOUS
 62
     7
100
AcDbLine
 10
338.8019
 20
17.913462
 30
0.0
 11
338.8019
 21
11.913462
 31
0.0
  0
LINE
  5
BB
330
B4
100
AcDbEntity
  8
0-1
  6
CONTINUOUS
 62
     7
100
AcDbLine
 10
338.8019
 20
11.913462
 30
0.0
 11
344.8019
 21
11.913462
 31
0.0
  0
LINE
  5
BC
330
B4
100
AcDbEntity
  8
0-1
  6
CONTINUOUS
 62
     7
100
AcDbLine
 10
344.8019
 20
11.913462
 30
0.0
 11
344.8019
 21
17.913462
 31
0.0
  0
ENDBLK
  5
B6
330
B4
100
AcDbEntity
  8
0
100
AcDbBlockEnd
  0
BLOCK
  5
BE
330
BD
100
AcDbEntity
  8
0
100
AcDbBlockBegin
  2
BLKF023
 70
     0
 71
     0
 10
0.0
 20
0.0
 30
0.0
  3
BLKF023
  1

  0
LINE
  5
C1
330
BD
100
AcDbEntity
  8
0-1
  6
CONTINUOUS
 62
     7
100
AcDbLine
 10
344.224977
 20
15.346154
 30
0.0
 11
341.8019
 21
17.769231
 31
0.0
  0
LINE
  5
C2
330
BD
100
AcDbEntity
  8
0-1
  6
CONTINUOUS
 62
     7
100
AcDbLine
 10
341.8019
 20
17.769231
 30
0.0
 11
338.946131
 21
14.913462
 31
0.0
  0
LINE
  5
C3
330
BD
100
AcDbEntity
  8
0-1
  6
CONTINUOUS
 62
     7
100
AcDbLine
 10
338.946131
 20
14.913462
 30
0.0
 11
341.8019
 21
12.057692
 31
0.0
  0
LINE
  5
C4
330
BD
100
AcDbEntity
  8
0-1
  6
CONTINUOUS
 62
     7
100
AcDbLine
 10
341.8019
 20
12.057692
 30
0.0
 11
343.359592
 21
13.615385
 31
0.0
  0
LINE
  5
C5
330
BD
100
AcDbEntity
  8
0-1
  6
CONTINUOUS
 62
     7
100
AcDbLine
 10
343.359592
 20
13.615385
 30
0.0
 11
343.359592
 21
12.980769
 31
0.0
  0
LINE
  5
C6
330
BD
100
AcDbEntity
  8
0-1
  6
CONTINUOUS
 62
     7
100
AcDbLine
 10
343.359592
 20
12.980769
 30
0.0
 11
344.224977
 21
12.980769
 31
0.0
  0
LINE
  5
C7
330
BD
100
AcDbEntity
  8
0-1
  6
CONTINUOUS
 62
     7
100
AcDbLine
 10
344.224977
 20
12.980769
 30
0.0
 11
344.224977
 21
15.0
 31
0.0
  0
LINE
  5
C8
330
BD
100
AcDbEntity
  8
0-1
  6
CONTINUOUS
 62
     7
100
AcDbLine
 10
344.224977
 20
15.0
 30
0.0
 11
341.8019
 21
15.0
 31
0.0
  0
LINE
  5
C9
330
BD
100
AcDbEntity
  8
0-1
  6
CONTINUOUS
 62
     7
100
AcDbLine
 10
341.8019
 20
15.0
 30
0.0
 11
341.8019
 21
14.134615
 31
0.0
  0
LINE
  5
CA
330
BD
100
AcDbEntity
  8
0-1
  6
CONTINUOUS
 62
     7
100
AcDbLine
 10
341.8019
 20
14.134615
 30
0.0
 11
342.246131
 21
14.134615
 31
0.0
  0
LINE
  5
CB
330
BD
100
AcDbEntity
  8
0-1
  6
CONTINUOUS
 62
     7
100
AcDbLine
 10
342.246131
 20
14.134615
 30
0.0
 11
341.8019
 21
13.690385
 31
0.0
  0
LINE
  5
CC
330
BD
100
AcDbEntity
  8
0-1
  6
CONTINUOUS
 62
     7
100
AcDbLine
 10
341.8019
 20
13.690385
 30
0.0
 11
340.578823
 21
14.913462
 31
0.0
  0
LINE
  5
CD
330
BD
100
AcDbEntity
  8
0-1
  6
CONTINUOUS
 62
     7
100
AcDbLine
 10
340.578823
 20
14.913462
 30
0.0
 11
341.8019
 21
16.136538
 31
0.0
  0
LINE
  5
CE
330
BD
100
AcDbEntity
  8
0-1
  6
CONTINUOUS
 62
     7
100
AcDbLine
 10
341.8019
 20
16.136538
 30
0.0
 11
342.592284
 21
15.346154
 31
0.0
  0
LINE
  5
CF
330
BD
100
AcDbEntity
  8
0-1
  6
CONTINUOUS
 62
     7
100
AcDbLine
 10
342.592284
 20
15.346154
 30
0.0
 11
344.224977
 21
15.346154
 31
0.0
  0
ENDBLK
  5
BF
330
BD
100
AcDbEntity
  8
0
100
AcDbBlockEnd
  0
BLOCK
  5
126
330
125
100
AcDbEntity
  8
0
100
AcDbBlockBegin
  2
*D22
 70
     1
 71
     0
 10
0.0
 20
0.0
 30
0.0
  3
*D22
  1

  0
TEXT
  5
128
330
125
100
AcDbEntity
  8
LAYERGROUP-1
  6
CONTINUOUS
 62
     7
100
AcDbText
 10
235.362061
 20
31.675903
 30
0.0
 40
4.0
  1
30
 41
0.851351
  7
FX_VECTOR
 72
     5
 11
241.362061
 21
31.675903
 31
0.0
100
AcDbText
  0
LINE
  5
129
330
125
100
AcDbEntity
  8
LAYERGROUP-1
  6
CONTINUOUS
 62
     7
100
AcDbLine
 10
223.362069
 20
30.675894
 30
0.0
 11
253.362069
 21
30.675894
 31
0.0
  0
INSERT
  5
12A
330
125
100
AcDbEntity
  8
LAYERGROUP-1
  6
CONTINUOUS
 62
     7
100
AcDbBlockReference
  2
FXTIP_ARROW_S
 10
223.362069
 20
30.675894
 30
0.0
 41
4.0
 42
4.0
 50
180.0
  0
INSERT
  5
12B
330
125
100
AcDbEntity
  8
LAYERGROUP-1
  6
CONTINUOUS
 62
     7
100
AcDbBlockReference
  2
FXTIP_ARROW_E
 10
253.362069
 20
30.675894
 30
0.0
 41
4.0
 42
4.0
 50
360.0
  0
LINE
  5
12C
330
125
100
AcDbEntity
  8
LAYERGROUP-1
  6
CONTINUOUS
 62
     7
100
AcDbLine
 10
223.362069
 20
36.634863
 30
0.0
 11
223.362069
 21
29.675894
 31
0.0
  0
LINE
  5
12D
330
125
100
AcDbEntity
  8
LAYERGROUP-1
  6
CONTINUOUS
 62
     7
100
AcDbLine
 10
253.362069
 20
113.261417
 30
0.0
 11
253.362069
 21
29.675894
 31
0.0
  0
ENDBLK
  5
127
330
125
100
AcDbEntity
  8
0
100
AcDbBlockEnd
  0
BLOCK
  5
130
330
12F
100
AcDbEntity
  8
0
100
AcDbBlockBegin
  2
*D23
 70
     1
 71
     0
 10
0.0
 20
0.0
 30
0.0
  3
*D23
  1

  0
TEXT
  5
132
330
12F
100
AcDbEntity
  8
LAYERGROUP-1
  6
CONTINUOUS
 62
     7
100
AcDbText
 10
322.362061
 20
97.437607
 30
0.0
 40
4.0
  1
122
 50
90.0
 41
0.828947
  7
FX_VECTOR
 72
     5
 11
322.362061
 21
106.437607
 31
0.0
100
AcDbText
  0
LINE
  5
133
330
12F
100
AcDbEntity
  8
LAYERGROUP-1
  6
CONTINUOUS
 62
     7
100
AcDbLine
 10
323.362069
 20
40.937609
 30
0.0
 11
323.362069
 21
162.937609
 31
0.0
  0
INSERT
  5
134
330
12F
100
AcDbEntity
  8
LAYERGROUP-1
  6
CONTINUOUS
 62
     7
100
AcDbBlockReference
  2
FXTIP_ARROW_S
 10
323.362069
 20
40.937609
 30
0.0
 41
4.0
 42
4.0
 50
270.0
  0
INSERT
  5
135
330
12F
100
AcDbEntity
  8
LAYERGROUP-1
  6
CONTINUOUS
 62
     7
100
AcDbBlockReference
  2
FXTIP_ARROW_E
 10
323.362069
 20
162.937609
 30
0.0
 41
4.0
 42
4.0
 50
90.0
  0
LINE
  5
136
330
12F
100
AcDbEntity
  8
LAYERGROUP-1
  6
CONTINUOUS
 62
     7
100
AcDbLine
 10
224.362069
 20
40.937609
 30
0.0
 11
324.362069
 21
40.937609
 31
0.0
  0
LINE
  5
137
330
12F
100
AcDbEntity
  8
LAYERGROUP-1
  6
CONTINUOUS
 62
     7
100
AcDbLine
 10
304.362069
 20
162.937609
 30
0.0
 11
324.362069
 21
162.937609
 31
0.0
  0
ENDBLK
  5
131
330
12F
100
AcDbEntity
  8
0
100
AcDbBlockEnd
  0
BLOCK
  5
13A
330
139
100
AcDbEntity
  8
0
100
AcDbBlockBegin
  2
*D24
 70
     1
 71
     0
 10
0.0
 20
0.0
 30
0.0
  3
*D24
  1

  0
TEXT
  5
13C
330
139
100
AcDbEntity
  8
LAYERGROUP-1
  6
CONTINUOUS
 62
     7
100
AcDbText
 10
312.362061
 20
123.937607
 30
0.0
 40
4.0
  1
72
 50
90.0
 41
0.851351
  7
FX_VECTOR
 72
     5
 11
312.362061
 21
129.937607
 31
0.0
100
AcDbText
  0
LINE
  5
13D
330
139
100
AcDbEntity
  8
LAYERGROUP-1
  6
CONTINUOUS
 62
     7
100
AcDbLine
 10
313.362069
 20
90.937609
 30
0.0
 11
313.362069
 21
162.937609
 31
0.0
  0
INSERT
  5
13E
330
139
100
AcDbEntity
  8
LAYERGROUP-1
  6
CONTINUOUS
 62
     7
100
AcDbBlockReference
  2
FXTIP_ARROW_S
 10
313.362069
 20
90.937609
 30
0.0
 41
4.0
 42
4.0
 50
270.0
  0
INSERT
  5
13F
330
139
100
AcDbEntity
  8
LAYERGROUP-1
  6
CONTINUOUS
 62
     7
100
AcDbBlockReference
  2
FXTIP_ARROW_E
 10
313.362069
 20
162.937609
 30
0.0
 41
4.0
 42
4.0
 50
90.0
  0
LINE
  5
140
330
139
100
AcDbEntity
  8
LAYERGROUP-1
  6
CONTINUOUS
 62
     7
100
AcDbLine
 10
277.45977
 20
90.937609
 30
0.0
 11
314.362069
 21
90.937609
 31
0.0
  0
ENDBLK
  5
13B
330
139
100
AcDbEntity
  8
0
100
AcDbBlockEnd
  0
BLOCK
  5
143
330
142
100
AcDbEntity
  8
0
100
AcDbBlockBegin
  2
*D25
 70
     1
 71
     0
 10
0.0
 20
0.0
 30
0.0
  3
*D25
  1

  0
TEXT
  5
145
330
142
100
AcDbEntity
  8
LAYERGROUP-1
  6
CONTINUOUS
 62
     7
100
AcDbText
 10
88.350868
 20
84.937607
 30
0.0
 40
4.0
  1
%%c100
 50
90.0
 41
0.828947
  7
FX_VECTOR
 72
     5
 11
88.350868
 21
96.937607
 31
0.0
100
AcDbText
  0
LINE
  5
146
330
142
100
AcDbEntity
  8
LAYERGROUP-1
  6
CONTINUOUS
 62
     7
100
AcDbLine
 10
89.350875
 20
40.937609
 30
0.0
 11
89.350875
 21
140.937609
 31
0.0
  0
INSERT
  5
147
330
142
100
AcDbEntity
  8
LAYERGROUP-1
  6
CONTINUOUS
 62
     7
100
AcDbBlockReference
  2
FXTIP_ARROW_S
 10
89.350875
 20
40.937609
 30
0.0
 41
4.0
 42
4.0
 50
270.0
  0
INSERT
  5
148
330
142
100
AcDbEntity
  8
LAYERGROUP-1
  6
CONTINUOUS
 62
     7
100
AcDbBlockReference
  2
FXTIP_ARROW_E
 10
89.350875
 20
140.937609
 30
0.0
 41
4.0
 42
4.0
 50
90.0
  0
LINE
  5
149
330
142
100
AcDbEntity
  8
LAYERGROUP-1
  6
CONTINUOUS
 62
     7
100
AcDbLine
 10
120.153091
 20
40.937609
 30
0.0
 11
88.350875
 21
40.937609
 31
0.0
  0
LINE
  5
14A
330
142
100
AcDbEntity
  8
LAYERGROUP-1
  6
CONTINUOUS
 62
     7
100
AcDbLine
 10
120.153091
 20
140.937609
 30
0.0
 11
88.350875
 21
140.937609
 31
0.0
  0
ENDBLK
  5
144
330
142
100
AcDbEntity
  8
0
100
AcDbBlockEnd
  0
BLOCK
  5
150
330
14F
100
AcDbEntity
  8
0
100
AcDbBlockBegin
  2
BLKF028
 70
     0
 71
     0
 10
0.0
 20
0.0
 30
0.0
  3
BLKF028
  1

  0
LINE
  5
153
330
14F
100
AcDbEntity
  8
GR1-1
  6
CONTINUOUS
 62
     3
100
AcDbLine
 10
184.087134
 20
122.786821
 30
0.0
 11
208.576486
 21
109.212151
 31
0.0
  0
ARC
  5
154
330
14F
100
AcDbEntity
  8
GR1-1
  6
CONTINUOUS
 62
     3
100
AcDbCircle
 10
208.723257
 20
109.685944
 30
0.0
 40
0.4960057236987396
100
AcDbArc
 50
252.788152
 51
303.196314
  0
LINE
  5
155
330
14F
100
AcDbEntity
  8
GR1-1
  6
CONTINUOUS
 62
     3
100
AcDbLine
 10
208.576486
 20
109.212151
 30
0.0
 11
209.691548
 21
111.223776
 31
0.0
  0
LINE
  5
156
330
14F
100
AcDbEntity
  8
GR1-1
  6
CONTINUOUS
 62
     3
100
AcDbLine
 10
209.691548
 20
111.223776
 30
0.0
 11
185.202197
 21
124.798446
 31
0.0
  0
LINE
  5
157
330
14F
100
AcDbEntity
  8
GR1-1
  6
CONTINUOUS
 62
     3
100
AcDbLine
 10
185.202197
 20
124.798446
 30
0.0
 11
184.087134
 21
122.786821
 31
0.0
  0
ARC
  5
158
330
14F
100
AcDbEntity
  8
GR1-1
  6
CONTINUOUS
 62
     3
100
AcDbCircle
 10
197.117197
 20
116.569331
 30
0.0
 40
12.0
100
AcDbArc
 50
155.201451
 51
230.0
  0
LINE
  5
159
330
14F
100
AcDbEntity
  8
GR1-1
  6
CONTINUOUS
 62
     3
100
AcDbLine
 10
189.403746
 20
107.376798
 30
0.0
 11
192.613691
 21
104.683334
 31
0.0
  0
ARC
  5
15A
330
14F
100
AcDbEntity
  8
GR1-1
  6
CONTINUOUS
 62
     3
100
AcDbCircle
 10
204.591236
 20
105.417106
 30
0.0
 40
12.0
100
AcDbArc
 50
183.50569
 51
260.0
  0
LINE
  5
15B
330
14F
100
AcDbEntity
  8
GR1-1
  6
CONTINUOUS
 62
     3
100
AcDbLine
 10
202.507458
 20
93.599413
 30
0.0
 11
204.11114
 21
93.316641
 31
0.0
  0
ARC
  5
15C
330
14F
100
AcDbEntity
  8
GR1-1
  6
CONTINUOUS
 62
     3
100
AcDbCircle
 10
203.937492
 20
92.331833
 30
0.0
 40
1.0
100
AcDbArc
 50
20.0
 51
80.0
  0
LINE
  5
15D
330
14F
100
AcDbEntity
  8
GR1-1
  6
CONTINUOUS
 62
     3
100
AcDbLine
 10
204.877184
 20
92.673853
 30
0.0
 11
208.332829
 21
83.179547
 31
0.0
  0
ARC
  5
15E
330
14F
100
AcDbEntity
  8
GR1-1
  6
CONTINUOUS
 62
     3
100
AcDbCircle
 10
210.682061
 20
84.034597
 30
0.0
 40
2.5
100
AcDbArc
 50
200.0
 51
260.0
  0
LINE
  5
15F
330
14F
100
AcDbEntity
  8
GR1-1
  6
CONTINUOUS
 62
     3
100
AcDbLine
 10
210.24794
 20
81.572578
 30
0.0
 11
225.188383
 21
78.938175
 31
0.0
  0
ARC
  5
160
330
14F
100
AcDbEntity
  8
GR1-1
  6
CONTINUOUS
 62
     3
100
AcDbCircle
 10
224.754263
 20
76.476155
 30
0.0
 40
2.5
100
AcDbArc
 50
36.0
 51
80.0
  0
LINE
  5
161
330
14F
100
AcDbEntity
  8
GR1-1
  6
CONTINUOUS
 62
     3
100
AcDbLine
 10
226.776805
 20
77.945618
 30
0.0
 11
229.510232
 21
74.18338
 31
0.0
  0
ARC
  5
162
330
14F
100
AcDbEntity
  8
GR1-1
  6
CONTINUOUS
 62
     3
100
AcDbCircle
 10
239.218435
 20
81.236803
 30
0.0
 40
12.0
100
AcDbArc
 50
216.0
 51
298.441812
  0
LINE
  5
163
330
14F
100
AcDbEntity
  8
GR1-1
  6
CONTINUOUS
 62
     3
100
AcDbLine
 10
244.933628
 20
70.685188
 30
0.0
 11
249.618596
 21
69.16295
 31
0.0
  0
ARC
  5
164
330
14F
100
AcDbEntity
  8
GR1-1
  6
CONTINUOUS
 62
     3
100
AcDbCircle
 10
253.318311
 20
80.578382
 30
0.0
 40
12.0
100
AcDbArc
 50
252.042612
 51
311.926055
  0
LINE
  5
165
330
14F
100
AcDbEntity
  8
GR1-1
  6
CONTINUOUS
 62
     3
100
AcDbLine
 10
263.820314
 20
69.638824
 30
0.0
 11
265.267751
 21
71.42626
 31
0.0
  0
LINE
  5
166
330
14F
100
AcDbEntity
  8
GR1-1
  6
CONTINUOUS
 62
     3
100
AcDbLine
 10
265.267751
 20
71.42626
 30
0.0
 11
243.507664
 21
89.047231
 31
0.0
  0
LINE
  5
167
330
14F
100
AcDbEntity
  8
GR1-1
  6
CONTINUOUS
 62
     3
100
AcDbLine
 10
243.507664
 20
89.047231
 30
0.0
 11
242.060227
 21
87.259795
 31
0.0
  0
LINE
  5
168
330
14F
100
AcDbEntity
  8
GR1-1
  6
CONTINUOUS
 62
     3
100
AcDbLine
 10
242.060227
 20
87.259795
 30
0.0
 11
263.820314
 21
69.638824
 31
0.0
  0
ARC
  5
169
330
14F
100
AcDbEntity
  8
GR1-1
  6
CONTINUOUS
 62
     3
100
AcDbCircle
 10
244.069549
 20
88.310847
 30
0.0
 40
2.267615741879381
100
AcDbArc
 50
176.997038
 51
207.613524
  0
ARC
  5
16A
330
14F
100
AcDbEntity
  8
GR1-1
  6
CONTINUOUS
 62
     3
100
AcDbCircle
 10
241.681106
 20
91.427081
 30
0.0
 40
3.0
100
AcDbArc
 50
231.0
 51
307.506601
  0
ARC
  5
16B
330
14F
100
AcDbEntity
  8
GR1-1
  6
CONTINUOUS
 62
     3
100
AcDbCircle
 10
227.591515
 20
86.130137
 30
0.0
 40
12.0
100
AcDbArc
 50
20.852643
 51
89.756055
  0
LINE
  5
16C
330
14F
100
AcDbEntity
  8
GR1-1
  6
CONTINUOUS
 62
     3
100
AcDbLine
 10
227.642607
 20
98.130029
 30
0.0
 11
221.612127
 21
103.753542
 31
0.0
  0
ARC
  5
16D
330
14F
100
AcDbEntity
  8
GR1-1
  6
CONTINUOUS
 62
     3
100
AcDbCircle
 10
218.884134
 20
100.828127
 30
0.0
 40
4.0
100
AcDbArc
 50
47.0
 51
79.740664
  0
LINE
  5
16E
330
14F
100
AcDbEntity
  8
GR1-1
  6
CONTINUOUS
 62
     3
100
AcDbLine
 10
219.596549
 20
104.764174
 30
0.0
 11
211.472762
 21
106.234561
 31
0.0
  0
ARC
  5
16F
330
14F
100
AcDbEntity
  8
GR1-1
  6
CONTINUOUS
 62
     3
100
AcDbCircle
 10
211.993707
 20
109.188984
 30
0.0
 40
3.0
100
AcDbArc
 50
151.0
 51
260.0
  0
ARC
  5
170
330
14F
100
AcDbEntity
  8
GR1-1
  6
CONTINUOUS
 62
     3
100
AcDbCircle
 10
241.60024
 20
91.492564
 30
0.0
 40
3.0
100
AcDbArc
 50
200.946444
 51
231.0
  0
LINE
  5
171
330
14F
100
AcDbEntity
  8
GR1-1
  6
CONTINUOUS
 62
     6
100
AcDbLine
 10
240.339063
 20
88.744
 30
0.0
 11
236.937977
 21
69.455483
 31
0.0
  0
LINE
  5
172
330
14F
100
AcDbEntity
  8
GR1-1
  6
CONTINUOUS
 62
     6
100
AcDbLine
 10
228.804154
 20
75.155212
 30
0.0
 11
232.657458
 21
97.008383
 31
0.0
  0
ARC
  5
173
330
14F
100
AcDbEntity
  8
GR1-1
  6
CONTINUOUS
 62
     6
100
AcDbCircle
 10
214.081913
 20
97.180622
 30
0.0
 40
2.4
100
AcDbArc
 50
-102.299906
 51
77.700094
  0
ARC
  5
174
330
14F
100
AcDbEntity
  8
GR1-1
  6
CONTINUOUS
 62
     6
100
AcDbCircle
 10
219.961507
 20
124.14709
 30
0.0
 40
30.0
100
AcDbArc
 50
211.40305
 51
257.700094
  0
ARC
  5
175
330
14F
100
AcDbEntity
  8
GR1-1
  6
CONTINUOUS
 62
     6
100
AcDbCircle
 10
196.404271
 20
109.76597
 30
0.0
 40
2.4
100
AcDbArc
 50
31.40305
 51
211.40305
  0
ARC
  5
176
330
14F
100
AcDbEntity
  8
GR1-1
  6
CONTINUOUS
 62
     6
100
AcDbCircle
 10
219.961507
 20
124.14709
 30
0.0
 40
25.2
100
AcDbArc
 50
211.40305
 51
257.700094
  0
ENDBLK
  5
151
330
14F
100
AcDbEntity
  8
0
100
AcDbBlockEnd
  0
BLOCK
  5
1CB
330
1CA
100
AcDbEntity
  8
0
100
AcDbBlockBegin
  2
*D27
 70
     1
 71
     0
 10
0.0
 20
0.0
 30
0.0
  3
*D27
  1

  0
TEXT
  5
1CD
330
1CA
100
AcDbEntity
  8
LAYERGROUP-1
  6
CONTINUOUS
 62
     7
100
AcDbText
 10
310.113466
 20
211.565157
 30
0.0
 40
4.0
  1
4-%%c9
 50
313.842834
 41
0.777778
  7
FX_VECTOR
 72
     5
 11
318.425657
 21
202.910246
 31
0.0
100
AcDbText
  0
LINE
  5
1CE
330
1CA
100
AcDbEntity
  8
LAYERGROUP-1
  6
CONTINUOUS
 62
     7
100
AcDbLine
 10
297.47914
 20
222.435398
 30
0.0
 11
291.244998
 21
228.926582
 31
0.0
  0
LINE
  5
1CF
330
1CA
100
AcDbEntity
  8
LAYERGROUP-1
  6
CONTINUOUS
 62
     7
100
AcDbLine
 10
297.47914
 20
222.435398
 30
0.0
 11
319.979716
 21
199.007099
 31
0.0
  0
INSERT
  5
1D0
330
1CA
100
AcDbEntity
  8
LAYERGROUP-1
  6
CONTINUOUS
 62
     7
100
AcDbBlockReference
  2
FXTIP_ARROW_S
 10
297.47914
 20
222.435398
 30
0.0
 41
4.0
 42
4.0
 50
133.842832
  0
LINE
  5
1D1
330
1CA
100
AcDbEntity
  8
LAYERGROUP-1
  6
CONTINUOUS
 62
     7
100
AcDbLine
 10
291.244998
 20
228.926582
 30
0.0
 11
287.088902
 21
233.254037
 31
0.0
  0
INSERT
  5
1D2
330
1CA
100
AcDbEntity
  8
LAYERGROUP-1
  6
CONTINUOUS
 62
     7
100
AcDbBlockReference
  2
FXTIP_ARROW_S
 10
291.244998
 20
228.926582
 30
0.0
 41
4.0
 42
4.0
 50
313.842832
  0
ENDBLK
  5
1CC
330
1CA
100
AcDbEntity
  8
0
100
AcDbBlockEnd
  0
BLOCK
  5
211
330
210
100
AcDbEntity
  8
0
100
AcDbBlockBegin
  2
*D28
 70
     1
 71
     0
 10
0.0
 20
0.0
 30
0.0
  3
*D28
  1

  0
TEXT
  5
213
330
210
100
AcDbEntity
  8
LAYERGROUP-1
  6
CONTINUOUS
 62
     7
100
AcDbText
 10
164.539947
 20
224.216148
 30
0.0
 40
4.0
  1
R76
 50
14.212708
 41
0.814655
  7
FX_VECTOR
 72
     5
 11
173.264466
 21
226.42585
 31
0.0
100
AcDbText
  0
LINE
  5
214
330
210
100
AcDbEntity
  8
LAYERGROUP-1
  6
CONTINUOUS
 62
     7
100
AcDbLine
 10
179.528659
 20
226.98084
 30
0.0
 11
253.362069
 21
245.68099
 31
0.0
  0
LINE
  5
215
330
210
100
AcDbEntity
  8
LAYERGROUP-1
  6
CONTINUOUS
 62
     7
100
AcDbLine
 10
179.528659
 20
226.98084
 30
0.0
 11
158.766765
 21
221.722373
 31
0.0
  0
INSERT
  5
216
330
210
100
AcDbEntity
  8
LAYERGROUP-1
  6
CONTINUOUS
 62
     7
100
AcDbBlockReference
  2
FXTIP_ARROW_S
 10
179.528659
 20
226.98084
 30
0.0
 41
4.0
 42
4.0
 50
14.212708
  0
ENDBLK
  5
212
330
210
100
AcDbEntity
  8
0
100
AcDbBlockEnd
  0
BLOCK
  5
225
330
224
100
AcDbEntity
  8
0
100
AcDbBlockBegin
  2
*D29
 70
     1
 71
     0
 10
0.0
 20
0.0
 30
0.0
  3
*D29
  1

  0
TEXT
  5
227
330
224
100
AcDbEntity
  8
GR1-1
  6
CONTINUOUS
 62
     7
100
AcDbText
 10
322.011536
 20
242.680984
 30
0.0
 40
4.0
  1
58
 50
90.0
 41
0.851351
  7
FX_VECTOR
 72
     5
 11
322.011536
 21
248.680984
 31
0.0
100
AcDbText
  0
LINE
  5
228
330
224
100
AcDbEntity
  8
GR1-1
  6
CONTINUOUS
 62
     7
100
AcDbLine
 10
323.011529
 20
216.68099
 30
0.0
 11
323.011529
 21
274.68099
 31
0.0
  0
INSERT
  5
229
330
224
100
AcDbEntity
  8
GR1-1
  6
CONTINUOUS
 62
     7
100
AcDbBlockReference
  2
FXTIP_ARROW_S
 10
323.011529
 20
216.68099
 30
0.0
 41
4.0
 42
4.0
 50
270.0
  0
INSERT
  5
22A
330
224
100
AcDbEntity
  8
GR1-1
  6
CONTINUOUS
 62
     7
100
AcDbBlockReference
  2
FXTIP_ARROW_E
 10
323.011529
 20
274.68099
 30
0.0
 41
4.0
 42
4.0
 50
90.0
  0
LINE
  5
22B
330
224
100
AcDbEntity
  8
GR1-1
  6
CONTINUOUS
 62
     7
100
AcDbLine
 10
297.362069
 20
216.68099
 30
0.0
 11
324.011529
 21
216.68099
 31
0.0
  0
LINE
  5
22C
330
224
100
AcDbEntity
  8
GR1-1
  6
CONTINUOUS
 62
     7
100
AcDbLine
 10
297.362069
 20
274.68099
 30
0.0
 11
324.011529
 21
274.68099
 31
0.0
  0
ENDBLK
  5
226
330
224
100
AcDbEntity
  8
0
100
AcDbBlockEnd
  0
BLOCK
  5
22F
330
22E
100
AcDbEntity
  8
0
100
AcDbBlockBegin
  2
*D30
 70
     1
 71
     0
 10
0.0
 20
0.0
 30
0.0
  3
*D30
  1

  0
TEXT
  5
231
330
22E
100
AcDbEntity
  8
GR1-1
  6
CONTINUOUS
 62
     7
100
AcDbText
 10
312.011536
 20
242.680984
 30
0.0
 40
4.0
  1
40
 50
90.0
 41
0.851351
  7
FX_VECTOR
 72
     5
 11
312.011536
 21
248.680984
 31
0.0
100
AcDbText
  0
LINE
  5
232
330
22E
100
AcDbEntity
  8
GR1-1
  6
CONTINUOUS
 62
     7
100
AcDbLine
 10
313.011529
 20
225.68099
 30
0.0
 11
313.011529
 21
265.68099
 31
0.0
  0
INSERT
  5
233
330
22E
100
AcDbEntity
  8
GR1-1
  6
CONTINUOUS
 62
     7
100
AcDbBlockReference
  2
FXTIP_ARROW_S
 10
313.011529
 20
225.68099
 30
0.0
 41
4.0
 42
4.0
 50
270.0
  0
INSERT
  5
234
330
22E
100
AcDbEntity
  8
GR1-1
  6
CONTINUOUS
 62
     7
100
AcDbBlockReference
  2
FXTIP_ARROW_E
 10
313.011529
 20
265.68099
 30
0.0
 41
4.0
 42
4.0
 50
90.0
  0
LINE
  5
235
330
22E
100
AcDbEntity
  8
GR1-1
  6
CONTINUOUS
 62
     7
100
AcDbLine
 10
303.362069
 20
225.68099
 30
0.0
 11
314.011529
 21
225.68099
 31
0.0
  0
LINE
  5
236
330
22E
100
AcDbEntity
  8
GR1-1
  6
CONTINUOUS
 62
     7
100
AcDbLine
 10
303.362069
 20
265.68099
 30
0.0
 11
314.011529
 21
265.68099
 31
0.0
  0
ENDBLK
  5
230
330
22E
100
AcDbEntity
  8
0
100
AcDbBlockEnd
  0
BLOCK
  5
239
330
238
100
AcDbEntity
  8
0
100
AcDbBlockBegin
  2
*D31
 70
     1
 71
     0
 10
0.0
 20
0.0
 30
0.0
  3
*D31
  1

  0
TEXT
  5
23B
330
238
100
AcDbEntity
  8
GR1-1
  6
CONTINUOUS
 62
     7
100
AcDbText
 10
248.862061
 20
181.330994
 30
0.0
 40
4.0
  1
100
 41
0.828947
  7
FX_VECTOR
 72
     5
 11
257.862061
 21
181.330994
 31
0.0
100
AcDbText
  0
LINE
  5
23C
330
238
100
AcDbEntity
  8
GR1-1
  6
CONTINUOUS
 62
     7
100
AcDbLine
 10
203.362069
 20
180.330992
 30
0.0
 11
303.362069
 21
180.330992
 31
0.0
  0
INSERT
  5
23D
330
238
100
AcDbEntity
  8
GR1-1
  6
CONTINUOUS
 62
     7
100
AcDbBlockReference
  2
FXTIP_ARROW_S
 10
203.362069
 20
180.330992
 30
0.0
 41
4.0
 42
4.0
 50
180.0
  0
INSERT
  5
23E
330
238
100
AcDbEntity
  8
GR1-1
  6
CONTINUOUS
 62
     7
100
AcDbBlockReference
  2
FXTIP_ARROW_E
 10
303.362069
 20
180.330992
 30
0.0
 41
4.0
 42
4.0
 50
360.0
  0
LINE
  5
23F
330
238
100
AcDbEntity
  8
GR1-1
  6
CONTINUOUS
 62
     7
100
AcDbLine
 10
203.362069
 20
222.68099
 30
0.0
 11
203.362069
 21
179.330992
 31
0.0
  0
LINE
  5
240
330
238
100
AcDbEntity
  8
GR1-1
  6
CONTINUOUS
 62
     7
100
AcDbLine
 10
303.362069
 20
222.68099
 30
0.0
 11
303.362069
 21
179.330992
 31
0.0
  0
ENDBLK
  5
23A
330
238
100
AcDbEntity
  8
0
100
AcDbBlockEnd
  0
BLOCK
  5
243
330
242
100
AcDbEntity
  8
0
100
AcDbBlockBegin
  2
*D32
 70
     1
 71
     0
 10
0.0
 20
0.0
 30
0.0
  3
*D32
  1

  0
TEXT
  5
245
330
242
100
AcDbEntity
  8
GR1-1
  6
CONTINUOUS
 62
     7
100
AcDbText
 10
250.362061
 20
191.330994
 30
0.0
 40
4.0
  1
82
 41
0.851351
  7
FX_VECTOR
 72
     5
 11
256.362061
 21
191.330994
 31
0.0
100
AcDbText
  0
LINE
  5
246
330
242
100
AcDbEntity
  8
GR1-1
  6
CONTINUOUS
 62
     7
100
AcDbLine
 10
212.362069
 20
190.330992
 30
0.0
 11
294.362069
 21
190.330992
 31
0.0
  0
INSERT
  5
247
330
242
100
AcDbEntity
  8
GR1-1
  6
CONTINUOUS
 62
     7
100
AcDbBlockReference
  2
FXTIP_ARROW_S
 10
212.362069
 20
190.330992
 30
0.0
 41
4.0
 42
4.0
 50
180.0
  0
INSERT
  5
248
330
242
100
AcDbEntity
  8
GR1-1
  6
CONTINUOUS
 62
     7
100
AcDbBlockReference
  2
FXTIP_ARROW_E
 10
294.362069
 20
190.330992
 30
0.0
 41
4.0
 42
4.0
 50
360.0
  0
LINE
  5
249
330
242
100
AcDbEntity
  8
GR1-1
  6
CONTINUOUS
 62
     7
100
AcDbLine
 10
212.362069
 20
216.68099
 30
0.0
 11
212.362069
 21
189.330992
 31
0.0
  0
LINE
  5
24A
330
242
100
AcDbEntity
  8
GR1-1
  6
CONTINUOUS
 62
     7
100
AcDbLine
 10
294.362069
 20
216.68099
 30
0.0
 11
294.362069
 21
189.330992
 31
0.0
  0
ENDBLK
  5
244
330
242
100
AcDbEntity
  8
0
100
AcDbBlockEnd
  0
BLOCK
  5
24F
330
24E
100
AcDbEntity
  8
0
100
AcDbBlockBegin
  2
*D33
 70
     1
 71
     0
 10
0.0
 20
0.0
 30
0.0
  3
*D33
  1

  0
TEXT
  5
251
330
24E
100
AcDbEntity
  8
LAYERGROUP-1
  6
CONTINUOUS
 62
     7
100
AcDbText
 10
118.153084
 20
22.222931
 30
0.0
 40
4.0
  1
30
 41
0.851351
  7
FX_VECTOR
 72
     5
 11
124.153084
 21
22.222931
 31
0.0
100
AcDbText
  0
LINE
  5
252
330
24E
100
AcDbEntity
  8
LAYERGROUP-1
  6
CONTINUOUS
 62
     7
100
AcDbLine
 10
106.153091
 20
21.222942
 30
0.0
 11
136.153091
 21
21.222942
 31
0.0
  0
INSERT
  5
253
330
24E
100
AcDbEntity
  8
LAYERGROUP-1
  6
CONTINUOUS
 62
     7
100
AcDbBlockReference
  2
FXTIP_ARROW_S
 10
106.153091
 20
21.222942
 30
0.0
 41
4.0
 42
4.0
 50
180.0
  0
INSERT
  5
254
330
24E
100
AcDbEntity
  8
LAYERGROUP-1
  6
CONTINUOUS
 62
     7
100
AcDbBlockReference
  2
FXTIP_ARROW_E
 10
136.153091
 20
21.222942
 30
0.0
 41
4.0
 42
4.0
 50
360.0
  0
LINE
  5
255
330
24E
100
AcDbEntity
  8
LAYERGROUP-1
  6
CONTINUOUS
 62
     7
100
AcDbLine
 10
106.153091
 20
75.937609
 30
0.0
 11
106.153091
 21
20.222942
 31
0.0
  0
LINE
  5
256
330
24E
100
AcDbEntity
  8
LAYERGROUP-1
  6
CONTINUOUS
 62
     7
100
AcDbLine
 10
136.153091
 20
75.937609
 30
0.0
 11
136.153091
 21
20.222942
 31
0.0
  0
ENDBLK
  5
250
330
24E
100
AcDbEntity
  8
0
100
AcDbBlockEnd
  0
BLOCK
  5
258
330
257
100
AcDbEntity
  8
0
100
AcDbBlockBegin
  2
BLKF036
 70
     0
 71
     0
 10
0.0
 20
0.0
 30
0.0
  3
BLKF036
  1

  0
LINE
  5
25B
330
257
100
AcDbEntity
  8
GR1-1
  6
CONTINUOUS
 62
     3
100
AcDbLine
 10
214.73692
 20
78.344026
 30
0.0
 11
215.095322
 21
80.376627
 31
0.0
  0
ARC
  5
25C
330
257
100
AcDbEntity
  8
GR1-1
  6
CONTINUOUS
 62
     3
100
AcDbCircle
 10
214.110515
 20
80.550275
 30
0.0
 40
1.0
100
AcDbArc
 50
-10.0
 51
9.635934
  0
ARC
  5
25D
330
257
100
AcDbEntity
  8
LAYERGROUP-1
  6
CONTINUOUS
 62
     3
100
AcDbCircle
 10
223.362069
 20
90.937609
 30
0.0
 40
43.5
100
AcDbArc
 50
103.10977
 51
136.195652
  0
ARC
  5
25E
330
257
100
AcDbEntity
  8
LAYERGROUP-1
  6
CONTINUOUS
 62
     6
100
AcDbCircle
 10
223.362069
 20
90.937609
 30
0.0
 40
38.5
100
AcDbArc
 50
186.400113
 51
233.599887
  0
ARC
  5
25F
330
257
100
AcDbEntity
  8
LAYERGROUP-1
  6
CONTINUOUS
 62
     6
100
AcDbCircle
 10
223.362069
 20
90.937609
 30
0.0
 40
38.5
100
AcDbArc
 50
105.128892
 51
113.519471
  0
LINE
  5
260
330
257
100
AcDbEntity
  8
LAYERGROUP-1
  6
CONTINUOUS
 62
     6
100
AcDbLine
 10
200.47191
 20
121.893879
 30
0.0
 11
204.210192
 21
114.262142
 31
0.0
  0
LINE
  5
261
330
257
100
AcDbEntity
  8
LAYERGROUP-1
  6
CONTINUOUS
 62
     6
100
AcDbLine
 10
207.998232
 20
126.239203
 30
0.0
 11
212.989455
 21
118.812273
 31
0.0
  0
LINE
  5
262
330
257
100
AcDbEntity
  8
LAYERGROUP-1
  6
CONTINUOUS
 62
     6
100
AcDbLine
 10
201.612069
 20
128.609714
 30
0.0
 11
200.47191
 21
121.893879
 31
0.0
  0
LINE
  5
263
330
257
100
AcDbEntity
  8
LAYERGROUP-1
  6
CONTINUOUS
 62
     6
100
AcDbLine
 10
201.612069
 20
128.609714
 30
0.0
 11
207.998232
 21
126.239203
 31
0.0
  0
LINE
  5
264
330
257
100
AcDbEntity
  8
LAYERGROUP-1
  6
CONTINUOUS
 62
     6
100
AcDbLine
 10
185.108074
 20
86.592285
 30
0.0
 11
205.24321
 21
85.218609
 31
0.0
  0
LINE
  5
265
330
257
100
AcDbEntity
  8
LAYERGROUP-1
  6
CONTINUOUS
 62
     6
100
AcDbLine
 10
185.108074
 20
95.282933
 30
0.0
 11
197.033055
 21
96.096489
 31
0.0
  0
LINE
  5
266
330
257
100
AcDbEntity
  8
LAYERGROUP-1
  6
CONTINUOUS
 62
     6
100
AcDbLine
 10
179.862069
 20
90.937609
 30
0.0
 11
185.108074
 21
86.592285
 31
0.0
  0
LINE
  5
267
330
257
100
AcDbEntity
  8
LAYERGROUP-1
  6
CONTINUOUS
 62
     6
100
AcDbLine
 10
179.862069
 20
90.937609
 30
0.0
 11
185.108074
 21
95.282933
 31
0.0
  0
LINE
  5
268
330
257
100
AcDbEntity
  8
LAYERGROUP-1
  6
CONTINUOUS
 62
     6
100
AcDbLine
 10
205.24321
 20
85.218609
 30
0.0
 11
206.802602
 21
87.383811
 31
0.0
  0
LINE
  5
269
330
257
100
AcDbEntity
  8
LAYERGROUP-1
  6
CONTINUOUS
 62
     6
100
AcDbLine
 10
207.998232
 20
55.636015
 30
0.0
 11
219.255439
 21
72.386717
 31
0.0
  0
LINE
  5
26A
330
257
100
AcDbEntity
  8
LAYERGROUP-1
  6
CONTINUOUS
 62
     6
100
AcDbLine
 10
200.47191
 20
59.981339
 30
0.0
 11
209.34984
 21
78.105717
 31
0.0
  0
LINE
  5
26B
330
257
100
AcDbEntity
  8
LAYERGROUP-1
  6
CONTINUOUS
 62
     6
100
AcDbLine
 10
201.612069
 20
53.265504
 30
0.0
 11
207.998232
 21
55.636015
 31
0.0
  0
LINE
  5
26C
330
257
100
AcDbEntity
  8
LAYERGROUP-1
  6
CONTINUOUS
 62
     6
100
AcDbLine
 10
201.612069
 20
53.265504
 30
0.0
 11
200.47191
 21
59.981339
 31
0.0
  0
LINE
  5
26D
330
257
100
AcDbEntity
  8
LAYERGROUP-1
  6
CONTINUOUS
 62
     6
100
AcDbLine
 10
219.255439
 20
72.386717
 30
0.0
 11
216.731683
 21
77.992295
 31
0.0
  0
LINE
  5
26E
330
257
100
AcDbEntity
  8
LAYERGROUP-1
  6
CONTINUOUS
 62
     6
100
AcDbLine
 10
214.791718
 20
78.654805
 30
0.0
 11
209.34984
 21
78.105717
 31
0.0
  0
LINE
  5
26F
330
257
100
AcDbEntity
  8
LAYERGROUP-1
  6
CONTINUOUS
 62
     6
100
AcDbLine
 10
246.252228
 20
59.981339
 30
0.0
 11
241.601516
 21
69.475811
 31
0.0
  0
LINE
  5
270
330
257
100
AcDbEntity
  8
LAYERGROUP-1
  6
CONTINUOUS
 62
     6
100
AcDbLine
 10
238.725906
 20
55.636015
 30
0.0
 11
227.468699
 21
72.386717
 31
0.0
  0
LINE
  5
271
330
257
100
AcDbEntity
  8
LAYERGROUP-1
  6
CONTINUOUS
 62
     6
100
AcDbLine
 10
245.112069
 20
53.265504
 30
0.0
 11
246.252228
 21
59.981339
 31
0.0
  0
LINE
  5
272
330
257
100
AcDbEntity
  8
LAYERGROUP-1
  6
CONTINUOUS
 62
     6
100
AcDbLine
 10
245.112069
 20
53.265504
 30
0.0
 11
238.725906
 21
55.636015
 31
0.0
  0
LINE
  5
273
330
257
100
AcDbEntity
  8
LAYERGROUP-1
  6
CONTINUOUS
 62
     6
100
AcDbLine
 10
228.749195
 20
75.230858
 30
0.0
 11
227.468699
 21
72.386717
 31
0.0
  0
LINE
  5
274
330
257
100
AcDbEntity
  8
LAYERGROUP-1
  6
CONTINUOUS
 62
     6
100
AcDbLine
 10
261.616064
 20
95.282933
 30
0.0
 11
241.480928
 21
96.656609
 31
0.0
  0
LINE
  5
275
330
257
100
AcDbEntity
  8
LAYERGROUP-1
  6
CONTINUOUS
 62
     6
100
AcDbLine
 10
261.616064
 20
86.592285
 30
0.0
 11
247.710766
 21
85.643627
 31
0.0
  0
LINE
  5
276
330
257
100
AcDbEntity
  8
LAYERGROUP-1
  6
CONTINUOUS
 62
     6
100
AcDbLine
 10
266.862069
 20
90.937609
 30
0.0
 11
261.616064
 21
95.282933
 31
0.0
  0
LINE
  5
277
330
257
100
AcDbEntity
  8
LAYERGROUP-1
  6
CONTINUOUS
 62
     6
100
AcDbLine
 10
266.862069
 20
90.937609
 30
0.0
 11
261.616064
 21
86.592285
 31
0.0
  0
LINE
  5
278
330
257
100
AcDbEntity
  8
LAYERGROUP-1
  6
CONTINUOUS
 62
     6
100
AcDbLine
 10
241.480928
 20
96.656609
 30
0.0
 11
238.088126
 21
91.945733
 31
0.0
  0
ARC
  5
279
330
257
100
AcDbEntity
  8
LAYERGROUP-1
  6
CONTINUOUS
 62
     6
100
AcDbCircle
 10
223.362069
 20
90.937609
 30
0.0
 40
38.5
100
AcDbArc
 50
126.480529
 51
134.219652
  0
ARC
  5
27A
330
257
100
AcDbEntity
  8
LAYERGROUP-1
  6
CONTINUOUS
 62
     6
100
AcDbCircle
 10
223.362069
 20
90.937609
 30
0.0
 40
38.5
100
AcDbArc
 50
246.480529
 51
293.519471
  0
ARC
  5
27B
330
257
100
AcDbEntity
  8
LAYERGROUP-1
  6
CONTINUOUS
 62
     6
100
AcDbCircle
 10
223.362069
 20
90.937609
 30
0.0
 40
38.5
100
AcDbArc
 50
306.480529
 51
324.656186
  0
ARC
  5
27C
330
257
100
AcDbEntity
  8
LAYERGROUP-1
  6
CONTINUOUS
 62
     6
100
AcDbCircle
 10
223.362069
 20
90.937609
 30
0.0
 40
38.5
100
AcDbArc
 50
6.480529
 51
44.643334
  0
LINE
  5
27D
330
257
100
AcDbEntity
  8
LAYERGROUP-1
  6
CONTINUOUS
 62
     6
100
AcDbLine
 10
237.362069
 20
90.937609
 30
0.0
 11
266.862069
 21
90.937609
 31
0.0
  0
LINE
  5
27E
330
257
100
AcDbEntity
  8
LAYERGROUP-1
  6
CONTINUOUS
 62
     6
100
AcDbLine
 10
235.561487
 20
69.807598
 30
0.0
 11
245.112069
 21
53.265504
 31
0.0
  0
LINE
  5
27F
330
257
100
AcDbEntity
  8
LAYERGROUP-1
  6
CONTINUOUS
 62
     6
100
AcDbLine
 10
201.612069
 20
128.609714
 30
0.0
 11
212.663168
 21
109.468649
 31
0.0
  0
LINE
  5
280
330
257
100
AcDbEntity
  8
LAYERGROUP-1
  6
CONTINUOUS
 62
     6
100
AcDbLine
 10
215.966033
 20
78.1273
 30
0.0
 11
201.612069
 21
53.265504
 31
0.0
  0
ARC
  5
281
330
257
100
AcDbEntity
  8
LAYERGROUP-1
  6
CONTINUOUS
 62
     6
100
AcDbCircle
 10
223.362069
 20
90.937609
 30
0.0
 40
19.0
100
AcDbArc
 50
197.517675
 51
222.482325
  0
ARC
  5
282
330
257
100
AcDbEntity
  8
LAYERGROUP-1
  6
CONTINUOUS
 62
     6
100
AcDbCircle
 10
223.362069
 20
90.937609
 30
0.0
 40
19.0
100
AcDbArc
 50
257.517675
 51
282.482325
  0
ARC
  5
283
330
257
100
AcDbEntity
  8
LAYERGROUP-1
  6
CONTINUOUS
 62
     6
100
AcDbCircle
 10
223.362069
 20
90.937609
 30
0.0
 40
19.0
100
AcDbArc
 50
17.463102
 51
26.204952
  0
INSERT
  5
287
330
257
100
AcDbEntity
  8
0
100
AcDbBlockReference
  2
BLKF037
 10
0.0
 20
0.0
 30
0.0
  0
LINE
  5
2DF
330
257
100
AcDbEntity
  8
GR1-1
  6
CONTINUOUS
 62
     7
100
AcDbLine
 10
246.47569
 20
108.901644
 30
0.0
 11
250.47619
 21
101.972575
 31
0.0
  0
LINE
  5
2E0
330
257
100
AcDbEntity
  8
GR1-1
  6
CONTINUOUS
 62
     7
100
AcDbLine
 10
250.47619
 20
101.972575
 30
0.0
 11
257.405259
 21
105.973075
 31
0.0
  0
LINE
  5
2E1
330
257
100
AcDbEntity
  8
GR1-1
  6
CONTINUOUS
 62
     7
100
AcDbLine
 10
257.405259
 20
105.973075
 30
0.0
 11
253.404759
 21
112.902144
 31
0.0
  0
LINE
  5
2E2
330
257
100
AcDbEntity
  8
GR1-1
  6
CONTINUOUS
 62
     7
100
AcDbLine
 10
253.404759
 20
112.902144
 30
0.0
 11
246.47569
 21
108.901644
 31
0.0
  0
LINE
  5
2E3
330
257
100
AcDbEntity
  8
GR1-1
  6
CONTINUOUS
 62
     7
100
AcDbLine
 10
250.05462
 20
110.703754
 30
0.0
 11
255.206869
 21
109.323213
 31
0.0
  0
LINE
  5
2E4
330
257
100
AcDbEntity
  8
GR1-1
  6
CONTINUOUS
 62
     7
100
AcDbLine
 10
255.206869
 20
109.323213
 30
0.0
 11
253.972757
 21
104.717443
 31
0.0
  0
LINE
  5
2E5
330
257
100
AcDbEntity
  8
GR1-1
  6
CONTINUOUS
 62
     7
100
AcDbLine
 10
253.972757
 20
104.717443
 30
0.0
 11
253.02983
 21
106.35064
 31
0.0
  0
LINE
  5
2E6
330
257
100
AcDbEntity
  8
GR1-1
  6
CONTINUOUS
 62
     7
100
AcDbLine
 10
253.02983
 20
106.35064
 30
0.0
 11
253.573672
 21
108.380286
 31
0.0
  0
LINE
  5
2E7
330
257
100
AcDbEntity
  8
GR1-1
  6
CONTINUOUS
 62
     7
100
AcDbLine
 10
253.573672
 20
108.380286
 30
0.0
 11
250.997547
 21
109.070556
 31
0.0
  0
LINE
  5
2E8
330
257
100
AcDbEntity
  8
GR1-1
  6
CONTINUOUS
 62
     7
100
AcDbLine
 10
250.997547
 20
109.070556
 30
0.0
 11
250.307277
 21
106.494432
 31
0.0
  0
LINE
  5
2E9
330
257
100
AcDbEntity
  8
GR1-1
  6
CONTINUOUS
 62
     7
100
AcDbLine
 10
250.307277
 20
106.494432
 30
0.0
 11
251.661638
 21
106.131532
 31
0.0
  0
ARC
  5
2EA
330
257
100
AcDbEntity
  8
GR1-1
  6
CONTINUOUS
 62
     7
100
AcDbCircle
 10
251.696152
 20
106.260339
 30
0.0
 40
0.13335
100
AcDbArc
 50
-105.0
 51
30.0
  0
LINE
  5
2EB
330
257
100
AcDbEntity
  8
GR1-1
  6
CONTINUOUS
 62
     7
100
AcDbLine
 10
251.811636
 20
106.327014
 30
0.0
 11
251.363052
 21
107.103984
 31
0.0
  0
LINE
  5
2EC
330
257
100
AcDbEntity
  8
GR1-1
  6
CONTINUOUS
 62
     7
100
AcDbLine
 10
251.363052
 20
107.103984
 30
0.0
 11
251.940474
 21
107.437359
 31
0.0
  0
LINE
  5
2ED
330
257
100
AcDbEntity
  8
GR1-1
  6
CONTINUOUS
 62
     7
100
AcDbLine
 10
251.940474
 20
107.437359
 30
0.0
 11
253.826328
 21
104.170965
 31
0.0
  0
LINE
  5
2EE
330
257
100
AcDbEntity
  8
GR1-1
  6
CONTINUOUS
 62
     7
100
AcDbLine
 10
253.826328
 20
104.170965
 30
0.0
 11
251.488552
 21
102.821249
 31
0.0
  0
LINE
  5
2EF
330
257
100
AcDbEntity
  8
GR1-1
  6
CONTINUOUS
 62
     7
100
AcDbLine
 10
251.488552
 20
102.821249
 30
0.0
 11
250.821802
 21
103.976094
 31
0.0
  0
LINE
  5
2F0
330
257
100
AcDbEntity
  8
GR1-1
  6
CONTINUOUS
 62
     7
100
AcDbLine
 10
250.821802
 20
103.976094
 30
0.0
 11
251.725929
 21
104.498092
 31
0.0
  0
ARC
  5
2F1
330
257
100
AcDbEntity
  8
GR1-1
  6
CONTINUOUS
 62
     7
100
AcDbCircle
 10
251.659254
 20
104.613576
 30
0.0
 40
0.13335
100
AcDbArc
 50
-60.0
 51
75.0
  0
LINE
  5
2F2
330
257
100
AcDbEntity
  8
GR1-1
  6
CONTINUOUS
 62
     7
100
AcDbLine
 10
251.693767
 20
104.742383
 30
0.0
 11
248.67408
 21
105.551505
 31
0.0
  0
LINE
  5
2F3
330
257
100
AcDbEntity
  8
GR1-1
  6
CONTINUOUS
 62
     7
100
AcDbLine
 10
248.67408
 20
105.551505
 30
0.0
 11
250.05462
 21
110.703754
 31
0.0
  0
TEXT
  5
2F4
330
257
100
AcDbEntity
  8
LAYERGROUP-1
  6
CONTINUOUS
 62
     7
100
AcDbText
 10
198.933105
 20
71.888329
 30
0.0
 40
7.111485
  1
0
 50
124.5
 41
0.667612
  7
FX_VECTOR
 72
     5
 11
196.756189
 21
75.055762
 31
0.0
100
AcDbText
  0
TEXT
  5
2F5
330
257
100
AcDbEntity
  8
LAYERGROUP-1
  6
CONTINUOUS
 62
     7
100
AcDbText
 10
201.62854
 20
68.862663
 30
0.0
 40
7.111485
  1
0
 50
132.0
 41
0.667612
  7
FX_VECTOR
 72
     5
 11
199.056814
 21
71.718854
 31
0.0
100
AcDbText
  0
TEXT
  5
2F6
330
257
100
AcDbEntity
  8
LAYERGROUP-1
  6
CONTINUOUS
 62
     7
100
AcDbText
 10
203.844391
 20
66.881226
 30
0.0
 40
7.111485
  1
1
 50
137.5
 41
1.031763
  7
FX_VECTOR
 72
     5
 11
201.010751
 21
69.477778
 31
0.0
100
AcDbText
  0
TEXT
  5
2F7
330
257
100
AcDbEntity
  8
LAYERGROUP-1
  6
CONTINUOUS
 62
     7
100
AcDbText
 10
196.933685
 20
74.776222
 30
0.0
 40
7.111485
  1
X
 50
118.0
 41
0.667612
  7
FX_VECTOR
 72
     5
 11
195.129326
 21
78.169729
 31
0.0
100
AcDbText
  0
TEXT
  5
2F8
330
257
100
AcDbEntity
  8
LAYERGROUP-1
  6
CONTINUOUS
 62
     7
100
AcDbText
 10
195.161102
 20
78.117477
 30
0.0
 40
7.111485
  1
2
 50
111.0
 41
0.667612
  7
FX_VECTOR
 72
     5
 11
193.783757
 21
81.705586
 31
0.0
100
AcDbText
  0
TEXT
  5
2F9
330
257
100
AcDbEntity
  8
LAYERGROUP-1
  6
CONTINUOUS
 62
     7
100
AcDbText
 10
193.808914
 20
81.649864
 30
0.0
 40
7.111485
  1
5
 50
104.0
 41
0.667612
  7
FX_VECTOR
 72
     5
 11
192.879115
 21
85.379083
 31
0.0
100
AcDbText
  0
ARC
  5
2FA
330
257
100
AcDbEntity
  8
LAYERGROUP-1
  6
CONTINUOUS
 62
     3
100
AcDbCircle
 10
223.362069
 20
90.937609
 30
0.0
 40
43.5
100
AcDbArc
 50
149.879811
 51
332.817972
  0
ARC
  5
2FB
330
257
100
AcDbEntity
  8
LAYERGROUP-1
  6
CONTINUOUS
 62
     6
100
AcDbCircle
 10
223.362069
 20
90.937609
 30
0.0
 40
38.5
100
AcDbArc
 50
153.837488
 51
173.519471
  0
ARC
  5
2FC
330
257
100
AcDbEntity
  8
LAYERGROUP-1
  6
CONTINUOUS
 62
     6
100
AcDbCircle
 10
223.362069
 20
90.937609
 30
0.0
 40
14.0
100
AcDbArc
 50
10.093761
 51
10.245393
  0
ARC
  5
2FD
330
257
100
AcDbEntity
  8
LAYERGROUP-1
  6
CONTINUOUS
 62
     6
100
AcDbCircle
 10
223.362069
 20
90.937609
 30
0.0
 40
14.0
100
AcDbArc
 50
253.147762
 51
285.62658
  0
ARC
  5
2FE
330
257
100
AcDbEntity
  8
LAYERGROUP-1
  6
CONTINUOUS
 62
     6
100
AcDbCircle
 10
223.362069
 20
90.937609
 30
0.0
 40
14.0
100
AcDbArc
 50
225.228056
 51
233.223036
  0
ARC
  5
2FF
330
257
100
AcDbEntity
  8
LAYERGROUP-1
  6
CONTINUOUS
 62
     6
100
AcDbCircle
 10
223.362069
 20
90.937609
 30
0.0
 40
38.5
100
AcDbArc
 50
337.926287
 51
353.519471
  0
ARC
  5
300
330
257
100
AcDbEntity
  8
LAYERGROUP-1
  6
CONTINUOUS
 62
     3
100
AcDbCircle
 10
223.362069
 20
90.937609
 30
0.0
 40
43.5
100
AcDbArc
 50
-24.067753
 51
46.56709
  0
ENDBLK
  5
259
330
257
100
AcDbEntity
  8
0
100
AcDbBlockEnd
  0
BLOCK
  5
285
330
284
100
AcDbEntity
  8
0
100
AcDbBlockBegin
  2
BLKF037
 70
     0
 71
     0
 10
0.0
 20
0.0
 30
0.0
  3
BLKF037
  1

  0
LINE
  5
288
330
284
100
AcDbEntity
  8
GR1-1
  6
CONTINUOUS
 62
     7
100
AcDbLine
 10
250.287604
 20
102.299214
 30
0.0
 11
250.802829
 21
102.16116
 31
0.0
  0
LINE
  5
289
330
284
100
AcDbEntity
  8
GR1-1
  6
CONTINUOUS
 62
     7
100
AcDbLine
 10
250.099019
 20
102.625853
 30
0.0
 11
251.129469
 21
102.349745
 31
0.0
  0
LINE
  5
28A
330
284
100
AcDbEntity
  8
GR1-1
  6
CONTINUOUS
 62
     7
100
AcDbLine
 10
249.910434
 20
102.952493
 30
0.0
 11
251.456108
 21
102.538331
 31
0.0
  0
LINE
  5
28B
330
284
100
AcDbEntity
  8
GR1-1
  6
CONTINUOUS
 62
     7
100
AcDbLine
 10
249.721848
 20
103.279132
 30
0.0
 11
251.782747
 21
102.726916
 31
0.0
  0
LINE
  5
28C
330
284
100
AcDbEntity
  8
GR1-1
  6
CONTINUOUS
 62
     7
100
AcDbLine
 10
249.533263
 20
103.605772
 30
0.0
 11
251.310555
 21
103.129548
 31
0.0
  0
LINE
  5
28D
330
284
100
AcDbEntity
  8
GR1-1
  6
CONTINUOUS
 62
     7
100
AcDbLine
 10
251.796851
 20
102.999245
 30
0.0
 11
252.109387
 21
102.915501
 31
0.0
  0
LINE
  5
28E
330
284
100
AcDbEntity
  8
GR1-1
  6
CONTINUOUS
 62
     7
100
AcDbLine
 10
249.344677
 20
103.932411
 30
0.0
 11
251.12197
 21
103.456187
 31
0.0
  0
LINE
  5
28F
330
284
100
AcDbEntity
  8
GR1-1
  6
CONTINUOUS
 62
     7
100
AcDbLine
 10
252.12349
 20
103.187831
 30
0.0
 11
252.436026
 21
103.104087
 31
0.0
  0
LINE
  5
290
330
284
100
AcDbEntity
  8
GR1-1
  6
CONTINUOUS
 62
     7
100
AcDbLine
 10
249.156092
 20
104.259051
 30
0.0
 11
250.933385
 21
103.782827
 31
0.0
  0
LINE
  5
291
330
284
100
AcDbEntity
  8
GR1-1
  6
CONTINUOUS
 62
     7
100
AcDbLine
 10
252.45013
 20
103.376416
 30
0.0
 11
252.762666
 21
103.292672
 31
0.0
  0
LINE
  5
292
330
284
100
AcDbEntity
  8
GR1-1
  6
CONTINUOUS
 62
     7
100
AcDbLine
 10
248.967507
 20
104.58569
 30
0.0
 11
250.955174
 21
104.053096
 31
0.0
  0
LINE
  5
293
330
284
100
AcDbEntity
  8
GR1-1
  6
CONTINUOUS
 62
     7
100
AcDbLine
 10
252.776769
 20
103.565001
 30
0.0
 11
253.089305
 21
103.481258
 31
0.0
  0
LINE
  5
294
330
284
100
AcDbEntity
  8
GR1-1
  6
CONTINUOUS
 62
     7
100
AcDbLine
 10
248.778921
 20
104.91233
 30
0.0
 11
251.281814
 21
104.241682
 31
0.0
  0
LINE
  5
295
330
284
100
AcDbEntity
  8
GR1-1
  6
CONTINUOUS
 62
     7
100
AcDbLine
 10
253.103408
 20
103.753587
 30
0.0
 11
253.415945
 21
103.669843
 31
0.0
  0
LINE
  5
296
330
284
100
AcDbEntity
  8
GR1-1
  6
CONTINUOUS
 62
     7
100
AcDbLine
 10
248.590336
 20
105.238969
 30
0.0
 11
251.608453
 21
104.430267
 31
0.0
  0
LINE
  5
297
330
284
100
AcDbEntity
  8
GR1-1
  6
CONTINUOUS
 62
     7
100
AcDbLine
 10
253.430048
 20
103.942172
 30
0.0
 11
253.742584
 21
103.858428
 31
0.0
  0
LINE
  5
298
330
284
100
AcDbEntity
  8
GR1-1
  6
CONTINUOUS
 62
     7
100
AcDbLine
 10
248.40175
 20
105.565609
 30
0.0
 11
251.784561
 21
104.659187
 31
0.0
  0
LINE
  5
299
330
284
100
AcDbEntity
  8
GR1-1
  6
CONTINUOUS
 62
     7
100
AcDbLine
 10
253.756687
 20
104.130758
 30
0.0
 11
254.069224
 21
104.047014
 31
0.0
  0
LINE
  5
29A
330
284
100
AcDbEntity
  8
GR1-1
  6
CONTINUOUS
 62
     7
100
AcDbLine
 10
248.213165
 20
105.892248
 30
0.0
 11
248.72839
 21
105.754194
 31
0.0
  0
LINE
  5
29B
330
284
100
AcDbEntity
  8
GR1-1
  6
CONTINUOUS
 62
     7
100
AcDbLine
 10
253.67795
 20
104.427963
 30
0.0
 11
254.395863
 21
104.235599
 31
0.0
  0
LINE
  5
29C
330
284
100
AcDbEntity
  8
GR1-1
  6
CONTINUOUS
 62
     7
100
AcDbLine
 10
248.02458
 20
106.218888
 30
0.0
 11
248.797417
 21
106.011806
 31
0.0
  0
LINE
  5
29D
330
284
100
AcDbEntity
  8
GR1-1
  6
CONTINUOUS
 62
     7
100
AcDbLine
 10
253.489364
 20
104.754603
 30
0.0
 11
254.722503
 21
104.424184
 31
0.0
  0
LINE
  5
29E
330
284
100
AcDbEntity
  8
GR1-1
  6
CONTINUOUS
 62
     7
100
AcDbLine
 10
247.835994
 20
106.545527
 30
0.0
 11
248.866444
 21
106.269419
 31
0.0
  0
LINE
  5
29F
330
284
100
AcDbEntity
  8
GR1-1
  6
CONTINUOUS
 62
     7
100
AcDbLine
 10
253.300779
 20
105.081242
 30
0.0
 11
253.847257
 21
104.934814
 31
0.0
  0
LINE
  5
2A0
330
284
100
AcDbEntity
  8
GR1-1
  6
CONTINUOUS
 62
     7
100
AcDbLine
 10
254.018692
 20
104.888878
 30
0.0
 11
255.049142
 21
104.61277
 31
0.0
  0
LINE
  5
2A1
330
284
100
AcDbEntity
  8
GR1-1
  6
CONTINUOUS
 62
     7
100
AcDbLine
 10
247.647409
 20
106.872166
 30
0.0
 11
248.935471
 21
106.527031
 31
0.0
  0
LINE
  5
2A2
330
284
100
AcDbEntity
  8
GR1-1
  6
CONTINUOUS
 62
     7
100
AcDbLine
 10
253.112194
 20
105.407882
 30
0.0
 11
253.658672
 21
105.261453
 31
0.0
  0
LINE
  5
2A3
330
284
100
AcDbEntity
  8
GR1-1
  6
CONTINUOUS
 62
     7
100
AcDbLine
 10
254.087719
 20
105.14649
 30
0.0
 11
255.375782
 21
104.801355
 31
0.0
  0
LINE
  5
2A4
330
284
100
AcDbEntity
  8
GR1-1
  6
CONTINUOUS
 62
     7
100
AcDbLine
 10
247.458824
 20
107.198806
 30
0.0
 11
249.004498
 21
106.784644
 31
0.0
  0
LINE
  5
2A5
330
284
100
AcDbEntity
  8
GR1-1
  6
CONTINUOUS
 62
     7
100
AcDbLine
 10
252.923608
 20
105.734521
 30
0.0
 11
253.470087
 21
105.588093
 31
0.0
  0
LINE
  5
2A6
330
284
100
AcDbEntity
  8
GR1-1
  6
CONTINUOUS
 62
     7
100
AcDbLine
 10
254.156746
 20
105.404103
 30
0.0
 11
255.702421
 21
104.989941
 31
0.0
  0
LINE
  5
2A7
330
284
100
AcDbEntity
  8
GR1-1
  6
CONTINUOUS
 62
     7
100
AcDbLine
 10
247.270238
 20
107.525445
 30
0.0
 11
249.073525
 21
107.042256
 31
0.0
  0
LINE
  5
2A8
330
284
100
AcDbEntity
  8
GR1-1
  6
CONTINUOUS
 62
     7
100
AcDbLine
 10
250.361587
 20
106.697121
 30
0.0
 11
251.821459
 21
106.30595
 31
0.0
  0
LINE
  5
2A9
330
284
100
AcDbEntity
  8
GR1-1
  6
CONTINUOUS
 62
     7
100
AcDbLine
 10
252.735023
 20
106.061161
 30
0.0
 11
253.281501
 21
105.914732
 31
0.0
  0
LINE
  5
2AA
330
284
100
AcDbEntity
  8
GR1-1
  6
CONTINUOUS
 62
     7
100
AcDbLine
 10
254.225773
 20
105.661715
 30
0.0
 11
256.02906
 21
105.178526
 31
0.0
  0
LINE
  5
2AB
330
284
100
AcDbEntity
  8
GR1-1
  6
CONTINUOUS
 62
     7
100
AcDbLine
 10
247.081653
 20
107.852085
 30
0.0
 11
249.142552
 21
107.299868
 31
0.0
  0
LINE
  5
2AC
330
284
100
AcDbEntity
  8
GR1-1
  6
CONTINUOUS
 62
     7
100
AcDbLine
 10
250.430614
 20
106.954733
 30
0.0
 11
251.63564
 21
106.631848
 31
0.0
  0
LINE
  5
2AD
330
284
100
AcDbEntity
  8
GR1-1
  6
CONTINUOUS
 62
     7
100
AcDbLine
 10
252.546437
 20
106.3878
 30
0.0
 11
253.092916
 21
106.241372
 31
0.0
  0
LINE
  5
2AE
330
284
100
AcDbEntity
  8
GR1-1
  6
CONTINUOUS
 62
     7
100
AcDbLine
 10
254.294801
 20
105.919328
 30
0.0
 11
256.3557
 21
105.367111
 31
0.0
  0
LINE
  5
2AF
330
284
100
AcDbEntity
  8
GR1-1
  6
CONTINUOUS
 62
     7
100
AcDbLine
 10
246.893067
 20
108.178724
 30
0.0
 11
249.211579
 21
107.557481
 31
0.0
  0
LINE
  5
2B0
330
284
100
AcDbEntity
  8
GR1-1
  6
CONTINUOUS
 62
     7
100
AcDbLine
 10
250.499641
 20
107.212346
 30
0.0
 11
251.447055
 21
106.958487
 31
0.0
  0
LINE
  5
2B1
330
284
100
AcDbEntity
  8
GR1-1
  6
CONTINUOUS
 62
     7
100
AcDbLine
 10
252.357852
 20
106.71444
 30
0.0
 11
253.075765
 21
106.522075
 31
0.0
  0
LINE
  5
2B2
330
284
100
AcDbEntity
  8
GR1-1
  6
CONTINUOUS
 62
     7
100
AcDbLine
 10
254.363828
 20
106.17694
 30
0.0
 11
256.682339
 21
105.555697
 31
0.0
  0
LINE
  5
2B3
330
284
100
AcDbEntity
  8
GR1-1
  6
CONTINUOUS
 62
     7
100
AcDbLine
 10
246.704482
 20
108.505364
 30
0.0
 11
249.280606
 21
107.815093
 31
0.0
  0
LINE
  5
2B4
330
284
100
AcDbEntity
  8
GR1-1
  6
CONTINUOUS
 62
     7
100
AcDbLine
 10
250.568668
 20
107.469958
 30
0.0
 11
251.544194
 21
107.208567
 31
0.0
  0
LINE
  5
2B5
330
284
100
AcDbEntity
  8
GR1-1
  6
CONTINUOUS
 62
     7
100
AcDbLine
 10
252.169267
 20
107.041079
 30
0.0
 11
253.144793
 21
106.779688
 31
0.0
  0
LINE
  5
2B6
330
284
100
AcDbEntity
  8
GR1-1
  6
CONTINUOUS
 62
     7
100
AcDbLine
 10
254.432855
 20
106.434553
 30
0.0
 11
257.008979
 21
105.744282
 31
0.0
  0
LINE
  5
2B7
330
284
100
AcDbEntity
  8
GR1-1
  6
CONTINUOUS
 62
     7
100
AcDbLine
 10
246.515897
 20
108.832003
 30
0.0
 11
249.349633
 21
108.072706
 31
0.0
  0
LINE
  5
2B8
330
284
100
AcDbEntity
  8
GR1-1
  6
CONTINUOUS
 62
     7
100
AcDbLine
 10
250.637695
 20
107.727571
 30
0.0
 11
251.870834
 21
107.397152
 31
0.0
  0
LINE
  5
2B9
330
284
100
AcDbEntity
  8
GR1-1
  6
CONTINUOUS
 62
     7
100
AcDbLine
 10
251.980681
 20
107.367719
 30
0.0
 11
253.21382
 21
107.0373
 31
0.0
  0
LINE
  5
2BA
330
284
100
AcDbEntity
  8
GR1-1
  6
CONTINUOUS
 62
     7
100
AcDbLine
 10
254.501882
 20
106.692165
 30
0.0
 11
257.335618
 21
105.932868
 31
0.0
  0
LINE
  5
2BB
330
284
100
AcDbEntity
  8
GR1-1
  6
CONTINUOUS
 62
     7
100
AcDbLine
 10
246.732688
 20
109.050022
 30
0.0
 11
249.41866
 21
108.330318
 31
0.0
  0
LINE
  5
2BC
330
284
100
AcDbEntity
  8
GR1-1
  6
CONTINUOUS
 62
     7
100
AcDbLine
 10
250.706722
 20
107.985183
 30
0.0
 11
253.282847
 21
107.294913
 31
0.0
  0
LINE
  5
2BD
330
284
100
AcDbEntity
  8
GR1-1
  6
CONTINUOUS
 62
     7
100
AcDbLine
 10
254.570909
 20
106.949777
 30
0.0
 11
257.256881
 21
106.230073
 31
0.0
  0
LINE
  5
2BE
330
284
100
AcDbEntity
  8
GR1-1
  6
CONTINUOUS
 62
     7
100
AcDbLine
 10
247.059328
 20
109.238608
 30
0.0
 11
249.487687
 21
108.587931
 31
0.0
  0
LINE
  5
2BF
330
284
100
AcDbEntity
  8
GR1-1
  6
CONTINUOUS
 62
     7
100
AcDbLine
 10
250.775749
 20
108.242795
 30
0.0
 11
253.351874
 21
107.552525
 31
0.0
  0
LINE
  5
2C0
330
284
100
AcDbEntity
  8
GR1-1
  6
CONTINUOUS
 62
     7
100
AcDbLine
 10
254.639936
 20
107.20739
 30
0.0
 11
257.068295
 21
106.556713
 31
0.0
  0
LINE
  5
2C1
330
284
100
AcDbEntity
  8
GR1-1
  6
CONTINUOUS
 62
     7
100
AcDbLine
 10
247.385967
 20
109.427193
 30
0.0
 11
249.556714
 21
108.845543
 31
0.0
  0
LINE
  5
2C2
330
284
100
AcDbEntity
  8
GR1-1
  6
CONTINUOUS
 62
     7
100
AcDbLine
 10
250.844777
 20
108.500408
 30
0.0
 11
253.420901
 21
107.810137
 31
0.0
  0
LINE
  5
2C3
330
284
100
AcDbEntity
  8
GR1-1
  6
CONTINUOUS
 62
     7
100
AcDbLine
 10
254.708963
 20
107.465002
 30
0.0
 11
256.87971
 21
106.883352
 31
0.0
  0
LINE
  5
2C4
330
284
100
AcDbEntity
  8
GR1-1
  6
CONTINUOUS
 62
     7
100
AcDbLine
 10
247.712607
 20
109.615778
 30
0.0
 11
249.625741
 21
109.103155
 31
0.0
  0
LINE
  5
2C5
330
284
100
AcDbEntity
  8
GR1-1
  6
CONTINUOUS
 62
     7
100
AcDbLine
 10
250.913804
 20
108.75802
 30
0.0
 11
253.489928
 21
108.06775
 31
0.0
  0
LINE
  5
2C6
330
284
100
AcDbEntity
  8
GR1-1
  6
CONTINUOUS
 62
     7
100
AcDbLine
 10
254.77799
 20
107.722615
 30
0.0
 11
256.691124
 21
107.209992
 31
0.0
  0
LINE
  5
2C7
330
284
100
AcDbEntity
  8
GR1-1
  6
CONTINUOUS
 62
     7
100
AcDbLine
 10
248.039246
 20
109.804364
 30
0.0
 11
249.694768
 21
109.360768
 31
0.0
  0
LINE
  5
2C8
330
284
100
AcDbEntity
  8
GR1-1
  6
CONTINUOUS
 62
     7
100
AcDbLine
 10
250.982831
 20
109.015633
 30
0.0
 11
253.558955
 21
108.325362
 31
0.0
  0
LINE
  5
2C9
330
284
100
AcDbEntity
  8
GR1-1
  6
CONTINUOUS
 62
     7
100
AcDbLine
 10
254.847017
 20
107.980227
 30
0.0
 11
256.502539
 21
107.536631
 31
0.0
  0
LINE
  5
2CA
330
284
100
AcDbEntity
  8
GR1-1
  6
CONTINUOUS
 62
     7
100
AcDbLine
 10
248.365886
 20
109.992949
 30
0.0
 11
249.763796
 21
109.61838
 31
0.0
  0
LINE
  5
2CB
330
284
100
AcDbEntity
  8
GR1-1
  6
CONTINUOUS
 62
     7
100
AcDbLine
 10
254.916044
 20
108.237839
 30
0.0
 11
256.313954
 21
107.863271
 31
0.0
  0
LINE
  5
2CC
330
284
100
AcDbEntity
  8
GR1-1
  6
CONTINUOUS
 62
     7
100
AcDbLine
 10
248.692525
 20
110.181534
 30
0.0
 11
249.832823
 21
109.875993
 31
0.0
  0
LINE
  5
2CD
330
284
100
AcDbEntity
  8
GR1-1
  6
CONTINUOUS
 62
     7
100
AcDbLine
 10
254.985071
 20
108.495452
 30
0.0
 11
256.125368
 21
108.18991
 31
0.0
  0
LINE
  5
2CE
330
284
100
AcDbEntity
  8
GR1-1
  6
CONTINUOUS
 62
     7
100
AcDbLine
 10
249.019165
 20
110.37012
 30
0.0
 11
249.90185
 21
110.133605
 31
0.0
  0
LINE
  5
2CF
330
284
100
AcDbEntity
  8
GR1-1
  6
CONTINUOUS
 62
     7
100
AcDbLine
 10
255.054098
 20
108.753064
 30
0.0
 11
255.936783
 21
108.51655
 31
0.0
  0
LINE
  5
2D0
330
284
100
AcDbEntity
  8
GR1-1
  6
CONTINUOUS
 62
     7
100
AcDbLine
 10
249.345804
 20
110.558705
 30
0.0
 11
249.970877
 21
110.391217
 31
0.0
  0
LINE
  5
2D1
330
284
100
AcDbEntity
  8
GR1-1
  6
CONTINUOUS
 62
     7
100
AcDbLine
 10
255.123125
 20
109.010677
 30
0.0
 11
255.748198
 21
108.843189
 31
0.0
  0
LINE
  5
2D2
330
284
100
AcDbEntity
  8
GR1-1
  6
CONTINUOUS
 62
     7
100
AcDbLine
 10
249.672444
 20
110.747291
 30
0.0
 11
250.039904
 21
110.64883
 31
0.0
  0
LINE
  5
2D3
330
284
100
AcDbEntity
  8
GR1-1
  6
CONTINUOUS
 62
     7
100
AcDbLine
 10
255.192152
 20
109.268289
 30
0.0
 11
255.559612
 21
109.169828
 31
0.0
  0
LINE
  5
2D4
330
284
100
AcDbEntity
  8
GR1-1
  6
CONTINUOUS
 62
     7
100
AcDbLine
 10
249.999083
 20
110.935876
 30
0.0
 11
255.371027
 21
109.496468
 31
0.0
  0
LINE
  5
2D5
330
284
100
AcDbEntity
  8
GR1-1
  6
CONTINUOUS
 62
     7
100
AcDbLine
 10
250.325722
 20
111.124461
 30
0.0
 11
255.182441
 21
109.823107
 31
0.0
  0
LINE
  5
2D6
330
284
100
AcDbEntity
  8
GR1-1
  6
CONTINUOUS
 62
     7
100
AcDbLine
 10
250.652362
 20
111.313047
 30
0.0
 11
254.993856
 21
110.149747
 31
0.0
  0
LINE
  5
2D7
330
284
100
AcDbEntity
  8
GR1-1
  6
CONTINUOUS
 62
     7
100
AcDbLine
 10
250.979001
 20
111.501632
 30
0.0
 11
254.805271
 21
110.476386
 31
0.0
  0
LINE
  5
2D8
330
284
100
AcDbEntity
  8
GR1-1
  6
CONTINUOUS
 62
     7
100
AcDbLine
 10
251.305641
 20
111.690217
 30
0.0
 11
254.616685
 21
110.803026
 31
0.0
  0
LINE
  5
2D9
330
284
100
AcDbEntity
  8
GR1-1
  6
CONTINUOUS
 62
     7
100
AcDbLine
 10
251.63228
 20
111.878803
 30
0.0
 11
254.4281
 21
111.129665
 31
0.0
  0
LINE
  5
2DA
330
284
100
AcDbEntity
  8
GR1-1
  6
CONTINUOUS
 62
     7
100
AcDbLine
 10
251.95892
 20
112.067388
 30
0.0
 11
254.239515
 21
111.456305
 31
0.0
  0
LINE
  5
2DB
330
284
100
AcDbEntity
  8
GR1-1
  6
CONTINUOUS
 62
     7
100
AcDbLine
 10
252.285559
 20
112.255974
 30
0.0
 11
254.050929
 21
111.782944
 31
0.0
  0
LINE
  5
2DC
330
284
100
AcDbEntity
  8
GR1-1
  6
CONTINUOUS
 62
     7
100
AcDbLine
 10
252.612199
 20
112.444559
 30
0.0
 11
253.862344
 21
112.109584
 31
0.0
  0
LINE
  5
2DD
330
284
100
AcDbEntity
  8
GR1-1
  6
CONTINUOUS
 62
     7
100
AcDbLine
 10
252.938838
 20
112.633144
 30
0.0
 11
253.673758
 21
112.436223
 31
0.0
  0
LINE
  5
2DE
330
284
100
AcDbEntity
  8
GR1-1
  6
CONTINUOUS
 62
     7
100
AcDbLine
 10
253.265478
 20
112.82173
 30
0.0
 11
253.485173
 21
112.762863
 31
0.0
  0
ENDBLK
  5
286
330
284
100
AcDbEntity
  8
0
100
AcDbBlockEnd
  0
BLOCK
  5
303
330
302
100
AcDbEntity
  8
0
100
AcDbBlockBegin
  2
BLKF038
 70
     0
 71
     0
 10
0.0
 20
0.0
 30
0.0
  3
BLKF038
  1

  0
ARC
  5
306
330
302
100
AcDbEntity
  8
LAYERGROUP-1
  6
CONTINUOUS
 62
     3
100
AcDbCircle
 10
121.153091
 20
60.937609
 30
0.0
 40
80.0
100
AcDbArc
 50
81.944782
 51
98.055218
  0
ARC
  5
307
330
302
100
AcDbEntity
  8
LAYERGROUP-1
  6
CONTINUOUS
 62
     3
100
AcDbCircle
 10
110.153091
 20
138.663088
 30
0.0
 40
1.5
100
AcDbArc
 50
98.055218
 51
180.0
  0
LINE
  5
308
330
302
100
AcDbEntity
  8
LAYERGROUP-1
  6
CONTINUOUS
 62
     3
100
AcDbLine
 10
108.653091
 20
138.663088
 30
0.0
 11
108.653091
 21
135.437609
 31
0.0
  0
LINE
  5
309
330
302
100
AcDbEntity
  8
LAYERGROUP-1
  6
CONTINUOUS
 62
     3
100
AcDbLine
 10
108.653091
 20
103.937609
 30
0.0
 11
108.653091
 21
90.937609
 31
0.0
  0
LINE
  5
30A
330
302
100
AcDbEntity
  8
LAYERGROUP-1
  6
CONTINUOUS
 62
     3
100
AcDbLine
 10
108.653091
 20
100.937609
 30
0.0
 11
107.153091
 21
100.937609
 31
0.0
  0
LINE
  5
30B
330
302
100
AcDbEntity
  8
LAYERGROUP-1
  6
CONTINUOUS
 62
     3
100
AcDbLine
 10
106.153091
 20
99.937609
 30
0.0
 11
106.153091
 21
95.937609
 31
0.0
  0
ARC
  5
30C
330
302
100
AcDbEntity
  8
LAYERGROUP-1
  6
CONTINUOUS
 62
     3
100
AcDbCircle
 10
107.153091
 20
99.937609
 30
0.0
 40
1.0
100
AcDbArc
 50
90.0
 51
180.0
  0
ARC
  5
30D
330
302
100
AcDbEntity
  8
LAYERGROUP-1
  6
CONTINUOUS
 62
     3
100
AcDbCircle
 10
132.153091
 20
138.663088
 30
0.0
 40
1.5
100
AcDbArc
 50
0.0
 51
81.944782
  0
LINE
  5
30E
330
302
100
AcDbEntity
  8
LAYERGROUP-1
  6
CONTINUOUS
 62
     3
100
AcDbLine
 10
133.653091
 20
138.663088
 30
0.0
 11
133.653091
 21
135.437609
 31
0.0
  0
LINE
  5
30F
330
302
100
AcDbEntity
  8
LAYERGROUP-1
  6
CONTINUOUS
 62
     3
100
AcDbLine
 10
133.653091
 20
103.937609
 30
0.0
 11
133.653091
 21
90.937609
 31
0.0
  0
LINE
  5
310
330
302
100
AcDbEntity
  8
LAYERGROUP-1
  6
CONTINUOUS
 62
     3
100
AcDbLine
 10
133.653091
 20
100.937609
 30
0.0
 11
135.153091
 21
100.937609
 31
0.0
  0
LINE
  5
311
330
302
100
AcDbEntity
  8
LAYERGROUP-1
  6
CONTINUOUS
 62
     3
100
AcDbLine
 10
136.153091
 20
99.937609
 30
0.0
 11
136.153091
 21
95.937609
 31
0.0
  0
ARC
  5
312
330
302
100
AcDbEntity
  8
LAYERGROUP-1
  6
CONTINUOUS
 62
     3
100
AcDbCircle
 10
135.153091
 20
99.937609
 30
0.0
 40
1.0
100
AcDbArc
 50
0.0
 51
90.0
  0
LINE
  5
313
330
302
100
AcDbEntity
  8
LAYERGROUP-1
  6
CONTINUOUS
 62
     3
100
AcDbLine
 10
136.153091
 20
95.937609
 30
0.0
 11
136.153091
 21
85.937609
 31
0.0
  0
LINE
  5
314
330
302
100
AcDbEntity
  8
LAYERGROUP-1
  6
CONTINUOUS
 62
     3
100
AcDbLine
 10
106.153091
 20
95.937609
 30
0.0
 11
106.153091
 21
85.937609
 31
0.0
  0
LINE
  5
315
330
302
100
AcDbEntity
  8
LAYERGROUP-1
  6
CONTINUOUS
 62
     3
100
AcDbLine
 10
133.653091
 20
135.437609
 30
0.0
 11
133.653091
 21
103.937609
 31
0.0
  0
LINE
  5
316
330
302
100
AcDbEntity
  8
LAYERGROUP-1
  6
CONTINUOUS
 62
     3
100
AcDbLine
 10
108.653091
 20
135.437609
 30
0.0
 11
108.653091
 21
103.937609
 31
0.0
  0
ARC
  5
317
330
302
100
AcDbEntity
  8
LAYERGROUP-1
  6
CONTINUOUS
 62
     3
100
AcDbCircle
 10
121.153091
 20
120.937609
 30
0.0
 40
80.0
100
AcDbArc
 50
261.944782
 51
278.055218
  0
ARC
  5
318
330
302
100
AcDbEntity
  8
LAYERGROUP-1
  6
CONTINUOUS
 62
     3
100
AcDbCircle
 10
110.153091
 20
43.212131
 30
0.0
 40
1.5
100
AcDbArc
 50
180.0
 51
261.944782
  0
LINE
  5
319
330
302
100
AcDbEntity
  8
LAYERGROUP-1
  6
CONTINUOUS
 62
     3
100
AcDbLine
 10
108.653091
 20
43.212131
 30
0.0
 11
108.653091
 21
46.437609
 31
0.0
  0
LINE
  5
31A
330
302
100
AcDbEntity
  8
LAYERGROUP-1
  6
CONTINUOUS
 62
     3
100
AcDbLine
 10
108.653091
 20
77.937609
 30
0.0
 11
108.653091
 21
90.937609
 31
0.0
  0
LINE
  5
31B
330
302
100
AcDbEntity
  8
LAYERGROUP-1
  6
CONTINUOUS
 62
     3
100
AcDbLine
 10
108.653091
 20
80.937609
 30
0.0
 11
107.153091
 21
80.937609
 31
0.0
  0
LINE
  5
31C
330
302
100
AcDbEntity
  8
LAYERGROUP-1
  6
CONTINUOUS
 62
     3
100
AcDbLine
 10
106.153091
 20
81.937609
 30
0.0
 11
106.153091
 21
85.937609
 31
0.0
  0
ARC
  5
31D
330
302
100
AcDbEntity
  8
LAYERGROUP-1
  6
CONTINUOUS
 62
     3
100
AcDbCircle
 10
107.153091
 20
81.937609
 30
0.0
 40
1.0
100
AcDbArc
 50
180.0
 51
270.0
  0
ARC
  5
31E
330
302
100
AcDbEntity
  8
LAYERGROUP-1
  6
CONTINUOUS
 62
     3
100
AcDbCircle
 10
132.153091
 20
43.212131
 30
0.0
 40
1.5
100
AcDbArc
 50
278.055218
 51
360.0
  0
LINE
  5
31F
330
302
100
AcDbEntity
  8
LAYERGROUP-1
  6
CONTINUOUS
 62
     3
100
AcDbLine
 10
133.653091
 20
43.212131
 30
0.0
 11
133.653091
 21
46.437609
 31
0.0
  0
LINE
  5
320
330
302
100
AcDbEntity
  8
LAYERGROUP-1
  6
CONTINUOUS
 62
     3
100
AcDbLine
 10
133.653091
 20
77.937609
 30
0.0
 11
133.653091
 21
90.937609
 31
0.0
  0
LINE
  5
321
330
302
100
AcDbEntity
  8
LAYERGROUP-1
  6
CONTINUOUS
 62
     3
100
AcDbLine
 10
133.653091
 20
80.937609
 30
0.0
 11
135.153091
 21
80.937609
 31
0.0
  0
LINE
  5
322
330
302
100
AcDbEntity
  8
LAYERGROUP-1
  6
CONTINUOUS
 62
     3
100
AcDbLine
 10
136.153091
 20
81.937609
 30
0.0
 11
136.153091
 21
85.937609
 31
0.0
  0
ARC
  5
323
330
302
100
AcDbEntity
  8
LAYERGROUP-1
  6
CONTINUOUS
 62
     3
100
AcDbCircle
 10
135.153091
 20
81.937609
 30
0.0
 40
1.0
100
AcDbArc
 50
270.0
 51
360.0
  0
LINE
  5
324
330
302
100
AcDbEntity
  8
LAYERGROUP-1
  6
CONTINUOUS
 62
     3
100
AcDbLine
 10
133.653091
 20
46.437609
 30
0.0
 11
133.653091
 21
77.937609
 31
0.0
  0
LINE
  5
325
330
302
100
AcDbEntity
  8
LAYERGROUP-1
  6
CONTINUOUS
 62
     3
100
AcDbLine
 10
108.653091
 20
46.437609
 30
0.0
 11
108.653091
 21
77.937609
 31
0.0
  0
ENDBLK
  5
304
330
302
100
AcDbEntity
  8
0
100
AcDbBlockEnd
  0
BLOCK
  5
327
330
326
100
AcDbEntity
  8
0
100
AcDbBlockBegin
  2
BLKF039
 70
     0
 71
     0
 10
0.0
 20
0.0
 30
0.0
  3
BLKF039
  1

  0
ARC
  5
32A
330
326
100
AcDbEntity
  8
LAYERGROUP-1
  6
CONTINUOUS
 62
     3
100
AcDbCircle
 10
253.362069
 20
245.68099
 30
0.0
 40
80.0
100
AcDbArc
 50
171.944782
 51
188.055218
  0
ARC
  5
32B
330
326
100
AcDbEntity
  8
LAYERGROUP-1
  6
CONTINUOUS
 62
     3
100
AcDbCircle
 10
175.636591
 20
234.68099
 30
0.0
 40
1.5
100
AcDbArc
 50
188.055218
 51
270.0
  0
LINE
  5
32C
330
326
100
AcDbEntity
  8
LAYERGROUP-1
  6
CONTINUOUS
 62
     3
100
AcDbLine
 10
175.636591
 20
233.18099
 30
0.0
 11
178.862069
 21
233.18099
 31
0.0
  0
ARC
  5
32D
330
326
100
AcDbEntity
  8
LAYERGROUP-1
  6
CONTINUOUS
 62
     3
100
AcDbCircle
 10
175.636591
 20
256.68099
 30
0.0
 40
1.5
100
AcDbArc
 50
90.0
 51
171.944782
  0
LINE
  5
32E
330
326
100
AcDbEntity
  8
LAYERGROUP-1
  6
CONTINUOUS
 62
     3
100
AcDbLine
 10
175.636591
 20
258.18099
 30
0.0
 11
178.862069
 21
258.18099
 31
0.0
  0
LINE
  5
32F
330
326
100
AcDbEntity
  8
LAYERGROUP-1
  6
CONTINUOUS
 62
     3
100
AcDbLine
 10
178.862069
 20
258.18099
 30
0.0
 11
204.863847
 21
258.18099
 31
0.0
  0
LINE
  5
330
330
326
100
AcDbEntity
  8
LAYERGROUP-1
  6
CONTINUOUS
 62
     3
100
AcDbLine
 10
178.862069
 20
233.18099
 30
0.0
 11
204.863847
 21
233.18099
 31
0.0
  0
ENDBLK
  5
328
330
326
100
AcDbEntity
  8
0
100
AcDbBlockEnd
  0
BLOCK
  5
333
330
332
100
AcDbEntity
  8
0
100
AcDbBlockBegin
  2
*D38
 70
     1
 71
     0
 10
0.0
 20
0.0
 30
0.0
  3
*D38
  1

  0
TEXT
  5
335
330
332
100
AcDbEntity
  8
LAYERGROUP-1
  6
CONTINUOUS
 62
     7
100
AcDbText
 10
118.153091
 20
31.180624
 30
0.0
 40
4.0
  1
25
 41
0.851351
  7
FX_VECTOR
 72
     5
 11
124.153091
 21
31.180624
 31
0.0
100
AcDbText
  0
LINE
  5
336
330
332
100
AcDbEntity
  8
LAYERGROUP-1
  6
CONTINUOUS
 62
     7
100
AcDbLine
 10
108.653091
 20
30.180624
 30
0.0
 11
133.653091
 21
30.180624
 31
0.0
  0
INSERT
  5
337
330
332
100
AcDbEntity
  8
LAYERGROUP-1
  6
CONTINUOUS
 62
     7
100
AcDbBlockReference
  2
FXTIP_ARROW_S
 10
108.653091
 20
30.180624
 30
0.0
 41
4.0
 42
4.0
 50
180.0
  0
INSERT
  5
338
330
332
100
AcDbEntity
  8
LAYERGROUP-1
  6
CONTINUOUS
 62
     7
100
AcDbBlockReference
  2
FXTIP_ARROW_E
 10
133.653091
 20
30.180624
 30
0.0
 41
4.0
 42
4.0
 50
360.0
  0
LINE
  5
339
330
332
100
AcDbEntity
  8
LAYERGROUP-1
  6
CONTINUOUS
 62
     7
100
AcDbLine
 10
108.653091
 20
42.212131
 30
0.0
 11
108.653091
 21
29.180624
 31
0.0
  0
LINE
  5
33A
330
332
100
AcDbEntity
  8
LAYERGROUP-1
  6
CONTINUOUS
 62
     7
100
AcDbLine
 10
133.653091
 20
42.212131
 30
0.0
 11
133.653091
 21
29.180624
 31
0.0
  0
ENDBLK
  5
334
330
332
100
AcDbEntity
  8
0
100
AcDbBlockEnd
  0
ENDSEC
  0
SECTION
  2
ENTITIES
  0
INSERT
  5
AB
330
1F
100
AcDbEntity
  8
0
100
AcDbBlockReference
  2
BLKF021
 10
0.0
 20
0.0
 30
0.0
  0
TEXT
  5
D7
330
1F
100
AcDbEntity
  8
}}ﾊﾊGG血CCТ
  6
CONTINUOUS
 62
     7
100
AcDbText
 10
155.0
 20
12.0
 30
0.0
 40
6.0
  1
ＥＪ－１００　Ｎ　Ｓ
 41
0.79096
  7
FX_VECTOR
 72
     5
 11
195.0
 21
12.0
 31
0.0
100
AcDbText
  0
TEXT
  5
D8
330
1F
100
AcDbEntity
  8
LAYERGROUP-1
  6
CONTINUOUS
 62
     7
100
AcDbText
 10
255.0
 20
12.0
 30
0.0
 40
6.0
  1
E30A1UAA-C01
 41
0.72103
  7
FX_VECTOR
 72
     5
 11
303.0
 21
12.0
 31
0.0
100
AcDbText
  0
CIRCLE
  5
D9
330
1F
100
AcDbEntity
  8
GR1-1
  6
CONTINUOUS
 62
     3
100
AcDbCircle
 10
212.362069
 20
265.68099
 30
0.0
 40
4.5
  0
LINE
  5
DA
330
1F
100
AcDbEntity
  8
GR1-1
  6
CONTINUOUS
 62
     3
100
AcDbLine
 10
210.362069
 20
274.68099
 30
0.0
 11
296.362069
 21
274.68099
 31
0.0
  0
CIRCLE
  5
DB
330
1F
100
AcDbEntity
  8
GR1-1
  6
CONTINUOUS
 62
     3
100
AcDbCircle
 10
294.362069
 20
265.68099
 30
0.0
 40
4.5
  0
ARC
  5
DC
330
1F
100
AcDbEntity
  8
GR1-1
  6
CONTINUOUS
 62
     3
100
AcDbCircle
 10
401.075965
 20
245.68099
 30
0.0
 40
100.0
100
AcDbArc
 50
168.134938
 51
191.865062
  0
CIRCLE
  5
DD
330
1F
100
AcDbEntity
  8
GR1-1
  6
CONTINUOUS
 62
     3
100
AcDbCircle
 10
294.362069
 20
225.68099
 30
0.0
 40
4.5
  0
LINE
  5
DE
330
1F
100
AcDbEntity
  8
GR1-1
  6
CONTINUOUS
 62
     3
100
AcDbLine
 10
296.362069
 20
216.68099
 30
0.0
 11
210.362069
 21
216.68099
 31
0.0
  0
ARC
  5
DF
330
1F
100
AcDbEntity
  8
GR1-1
  6
CONTINUOUS
 62
     3
100
AcDbCircle
 10
105.648173
 20
245.68099
 30
0.0
 40
100.0
100
AcDbArc
 50
-11.865062
 51
11.865062
  0
ARC
  5
E0
330
1F
100
AcDbEntity
  8
GR1-1
  6
CONTINUOUS
 62
     3
100
AcDbCircle
 10
210.362069
 20
267.68099
 30
0.0
 40
7.0
100
AcDbArc
 50
90.0
 51
191.865062
  0
ARC
  5
E1
330
1F
100
AcDbEntity
  8
GR1-1
  6
CONTINUOUS
 62
     3
100
AcDbCircle
 10
210.362069
 20
223.68099
 30
0.0
 40
7.0
100
AcDbArc
 50
168.134938
 51
270.0
  0
CIRCLE
  5
E2
330
1F
100
AcDbEntity
  8
GR1-1
  6
CONTINUOUS
 62
     3
100
AcDbCircle
 10
212.362069
 20
225.68099
 30
0.0
 40
4.5
  0
CIRCLE
  5
E3
330
1F
100
AcDbEntity
  8
GR1-1
  6
CONTINUOUS
 62
     3
100
AcDbCircle
 10
253.362069
 20
245.68099
 30
0.0
 40
9.5
  0
ARC
  5
E4
330
1F
100
AcDbEntity
  8
GR1-1
  6
CONTINUOUS
 62
     3
100
AcDbCircle
 10
296.362069
 20
223.68099
 30
0.0
 40
7.0
100
AcDbArc
 50
-90.0
 51
11.865062
  0
ARC
  5
E5
330
1F
100
AcDbEntity
  8
GR1-1
  6
CONTINUOUS
 62
     3
100
AcDbCircle
 10
296.362069
 20
267.68099
 30
0.0
 40
7.0
100
AcDbArc
 50
-11.865062
 51
90.0
  0
LINE
  5
E6
330
1F
100
AcDbEntity
  8
GR1-1
  6
CONTINUOUS
 62
     3
100
AcDbLine
 10
275.862069
 20
146.281609
 30
0.0
 11
278.162069
 21
146.281609
 31
0.0
  0
LINE
  5
E7
330
1F
100
AcDbEntity
  8
GR1-1
  6
CONTINUOUS
 62
     3
100
AcDbLine
 10
278.162069
 20
146.281609
 30
0.0
 11
278.162069
 21
151.881609
 31
0.0
  0
ARC
  5
E8
330
1F
100
AcDbEntity
  8
GR1-1
  6
CONTINUOUS
 62
     3
100
AcDbCircle
 10
274.663498
 20
151.781609
 30
0.0
 40
3.5
100
AcDbArc
 50
1.637245
 51
90.0
  0
ARC
  5
E9
330
1F
100
AcDbEntity
  8
GR1-1
  6
CONTINUOUS
 62
     3
100
AcDbCircle
 10
268.916793
 20
140.443332
 30
0.0
 40
5.0
100
AcDbArc
 50
102.126685
 51
151.0
  0
LINE
  5
EA
330
1F
100
AcDbEntity
  8
GR1-1
  6
CONTINUOUS
 62
     3
100
AcDbLine
 10
264.543695
 20
142.86738
 30
0.0
 11
237.129894
 21
93.411574
 31
0.0
  0
LINE
  5
EB
330
1F
100
AcDbEntity
  8
GR1-1
  6
CONTINUOUS
 62
     3
100
AcDbLine
 10
212.543129
 20
106.03118
 30
0.0
 11
214.054934
 21
149.32361
 31
0.0
  0
LINE
  5
EC
330
1F
100
AcDbEntity
  8
GR1-1
  6
CONTINUOUS
 62
     3
100
AcDbLine
 10
211.76146
 20
146.583727
 30
0.0
 11
211.362069
 21
148.848785
 31
0.0
  0
LINE
  5
ED
330
1F
100
AcDbEntity
  8
GR1-1
  6
CONTINUOUS
 62
     3
100
AcDbLine
 10
211.362069
 20
148.848785
 30
0.0
 11
234.233351
 21
152.881609
 31
0.0
  0
LINE
  5
EE
330
1F
100
AcDbEntity
  8
GR1-1
  6
CONTINUOUS
 62
     3
100
AcDbLine
 10
213.972872
 20
146.973659
 30
0.0
 11
211.76146
 21
146.583727
 31
0.0
  0
LINE
  5
EF
330
1F
100
AcDbEntity
  8
GR1-1
  6
CONTINUOUS
 62
     3
100
AcDbLine
 10
203.362069
 20
162.937609
 30
0.0
 11
303.362069
 21
162.937609
 31
0.0
  0
LINE
  5
F0
330
1F
100
AcDbEntity
  8
GR1-1
  6
CONTINUOUS
 62
     3
100
AcDbLine
 10
203.362069
 20
162.937609
 30
0.0
 11
203.362069
 21
160.637609
 31
0.0
  0
ARC
  5
F1
330
1F
100
AcDbEntity
  8
GR1-1
  6
CONTINUOUS
 62
     3
100
AcDbCircle
 10
232.06064
 20
151.781609
 30
0.0
 40
3.5
100
AcDbArc
 50
90.0
 51
178.362755
  0
ARC
  5
F2
330
1F
100
AcDbEntity
  8
GR1-1
  6
CONTINUOUS
 62
     3
100
AcDbCircle
 10
276.933818
 20
103.132046
 30
0.0
 40
43.1628713378084
100
AcDbArc
 50
91.42282
 51
102.126685
  0
LINE
  5
F3
330
1F
100
AcDbEntity
  8
GR1-1
  6
CONTINUOUS
 62
     3
100
AcDbLine
 10
150.153091
 20
162.937609
 30
0.0
 11
92.153091
 21
162.937609
 31
0.0
  0
LINE
  5
F4
330
1F
100
AcDbEntity
  8
GR1-1
  6
CONTINUOUS
 62
     3
100
AcDbLine
 10
92.153091
 20
162.937609
 30
0.0
 11
92.153091
 21
160.637609
 31
0.0
  0
LINE
  5
F5
330
1F
100
AcDbEntity
  8
GR1-1
  6
CONTINUOUS
 62
     3
100
AcDbLine
 10
92.153091
 20
160.637609
 30
0.0
 11
150.153091
 21
160.637609
 31
0.0
  0
LINE
  5
F6
330
1F
100
AcDbEntity
  8
GR1-1
  6
CONTINUOUS
 62
     3
100
AcDbLine
 10
150.153091
 20
160.637609
 30
0.0
 11
150.153091
 21
162.937609
 31
0.0
  0
ARC
  5
F7
330
1F
100
AcDbEntity
  8
GR1-1
  6
CONTINUOUS
 62
     3
100
AcDbCircle
 10
149.332079
 20
159.637609
 30
0.0
 40
1.0
100
AcDbArc
 50
90.0
 51
156.126621
  0
ARC
  5
F8
330
1F
100
AcDbEntity
  8
GR1-1
  6
CONTINUOUS
 62
     3
100
AcDbCircle
 10
141.1021
 20
163.28006
 30
0.0
 40
8.0
100
AcDbArc
 50
304.320141
 51
336.126621
  0
ARC
  5
F9
330
1F
100
AcDbEntity
  8
GR1-1
  6
CONTINUOUS
 62
     3
100
AcDbCircle
 10
144.203091
 20
158.737609
 30
0.0
 40
2.5
100
AcDbArc
 50
270.0
 51
304.320141
  0
LINE
  5
FA
330
1F
100
AcDbEntity
  8
GR1-1
  6
CONTINUOUS
 62
     3
100
AcDbLine
 10
144.203091
 20
156.237609
 30
0.0
 11
98.103091
 21
156.237609
 31
0.0
  0
ARC
  5
FB
330
1F
100
AcDbEntity
  8
GR1-1
  6
CONTINUOUS
 62
     3
100
AcDbCircle
 10
98.103091
 20
158.737609
 30
0.0
 40
2.5
100
AcDbArc
 50
235.679859
 51
270.0
  0
LINE
  5
FC
330
1F
100
AcDbEntity
  8
GR1-1
  6
CONTINUOUS
 62
     3
100
AcDbLine
 10
100.353091
 20
155.281609
 30
0.0
 11
141.953091
 21
155.281609
 31
0.0
  0
LINE
  5
FD
330
1F
100
AcDbEntity
  8
GR1-1
  6
CONTINUOUS
 62
     3
100
AcDbLine
 10
145.953091
 20
151.281609
 30
0.0
 11
145.953091
 21
127.592292
 31
0.0
  0
LINE
  5
FE
330
1F
100
AcDbEntity
  8
GR1-1
  6
CONTINUOUS
 62
     3
100
AcDbLine
 10
139.203091
 20
145.848785
 30
0.0
 11
139.203091
 21
79.631609
 31
0.0
  0
LINE
  5
FF
330
1F
100
AcDbEntity
  8
GR1-1
  6
CONTINUOUS
 62
     3
100
AcDbLine
 10
139.203091
 20
79.631609
 30
0.0
 11
136.903091
 21
79.631609
 31
0.0
  0
LINE
  5
100
330
1F
100
AcDbEntity
  8
GR1-1
  6
CONTINUOUS
 62
     3
100
AcDbLine
 10
136.903091
 20
79.631609
 30
0.0
 11
136.903091
 21
146.083727
 31
0.0
  0
ARC
  5
101
330
1F
100
AcDbEntity
  8
GR1-1
  6
CONTINUOUS
 62
     3
100
AcDbCircle
 10
136.403091
 20
146.083727
 30
0.0
 40
0.5
100
AcDbArc
 50
0.0
 51
90.0
  0
LINE
  5
102
330
1F
100
AcDbEntity
  8
GR1-1
  6
CONTINUOUS
 62
     3
100
AcDbLine
 10
136.403091
 20
146.583727
 30
0.0
 11
105.903091
 21
146.583727
 31
0.0
  0
ARC
  5
103
330
1F
100
AcDbEntity
  8
GR1-1
  6
CONTINUOUS
 62
     3
100
AcDbCircle
 10
105.903091
 20
146.083727
 30
0.0
 40
0.5
100
AcDbArc
 50
90.0
 51
180.0
  0
LINE
  5
104
330
1F
100
AcDbEntity
  8
GR1-1
  6
CONTINUOUS
 62
     3
100
AcDbLine
 10
105.403091
 20
146.083727
 30
0.0
 11
105.403091
 21
79.631609
 31
0.0
  0
LINE
  5
105
330
1F
100
AcDbEntity
  8
GR1-1
  6
CONTINUOUS
 62
     3
100
AcDbLine
 10
105.403091
 20
79.631609
 30
0.0
 11
103.103091
 21
79.631609
 31
0.0
  0
LINE
  5
106
330
1F
100
AcDbEntity
  8
GR1-1
  6
CONTINUOUS
 62
     3
100
AcDbLine
 10
103.103091
 20
79.631609
 30
0.0
 11
103.103091
 21
145.848785
 31
0.0
  0
ARC
  5
107
330
1F
100
AcDbEntity
  8
GR1-1
  6
CONTINUOUS
 62
     3
100
AcDbCircle
 10
106.103091
 20
145.848785
 30
0.0
 40
3.0
100
AcDbArc
 50
90.0
 51
180.0
  0
LINE
  5
108
330
1F
100
AcDbEntity
  8
GR1-1
  6
CONTINUOUS
 62
     3
100
AcDbLine
 10
106.103091
 20
148.848785
 30
0.0
 11
136.203091
 21
148.848785
 31
0.0
  0
ARC
  5
109
330
1F
100
AcDbEntity
  8
GR1-1
  6
CONTINUOUS
 62
     3
100
AcDbCircle
 10
136.203091
 20
145.848785
 30
0.0
 40
3.0
100
AcDbArc
 50
0.0
 51
90.0
  0
ARC
  5
10A
330
1F
100
AcDbEntity
  8
GR1-1
  6
CONTINUOUS
 62
     3
100
AcDbCircle
 10
141.953091
 20
151.281609
 30
0.0
 40
4.0
100
AcDbArc
 50
0.0
 51
90.0
  0
ARC
  5
10B
330
1F
100
AcDbEntity
  8
GR1-1
  6
CONTINUOUS
 62
     3
100
AcDbCircle
 10
100.353091
 20
151.281609
 30
0.0
 40
4.0
100
AcDbArc
 50
90.0
 51
180.0
  0
LINE
  5
10C
330
1F
100
AcDbEntity
  8
GR1-1
  6
CONTINUOUS
 62
     3
100
AcDbLine
 10
96.353091
 20
151.281609
 30
0.0
 11
96.353091
 21
127.592292
 31
0.0
  0
ARC
  5
10D
330
1F
100
AcDbEntity
  8
GR1-1
  6
CONTINUOUS
 62
     3
100
AcDbCircle
 10
169.661559
 20
125.107672
 30
0.0
 40
73.3402116851108
100
AcDbArc
 50
178.058835
 51
204.362134
  0
ARC
  5
10E
330
1F
100
AcDbEntity
  8
GR1-1
  6
CONTINUOUS
 62
     3
100
AcDbCircle
 10
72.644623
 20
125.107672
 30
0.0
 40
73.3402116851108
100
AcDbArc
 50
-0.585021
 51
1.68582
  0
ARC
  5
10F
330
1F
100
AcDbEntity
  8
GR1-1
  6
CONTINUOUS
 62
     3
100
AcDbCircle
 10
101.204081
 20
163.28006
 30
0.0
 40
8.0
100
AcDbArc
 50
203.873379
 51
235.679859
  0
ARC
  5
110
330
1F
100
AcDbEntity
  8
GR1-1
  6
CONTINUOUS
 62
     3
100
AcDbCircle
 10
92.974102
 20
159.637609
 30
0.0
 40
1.0
100
AcDbArc
 50
23.873379
 51
90.0
  0
LINE
  5
111
330
1F
100
AcDbEntity
  8
GR1-1
  6
CENTER
 62
     6
100
AcDbLine
 10
98.811415
 20
90.937609
 30
0.0
 11
151.433667
 21
90.937609
 31
0.0
  0
LINE
  5
112
330
1F
100
AcDbEntity
  8
GR1-1
  6
CENTER
 62
     6
100
AcDbLine
 10
121.153091
 20
39.278763
 30
0.0
 11
121.153091
 21
165.281609
 31
0.0
  0
ARC
  5
113
330
1F
100
AcDbEntity
  8
GR1-1
  6
CONTINUOUS
 62
     6
100
AcDbCircle
 10
121.153091
 20
310.012859
 30
0.0
 40
158.0312500000001
100
AcDbArc
 50
263.550955
 51
276.449045
  0
LINE
  5
114
330
1F
100
AcDbEntity
  8
GR1-1
  6
CENTER
 62
     6
100
AcDbLine
 10
253.362069
 20
165.176959
 30
0.0
 11
253.362069
 21
115.643273
 31
0.0
  0
LINE
  5
115
330
1F
100
AcDbEntity
  8
GR1-1
  6
CONTINUOUS
 62
     6
100
AcDbLine
 10
236.355085
 20
95.281609
 30
0.0
 11
236.355085
 21
150.781609
 31
0.0
  0
LINE
  5
116
330
1F
100
AcDbEntity
  8
GR1-1
  6
CENTER
 62
     6
100
AcDbLine
 10
253.362069
 20
213.052219
 30
0.0
 11
253.362069
 21
277.446012
 31
0.0
  0
CIRCLE
  5
117
330
1F
100
AcDbEntity
  8
GR1-1
  6
CONTINUOUS
 62
     6
100
AcDbCircle
 10
253.362069
 20
245.68099
 30
0.0
 40
12.79999999999998
  0
CIRCLE
  5
118
330
1F
100
AcDbEntity
  8
GR1-1
  6
CONTINUOUS
 62
     6
100
AcDbCircle
 10
253.362069
 20
245.68099
 30
0.0
 40
22.0
  0
CIRCLE
  5
119
330
1F
100
AcDbEntity
  8
GR1-1
  6
CONTINUOUS
 62
     6
100
AcDbCircle
 10
253.362069
 20
245.68099
 30
0.0
 40
24.10000000000001
  0
LINE
  5
11A
330
1F
100
AcDbEntity
  8
GR1-1
  6
CENTER
 62
     6
100
AcDbLine
 10
305.581476
 20
245.68099
 30
0.0
 11
167.482181
 21
245.68099
 31
0.0
  0
LINE
  5
11B
330
1F
100
AcDbEntity
  8
GR1-1
  6
CENTER
 62
     6
100
AcDbLine
 10
169.757894
 20
90.937609
 30
0.0
 11
276.45977
 21
90.937609
 31
0.0
  0
LINE
  5
11C
330
1F
100
AcDbEntity
  8
GR1-1
  6
CENTER
 62
     6
100
AcDbLine
 10
223.362069
 20
102.966362
 30
0.0
 11
223.362069
 21
37.634863
 31
0.0
  0
ARC
  5
11D
330
1F
100
AcDbEntity
  8
GR1-1
  6
CONTINUOUS
 62
     3
100
AcDbCircle
 10
225.18308
 20
159.637609
 30
0.0
 40
1.0
100
AcDbArc
 50
23.873379
 51
90.0
  0
ARC
  5
11E
330
1F
100
AcDbEntity
  8
GR1-1
  6
CONTINUOUS
 62
     3
100
AcDbCircle
 10
230.312069
 20
158.737609
 30
0.0
 40
2.5
100
AcDbArc
 50
235.679859
 51
270.0
  0
ARC
  5
11F
330
1F
100
AcDbEntity
  8
GR1-1
  6
CONTINUOUS
 62
     3
100
AcDbCircle
 10
233.413059
 20
163.28006
 30
0.0
 40
8.0
100
AcDbArc
 50
203.873379
 51
235.679859
  0
LINE
  5
120
330
1F
100
AcDbEntity
  8
LAYERGROUP-1
  6
CONTINUOUS
 62
     3
100
AcDbLine
 10
203.362069
 20
161.637609
 30
0.0
 11
203.362069
 21
160.637609
 31
0.0
  0
LINE
  5
121
330
1F
100
AcDbEntity
  8
LAYERGROUP-1
  6
CONTINUOUS
 62
     3
100
AcDbLine
 10
203.362069
 20
160.637609
 30
0.0
 11
303.362069
 21
160.637609
 31
0.0
  0
LINE
  5
122
330
1F
100
AcDbEntity
  8
LAYERGROUP-1
  6
CONTINUOUS
 62
     3
100
AcDbLine
 10
230.312069
 20
156.237609
 30
0.0
 11
276.412069
 21
156.237609
 31
0.0
  0
LINE
  5
123
330
1F
100
AcDbEntity
  8
LAYERGROUP-1
  6
CONTINUOUS
 62
     3
100
AcDbLine
 10
232.06064
 20
155.281609
 30
0.0
 11
274.663498
 21
155.281609
 31
0.0
  0
DIMENSION
  5
124
330
1F
100
AcDbEntity
  8
LAYERGROUP-1
100
AcDbDimension
  2
*D22
 10
253.362069
 20
30.675894
 30
0.0
 11
238.362061
 21
31.675903
 31
0.0
 70
    32
  3
FXDIMINFO
100
AcDbAlignedDimension
 13
223.362069
 23
37.634863
 33
0.0
 14
253.362069
 24
114.261417
 34
0.0
 50
180.0
100
AcDbRotatedDimension
1001
ACAD
1000
DSTYLE
1002
{
1070
     7
1000
FXTIP_ARROW_E
1070
     6
1000
FXTIP_ARROW_S
1070
   173
1070
     1
1002
}
  0
DIMENSION
  5
12E
330
1F
100
AcDbEntity
  8
LAYERGROUP-1
100
AcDbDimension
  2
*D23
 10
323.362069
 20
162.937609
 30
0.0
 11
322.362061
 21
101.937607
 31
0.0
 70
    32
  3
FXDIMINFO
100
AcDbAlignedDimension
 13
223.362069
 23
40.937609
 33
0.0
 14
303.362069
 24
162.937609
 34
0.0
 50
270.0
100
AcDbRotatedDimension
1001
ACAD
1000
DSTYLE
1002
{
1070
     7
1000
FXTIP_ARROW_E
1070
     6
1000
FXTIP_ARROW_S
1070
   173
1070
     1
1002
}
  0
DIMENSION
  5
138
330
1F
100
AcDbEntity
  8
LAYERGROUP-1
100
AcDbDimension
  2
*D24
 10
313.362069
 20
162.937609
 30
0.0
 11
312.362061
 21
126.937607
 31
0.0
 70
    32
  3
FXDIMINFO
100
AcDbAlignedDimension
 13
276.45977
 23
90.937609
 33
0.0
 14
303.362069
 24
162.937609
 34
0.0
 50
270.0
100
AcDbRotatedDimension
1001
ACAD
1000
DSTYLE
1002
{
1070
     7
1000
FXTIP_ARROW_E
1070
     6
1000
FXTIP_ARROW_S
1070
   173
1070
     1
1002
}
  0
DIMENSION
  5
141
330
1F
100
AcDbEntity
  8
LAYERGROUP-1
100
AcDbDimension
  2
*D25
 10
89.350875
 20
140.937609
 30
0.0
 11
88.350868
 21
90.937607
 31
0.0
 70
    33
  3
FXDIMINFO
100
AcDbAlignedDimension
 13
121.153091
 23
40.937609
 33
0.0
 14
121.153091
 24
140.937609
 34
0.0
1001
ACAD
1000
DSTYLE
1002
{
1070
     7
1000
FXTIP_ARROW_E
1070
     6
1000
FXTIP_ARROW_S
1070
   173
1070
     1
1002
}
  0
LINE
  5
14B
330
1F
100
AcDbEntity
  8
LAYERGROUP-1
  6
CONTINUOUS
 62
     3
100
AcDbLine
 10
105.403091
 20
94.937609
 30
0.0
 11
106.153091
 21
94.937609
 31
0.0
  0
LINE
  5
14C
330
1F
100
AcDbEntity
  8
LAYERGROUP-1
  6
CONTINUOUS
 62
     3
100
AcDbLine
 10
136.153091
 20
94.937609
 30
0.0
 11
136.903091
 21
94.937609
 31
0.0
  0
LINE
  5
14D
330
1F
100
AcDbEntity
  8
LAYERGROUP-1
  6
CONTINUOUS
 62
     3
100
AcDbLine
 10
105.403091
 20
86.937609
 30
0.0
 11
106.153091
 21
86.937609
 31
0.0
  0
LINE
  5
14E
330
1F
100
AcDbEntity
  8
LAYERGROUP-1
  6
CONTINUOUS
 62
     3
100
AcDbLine
 10
136.153091
 20
86.937609
 30
0.0
 11
136.903091
 21
86.937609
 31
0.0
  0
INSERT
  5
152
330
1F
100
AcDbEntity
  8
0
100
AcDbBlockReference
  2
BLKF028
 10
0.0
 20
0.0
 30
0.0
  0
LINE
  5
177
330
1F
100
AcDbEntity
  8
GR1-1
  6
CONTINUOUS
 62
     3
100
AcDbLine
 10
222.615382
 20
76.95484
 30
0.0
 11
214.73692
 21
78.344026
 31
0.0
  0
LINE
  5
178
330
1F
100
AcDbEntity
  8
GR1-1
  6
CONTINUOUS
 62
     3
100
AcDbLine
 10
215.108483
 20
80.61399
 30
0.0
 11
223.014773
 21
79.219898
 31
0.0
  0
LINE
  5
179
330
1F
100
AcDbEntity
  8
GR1-1
  6
CONTINUOUS
 62
     3
100
AcDbLine
 10
223.032137
 20
79.318379
 30
0.0
 11
222.615382
 21
76.95484
 31
0.0
  0
LINE
  5
17A
330
1F
100
AcDbEntity
  8
GR1-1
  6
CONTINUOUS
 62
     3
100
AcDbLine
 10
233.362069
 20
96.651578
 30
0.0
 11
233.362069
 21
132.037609
 31
0.0
  0
LINE
  5
17B
330
1F
100
AcDbEntity
  8
GR1-1
  6
CONTINUOUS
 62
     3
100
AcDbLine
 10
223.362069
 20
132.037609
 30
0.0
 11
223.362069
 21
106.689514
 31
0.0
  0
ARC
  5
17C
330
1F
100
AcDbEntity
  8
GR1-1
  6
CONTINUOUS
 62
     3
100
AcDbCircle
 10
220.862069
 20
106.689514
 30
0.0
 40
2.5
100
AcDbArc
 50
274.132369
 51
360.0
  0
LINE
  5
17D
330
1F
100
AcDbEntity
  8
GR1-1
  6
CONTINUOUS
 62
     3
100
AcDbLine
 10
217.568938
 20
107.698207
 30
0.0
 11
217.568938
 21
105.362726
 31
0.0
  0
ARC
  5
17E
330
1F
100
AcDbEntity
  8
GR1-1
  6
CONTINUOUS
 62
     3
100
AcDbCircle
 10
218.553823
 20
105.189514
 30
0.0
 40
1.0
100
AcDbArc
 50
170.0
 51
183.204167
  0
LINE
  5
17F
330
1F
100
AcDbEntity
  8
GR1-1
  6
CONTINUOUS
 62
     3
100
AcDbLine
 10
217.569015
 20
105.363162
 30
0.0
 11
212.644899
 21
106.230967
 31
0.0
  0
LINE
  5
180
330
1F
100
AcDbEntity
  8
GR1-1
  6
CONTINUOUS
 62
     3
100
AcDbLine
 10
212.644899
 20
106.230967
 30
0.0
 11
213.443681
 21
108.425601
 31
0.0
  0
LINE
  5
181
330
1F
100
AcDbEntity
  8
GR1-1
  6
CONTINUOUS
 62
     3
100
AcDbLine
 10
213.443681
 20
108.425601
 30
0.0
 11
217.568938
 21
107.698207
 31
0.0
  0
LINE
  5
182
330
1F
100
AcDbEntity
  8
GR1-1
  6
CONTINUOUS
 62
     3
100
AcDbLine
 10
212.644899
 20
106.230967
 30
0.0
 11
212.611678
 21
106.042562
 31
0.0
  0
ARC
  5
183
330
1F
100
AcDbEntity
  8
GR1-1
  6
CONTINUOUS
 62
     3
100
AcDbCircle
 10
211.626871
 20
106.216211
 30
0.0
 40
1.0
100
AcDbArc
 50
349.202619
 51
350.0
  0
LINE
  5
184
330
1F
100
AcDbEntity
  8
GR1-1
  6
CONTINUOUS
 62
     6
100
AcDbLine
 10
223.362069
 20
129.189514
 30
0.0
 11
233.362069
 21
129.189514
 31
0.0
  0
LINE
  5
185
330
1F
100
AcDbEntity
  8
GR1-1
  6
CONTINUOUS
 62
     3
100
AcDbLine
 10
166.503089
 20
85.047231
 30
0.0
 11
166.503089
 21
75.912536
 31
0.0
  0
ARC
  5
186
330
1F
100
AcDbEntity
  8
GR1-1
  6
CONTINUOUS
 62
     3
100
AcDbCircle
 10
162.503089
 20
83.259795
 30
0.0
 40
4.0
100
AcDbArc
 50
0.0
 51
90.0
  0
LINE
  5
187
330
1F
100
AcDbEntity
  8
GR1-1
  6
CONTINUOUS
 62
     3
100
AcDbLine
 10
148.803091
 20
68.578388
 30
0.0
 11
146.503091
 21
68.578388
 31
0.0
  0
LINE
  5
188
330
1F
100
AcDbEntity
  8
GR1-1
  6
CONTINUOUS
 62
     3
100
AcDbLine
 10
146.503091
 20
68.578388
 30
0.0
 11
146.503091
 21
69.455483
 31
0.0
  0
LINE
  5
189
330
1F
100
AcDbEntity
  8
GR1-1
  6
CONTINUOUS
 62
     3
100
AcDbLine
 10
146.503091
 20
69.455483
 30
0.0
 11
142.721083
 21
73.116311
 31
0.0
  0
LINE
  5
18A
330
1F
100
AcDbEntity
  8
GR1-1
  6
CONTINUOUS
 62
     3
100
AcDbLine
 10
143.803091
 20
75.155212
 30
0.0
 11
143.803091
 21
76.95484
 31
0.0
  0
LINE
  5
18B
330
1F
100
AcDbEntity
  8
GR1-1
  6
CONTINUOUS
 62
     3
100
AcDbLine
 10
145.403091
 20
76.95484
 30
0.0
 11
142.203091
 21
76.95484
 31
0.0
  0
LINE
  5
18C
330
1F
100
AcDbEntity
  8
GR1-1
  6
CONTINUOUS
 62
     3
100
AcDbLine
 10
141.503091
 20
77.03765
 30
0.0
 11
141.503091
 21
75.990408
 31
0.0
  0
ARC
  5
18D
330
1F
100
AcDbEntity
  8
GR1-1
  6
CONTINUOUS
 62
     3
100
AcDbCircle
 10
145.503091
 20
75.990408
 30
0.0
 40
4.0
100
AcDbArc
 50
180.0
 51
225.932769
  0
LINE
  5
18E
330
1F
100
AcDbEntity
  8
GR1-1
  6
CONTINUOUS
 62
     3
100
AcDbLine
 10
143.803091
 20
75.155212
 30
0.0
 11
147.581724
 21
71.506228
 31
0.0
  0
ARC
  5
18F
330
1F
100
AcDbEntity
  8
GR1-1
  6
CONTINUOUS
 62
     3
100
AcDbCircle
 10
155.957491
 20
81.638823
 30
0.0
 40
12.0
100
AcDbArc
 50
233.401775
 51
331.497924
  0
ARC
  5
190
330
1F
100
AcDbEntity
  8
GR1-1
  6
CONTINUOUS
 62
     3
100
AcDbCircle
 10
162.503089
 20
85.047231
 30
0.0
 40
4.0
100
AcDbArc
 50
0.0
 51
90.0
  0
LINE
  5
191
330
1F
100
AcDbEntity
  8
GR1-1
  6
CONTINUOUS
 62
     3
100
AcDbLine
 10
144.303091
 20
95.282081
 30
0.0
 11
144.303091
 21
111.665969
 31
0.0
  0
ARC
  5
192
330
1F
100
AcDbEntity
  8
GR1-1
  6
CONTINUOUS
 62
     3
100
AcDbCircle
 10
143.803091
 20
111.665969
 30
0.0
 40
0.5
100
AcDbArc
 50
0.0
 51
90.0
  0
LINE
  5
193
330
1F
100
AcDbEntity
  8
GR1-1
  6
CONTINUOUS
 62
     3
100
AcDbLine
 10
144.303091
 20
109.212151
 30
0.0
 11
158.503091
 21
109.212151
 31
0.0
  0
ARC
  5
194
330
1F
100
AcDbEntity
  8
GR1-1
  6
CONTINUOUS
 62
     3
100
AcDbCircle
 10
158.503091
 20
112.212151
 30
0.0
 40
3.0
100
AcDbArc
 50
270.0
 51
360.0
  0
LINE
  5
195
330
1F
100
AcDbEntity
  8
GR1-1
  6
CONTINUOUS
 62
     3
100
AcDbLine
 10
161.503091
 20
112.212151
 30
0.0
 11
161.503091
 21
121.404779
 31
0.0
  0
ARC
  5
196
330
1F
100
AcDbEntity
  8
GR1-1
  6
CONTINUOUS
 62
     3
100
AcDbCircle
 10
150.31195
 20
104.858396
 30
0.0
 40
19.97559558830291
100
AcDbArc
 50
55.927558
 51
110.010286
  0
ARC
  5
197
330
1F
100
AcDbEntity
  8
GR1-1
  6
CONTINUOUS
 62
     3
100
AcDbCircle
 10
144.503091
 20
120.809195
 30
0.0
 40
3.0
100
AcDbArc
 50
110.010286
 51
180.0
  0
LINE
  5
198
330
1F
100
AcDbEntity
  8
GR1-1
  6
CONTINUOUS
 62
     3
100
AcDbLine
 10
143.803091
 20
121.251406
 30
0.0
 11
143.803091
 21
80.376627
 31
0.0
  0
LINE
  5
199
330
1F
100
AcDbEntity
  8
GR1-1
  6
CONTINUOUS
 62
     3
100
AcDbLine
 10
144.903091
 20
80.376627
 30
0.0
 11
141.503091
 21
80.376627
 31
0.0
  0
LINE
  5
19A
330
1F
100
AcDbEntity
  8
GR1-1
  6
CONTINUOUS
 62
     3
100
AcDbLine
 10
141.503091
 20
80.376627
 30
0.0
 11
141.503091
 21
128.36789
 31
0.0
  0
ARC
  5
19B
330
1F
100
AcDbEntity
  8
GR1-1
  6
CONTINUOUS
 62
     3
100
AcDbCircle
 10
137.503091
 20
128.36789
 30
0.0
 40
4.0
100
AcDbArc
 50
0.0
 51
49.0
  0
LINE
  5
19C
330
1F
100
AcDbEntity
  8
GR1-1
  6
CONTINUOUS
 62
     3
100
AcDbLine
 10
140.127327
 20
131.386728
 30
0.0
 11
139.203091
 21
132.190154
 31
0.0
  0
ARC
  5
19D
330
1F
100
AcDbEntity
  8
GR1-1
  6
CONTINUOUS
 62
     3
100
AcDbCircle
 10
132.903091
 20
139.86302
 30
0.0
 40
4.0
100
AcDbArc
 50
0.0
 51
90.0
  0
LINE
  5
19E
330
1F
100
AcDbEntity
  8
GR1-1
  6
CONTINUOUS
 62
     3
100
AcDbLine
 10
132.903091
 20
143.86302
 30
0.0
 11
112.903091
 21
143.86302
 31
0.0
  0
ARC
  5
19F
330
1F
100
AcDbEntity
  8
GR1-1
  6
CONTINUOUS
 62
     3
100
AcDbCircle
 10
112.903091
 20
142.939514
 30
0.0
 40
1.0
100
AcDbArc
 50
180.0
 51
270.0
  0
LINE
  5
1A0
330
1F
100
AcDbEntity
  8
GR1-1
  6
CONTINUOUS
 62
     3
100
AcDbLine
 10
112.903091
 20
141.939514
 30
0.0
 11
133.603091
 21
141.939514
 31
0.0
  0
LINE
  5
1A1
330
1F
100
AcDbEntity
  8
GR1-1
  6
CONTINUOUS
 62
     3
100
AcDbLine
 10
134.603091
 20
140.939514
 30
0.0
 11
134.603091
 21
135.011138
 31
0.0
  0
ARC
  5
1A2
330
1F
100
AcDbEntity
  8
GR1-1
  6
CONTINUOUS
 62
     3
100
AcDbCircle
 10
138.603091
 20
135.011138
 30
0.0
 40
4.0
100
AcDbArc
 50
180.0
 51
229.0
  0
LINE
  5
1A3
330
1F
100
AcDbEntity
  8
GR1-1
  6
CONTINUOUS
 62
     3
100
AcDbLine
 10
135.978855
 20
131.992299
 30
0.0
 11
136.903091
 21
131.188873
 31
0.0
  0
ARC
  5
1A4
330
1F
100
AcDbEntity
  8
GR1-1
  6
CONTINUOUS
 62
     3
100
AcDbCircle
 10
142.203091
 20
79.95484
 30
0.0
 40
3.0
100
AcDbArc
 50
180.0
 51
270.0
  0
LINE
  5
1A5
330
1F
100
AcDbEntity
  8
GR1-1
  6
CONTINUOUS
 62
     3
100
AcDbLine
 10
142.203091
 20
78.344026
 30
0.0
 11
145.403091
 21
78.344026
 31
0.0
  0
LINE
  5
1A6
330
1F
100
AcDbEntity
  8
GR1-1
  6
CONTINUOUS
 62
     3
100
AcDbLine
 10
145.403091
 20
76.95484
 30
0.0
 11
145.403091
 21
79.876627
 31
0.0
  0
ARC
  5
1A7
330
1F
100
AcDbEntity
  8
GR1-1
  6
CONTINUOUS
 62
     3
100
AcDbCircle
 10
144.903091
 20
79.876627
 30
0.0
 40
0.5
100
AcDbArc
 50
0.0
 51
90.0
  0
ARC
  5
1A8
330
1F
100
AcDbEntity
  8
GR1-1
  6
CONTINUOUS
 62
     3
100
AcDbCircle
 10
142.203091
 20
81.344026
 30
0.0
 40
3.0
100
AcDbArc
 50
180.0
 51
270.0
  0
ARC
  5
1A9
330
1F
100
AcDbEntity
  8
GR1-1
  6
CONTINUOUS
 62
     3
100
AcDbCircle
 10
144.803091
 20
68.628869
 30
0.0
 40
4.0
100
AcDbArc
 50
0.0
 51
46.0
  0
LINE
  5
1AA
330
1F
100
AcDbEntity
  8
GR1-1
  6
CONTINUOUS
 62
     3
100
AcDbLine
 10
144.303091
 20
105.362726
 30
0.0
 11
144.903091
 21
105.362726
 31
0.0
  0
LINE
  5
1AB
330
1F
100
AcDbEntity
  8
GR1-1
  6
CONTINUOUS
 62
     3
100
AcDbLine
 10
144.903091
 20
105.362726
 30
0.0
 11
144.903091
 21
108.425601
 31
0.0
  0
LINE
  5
1AC
330
1F
100
AcDbEntity
  8
GR1-1
  6
CONTINUOUS
 62
     3
100
AcDbLine
 10
144.903091
 20
108.425601
 30
0.0
 11
144.303091
 21
108.425601
 31
0.0
  0
LINE
  5
1AD
330
1F
100
AcDbEntity
  8
GR1-1
  6
CONTINUOUS
 62
     3
100
AcDbLine
 10
144.303091
 20
106.230967
 30
0.0
 11
144.903091
 21
106.230967
 31
0.0
  0
ARC
  5
1AE
330
1F
100
AcDbEntity
  8
GR1-1
  6
CONTINUOUS
 62
     3
100
AcDbCircle
 10
142.703091
 20
104.925601
 30
0.0
 40
3.5
100
AcDbArc
 50
110.051043
 51
180.0
  0
ARC
  5
1AF
330
1F
100
AcDbEntity
  8
GR1-1
  6
CONTINUOUS
 62
     3
100
AcDbCircle
 10
144.303091
 20
121.251406
 30
0.0
 40
0.5
100
AcDbArc
 50
109.319944
 51
180.0
  0
ARC
  5
1B0
330
1F
100
AcDbEntity
  8
GR1-1
  6
CONTINUOUS
 62
     3
100
AcDbCircle
 10
150.530116
 20
103.489634
 30
0.0
 40
19.32169991392831
100
AcDbArc
 50
55.395432
 51
109.319944
  0
ARC
  5
1B1
330
1F
100
AcDbEntity
  8
GR1-1
  6
CONTINUOUS
 62
     3
100
AcDbCircle
 10
127.729861
 20
134.244197
 30
0.0
 40
8.32389803990519
100
AcDbArc
 50
34.338195
 51
67.590779
  0
ARC
  5
1B2
330
1F
100
AcDbEntity
  8
GR1-1
  6
CONTINUOUS
 62
     3
100
AcDbCircle
 10
133.603091
 20
140.939514
 30
0.0
 40
1.0
100
AcDbArc
 50
0.0
 51
90.0
  0
ARC
  5
1B3
330
1F
100
AcDbEntity
  8
GR1-1
  6
CONTINUOUS
 62
     3
100
AcDbCircle
 10
126.018872
 20
127.768185
 30
0.0
 40
17.90515533768449
100
AcDbArc
 50
59.244697
 51
80.730228
  0
LINE
  5
1B4
330
1F
100
AcDbEntity
  8
GR1-1
  6
CONTINUOUS
 62
     3
100
AcDbLine
 10
128.903091
 20
145.439514
 30
0.0
 11
111.903091
 21
145.439514
 31
0.0
  0
LINE
  5
1B5
330
1F
100
AcDbEntity
  8
GR1-1
  6
CONTINUOUS
 62
     3
100
AcDbLine
 10
111.903091
 20
145.439514
 30
0.0
 11
111.903091
 21
142.939514
 31
0.0
  0
ARC
  5
1B6
330
1F
100
AcDbEntity
  8
GR1-1
  6
CONTINUOUS
 62
     3
100
AcDbCircle
 10
112.903091
 20
144.86302
 30
0.0
 40
1.0
100
AcDbArc
 50
180.0
 51
270.0
  0
LINE
  5
1B7
330
1F
100
AcDbEntity
  8
GR1-1
  6
CONTINUOUS
 62
     6
100
AcDbLine
 10
143.803091
 20
93.216071
 30
0.0
 11
141.503091
 21
93.216071
 31
0.0
  0
LINE
  5
1B8
330
1F
100
AcDbEntity
  8
GR1-1
  6
CONTINUOUS
 62
     6
100
AcDbLine
 10
141.503091
 20
104.683334
 30
0.0
 11
143.803091
 21
104.683334
 31
0.0
  0
LINE
  5
1B9
330
1F
100
AcDbEntity
  8
GR1-1
  6
CONTINUOUS
 62
     3
100
AcDbLine
 10
192.414913
 20
205.33099
 30
0.0
 11
203.691548
 21
205.33099
 31
0.0
  0
ARC
  5
1BA
330
1F
100
AcDbEntity
  8
GR1-1
  6
CONTINUOUS
 62
     3
100
AcDbCircle
 10
203.691548
 20
211.33099
 30
0.0
 40
6.0
100
AcDbArc
 50
270.0
 51
360.0
  0
LINE
  5
1BB
330
1F
100
AcDbEntity
  8
GR1-1
  6
CONTINUOUS
 62
     3
100
AcDbLine
 10
209.691548
 20
211.33099
 30
0.0
 11
209.691548
 21
216.713178
 31
0.0
  0
LINE
  5
1BC
330
1F
100
AcDbEntity
  8
GR1-1
  6
CONTINUOUS
 62
     3
100
AcDbLine
 10
203.511627
 20
225.33099
 30
0.0
 11
186.22374
 21
225.33099
 31
0.0
  0
LINE
  5
1BD
330
1F
100
AcDbEntity
  8
GR1-1
  6
CONTINUOUS
 62
     3
100
AcDbLine
 10
186.22374
 20
225.33099
 30
0.0
 11
185.858949
 21
223.03099
 31
0.0
  0
ARC
  5
1BE
330
1F
100
AcDbEntity
  8
GR1-1
  6
CONTINUOUS
 62
     3
100
AcDbCircle
 10
196.087131
 20
216.755298
 30
0.0
 40
12.0
100
AcDbArc
 50
148.468025
 51
252.180573
  0
ARC
  5
1BF
330
1F
100
AcDbEntity
  8
GR1-1
  6
CONTINUOUS
 62
     3
100
AcDbCircle
 10
197.202193
 20
216.755298
 30
0.0
 40
12.0
100
AcDbArc
 50
150.212745
 51
252.180573
  0
ARC
  5
1C0
330
1F
100
AcDbEntity
  8
GR1-1
  6
CONTINUOUS
 62
     3
100
AcDbCircle
 10
185.051929
 20
223.710231
 30
0.0
 40
2.0
100
AcDbArc
 50
-29.787255
 51
54.133013
  0
LINE
  5
1C1
330
1F
100
AcDbEntity
  8
GR1-1
  6
CONTINUOUS
 62
     3
100
AcDbLine
 10
242.060227
 20
216.68099
 30
0.0
 11
242.060227
 21
206.330992
 31
0.0
  0
ARC
  5
1C2
330
1F
100
AcDbEntity
  8
GR1-1
  6
CONTINUOUS
 62
     3
100
AcDbCircle
 10
248.060227
 20
206.330992
 30
0.0
 40
6.0
100
AcDbArc
 50
180.0
 51
270.0
  0
LINE
  5
1C3
330
1F
100
AcDbEntity
  8
GR1-1
  6
CONTINUOUS
 62
     3
100
AcDbLine
 10
248.060227
 20
200.330992
 30
0.0
 11
258.994038
 21
200.330992
 31
0.0
  0
ARC
  5
1C4
330
1F
100
AcDbEntity
  8
GR1-1
  6
CONTINUOUS
 62
     3
100
AcDbCircle
 10
253.267751
 20
210.87659
 30
0.0
 40
12.0
100
AcDbArc
 50
-61.497924
 51
28.927335
  0
LINE
  5
1C5
330
1F
100
AcDbEntity
  8
GR1-1
  6
CONTINUOUS
 62
     3
100
AcDbLine
 10
243.507664
 20
216.68099
 30
0.0
 11
243.507664
 21
206.330992
 31
0.0
  0
ARC
  5
1C6
330
1F
100
AcDbEntity
  8
GR1-1
  6
CONTINUOUS
 62
     3
100
AcDbCircle
 10
249.507664
 20
206.330992
 30
0.0
 40
6.0
100
AcDbArc
 50
180.0
 51
270.0
  0
TEXT
  5
1C7
330
1F
100
AcDbEntity
  8
GR1-1
  6
CONTINUOUS
 62
     7
100
AcDbText
 10
250.880615
 20
213.314026
 30
0.0
 40
7.088436
  1
開
 50
270.0
 41
1.701963
  7
FX_VECTOR
 72
     5
 11
250.880615
 21
204.696702
 31
0.0
100
AcDbText
  0
TEXT
  5
1C8
330
1F
100
AcDbEntity
  8
GR1-1
  6
CONTINUOUS
 62
     7
100
AcDbText
 10
193.948364
 20
217.830994
 30
0.0
 40
7.46376
  1
止
 50
270.0
 41
1.614206
  7
FX_VECTOR
 72
     5
 11
193.948364
 21
209.225246
 31
0.0
100
AcDbText
  0
DIMENSION
  5
1C9
330
1F
100
AcDbEntity
  8
LAYERGROUP-1
100
AcDbDimension
  2
*D27
 10
291.244998
 20
228.926582
 30
0.0
 11
314.269562
 21
207.237701
 31
0.0
 70
   163
  3
FXDIMINFO
100
AcDbDiametricDimension
 15
297.47914
 25
222.435398
 35
0.0
 40
0.0
  0
LINE
  5
1D3
330
1F
100
AcDbEntity
  8
GR1-1
  6
CONTINUOUS
 62
     3
100
AcDbLine
 10
223.062069
 20
132.037609
 30
0.0
 11
223.062069
 21
117.037609
 31
0.0
  0
LINE
  5
1D4
330
1F
100
AcDbEntity
  8
GR1-1
  6
CONTINUOUS
 62
     3
100
AcDbLine
 10
223.062069
 20
117.037609
 30
0.0
 11
223.362069
 21
117.037609
 31
0.0
  0
LINE
  5
1D5
330
1F
100
AcDbEntity
  8
GR1-1
  6
CONTINUOUS
 62
     3
100
AcDbLine
 10
233.362069
 20
117.037609
 30
0.0
 11
233.662069
 21
117.037609
 31
0.0
  0
LINE
  5
1D6
330
1F
100
AcDbEntity
  8
GR1-1
  6
CONTINUOUS
 62
     3
100
AcDbLine
 10
233.662069
 20
117.037609
 30
0.0
 11
233.662069
 21
132.037609
 31
0.0
  0
LINE
  5
1D7
330
1F
100
AcDbEntity
  8
GR1-1
  6
CONTINUOUS
 62
     3
100
AcDbLine
 10
233.662069
 20
132.037609
 30
0.0
 11
223.062069
 21
132.037609
 31
0.0
  0
CIRCLE
  5
1D8
330
1F
100
AcDbEntity
  8
GR1-1
  6
CONTINUOUS
 62
     3
100
AcDbCircle
 10
223.362069
 20
90.937609
 30
0.0
 40
6.0
  0
CIRCLE
  5
1D9
330
1F
100
AcDbEntity
  8
GR1-1
  6
CONTINUOUS
 62
     6
100
AcDbCircle
 10
223.362069
 20
90.937609
 30
0.0
 40
3.999999999999972
  0
LINE
  5
1DA
330
1F
100
AcDbEntity
  8
GR1-1
  6
CONTINUOUS
 62
     3
100
AcDbLine
 10
162.503089
 20
89.047231
 30
0.0
 11
149.503091
 21
89.047231
 31
0.0
  0
ARC
  5
1DB
330
1F
100
AcDbEntity
  8
GR1-1
  6
CONTINUOUS
 62
     3
100
AcDbCircle
 10
149.503091
 20
86.047231
 30
0.0
 40
3.0
100
AcDbArc
 50
90.0
 51
109.976683
  0
LINE
  5
1DC
330
1F
100
AcDbEntity
  8
GR1-1
  6
CONTINUOUS
 62
     3
100
AcDbLine
 10
148.803091
 20
88.752928
 30
0.0
 11
148.803091
 21
68.578388
 31
0.0
  0
LINE
  5
1DD
330
1F
100
AcDbEntity
  8
GR1-1
  6
CONTINUOUS
 62
     3
100
AcDbLine
 10
162.503089
 20
87.259795
 30
0.0
 11
149.303091
 21
87.259795
 31
0.0
  0
ARC
  5
1DE
330
1F
100
AcDbEntity
  8
GR1-1
  6
CONTINUOUS
 62
     3
100
AcDbCircle
 10
149.303091
 20
86.759795
 30
0.0
 40
0.5
100
AcDbArc
 50
90.0
 51
180.0
  0
LINE
  5
1DF
330
1F
100
AcDbEntity
  8
GR1-1
  6
CONTINUOUS
 62
     3
100
AcDbLine
 10
147.303091
 20
86.937609
 30
0.0
 11
147.303091
 21
94.937609
 31
0.0
  0
ARC
  5
1E0
330
1F
100
AcDbEntity
  8
GR1-1
  6
CONTINUOUS
 62
     3
100
AcDbCircle
 10
145.303091
 20
94.937609
 30
0.0
 40
2.0
100
AcDbArc
 50
0.0
 51
90.0
  0
LINE
  5
1E1
330
1F
100
AcDbEntity
  8
GR1-1
  6
CONTINUOUS
 62
     3
100
AcDbLine
 10
145.303091
 20
96.937609
 30
0.0
 11
144.303091
 21
96.937609
 31
0.0
  0
ARC
  5
1E2
330
1F
100
AcDbEntity
  8
GR1-1
  6
CONTINUOUS
 62
     3
100
AcDbCircle
 10
143.803091
 20
95.282081
 30
0.0
 40
0.5
100
AcDbArc
 50
270.0
 51
360.0
  0
ARC
  5
1E3
330
1F
100
AcDbEntity
  8
GR1-1
  6
CONTINUOUS
 62
     3
100
AcDbCircle
 10
149.936812
 20
91.793205
 30
0.0
 40
3.253148973766445
100
AcDbArc
 50
215.94398
 51
249.604428
  0
LINE
  5
1E4
330
1F
100
AcDbEntity
  8
GR1-1
  6
CONTINUOUS
 62
     3
100
AcDbLine
 10
145.303091
 20
84.937609
 30
0.0
 11
143.803091
 21
84.937609
 31
0.0
  0
ARC
  5
1E5
330
1F
100
AcDbEntity
  8
GR1-1
  6
CONTINUOUS
 62
     3
100
AcDbCircle
 10
145.303091
 20
86.937609
 30
0.0
 40
2.0
100
AcDbArc
 50
270.0
 51
360.0
  0
ARC
  5
1E6
330
1F
100
AcDbEntity
  8
GR1-1
  6
CONTINUOUS
 62
     3
100
AcDbCircle
 10
103.603091
 20
93.001118
 30
0.0
 40
2.0
100
AcDbArc
 50
104.477512
 51
180.0
  0
LINE
  5
1E7
330
1F
100
AcDbEntity
  8
GR1-1
  6
CONTINUOUS
 62
     3
100
AcDbLine
 10
101.603091
 20
93.001118
 30
0.0
 11
101.603091
 21
88.874101
 31
0.0
  0
ARC
  5
1E8
330
1F
100
AcDbEntity
  8
GR1-1
  6
CONTINUOUS
 62
     3
100
AcDbCircle
 10
103.603091
 20
88.874101
 30
0.0
 40
2.0
100
AcDbArc
 50
180.0
 51
255.522488
  0
LINE
  5
1E9
330
1F
100
AcDbEntity
  8
GR1-1
  6
CONTINUOUS
 62
     3
100
AcDbLine
 10
303.362069
 20
162.937609
 30
0.0
 11
303.362069
 21
160.637609
 31
0.0
  0
ARC
  5
1EA
330
1F
100
AcDbEntity
  8
GR1-1
  6
CONTINUOUS
 62
     3
100
AcDbCircle
 10
281.541058
 20
159.637609
 30
0.0
 40
1.0
100
AcDbArc
 50
90.0
 51
156.126621
  0
ARC
  5
1EB
330
1F
100
AcDbEntity
  8
GR1-1
  6
CONTINUOUS
 62
     3
100
AcDbCircle
 10
276.412069
 20
158.737609
 30
0.0
 40
2.5
100
AcDbArc
 50
270.0
 51
304.320141
  0
ARC
  5
1EC
330
1F
100
AcDbEntity
  8
GR1-1
  6
CONTINUOUS
 62
     3
100
AcDbCircle
 10
273.311079
 20
163.28006
 30
0.0
 40
8.0
100
AcDbArc
 50
304.320141
 51
336.126621
  0
LINE
  5
1ED
330
1F
100
AcDbEntity
  8
LAYERGROUP-1
  6
CONTINUOUS
 62
     3
100
AcDbLine
 10
303.362069
 20
161.637609
 30
0.0
 11
303.362069
 21
160.637609
 31
0.0
  0
ARC
  5
1EE
330
1F
100
AcDbEntity
  8
GR1-1
  6
CONTINUOUS
 62
     3
100
AcDbCircle
 10
121.153091
 20
156.859609
 30
0.0
 40
2.778
100
AcDbArc
 50
325.386717
 51
347.061675
  0
ARC
  5
1EF
330
1F
100
AcDbEntity
  8
GR1-1
  6
CONTINUOUS
 62
     3
100
AcDbCircle
 10
126.640233
 20
156.859609
 30
0.0
 40
2.778
100
AcDbArc
 50
325.386717
 51
347.061675
  0
ARC
  5
1F0
330
1F
100
AcDbEntity
  8
GR1-1
  6
CONTINUOUS
 62
     3
100
AcDbCircle
 10
131.586716
 20
156.859609
 30
0.0
 40
2.778
100
AcDbArc
 50
207.089575
 51
214.613283
  0
ARC
  5
1F1
330
1F
100
AcDbEntity
  8
GR1-1
  6
CONTINUOUS
 62
     3
100
AcDbCircle
 10
126.640233
 20
156.859609
 30
0.0
 40
2.778
100
AcDbArc
 50
192.938325
 51
214.613283
  0
ARC
  5
1F2
330
1F
100
AcDbEntity
  8
GR1-1
  6
CONTINUOUS
 62
     3
100
AcDbCircle
 10
131.586716
 20
156.859609
 30
0.0
 40
2.778
100
AcDbArc
 50
325.386717
 51
347.061675
  0
ARC
  5
1F3
330
1F
100
AcDbEntity
  8
GR1-1
  6
CONTINUOUS
 62
     3
100
AcDbCircle
 10
135.505151
 20
156.859609
 30
0.0
 40
2.778
100
AcDbArc
 50
325.386717
 51
347.061675
  0
ARC
  5
1F4
330
1F
100
AcDbEntity
  8
GR1-1
  6
CONTINUOUS
 62
     3
100
AcDbCircle
 10
138.009447
 20
156.859609
 30
0.0
 40
2.778
100
AcDbArc
 50
325.386717
 51
347.061675
  0
ARC
  5
1F5
330
1F
100
AcDbEntity
  8
GR1-1
  6
CONTINUOUS
 62
     3
100
AcDbCircle
 10
138.85285
 20
156.859609
 30
0.0
 40
2.778
100
AcDbArc
 50
325.386717
 51
347.061675
  0
ARC
  5
1F6
330
1F
100
AcDbEntity
  8
GR1-1
  6
CONTINUOUS
 62
     3
100
AcDbCircle
 10
121.153091
 20
156.859609
 30
0.0
 40
2.778
100
AcDbArc
 50
192.938325
 51
214.613283
  0
ARC
  5
1F7
330
1F
100
AcDbEntity
  8
GR1-1
  6
CONTINUOUS
 62
     3
100
AcDbCircle
 10
115.665948
 20
156.859609
 30
0.0
 40
2.778
100
AcDbArc
 50
192.938325
 51
214.613283
  0
ARC
  5
1F8
330
1F
100
AcDbEntity
  8
GR1-1
  6
CONTINUOUS
 62
     3
100
AcDbCircle
 10
110.719465
 20
156.859609
 30
0.0
 40
2.778
100
AcDbArc
 50
325.386717
 51
332.910425
  0
ARC
  5
1F9
330
1F
100
AcDbEntity
  8
GR1-1
  6
CONTINUOUS
 62
     3
100
AcDbCircle
 10
115.665948
 20
156.859609
 30
0.0
 40
2.778
100
AcDbArc
 50
325.386717
 51
347.061675
  0
ARC
  5
1FA
330
1F
100
AcDbEntity
  8
GR1-1
  6
CONTINUOUS
 62
     3
100
AcDbCircle
 10
110.719465
 20
156.859609
 30
0.0
 40
2.778
100
AcDbArc
 50
192.938325
 51
214.613283
  0
ARC
  5
1FB
330
1F
100
AcDbEntity
  8
GR1-1
  6
CONTINUOUS
 62
     3
100
AcDbCircle
 10
106.80103
 20
156.859609
 30
0.0
 40
2.778
100
AcDbArc
 50
192.938325
 51
214.613283
  0
ARC
  5
1FC
330
1F
100
AcDbEntity
  8
GR1-1
  6
CONTINUOUS
 62
     3
100
AcDbCircle
 10
104.296734
 20
156.859609
 30
0.0
 40
2.778
100
AcDbArc
 50
192.938325
 51
214.613283
  0
ARC
  5
1FD
330
1F
100
AcDbEntity
  8
GR1-1
  6
CONTINUOUS
 62
     3
100
AcDbCircle
 10
103.453331
 20
156.859609
 30
0.0
 40
2.778
100
AcDbArc
 50
192.938325
 51
214.613283
  0
ARC
  5
1FE
330
1F
100
AcDbEntity
  8
GR1-1
  6
CONTINUOUS
 62
     3
100
AcDbCircle
 10
253.362069
 20
156.859609
 30
0.0
 40
2.778
100
AcDbArc
 50
325.386717
 51
347.061675
  0
ARC
  5
1FF
330
1F
100
AcDbEntity
  8
GR1-1
  6
CONTINUOUS
 62
     3
100
AcDbCircle
 10
258.849212
 20
156.859609
 30
0.0
 40
2.778
100
AcDbArc
 50
325.386717
 51
347.061675
  0
ARC
  5
200
330
1F
100
AcDbEntity
  8
GR1-1
  6
CONTINUOUS
 62
     3
100
AcDbCircle
 10
263.795694
 20
156.859609
 30
0.0
 40
2.778
100
AcDbArc
 50
207.089575
 51
214.613283
  0
ARC
  5
201
330
1F
100
AcDbEntity
  8
GR1-1
  6
CONTINUOUS
 62
     3
100
AcDbCircle
 10
258.849212
 20
156.859609
 30
0.0
 40
2.778
100
AcDbArc
 50
192.938325
 51
214.613283
  0
ARC
  5
202
330
1F
100
AcDbEntity
  8
GR1-1
  6
CONTINUOUS
 62
     3
100
AcDbCircle
 10
263.795694
 20
156.859609
 30
0.0
 40
2.778
100
AcDbArc
 50
325.386717
 51
347.061675
  0
ARC
  5
203
330
1F
100
AcDbEntity
  8
GR1-1
  6
CONTINUOUS
 62
     3
100
AcDbCircle
 10
267.71413
 20
156.859609
 30
0.0
 40
2.778
100
AcDbArc
 50
325.386717
 51
347.061675
  0
ARC
  5
204
330
1F
100
AcDbEntity
  8
GR1-1
  6
CONTINUOUS
 62
     3
100
AcDbCircle
 10
270.218426
 20
156.859609
 30
0.0
 40
2.778
100
AcDbArc
 50
325.386717
 51
347.061675
  0
ARC
  5
205
330
1F
100
AcDbEntity
  8
GR1-1
  6
CONTINUOUS
 62
     3
100
AcDbCircle
 10
271.061829
 20
156.859609
 30
0.0
 40
2.778
100
AcDbArc
 50
325.386717
 51
347.061675
  0
ARC
  5
206
330
1F
100
AcDbEntity
  8
GR1-1
  6
CONTINUOUS
 62
     3
100
AcDbCircle
 10
253.362069
 20
156.859609
 30
0.0
 40
2.778
100
AcDbArc
 50
192.938325
 51
214.613283
  0
ARC
  5
207
330
1F
100
AcDbEntity
  8
GR1-1
  6
CONTINUOUS
 62
     3
100
AcDbCircle
 10
247.874926
 20
156.859609
 30
0.0
 40
2.778
100
AcDbArc
 50
192.938325
 51
214.613283
  0
ARC
  5
208
330
1F
100
AcDbEntity
  8
GR1-1
  6
CONTINUOUS
 62
     3
100
AcDbCircle
 10
242.928443
 20
156.859609
 30
0.0
 40
2.778
100
AcDbArc
 50
325.386717
 51
332.910425
  0
ARC
  5
209
330
1F
100
AcDbEntity
  8
GR1-1
  6
CONTINUOUS
 62
     3
100
AcDbCircle
 10
247.874926
 20
156.859609
 30
0.0
 40
2.778
100
AcDbArc
 50
325.386717
 51
347.061675
  0
ARC
  5
20A
330
1F
100
AcDbEntity
  8
GR1-1
  6
CONTINUOUS
 62
     3
100
AcDbCircle
 10
242.928443
 20
156.859609
 30
0.0
 40
2.778
100
AcDbArc
 50
192.938325
 51
214.613283
  0
ARC
  5
20B
330
1F
100
AcDbEntity
  8
GR1-1
  6
CONTINUOUS
 62
     3
100
AcDbCircle
 10
239.010008
 20
156.859609
 30
0.0
 40
2.778
100
AcDbArc
 50
192.938325
 51
214.613283
  0
ARC
  5
20C
330
1F
100
AcDbEntity
  8
GR1-1
  6
CONTINUOUS
 62
     3
100
AcDbCircle
 10
236.505712
 20
156.859609
 30
0.0
 40
2.778
100
AcDbArc
 50
192.938325
 51
214.613283
  0
ARC
  5
20D
330
1F
100
AcDbEntity
  8
GR1-1
  6
CONTINUOUS
 62
     3
100
AcDbCircle
 10
235.662309
 20
156.859609
 30
0.0
 40
2.778
100
AcDbArc
 50
192.938325
 51
214.613283
  0
ARC
  5
20E
330
1F
100
AcDbEntity
  8
LAYERGROUP-1
  6
CONTINUOUS
 62
     7
100
AcDbCircle
 10
253.362069
 20
245.68099
 30
0.0
 40
76.16474258841943
100
AcDbArc
 50
191.242156
 51
210.16189
  0
DIMENSION
  5
20F
330
1F
100
AcDbEntity
  8
LAYERGROUP-1
100
AcDbDimension
  2
*D28
 10
253.362069
 20
245.68099
 30
0.0
 11
168.902206
 21
225.320999
 31
0.0
 70
   164
  3
FXDIMINFO
100
AcDbRadialDimension
 15
179.528659
 25
226.98084
 35
0.0
 40
0.0
  0
LINE
  5
217
330
1F
100
AcDbEntity
  8
LAYERGROUP-1
  6
CENTER
 62
     6
100
AcDbLine
 10
294.362069
 20
272.175249
 30
0.0
 11
294.362069
 21
259.162899
 31
0.0
  0
LINE
  5
218
330
1F
100
AcDbEntity
  8
LAYERGROUP-1
  6
CENTER
 62
     6
100
AcDbLine
 10
300.847115
 20
265.68099
 30
0.0
 11
288.299491
 21
265.68099
 31
0.0
  0
LINE
  5
219
330
1F
100
AcDbEntity
  8
LAYERGROUP-1
  6
CENTER
 62
     6
100
AcDbLine
 10
212.362069
 20
272.175249
 30
0.0
 11
212.362069
 21
259.162899
 31
0.0
  0
LINE
  5
21A
330
1F
100
AcDbEntity
  8
LAYERGROUP-1
  6
CENTER
 62
     6
100
AcDbLine
 10
218.847115
 20
265.68099
 30
0.0
 11
206.299491
 21
265.68099
 31
0.0
  0
LINE
  5
21B
330
1F
100
AcDbEntity
  8
LAYERGROUP-1
  6
CENTER
 62
     6
100
AcDbLine
 10
212.362069
 20
232.175249
 30
0.0
 11
212.362069
 21
219.162899
 31
0.0
  0
LINE
  5
21C
330
1F
100
AcDbEntity
  8
LAYERGROUP-1
  6
CENTER
 62
     6
100
AcDbLine
 10
218.847115
 20
225.68099
 30
0.0
 11
206.299491
 21
225.68099
 31
0.0
  0
LINE
  5
21D
330
1F
100
AcDbEntity
  8
LAYERGROUP-1
  6
CENTER
 62
     6
100
AcDbLine
 10
294.362069
 20
232.175249
 30
0.0
 11
294.362069
 21
219.162899
 31
0.0
  0
LINE
  5
21E
330
1F
100
AcDbEntity
  8
LAYERGROUP-1
  6
CENTER
 62
     6
100
AcDbLine
 10
300.847115
 20
225.68099
 30
0.0
 11
288.299491
 21
225.68099
 31
0.0
  0
LINE
  5
21F
330
1F
100
AcDbEntity
  8
LAYERGROUP-1
  6
CENTER
 62
     6
100
AcDbLine
 10
294.362069
 20
165.401123
 30
0.0
 11
294.362069
 21
157.915254
 31
0.0
  0
LINE
  5
220
330
1F
100
AcDbEntity
  8
LAYERGROUP-1
  6
CENTER
 62
     6
100
AcDbLine
 10
212.362069
 20
165.401123
 30
0.0
 11
212.362069
 21
157.915254
 31
0.0
  0
LINE
  5
221
330
1F
100
AcDbEntity
  8
GR1-1
  6
CENTER
 62
     6
100
AcDbLine
 10
101.153091
 20
157.915254
 30
0.0
 11
101.153091
 21
165.281609
 31
0.0
  0
LINE
  5
222
330
1F
100
AcDbEntity
  8
GR1-1
  6
CENTER
 62
     6
100
AcDbLine
 10
141.153091
 20
157.915254
 30
0.0
 11
141.153091
 21
165.281609
 31
0.0
  0
DIMENSION
  5
223
330
1F
100
AcDbEntity
  8
GR1-1
100
AcDbDimension
  2
*D29
 10
323.011529
 20
274.68099
 30
0.0
 11
322.011536
 21
245.680984
 31
0.0
 70
    33
  3
FXDIMINFO
100
AcDbAlignedDimension
 13
296.362069
 23
216.68099
 33
0.0
 14
296.362069
 24
274.68099
 34
0.0
1001
ACAD
1000
DSTYLE
1002
{
1070
     7
1000
FXTIP_ARROW_E
1070
     6
1000
FXTIP_ARROW_S
1070
   173
1070
     1
1002
}
  0
DIMENSION
  5
22D
330
1F
100
AcDbEntity
  8
GR1-1
100
AcDbDimension
  2
*D30
 10
313.011529
 20
265.68099
 30
0.0
 11
312.011536
 21
245.680984
 31
0.0
 70
    33
  3
FXDIMINFO
100
AcDbAlignedDimension
 13
302.362069
 23
225.68099
 33
0.0
 14
302.362069
 24
265.68099
 34
0.0
1001
ACAD
1000
DSTYLE
1002
{
1070
     7
1000
FXTIP_ARROW_E
1070
     6
1000
FXTIP_ARROW_S
1070
   173
1070
     1
1002
}
  0
DIMENSION
  5
237
330
1F
100
AcDbEntity
  8
GR1-1
100
AcDbDimension
  2
*D31
 10
303.362069
 20
180.330992
 30
0.0
 11
253.362061
 21
181.330994
 31
0.0
 70
    33
  3
FXDIMINFO
100
AcDbAlignedDimension
 13
203.362069
 23
223.68099
 33
0.0
 14
303.362069
 24
223.68099
 34
0.0
1001
ACAD
1000
DSTYLE
1002
{
1070
     7
1000
FXTIP_ARROW_E
1070
     6
1000
FXTIP_ARROW_S
1070
   173
1070
     1
1002
}
  0
DIMENSION
  5
241
330
1F
100
AcDbEntity
  8
GR1-1
100
AcDbDimension
  2
*D32
 10
294.362069
 20
190.330992
 30
0.0
 11
253.362061
 21
191.330994
 31
0.0
 70
    33
  3
FXDIMINFO
100
AcDbAlignedDimension
 13
212.362069
 23
217.68099
 33
0.0
 14
294.362069
 24
217.68099
 34
0.0
1001
ACAD
1000
DSTYLE
1002
{
1070
     7
1000
FXTIP_ARROW_E
1070
     6
1000
FXTIP_ARROW_S
1070
   173
1070
     1
1002
}
  0
CIRCLE
  5
24B
330
1F
100
AcDbEntity
  8
LAYERGROUP-1
  6
CONTINUOUS
 62
     3
100
AcDbCircle
 10
223.362069
 20
90.937609
 30
0.0
 40
1.5
  0
CIRCLE
  5
24C
330
1F
100
AcDbEntity
  8
LAYERGROUP-1
  6
CONTINUOUS
 62
     6
100
AcDbCircle
 10
223.362069
 20
90.937609
 30
0.0
 40
2.0
  0
DIMENSION
  5
24D
330
1F
100
AcDbEntity
  8
LAYERGROUP-1
100
AcDbDimension
  2
*D33
 10
136.153091
 20
21.222942
 30
0.0
 11
121.153084
 21
22.222931
 31
0.0
 70
    33
  3
FXDIMINFO
100
AcDbAlignedDimension
 13
106.153091
 23
76.937609
 33
0.0
 14
136.153091
 24
76.937609
 34
0.0
1001
ACAD
1000
DSTYLE
1002
{
1070
     7
1000
FXTIP_ARROW_E
1070
     6
1000
FXTIP_ARROW_S
1070
   173
1070
     1
1002
}
  0
INSERT
  5
25A
330
1F
100
AcDbEntity
  8
0
100
AcDbBlockReference
  2
BLKF036
 10
0.0
 20
0.0
 30
0.0
  0
LINE
  5
301
330
1F
100
AcDbEntity
  8
LAYERGROUP-1
  6
CONTINUOUS
 62
     6
100
AcDbLine
 10
179.862069
 20
90.937609
 30
0.0
 11
205.509125
 21
90.937609
 31
0.0
  0
INSERT
  5
305
330
1F
100
AcDbEntity
  8
0
100
AcDbBlockReference
  2
BLKF038
 10
0.0
 20
0.0
 30
0.0
  0
INSERT
  5
329
330
1F
100
AcDbEntity
  8
0
100
AcDbBlockReference
  2
BLKF039
 10
0.0
 20
0.0
 30
0.0
  0
DIMENSION
  5
331
330
1F
100
AcDbEntity
  8
LAYERGROUP-1
100
AcDbDimension
  2
*D38
 10
133.653091
 20
30.180624
 30
0.0
 11
121.153091
 21
31.180624
 31
0.0
 70
    33
  3
FXDIMINFO
100
AcDbAlignedDimension
 13
108.653091
 23
43.212131
 33
0.0
 14
133.653091
 24
43.212131
 34
0.0
1001
ACAD
1000
DSTYLE
1002
{
1070
     7
1000
FXTIP_ARROW_E
1070
     6
1000
FXTIP_ARROW_S
1070
   173
1070
     1
1002
}
  0
ARC
  5
33B
330
1F
100
AcDbEntity
  8
LAYERGROUP-1
  6
CONTINUOUS
 62
     3
100
AcDbCircle
 10
223.362069
 20
90.937609
 30
0.0
 40
50.0
100
AcDbArc
 50
-219.154414
 51
48.476256
  0
ARC
  5
33C
330
1F
100
AcDbEntity
  8
LAYERGROUP-1
  6
CONTINUOUS
 62
     3
100
AcDbCircle
 10
223.362069
 20
90.937609
 30
0.0
 40
50.0
100
AcDbArc
 50
101.107697
 51
138.155745
  0
ENDSEC
  0
SECTION
  2
OBJECTS
  0
DICTIONARY
  5
C
330
0
100
AcDbDictionary
  3
ACAD_GROUP
350
D
  3
ACAD_LAYOUT
350
1A
  3
ACAD_MLINESTYLE
350
17
  3
ACAD_PLOTSETTINGS
350
19
  3
ACDBHEADERROUNDTRIPXREC
350
33D
  0
DICTIONARY
  5
D
102
{ACAD_REACTORS
330
C
102
}
330
C
100
AcDbDictionary
  0
DICTIONARY
  5
1A
102
{ACAD_REACTORS
330
C
102
}
330
C
100
AcDbDictionary
  0
DICTIONARY
  5
17
102
{ACAD_REACTORS
330
C
102
}
330
C
100
AcDbDictionary
  3
STANDARD
350
18
  0
DICTIONARY
  5
19
102
{ACAD_REACTORS
330
C
102
}
330
C
100
AcDbDictionary
  0
DICTIONARY
  5
33D
102
{ACAD_REACTORS
330
C
102
}
330
C
100
AcDbDictionary
  3
CEPSNTYPE
350
346
  3
DIMSTYLEDATA
350
35C
  3
FINGERPRINTGUID
350
347
  3
HYPERLINKBASE
350
340
  3
INSUNITS
350
345
  3
LAYOUTDICT
350
342
  3
LWETCUNION
350
344
  3
PLOTSETDICT
350
343
  3
PSVPSCALE
350
349
  3
PUCSBASE
350
34C
  3
PUCSORGBACK
350
352
  3
PUCSORGBOTTOM
350
34E
  3
PUCSORGFRONT
350
351
  3
PUCSORGLEFT
350
34F
  3
PUCSORGRIGHT
350
350
  3
PUCSORGTOP
350
34D
  3
PUCSORTHOREF
350
34A
  3
PUCSORTHOVIEW
350
34B
  3
STYLESHEET
350
341
  3
TSTACKALIGN
350
33E
  3
TSTACKSIZE
350
33F
  3
UCSBASE
350
355
  3
UCSORGBACK
350
35B
  3
UCSORGBOTTOM
350
357
  3
UCSORGFRONT
350
35A
  3
UCSORGLEFT
350
358
  3
UCSORGRIGHT
350
359
  3
UCSORGTOP
350
356
  3
UCSORTHOREF
350
353
  3
UCSORTHOVIEW
350
354
  3
VERSIONGUID
350
348
  0
MLINESTYLE
  5
18
102
{ACAD_REACTORS
330
17
102
}
330
17
100
AcDbMlineStyle
  2
Standard
 70
     0
  3

 62
   256
 51
90.0
 52
90.0
 71
     2
 49
0.5
 62
   256
  6
BYLAYER
 49
-0.5
 62
   256
  6
BYLAYER
  0
XRECORD
  5
346
102
{ACAD_REACTORS
330
33D
102
}
330
33D
100
AcDbXrecord
 90
        0
  0
XRECORD
  5
35C
102
{ACAD_REACTORS
330
33D
102
}
330
33D
100
AcDbXrecord
1000
DSTYLE
1002
{
1070
   179
 70
     2
1070
   171
 70
     3
1070
   143
 40
0.03937
1070
   274
 70
     3
1070
    41
 40
4.0
1070
   343
340
41
1070
   344
340
47
1070
   141
 40
2.5
1070
   176
 70
     7
1070
   177
 70
     7
1070
   178
 70
     7
1070
   271
 70
     2
1070
    46
 40
6.0
1070
    43
 40
10.0
1070
    44
 40
1.0
1070
    42
 40
1.0
1070
   147
 40
1.0
1070
   341
340
41
1070
   173
 70
     1
1070
    77
 70
     1
1070
   272
 70
     2
1070
    73
 70
     0
1070
   172
 70
     1
1070
    74
 70
     0
1070
   283
 70
     0
1070
   340
340
3F
1070
   140
 40
4.0
1070
   284
 70
     8
1070
    78
 70
     8
1002
}
  0
XRECORD
  5
347
102
{ACAD_REACTORS
330
33D
102
}
330
33D
100
AcDbXrecord
  1
{3E932582-0F98-409E-A965-31F65F22052C}
  0
XRECORD
  5
340
102
{ACAD_REACTORS
330
33D
102
}
330
33D
100
AcDbXrecord
  1

  0
XRECORD
  5
345
102
{ACAD_REACTORS
330
33D
102
}
330
33D
100
AcDbXrecord
 90
        1
  0
XRECORD
  5
342
102
{ACAD_REACTORS
330
33D
102
}
330
33D
100
AcDbXrecord
340
1A
  0
XRECORD
  5
344
102
{ACAD_REACTORS
330
33D
102
}
330
33D
100
AcDbXrecord
 90
    10781
  0
XRECORD
  5
343
102
{ACAD_REACTORS
330
33D
102
}
330
33D
100
AcDbXrecord
340
19
  0
XRECORD
  5
349
102
{ACAD_REACTORS
330
33D
102
}
330
33D
100
AcDbXrecord
 40
0.0
  0
XRECORD
  5
34C
102
{ACAD_REACTORS
330
33D
102
}
330
33D
100
AcDbXrecord
340
0
  0
XRECORD
  5
352
102
{ACAD_REACTORS
330
33D
102
}
330
33D
100
AcDbXrecord
 10
0.0
 20
0.0
 30
0.0
  0
XRECORD
  5
34E
102
{ACAD_REACTORS
330
33D
102
}
330
33D
100
AcDbXrecord
 10
0.0
 20
0.0
 30
0.0
  0
XRECORD
  5
351
102
{ACAD_REACTORS
330
33D
102
}
330
33D
100
AcDbXrecord
 10
0.0
 20
0.0
 30
0.0
  0
XRECORD
  5
34F
102
{ACAD_REACTORS
330
33D
102
}
330
33D
100
AcDbXrecord
 10
0.0
 20
0.0
 30
0.0
  0
XRECORD
  5
350
102
{ACAD_REACTORS
330
33D
102
}
330
33D
100
AcDbXrecord
 10
0.0
 20
0.0
 30
0.0
  0
XRECORD
  5
34D
102
{ACAD_REACTORS
330
33D
102
}
330
33D
100
AcDbXrecord
 10
0.0
 20
0.0
 30
0.0
  0
XRECORD
  5
34A
102
{ACAD_REACTORS
330
33D
102
}
330
33D
100
AcDbXrecord
340
0
  0
XRECORD
  5
34B
102
{ACAD_REACTORS
330
33D
102
}
330
33D
100
AcDbXrecord
 70
     0
  0
XRECORD
  5
341
102
{ACAD_REACTORS
330
33D
102
}
330
33D
100
AcDbXrecord
  1

  0
XRECORD
  5
33E
102
{ACAD_REACTORS
330
33D
102
}
330
33D
100
AcDbXrecord
 90
        1
  0
XRECORD
  5
33F
102
{ACAD_REACTORS
330
33D
102
}
330
33D
100
AcDbXrecord
 90
       70
  0
XRECORD
  5
355
102
{ACAD_REACTORS
330
33D
102
}
330
33D
100
AcDbXrecord
340
0
  0
XRECORD
  5
35B
102
{ACAD_REACTORS
330
33D
102
}
330
33D
100
AcDbXrecord
 10
0.0
 20
0.0
 30
0.0
  0
XRECORD
  5
357
102
{ACAD_REACTORS
330
33D
102
}
330
33D
100
AcDbXrecord
 10
0.0
 20
0.0
 30
0.0
  0
XRECORD
  5
35A
102
{ACAD_REACTORS
330
33D
102
}
330
33D
100
AcDbXrecord
 10
0.0
 20
0.0
 30
0.0
  0
XRECORD
  5
358
102
{ACAD_REACTORS
330
33D
102
}
330
33D
100
AcDbXrecord
 10
0.0
 20
0.0
 30
0.0
  0
XRECORD
  5
359
102
{ACAD_REACTORS
330
33D
102
}
330
33D
100
AcDbXrecord
 10
0.0
 20
0.0
 30
0.0
  0
XRECORD
  5
356
102
{ACAD_REACTORS
330
33D
102
}
330
33D
100
AcDbXrecord
 10
0.0
 20
0.0
 30
0.0
  0
XRECORD
  5
353
102
{ACAD_REACTORS
330
33D
102
}
330
33D
100
AcDbXrecord
340
0
  0
XRECORD
  5
354
102
{ACAD_REACTORS
330
33D
102
}
330
33D
100
AcDbXrecord
 70
     0
  0
XRECORD
  5
348
102
{ACAD_REACTORS
330
33D
102
}
330
33D
100
AcDbXrecord
  1
{FAEB1C32-E019-11D5-929B-00C0DF256EC4}
  0
ENDSEC
  0
EOF
