  0
SECTION
  2
HEADER
  9
$ACADVER
  1
AC1014
  9
$ACADMAINTVER
 70
     9
  9
$DWGCODEPAGE
  3
ANSI_932
  9
$INSBASE
 10
0.0
 20
0.0
 30
0.0
  9
$EXTMIN
 10
0.0
 20
0.0
 30
0.0
  9
$EXTMAX
 10
420.0
 20
297.0
 30
0.0
  9
$LIMMIN
 10
0.0
 20
0.0
  9
$LIMMAX
 10
420.0
 20
297.0
  9
$ORTHOMODE
 70
     0
  9
$REGENMODE
 70
     1
  9
$FILLMODE
 70
     1
  9
$QTEXTMODE
 70
     0
  9
$MIRRTEXT
 70
     1
  9
$DRAGMODE
 70
     2
  9
$LTSCALE
 40
1.0
  9
$OSMODE
 70
    37
  9
$ATTMODE
 70
     1
  9
$TEXTSIZE
 40
0.2
  9
$TRACEWID
 40
0.05
  9
$TEXTSTYLE
  7
STYLE1
  9
$CLAYER
  8
0
  9
$CELTYPE
  6
BYLAYER
  9
$CECOLOR
 62
   256
  9
$CELTSCALE
 40
1.0
  9
$DELOBJ
 70
     1
  9
$DISPSILH
 70
     0
  9
$DIMSCALE
 40
1.0
  9
$DIMASZ
 40
4.0
  9
$DIMEXO
 40
1.0
  9
$DIMDLI
 40
10.0
  9
$DIMRND
 40
0.0
  9
$DIMDLE
 40
6.0
  9
$DIMEXE
 40
1.0
  9
$DIMTP
 40
0.0
  9
$DIMTM
 40
0.0
  9
$DIMTXT
 40
4.0
  9
$DIMCEN
 40
2.5
  9
$DIMTSZ
 40
0.0
  9
$DIMTOL
 70
     0
  9
$DIMLIM
 70
     0
  9
$DIMTIH
 70
     0
  9
$DIMTOH
 70
     0
  9
$DIMSE1
 70
     0
  9
$DIMSE2
 70
     0
  9
$DIMTAD
 70
     1
  9
$DIMZIN
 70
     8
  9
$DIMBLK
  1

  9
$DIMASO
 70
     1
  9
$DIMSHO
 70
     1
  9
$DIMPOST
  1

  9
$DIMAPOST
  1

  9
$DIMALT
 70
     0
  9
$DIMALTD
 70
     3
  9
$DIMALTF
 40
0.03937
  9
$DIMLFAC
 40
1.0
  9
$DIMTOFL
 70
     1
  9
$DIMTVP
 40
0.0
  9
$DIMTIX
 70
     0
  9
$DIMSOXD
 70
     0
  9
$DIMSAH
 70
     1
  9
$DIMBLK1
  1
FXTIP_ARROW_S
  9
$DIMBLK2
  1
FXTIP_ARROW_E
  9
$DIMSTYLE
  2
FXDIMINFO
  9
$DIMCLRD
 70
     7
  9
$DIMCLRE
 70
     7
  9
$DIMCLRT
 70
     7
  9
$DIMTFAC
 40
1.0
  9
$DIMGAP
 40
1.0
  9
$DIMJUST
 70
     0
  9
$DIMSD1
 70
     0
  9
$DIMSD2
 70
     0
  9
$DIMTOLJ
 70
     0
  9
$DIMTZIN
 70
     8
  9
$DIMALTZ
 70
     0
  9
$DIMALTTZ
 70
     0
  9
$DIMFIT
 70
     3
  9
$DIMUPT
 70
     0
  9
$DIMUNIT
 70
     2
  9
$DIMDEC
 70
     2
  9
$DIMTDEC
 70
     2
  9
$DIMALTU
 70
     2
  9
$DIMALTTD
 70
     3
  9
$DIMTXSTY
  7
STYLE1
  9
$DIMAUNIT
 70
     0
  9
$LUNITS
 70
     2
  9
$LUPREC
 70
     4
  9
$SKETCHINC
 40
0.1
  9
$FILLETRAD
 40
0.5
  9
$AUNITS
 70
     0
  9
$AUPREC
 70
     0
  9
$MENU
  1
.
  9
$ELEVATION
 40
0.0
  9
$PELEVATION
 40
0.0
  9
$THICKNESS
 40
0.0
  9
$LIMCHECK
 70
     0
  9
$CHAMFERA
 40
0.5
  9
$CHAMFERB
 40
0.5
  9
$CHAMFERC
 40
1.0
  9
$CHAMFERD
 40
0.0
  9
$SKPOLY
 70
     0
  9
$TDCREATE
 40
2455303.411447593
  9
$TDUPDATE
 40
2455303.411447604
  9
$TDINDWG
 40
0.0000000116
  9
$TDUSRTIMER
 40
0.0000000116
  9
$USRTIMER
 70
     1
  9
$ANGBASE
 50
0.0
  9
$ANGDIR
 70
     0
  9
$PDMODE
 70
     0
  9
$PDSIZE
 40
0.0
  9
$PLINEWID
 40
0.0
  9
$COORDS
 70
     1
  9
$SPLFRAME
 70
     0
  9
$SPLINETYPE
 70
     6
  9
$SPLINESEGS
 70
     8
  9
$ATTDIA
 70
     0
  9
$ATTREQ
 70
     1
  9
$HANDLING
 70
     1
  9
$HANDSEED
  5
2A0
  9
$SURFTAB1
 70
     6
  9
$SURFTAB2
 70
     6
  9
$SURFTYPE
 70
     6
  9
$SURFU
 70
     6
  9
$SURFV
 70
     6
  9
$UCSNAME
  2

  9
$UCSORG
 10
0.0
 20
0.0
 30
0.0
  9
$UCSXDIR
 10
1.0
 20
0.0
 30
0.0
  9
$UCSYDIR
 10
0.0
 20
1.0
 30
0.0
  9
$PUCSNAME
  2

  9
$PUCSORG
 10
0.0
 20
0.0
 30
0.0
  9
$PUCSXDIR
 10
1.0
 20
0.0
 30
0.0
  9
$PUCSYDIR
 10
0.0
 20
1.0
 30
0.0
  9
$USERI1
 70
     0
  9
$USERI2
 70
     0
  9
$USERI3
 70
     0
  9
$USERI4
 70
     0
  9
$USERI5
 70
     0
  9
$USERR1
 40
0.0
  9
$USERR2
 40
0.0
  9
$USERR3
 40
0.0
  9
$USERR4
 40
0.0
  9
$USERR5
 40
0.0
  9
$WORLDVIEW
 70
     1
  9
$SHADEDGE
 70
     3
  9
$SHADEDIF
 70
    70
  9
$TILEMODE
 70
     1
  9
$MAXACTVP
 70
    64
  9
$PINSBASE
 10
0.0
 20
0.0
 30
0.0
  9
$PLIMCHECK
 70
     0
  9
$PEXTMIN
 10
1.000000E+20
 20
1.000000E+20
 30
1.000000E+20
  9
$PEXTMAX
 10
-1.000000E+20
 20
-1.000000E+20
 30
-1.000000E+20
  9
$PLIMMIN
 10
0.0
 20
0.0
  9
$PLIMMAX
 10
12.0
 20
9.0
  9
$UNITMODE
 70
     0
  9
$VISRETAIN
 70
     1
  9
$PLINEGEN
 70
     0
  9
$PSLTSCALE
 70
     1
  9
$TREEDEPTH
 70
  3020
  9
$PICKSTYLE
 70
     1
  9
$CMLSTYLE
  2
STANDARD
  9
$CMLJUST
 70
     0
  9
$CMLSCALE
 40
1.0
  9
$PROXYGRAPHICS
 70
     1
  9
$MEASUREMENT
 70
     0
  0
ENDSEC
  0
SECTION
  2
CLASSES
  0
CLASS
  1
ACDBDICTIONARYWDFLT
  2
AcDbDictionaryWithDefault
  3
ObjectDBX Classes
 90
        0
280
     0
281
     0
  0
CLASS
  1
XRECORD
  2
AcDbXrecord
  3
AutoCAD 2000
 90
        0
280
     0
281
     0
  0
CLASS
  1
LWPOLYLINE
  2
AcDbPolyline
  3
AutoCAD 2000
 90
        0
280
     0
281
     1
  0
CLASS
  1
HATCH
  2
AcDbHatch
  3
AutoCAD 2000
 90
        0
280
     0
281
     1
  0
CLASS
  1
ACDBPLACEHOLDER
  2
AcDbPlaceHolder
  3
ObjectDBX Classes
 90
        0
280
     0
281
     0
  0
CLASS
  1
LAYOUT
  2
AcDbLayout
  3
ObjectDBX Classes
 90
        0
280
     0
281
     0
  0
ENDSEC
  0
SECTION
  2
TABLES
  0
TABLE
  2
VPORT
  5
8
330
0
100
AcDbSymbolTable
 70
     1
  0
VPORT
  5
29
330
8
100
AcDbSymbolTableRecord
100
AcDbViewportTableRecord
  2
*ACTIVE
 70
     0
 10
0.0
 20
0.0
 11
1.0
 21
1.0
 12
210.0
 22
148.5
 13
0.0
 23
0.0
 14
0.5
 24
0.5
 15
0.5
 25
0.5
 16
0.0
 26
0.0
 36
1.0
 17
0.0
 27
0.0
 37
0.0
 40
297.0
 41
1.414141
 42
50.0
 43
0.0
 44
0.0
 50
0.0
 51
0.0
 71
     0
 72
   100
 73
     1
 74
     3
 75
     0
 76
     0
 77
     0
 78
     0
  0
ENDTAB
  0
TABLE
  2
LTYPE
  5
5
330
0
100
AcDbSymbolTable
 70
     4
  0
LTYPE
  5
14
330
5
100
AcDbSymbolTableRecord
100
AcDbLinetypeTableRecord
  2
BYBLOCK
 70
     0
  3

 72
    65
 73
     0
 40
0.0
  0
LTYPE
  5
15
330
5
100
AcDbSymbolTableRecord
100
AcDbLinetypeTableRecord
  2
BYLAYER
 70
     0
  3

 72
    65
 73
     0
 40
0.0
  0
LTYPE
  5
16
330
5
100
AcDbSymbolTableRecord
100
AcDbLinetypeTableRecord
  2
CONTINUOUS
 70
     0
  3
--------------------
 72
    65
 73
     0
 40
0.0
  0
LTYPE
  5
2A
330
5
100
AcDbSymbolTableRecord
100
AcDbLinetypeTableRecord
  2
CENTER
 70
     0
  3
Center ____ _ ____ _ ____ _ ____ _ ____ _ ____
 72
    65
 73
     4
 40
13.0
 49
10.0
 74
     0
 49
-1.0
 74
     0
 49
1.0
 74
     0
 49
-1.0
 74
     0
  0
ENDTAB
  0
TABLE
  2
LAYER
  5
2
330
0
100
AcDbSymbolTable
 70
    20
  0
LAYER
  5
10
330
2
100
AcDbSymbolTableRecord
100
AcDbLayerTableRecord
  2
0
 70
     0
 62
     7
  6
CONTINUOUS
  0
LAYER
  5
2D
330
2
100
AcDbSymbolTableRecord
100
AcDbLayerTableRecord
  2
LAYERGROUP-1
 70
     0
 62
     3
  6
CONTINUOUS
  0
LAYER
  5
3D
330
2
100
AcDbSymbolTableRecord
100
AcDbLayerTableRecord
  2
}}ﾊﾊGG血CCТ
 70
     0
 62
     3
  6
CONTINUOUS
  0
LAYER
  5
B8
330
2
100
AcDbSymbolTableRecord
100
AcDbLayerTableRecord
  2
0-1
 70
     0
 62
     7
  6
CONTINUOUS
  0
LAYER
  5
D0
330
2
100
AcDbSymbolTableRecord
100
AcDbLayerTableRecord
  2
GR1-1
 70
     0
 62
     7
  6
CONTINUOUS
  0
ENDTAB
  0
TABLE
  2
STYLE
  5
3
330
0
100
AcDbSymbolTable
 70
     4
  0
STYLE
  5
11
330
3
100
AcDbSymbolTableRecord
100
AcDbTextStyleTableRecord
  2
STANDARD
 70
     0
 40
0.0
 41
1.0
 50
0.0
 71
     0
 42
0.2
  3
txt
  4

  0
STYLE
  5
3F
330
3
100
AcDbSymbolTableRecord
100
AcDbTextStyleTableRecord
  2
STYLE1
 70
     0
 40
0.0
 41
1.0
 50
0.0
 71
     0
 42
0.2
  3
MONOTXT.SHX
  4
extfont.shx
  0
STYLE
  5
40
330
3
100
AcDbSymbolTableRecord
100
AcDbTextStyleTableRecord
  2
FX_VECTOR
 70
     0
 40
0.0
 41
1.0
 50
0.0
 71
     0
 42
0.2
  3
MONOTXT.SHX
  4
BIGFONT.SHX
  0
ENDTAB
  0
TABLE
  2
VIEW
  5
6
330
0
100
AcDbSymbolTable
 70
     0
  0
ENDTAB
  0
TABLE
  2
UCS
  5
7
330
0
100
AcDbSymbolTable
 70
     0
  0
ENDTAB
  0
TABLE
  2
APPID
  5
9
330
0
100
AcDbSymbolTable
 70
     1
  0
APPID
  5
12
330
9
100
AcDbSymbolTableRecord
100
AcDbRegAppTableRecord
  2
ACAD
 70
     0
  0
ENDTAB
  0
TABLE
  2
DIMSTYLE
  5
A
330
0
100
AcDbSymbolTable
 70
     2
  0
DIMSTYLE
105
27
330
A
100
AcDbSymbolTableRecord
100
AcDbDimStyleTableRecord
  2
STANDARD
 70
     0
  3

  4

  5

  6

  7

 40
1.0
 41
0.18
 42
0.0625
 43
0.38
 44
0.18
 45
0.0
 46
0.0
 47
0.0
 48
0.0
140
0.18
141
0.09
142
0.0
143
25.4
144
1.0
145
0.0
146
1.0
147
0.09
 71
     0
 72
     0
 73
     1
 74
     1
 75
     0
 76
     0
 77
     0
 78
     0
170
     0
171
     2
172
     0
173
     0
174
     0
175
     0
176
     0
177
     0
178
     0
270
     2
271
     4
272
     4
273
     2
274
     2
340
11
275
     0
280
     0
281
     0
282
     0
283
     1
284
     0
285
     0
286
     0
287
     3
288
     0
  0
DIMSTYLE
105
A7
102
{ACAD_REACTORS
330
112
330
11E
330
128
330
132
330
164
330
19F
330
1A9
330
1B2
330
1D1
102
}
330
A
100
AcDbSymbolTableRecord
100
AcDbDimStyleTableRecord
  2
FXDIMINFO
 70
     0
  3

  4

  5

  6
FXTIP_ARROW_S
  7
FXTIP_ARROW_E
 40
1.0
 41
4.0
 42
1.0
 43
10.0
 44
1.0
 45
0.0
 46
6.0
 47
0.0
 48
0.0
140
4.0
141
2.5
142
0.0
143
0.03937
144
1.0
145
0.0
146
1.0
147
1.0
 71
     0
 72
     0
 73
     0
 74
     0
 75
     0
 76
     0
 77
     1
 78
     8
170
     0
171
     3
172
     1
173
     1
174
     0
175
     0
176
     7
177
     7
178
     7
179
     2
270
     2
271
     2
272
     2
273
     2
274
     3
340
3F
275
     0
280
     0
281
     0
282
     0
283
     0
284
     8
285
     0
286
     0
287
     3
288
     0
  0
ENDTAB
  0
TABLE
  2
BLOCK_RECORD
  5
1
330
0
100
AcDbSymbolTable
 70
    32
  0
BLOCK_RECORD
  5
1F
330
1
100
AcDbSymbolTableRecord
100
AcDbBlockTableRecord
  2
*MODEL_SPACE
  0
BLOCK_RECORD
  5
1B
330
1
100
AcDbSymbolTableRecord
100
AcDbBlockTableRecord
  2
*PAPER_SPACE
  0
BLOCK_RECORD
  5
41
330
1
100
AcDbSymbolTableRecord
100
AcDbBlockTableRecord
  2
FXTIP_ARROW_S
  0
BLOCK_RECORD
  5
47
330
1
100
AcDbSymbolTableRecord
100
AcDbBlockTableRecord
  2
FXTIP_ARROW_E
  0
BLOCK_RECORD
  5
4D
330
1
100
AcDbSymbolTableRecord
100
AcDbBlockTableRecord
  2
FXTIP_BLACKDOT_S
  0
BLOCK_RECORD
  5
53
330
1
100
AcDbSymbolTableRecord
100
AcDbBlockTableRecord
  2
FXTIP_BLACKDOT_E
  0
BLOCK_RECORD
  5
59
330
1
100
AcDbSymbolTableRecord
100
AcDbBlockTableRecord
  2
FXTIP_TRIANGLE_S
  0
BLOCK_RECORD
  5
60
330
1
100
AcDbSymbolTableRecord
100
AcDbBlockTableRecord
  2
FXTIP_TRIANGLE_E
  0
BLOCK_RECORD
  5
67
330
1
100
AcDbSymbolTableRecord
100
AcDbBlockTableRecord
  2
FXTIP_ARCHITECT_S
  0
BLOCK_RECORD
  5
6D
330
1
100
AcDbSymbolTableRecord
100
AcDbBlockTableRecord
  2
FXTIP_ARCHITECT_E
  0
BLOCK_RECORD
  5
73
330
1
100
AcDbSymbolTableRecord
100
AcDbBlockTableRecord
  2
FXTIP_CIVIL_S
  0
BLOCK_RECORD
  5
79
330
1
100
AcDbSymbolTableRecord
100
AcDbBlockTableRecord
  2
FXTIP_CIVIL_E
  0
BLOCK_RECORD
  5
7F
330
1
100
AcDbSymbolTableRecord
100
AcDbBlockTableRecord
  2
FXTIP_WHITEDOT_S
  0
BLOCK_RECORD
  5
84
330
1
100
AcDbSymbolTableRecord
100
AcDbBlockTableRecord
  2
FXTIP_WHITEDOT_E
  0
BLOCK_RECORD
  5
89
330
1
100
AcDbSymbolTableRecord
100
AcDbBlockTableRecord
  2
FXTIP_UPARROW_S
  0
BLOCK_RECORD
  5
8E
330
1
100
AcDbSymbolTableRecord
100
AcDbBlockTableRecord
  2
FXTIP_UPARROW_E
  0
BLOCK_RECORD
  5
93
330
1
100
AcDbSymbolTableRecord
100
AcDbBlockTableRecord
  2
FXTIP_DOWNARROW_S
  0
BLOCK_RECORD
  5
98
330
1
100
AcDbSymbolTableRecord
100
AcDbBlockTableRecord
  2
FXTIP_DOWNARROW_E
  0
BLOCK_RECORD
  5
9D
330
1
100
AcDbSymbolTableRecord
100
AcDbBlockTableRecord
  2
FXTIP_BLACKTRIANGLE_S
  0
BLOCK_RECORD
  5
A2
330
1
100
AcDbSymbolTableRecord
100
AcDbBlockTableRecord
  2
FXTIP_BLACKTRIANGLE_E
  0
BLOCK_RECORD
  5
A8
330
1
100
AcDbSymbolTableRecord
100
AcDbBlockTableRecord
  2
BLKF021
  0
BLOCK_RECORD
  5
B4
330
1
100
AcDbSymbolTableRecord
100
AcDbBlockTableRecord
  2
BLKF022
  0
BLOCK_RECORD
  5
BD
330
1
100
AcDbSymbolTableRecord
100
AcDbBlockTableRecord
  2
BLKF023
  0
BLOCK_RECORD
  5
113
330
1
100
AcDbSymbolTableRecord
100
AcDbBlockTableRecord
  2
*D22
  0
BLOCK_RECORD
  5
11F
330
1
100
AcDbSymbolTableRecord
100
AcDbBlockTableRecord
  2
*D23
  0
BLOCK_RECORD
  5
129
330
1
100
AcDbSymbolTableRecord
100
AcDbBlockTableRecord
  2
*D24
  0
BLOCK_RECORD
  5
133
330
1
100
AcDbSymbolTableRecord
100
AcDbBlockTableRecord
  2
*D25
  0
BLOCK_RECORD
  5
165
330
1
100
AcDbSymbolTableRecord
100
AcDbBlockTableRecord
  2
*D26
  0
BLOCK_RECORD
  5
1A0
330
1
100
AcDbSymbolTableRecord
100
AcDbBlockTableRecord
  2
*D27
  0
BLOCK_RECORD
  5
1AA
330
1
100
AcDbSymbolTableRecord
100
AcDbBlockTableRecord
  2
*D28
  0
BLOCK_RECORD
  5
1B3
330
1
100
AcDbSymbolTableRecord
100
AcDbBlockTableRecord
  2
*D29
  0
BLOCK_RECORD
  5
1D2
330
1
100
AcDbSymbolTableRecord
100
AcDbBlockTableRecord
  2
*D30
  0
BLOCK_RECORD
  5
1FD
330
1
100
AcDbSymbolTableRecord
100
AcDbBlockTableRecord
  2
BLKF033
  0
ENDTAB
  0
ENDSEC
  0
SECTION
  2
BLOCKS
  0
BLOCK
  5
20
330
1F
100
AcDbEntity
  8
0
100
AcDbBlockBegin
  2
*MODEL_SPACE
 70
     0
 71
     0
 10
0.0
 20
0.0
 30
0.0
  3
*MODEL_SPACE
  1

  0
ENDBLK
  5
21
330
1F
100
AcDbEntity
  8
0
100
AcDbBlockEnd
  0
BLOCK
  5
1C
330
1B
100
AcDbEntity
 67
     1
  8
0
100
AcDbBlockBegin
  2
*PAPER_SPACE
 70
     0
 71
     0
 10
0.0
 20
0.0
 30
0.0
  3
*PAPER_SPACE
  1

  0
ENDBLK
  5
1D
330
1B
100
AcDbEntity
 67
     1
  8
0
100
AcDbBlockEnd
  0
BLOCK
  5
42
330
41
100
AcDbEntity
  8
0
100
AcDbBlockBegin
  2
FXTIP_ARROW_S
 70
     0
 71
     0
 10
0.0
 20
0.0
 30
0.0
  3
FXTIP_ARROW_S
  1

  0
LINE
  5
44
330
41
100
AcDbEntity
  8
0
  6
CONTINUOUS
 62
     0
100
AcDbLine
 10
0.0
 20
0.0
 30
0.0
 11
-1.0
 21
0.0
 31
0.0
  0
LINE
  5
45
330
41
100
AcDbEntity
  8
0
  6
CONTINUOUS
 62
     0
100
AcDbLine
 10
0.0
 20
0.0
 30
0.0
 11
-0.965926
 21
-0.258819
 31
0.0
  0
LINE
  5
46
330
41
100
AcDbEntity
  8
0
  6
CONTINUOUS
 62
     0
100
AcDbLine
 10
0.0
 20
0.0
 30
0.0
 11
-0.965926
 21
0.258819
 31
0.0
  0
ENDBLK
  5
43
330
41
100
AcDbEntity
  8
0
100
AcDbBlockEnd
  0
BLOCK
  5
48
330
47
100
AcDbEntity
  8
0
100
AcDbBlockBegin
  2
FXTIP_ARROW_E
 70
     0
 71
     0
 10
0.0
 20
0.0
 30
0.0
  3
FXTIP_ARROW_E
  1

  0
LINE
  5
4A
330
47
100
AcDbEntity
  8
0
  6
CONTINUOUS
 62
     0
100
AcDbLine
 10
0.0
 20
0.0
 30
0.0
 11
-1.0
 21
0.0
 31
0.0
  0
LINE
  5
4B
330
47
100
AcDbEntity
  8
0
  6
CONTINUOUS
 62
     0
100
AcDbLine
 10
0.0
 20
0.0
 30
0.0
 11
-0.965926
 21
0.258819
 31
0.0
  0
LINE
  5
4C
330
47
100
AcDbEntity
  8
0
  6
CONTINUOUS
 62
     0
100
AcDbLine
 10
0.0
 20
0.0
 30
0.0
 11
-0.965926
 21
-0.258819
 31
0.0
  0
ENDBLK
  5
49
330
47
100
AcDbEntity
  8
0
100
AcDbBlockEnd
  0
BLOCK
  5
4E
330
4D
100
AcDbEntity
  8
0
100
AcDbBlockBegin
  2
FXTIP_BLACKDOT_S
 70
     0
 71
     0
 10
0.0
 20
0.0
 30
0.0
  3
FXTIP_BLACKDOT_S
  1

  0
LINE
  5
50
330
4D
100
AcDbEntity
  8
0
  6
CONTINUOUS
 62
     0
100
AcDbLine
 10
0.0
 20
0.0
 30
0.0
 11
-1.0
 21
0.0
 31
0.0
  0
LWPOLYLINE
  5
51
330
4D
100
AcDbEntity
  8
0
  6
CONTINUOUS
 62
     0
100
AcDbPolyline
 90
        2
 70
     1
 10
-0.25
 20
0.0
 40
0.5
 41
0.5
 42
1.0
 10
0.25
 20
0.0
 40
0.5
 41
0.5
 42
1.0
  0
CIRCLE
  5
52
330
4D
100
AcDbEntity
  8
0
  6
CONTINUOUS
 62
     0
100
AcDbCircle
 10
0.0
 20
0.0
 30
0.0
 40
0.5
  0
ENDBLK
  5
4F
330
4D
100
AcDbEntity
  8
0
100
AcDbBlockEnd
  0
BLOCK
  5
54
330
53
100
AcDbEntity
  8
0
100
AcDbBlockBegin
  2
FXTIP_BLACKDOT_E
 70
     0
 71
     0
 10
0.0
 20
0.0
 30
0.0
  3
FXTIP_BLACKDOT_E
  1

  0
LINE
  5
56
330
53
100
AcDbEntity
  8
0
  6
CONTINUOUS
 62
     0
100
AcDbLine
 10
0.0
 20
0.0
 30
0.0
 11
-1.0
 21
0.0
 31
0.0
  0
LWPOLYLINE
  5
57
330
53
100
AcDbEntity
  8
0
  6
CONTINUOUS
 62
     0
100
AcDbPolyline
 90
        2
 70
     1
 10
-0.25
 20
0.0
 40
0.5
 41
0.5
 42
1.0
 10
0.25
 20
0.0
 40
0.5
 41
0.5
 42
1.0
  0
CIRCLE
  5
58
330
53
100
AcDbEntity
  8
0
  6
CONTINUOUS
 62
     0
100
AcDbCircle
 10
0.0
 20
0.0
 30
0.0
 40
0.5
  0
ENDBLK
  5
55
330
53
100
AcDbEntity
  8
0
100
AcDbBlockEnd
  0
BLOCK
  5
5A
330
59
100
AcDbEntity
  8
0
100
AcDbBlockBegin
  2
FXTIP_TRIANGLE_S
 70
     0
 71
     0
 10
0.0
 20
0.0
 30
0.0
  3
FXTIP_TRIANGLE_S
  1

  0
LINE
  5
5C
330
59
100
AcDbEntity
  8
0
  6
CONTINUOUS
 62
     0
100
AcDbLine
 10
0.0
 20
0.0
 30
0.0
 11
-1.0
 21
0.0
 31
0.0
  0
LINE
  5
5D
330
59
100
AcDbEntity
  8
0
  6
CONTINUOUS
 62
     0
100
AcDbLine
 10
0.0
 20
0.0
 30
0.0
 11
-0.965926
 21
-0.258819
 31
0.0
  0
LINE
  5
5E
330
59
100
AcDbEntity
  8
0
  6
CONTINUOUS
 62
     0
100
AcDbLine
 10
0.0
 20
0.0
 30
0.0
 11
-0.965926
 21
0.258819
 31
0.0
  0
LINE
  5
5F
330
59
100
AcDbEntity
  8
0
  6
CONTINUOUS
 62
     0
100
AcDbLine
 10
-0.965926
 20
-0.258819
 30
0.0
 11
-0.965926
 21
0.258819
 31
0.0
  0
ENDBLK
  5
5B
330
59
100
AcDbEntity
  8
0
100
AcDbBlockEnd
  0
BLOCK
  5
61
330
60
100
AcDbEntity
  8
0
100
AcDbBlockBegin
  2
FXTIP_TRIANGLE_E
 70
     0
 71
     0
 10
0.0
 20
0.0
 30
0.0
  3
FXTIP_TRIANGLE_E
  1

  0
LINE
  5
63
330
60
100
AcDbEntity
  8
0
  6
CONTINUOUS
 62
     0
100
AcDbLine
 10
0.0
 20
0.0
 30
0.0
 11
-1.0
 21
0.0
 31
0.0
  0
LINE
  5
64
330
60
100
AcDbEntity
  8
0
  6
CONTINUOUS
 62
     0
100
AcDbLine
 10
0.0
 20
0.0
 30
0.0
 11
-0.965926
 21
0.258819
 31
0.0
  0
LINE
  5
65
330
60
100
AcDbEntity
  8
0
  6
CONTINUOUS
 62
     0
100
AcDbLine
 10
0.0
 20
0.0
 30
0.0
 11
-0.965926
 21
-0.258819
 31
0.0
  0
LINE
  5
66
330
60
100
AcDbEntity
  8
0
  6
CONTINUOUS
 62
     0
100
AcDbLine
 10
-0.965926
 20
0.258819
 30
0.0
 11
-0.965926
 21
-0.258819
 31
0.0
  0
ENDBLK
  5
62
330
60
100
AcDbEntity
  8
0
100
AcDbBlockEnd
  0
BLOCK
  5
68
330
67
100
AcDbEntity
  8
0
100
AcDbBlockBegin
  2
FXTIP_ARCHITECT_S
 70
     0
 71
     0
 10
0.0
 20
0.0
 30
0.0
  3
FXTIP_ARCHITECT_S
  1

  0
LINE
  5
6A
330
67
100
AcDbEntity
  8
0
  6
CONTINUOUS
 62
     0
100
AcDbLine
 10
0.0
 20
0.0
 30
0.0
 11
-1.0
 21
0.0
 31
0.0
  0
LINE
  5
6B
330
67
100
AcDbEntity
  8
0
  6
CONTINUOUS
 62
     0
100
AcDbLine
 10
0.0
 20
0.0
 30
0.0
 11
-0.707107
 21
-0.707107
 31
0.0
  0
LINE
  5
6C
330
67
100
AcDbEntity
  8
0
  6
CONTINUOUS
 62
     0
100
AcDbLine
 10
0.0
 20
0.0
 30
0.0
 11
0.707107
 21
0.707107
 31
0.0
  0
ENDBLK
  5
69
330
67
100
AcDbEntity
  8
0
100
AcDbBlockEnd
  0
BLOCK
  5
6E
330
6D
100
AcDbEntity
  8
0
100
AcDbBlockBegin
  2
FXTIP_ARCHITECT_E
 70
     0
 71
     0
 10
0.0
 20
0.0
 30
0.0
  3
FXTIP_ARCHITECT_E
  1

  0
LINE
  5
70
330
6D
100
AcDbEntity
  8
0
  6
CONTINUOUS
 62
     0
100
AcDbLine
 10
0.0
 20
0.0
 30
0.0
 11
-1.0
 21
0.0
 31
0.0
  0
LINE
  5
71
330
6D
100
AcDbEntity
  8
0
  6
CONTINUOUS
 62
     0
100
AcDbLine
 10
0.0
 20
0.0
 30
0.0
 11
0.707107
 21
0.707107
 31
0.0
  0
LINE
  5
72
330
6D
100
AcDbEntity
  8
0
  6
CONTINUOUS
 62
     0
100
AcDbLine
 10
0.0
 20
0.0
 30
0.0
 11
-0.707107
 21
-0.707107
 31
0.0
  0
ENDBLK
  5
6F
330
6D
100
AcDbEntity
  8
0
100
AcDbBlockEnd
  0
BLOCK
  5
74
330
73
100
AcDbEntity
  8
0
100
AcDbBlockBegin
  2
FXTIP_CIVIL_S
 70
     0
 71
     0
 10
0.0
 20
0.0
 30
0.0
  3
FXTIP_CIVIL_S
  1

  0
LINE
  5
76
330
73
100
AcDbEntity
  8
0
  6
CONTINUOUS
 62
     0
100
AcDbLine
 10
0.0
 20
0.0
 30
0.0
 11
-1.0
 21
0.0
 31
0.0
  0
LINE
  5
77
330
73
100
AcDbEntity
  8
0
  6
CONTINUOUS
 62
     0
100
AcDbLine
 10
0.0
 20
-0.0625
 30
0.0
 11
-1.0
 21
-0.0625
 31
0.0
  0
LINE
  5
78
330
73
100
AcDbEntity
  8
0
  6
CONTINUOUS
 62
     0
100
AcDbLine
 10
0.0
 20
-0.125
 30
0.0
 11
-1.0
 21
-0.125
 31
0.0
  0
ENDBLK
  5
75
330
73
100
AcDbEntity
  8
0
100
AcDbBlockEnd
  0
BLOCK
  5
7A
330
79
100
AcDbEntity
  8
0
100
AcDbBlockBegin
  2
FXTIP_CIVIL_E
 70
     0
 71
     0
 10
0.0
 20
0.0
 30
0.0
  3
FXTIP_CIVIL_E
  1

  0
LINE
  5
7C
330
79
100
AcDbEntity
  8
0
  6
CONTINUOUS
 62
     0
100
AcDbLine
 10
0.0
 20
0.0
 30
0.0
 11
-1.0
 21
0.0
 31
0.0
  0
LINE
  5
7D
330
79
100
AcDbEntity
  8
0
  6
CONTINUOUS
 62
     0
100
AcDbLine
 10
0.0
 20
0.0625
 30
0.0
 11
-1.0
 21
0.0625
 31
0.0
  0
LINE
  5
7E
330
79
100
AcDbEntity
  8
0
  6
CONTINUOUS
 62
     0
100
AcDbLine
 10
0.0
 20
0.125
 30
0.0
 11
-1.0
 21
0.125
 31
0.0
  0
ENDBLK
  5
7B
330
79
100
AcDbEntity
  8
0
100
AcDbBlockEnd
  0
BLOCK
  5
80
330
7F
100
AcDbEntity
  8
0
100
AcDbBlockBegin
  2
FXTIP_WHITEDOT_S
 70
     0
 71
     0
 10
0.0
 20
0.0
 30
0.0
  3
FXTIP_WHITEDOT_S
  1

  0
LINE
  5
82
330
7F
100
AcDbEntity
  8
0
  6
CONTINUOUS
 62
     0
100
AcDbLine
 10
0.0
 20
0.0
 30
0.0
 11
-1.0
 21
0.0
 31
0.0
  0
CIRCLE
  5
83
330
7F
100
AcDbEntity
  8
0
  6
CONTINUOUS
 62
     0
100
AcDbCircle
 10
0.0
 20
0.0
 30
0.0
 40
0.5
  0
ENDBLK
  5
81
330
7F
100
AcDbEntity
  8
0
100
AcDbBlockEnd
  0
BLOCK
  5
85
330
84
100
AcDbEntity
  8
0
100
AcDbBlockBegin
  2
FXTIP_WHITEDOT_E
 70
     0
 71
     0
 10
0.0
 20
0.0
 30
0.0
  3
FXTIP_WHITEDOT_E
  1

  0
LINE
  5
87
330
84
100
AcDbEntity
  8
0
  6
CONTINUOUS
 62
     0
100
AcDbLine
 10
0.0
 20
0.0
 30
0.0
 11
-1.0
 21
0.0
 31
0.0
  0
CIRCLE
  5
88
330
84
100
AcDbEntity
  8
0
  6
CONTINUOUS
 62
     0
100
AcDbCircle
 10
0.0
 20
0.0
 30
0.0
 40
0.5
  0
ENDBLK
  5
86
330
84
100
AcDbEntity
  8
0
100
AcDbBlockEnd
  0
BLOCK
  5
8A
330
89
100
AcDbEntity
  8
0
100
AcDbBlockBegin
  2
FXTIP_UPARROW_S
 70
     0
 71
     0
 10
0.0
 20
0.0
 30
0.0
  3
FXTIP_UPARROW_S
  1

  0
LINE
  5
8C
330
89
100
AcDbEntity
  8
0
  6
CONTINUOUS
 62
     0
100
AcDbLine
 10
0.0
 20
0.0
 30
0.0
 11
-1.0
 21
0.0
 31
0.0
  0
LINE
  5
8D
330
89
100
AcDbEntity
  8
0
  6
CONTINUOUS
 62
     0
100
AcDbLine
 10
0.0
 20
0.0
 30
0.0
 11
-0.965926
 21
-0.258819
 31
0.0
  0
ENDBLK
  5
8B
330
89
100
AcDbEntity
  8
0
100
AcDbBlockEnd
  0
BLOCK
  5
8F
330
8E
100
AcDbEntity
  8
0
100
AcDbBlockBegin
  2
FXTIP_UPARROW_E
 70
     0
 71
     0
 10
0.0
 20
0.0
 30
0.0
  3
FXTIP_UPARROW_E
  1

  0
LINE
  5
91
330
8E
100
AcDbEntity
  8
0
  6
CONTINUOUS
 62
     0
100
AcDbLine
 10
0.0
 20
0.0
 30
0.0
 11
-1.0
 21
0.0
 31
0.0
  0
LINE
  5
92
330
8E
100
AcDbEntity
  8
0
  6
CONTINUOUS
 62
     0
100
AcDbLine
 10
0.0
 20
0.0
 30
0.0
 11
-0.965926
 21
0.258819
 31
0.0
  0
ENDBLK
  5
90
330
8E
100
AcDbEntity
  8
0
100
AcDbBlockEnd
  0
BLOCK
  5
94
330
93
100
AcDbEntity
  8
0
100
AcDbBlockBegin
  2
FXTIP_DOWNARROW_S
 70
     0
 71
     0
 10
0.0
 20
0.0
 30
0.0
  3
FXTIP_DOWNARROW_S
  1

  0
LINE
  5
96
330
93
100
AcDbEntity
  8
0
  6
CONTINUOUS
 62
     0
100
AcDbLine
 10
0.0
 20
0.0
 30
0.0
 11
-1.0
 21
0.0
 31
0.0
  0
LINE
  5
97
330
93
100
AcDbEntity
  8
0
  6
CONTINUOUS
 62
     0
100
AcDbLine
 10
0.0
 20
0.0
 30
0.0
 11
-0.965926
 21
0.258819
 31
0.0
  0
ENDBLK
  5
95
330
93
100
AcDbEntity
  8
0
100
AcDbBlockEnd
  0
BLOCK
  5
99
330
98
100
AcDbEntity
  8
0
100
AcDbBlockBegin
  2
FXTIP_DOWNARROW_E
 70
     0
 71
     0
 10
0.0
 20
0.0
 30
0.0
  3
FXTIP_DOWNARROW_E
  1

  0
LINE
  5
9B
330
98
100
AcDbEntity
  8
0
  6
CONTINUOUS
 62
     0
100
AcDbLine
 10
0.0
 20
0.0
 30
0.0
 11
-1.0
 21
0.0
 31
0.0
  0
LINE
  5
9C
330
98
100
AcDbEntity
  8
0
  6
CONTINUOUS
 62
     0
100
AcDbLine
 10
0.0
 20
0.0
 30
0.0
 11
-0.965926
 21
-0.258819
 31
0.0
  0
ENDBLK
  5
9A
330
98
100
AcDbEntity
  8
0
100
AcDbBlockEnd
  0
BLOCK
  5
9E
330
9D
100
AcDbEntity
  8
0
100
AcDbBlockBegin
  2
FXTIP_BLACKTRIANGLE_S
 70
     0
 71
     0
 10
0.0
 20
0.0
 30
0.0
  3
FXTIP_BLACKTRIANGLE_S
  1

  0
LINE
  5
A0
330
9D
100
AcDbEntity
  8
0
  6
CONTINUOUS
 62
     0
100
AcDbLine
 10
0.0
 20
0.0
 30
0.0
 11
-1.0
 21
0.0
 31
0.0
  0
SOLID
  5
A1
330
9D
100
AcDbEntity
  8
0
  6
CONTINUOUS
 62
     0
100
AcDbTrace
 10
0.0
 20
0.0
 30
0.0
 11
-0.965926
 21
-0.258819
 31
0.0
 12
-0.965926
 22
0.258819
 32
0.0
 13
-0.965926
 23
0.258819
 33
0.0
  0
ENDBLK
  5
9F
330
9D
100
AcDbEntity
  8
0
100
AcDbBlockEnd
  0
BLOCK
  5
A3
330
A2
100
AcDbEntity
  8
0
100
AcDbBlockBegin
  2
FXTIP_BLACKTRIANGLE_E
 70
     0
 71
     0
 10
0.0
 20
0.0
 30
0.0
  3
FXTIP_BLACKTRIANGLE_E
  1

  0
LINE
  5
A5
330
A2
100
AcDbEntity
  8
0
  6
CONTINUOUS
 62
     0
100
AcDbLine
 10
0.0
 20
0.0
 30
0.0
 11
-1.0
 21
0.0
 31
0.0
  0
SOLID
  5
A6
330
A2
100
AcDbEntity
  8
0
  6
CONTINUOUS
 62
     0
100
AcDbTrace
 10
0.0
 20
0.0
 30
0.0
 11
-0.965926
 21
0.258819
 31
0.0
 12
-0.965926
 22
-0.258819
 32
0.0
 13
-0.965926
 23
-0.258819
 33
0.0
  0
ENDBLK
  5
A4
330
A2
100
AcDbEntity
  8
0
100
AcDbBlockEnd
  0
BLOCK
  5
A9
330
A8
100
AcDbEntity
  8
0
100
AcDbBlockBegin
  2
BLKF021
 70
     0
 71
     0
 10
0.0
 20
0.0
 30
0.0
  3
BLKF021
  1

  0
LINE
  5
AC
330
A8
100
AcDbEntity
  8
}}ﾊﾊGG血CCТ
  6
CONTINUOUS
 62
     7
100
AcDbLine
 10
10.0
 20
10.0
 30
0.0
 11
410.0
 21
10.0
 31
0.0
  0
LINE
  5
AD
330
A8
100
AcDbEntity
  8
}}ﾊﾊGG血CCТ
  6
CONTINUOUS
 62
     7
100
AcDbLine
 10
10.0
 20
10.0
 30
0.0
 11
10.0
 21
287.0
 31
0.0
  0
LINE
  5
AE
330
A8
100
AcDbEntity
  8
}}ﾊﾊGG血CCТ
  6
CONTINUOUS
 62
     7
100
AcDbLine
 10
10.0
 20
287.0
 30
0.0
 11
410.0
 21
287.0
 31
0.0
  0
LINE
  5
AF
330
A8
100
AcDbEntity
  8
}}ﾊﾊGG血CCТ
  6
CONTINUOUS
 62
     7
100
AcDbLine
 10
410.0
 20
287.0
 30
0.0
 11
410.0
 21
10.0
 31
0.0
  0
LINE
  5
B0
330
A8
100
AcDbEntity
  8
}}ﾊﾊGG血CCТ
  6
CONTINUOUS
 62
     7
100
AcDbLine
 10
153.0
 20
10.0
 30
0.0
 11
153.0
 21
20.0
 31
0.0
  0
TEXT
  5
B1
330
A8
100
AcDbEntity
  8
}}ﾊﾊGG血CCТ
  6
CONTINUOUS
 62
     7
100
AcDbText
 10
137.738815
 20
11.596879
 30
0.0
 40
6.648749
  1
品名
 41
1.083413
  7
FX_VECTOR
 72
     5
 11
149.058355
 21
11.596879
 31
0.0
100
AcDbText
  0
LINE
  5
B2
330
A8
100
AcDbEntity
  8
}}ﾊﾊGG血CCТ
  6
CONTINUOUS
 62
     7
100
AcDbLine
 10
233.0
 20
20.0
 30
0.0
 11
233.0
 21
10.0
 31
0.0
  0
LINE
  5
B3
330
A8
100
AcDbEntity
  8
}}ﾊﾊGG血CCТ
  6
CONTINUOUS
 62
     7
100
AcDbLine
 10
133.0
 20
20.0
 30
0.0
 11
410.0
 21
20.0
 31
0.0
  0
INSERT
  5
B7
330
A8
100
AcDbEntity
  8
0
100
AcDbBlockReference
  2
BLKF022
 10
0.0
 20
0.0
 30
0.0
  0
INSERT
  5
C0
330
A8
100
AcDbEntity
  8
0
100
AcDbBlockReference
  2
BLKF023
 10
0.0
 20
0.0
 30
0.0
  0
HATCH
  5
D1
330
A8
100
AcDbEntity
  8
GR1-1
  6
CONTINUOUS
 62
     7
100
AcDbHatch
 10
0.0
 20
0.0
 30
0.0
210
0.0
220
0.0
230
1.0
  2

 70
     0
 71
     1
 91
        2
 92
        0
 93
        4
 72
     1
 10
338.8018997861325
 20
17.91346152
 11
344.8018997861325
 21
17.91346152
 72
     1
 10
344.8018997861325
 20
17.91346152
 11
344.8018997861325
 21
11.91346152
 72
     1
 10
344.8018997861325
 20
11.91346152
 11
338.8018997861325
 21
11.91346152
 72
     1
 10
338.8018997861325
 20
11.91346152
 11
338.8018997861325
 21
17.91346152
 97
        0
 92
        0
 93
       15
 72
     1
 10
341.8018997861325
 20
17.76923076000002
 11
338.9461305461325
 21
14.91346152
 72
     1
 10
338.9461305461325
 20
14.91346152
 11
341.8018997861325
 21
12.05769228000001
 72
     1
 10
341.8018997861325
 20
12.05769228000001
 11
343.3595920661325
 21
13.61538462
 72
     1
 10
343.3595920661325
 20
13.61538462
 11
343.3595920661325
 21
12.98076924
 72
     1
 10
343.3595920661325
 20
12.98076924
 11
344.2249766861325
 21
12.98076924
 72
     1
 10
344.2249766861325
 20
12.98076924
 11
344.2249766861325
 21
15.00000000000001
 72
     1
 10
344.2249766861325
 20
15.00000000000001
 11
341.8018997861325
 21
15.00000000000001
 72
     1
 10
341.8018997861325
 20
15.00000000000001
 11
341.8018997861325
 21
14.13461538000001
 72
     1
 10
341.8018997861325
 20
14.13461538000001
 11
342.2461305461325
 21
14.13461538000001
 72
     1
 10
342.2461305461325
 20
14.13461538000001
 11
341.8018997861325
 21
13.69038462
 72
     1
 10
341.8018997861325
 20
13.69038462
 11
340.5788228861325
 21
14.91346152
 72
     1
 10
340.5788228861325
 20
14.91346152
 11
341.8018997861325
 21
16.13653842000003
 72
     1
 10
341.8018997861325
 20
16.13653842000003
 11
342.5922844061325
 21
15.3461538
 72
     1
 10
342.5922844061325
 20
15.3461538
 11
344.2249766861325
 21
15.3461538
 72
     1
 10
344.2249766861325
 20
15.3461538
 11
341.8018997861325
 21
17.76923076000002
 97
        0
 75
     0
 76
     0
 52
45.0
 41
0.05
 77
     0
 78
     1
 53
45.0
 43
0.0
 44
0.0
 45
-0.0353553390593274
 46
0.0353553390593274
 79
     0
 98
        0
  0
TEXT
  5
D2
330
A8
100
AcDbEntity
  8
}}ﾊﾊGG血CCТ
  6
CONTINUOUS
 62
     7
100
AcDbText
 10
349.225769
 20
11.461285
 30
0.0
 40
7.170908
  1
GOLD CASTER
 41
0.63978
  7
FX_VECTOR
 72
     5
 11
395.977636
 21
11.461285
 31
0.0
100
AcDbText
  0
LINE
  5
D3
330
A8
100
AcDbEntity
  8
}}ﾊﾊGG血CCТ
  6
CONTINUOUS
 62
     7
100
AcDbLine
 10
253.0
 20
10.0
 30
0.0
 11
253.0
 21
20.0
 31
0.0
  0
TEXT
  5
D4
330
A8
100
AcDbEntity
  8
}}ﾊﾊGG血CCТ
  6
CONTINUOUS
 62
     7
100
AcDbText
 10
237.738815
 20
11.596879
 30
0.0
 40
6.648749
  1
図番
 41
1.083413
  7
FX_VECTOR
 72
     5
 11
249.058355
 21
11.596879
 31
0.0
100
AcDbText
  0
LINE
  5
D5
330
A8
100
AcDbEntity
  8
}}ﾊﾊGG血CCТ
  6
CONTINUOUS
 62
     7
100
AcDbLine
 10
333.0
 20
20.0
 30
0.0
 11
333.0
 21
10.0
 31
0.0
  0
LINE
  5
D6
330
A8
100
AcDbEntity
  8
}}ﾊﾊGG血CCТ
  6
CONTINUOUS
 62
     7
100
AcDbLine
 10
133.0
 20
20.0
 30
0.0
 11
133.0
 21
10.0
 31
0.0
  0
ENDBLK
  5
AA
330
A8
100
AcDbEntity
  8
0
100
AcDbBlockEnd
  0
BLOCK
  5
B5
330
B4
100
AcDbEntity
  8
0
100
AcDbBlockBegin
  2
BLKF022
 70
     0
 71
     0
 10
0.0
 20
0.0
 30
0.0
  3
BLKF022
  1

  0
LINE
  5
B9
330
B4
100
AcDbEntity
  8
0-1
  6
CONTINUOUS
 62
     7
100
AcDbLine
 10
344.8019
 20
17.913462
 30
0.0
 11
338.8019
 21
17.913462
 31
0.0
  0
LINE
  5
BA
330
B4
100
AcDbEntity
  8
0-1
  6
CONTINUOUS
 62
     7
100
AcDbLine
 10
338.8019
 20
17.913462
 30
0.0
 11
338.8019
 21
11.913462
 31
0.0
  0
LINE
  5
BB
330
B4
100
AcDbEntity
  8
0-1
  6
CONTINUOUS
 62
     7
100
AcDbLine
 10
338.8019
 20
11.913462
 30
0.0
 11
344.8019
 21
11.913462
 31
0.0
  0
LINE
  5
BC
330
B4
100
AcDbEntity
  8
0-1
  6
CONTINUOUS
 62
     7
100
AcDbLine
 10
344.8019
 20
11.913462
 30
0.0
 11
344.8019
 21
17.913462
 31
0.0
  0
ENDBLK
  5
B6
330
B4
100
AcDbEntity
  8
0
100
AcDbBlockEnd
  0
BLOCK
  5
BE
330
BD
100
AcDbEntity
  8
0
100
AcDbBlockBegin
  2
BLKF023
 70
     0
 71
     0
 10
0.0
 20
0.0
 30
0.0
  3
BLKF023
  1

  0
LINE
  5
C1
330
BD
100
AcDbEntity
  8
0-1
  6
CONTINUOUS
 62
     7
100
AcDbLine
 10
344.224977
 20
15.346154
 30
0.0
 11
341.8019
 21
17.769231
 31
0.0
  0
LINE
  5
C2
330
BD
100
AcDbEntity
  8
0-1
  6
CONTINUOUS
 62
     7
100
AcDbLine
 10
341.8019
 20
17.769231
 30
0.0
 11
338.946131
 21
14.913462
 31
0.0
  0
LINE
  5
C3
330
BD
100
AcDbEntity
  8
0-1
  6
CONTINUOUS
 62
     7
100
AcDbLine
 10
338.946131
 20
14.913462
 30
0.0
 11
341.8019
 21
12.057692
 31
0.0
  0
LINE
  5
C4
330
BD
100
AcDbEntity
  8
0-1
  6
CONTINUOUS
 62
     7
100
AcDbLine
 10
341.8019
 20
12.057692
 30
0.0
 11
343.359592
 21
13.615385
 31
0.0
  0
LINE
  5
C5
330
BD
100
AcDbEntity
  8
0-1
  6
CONTINUOUS
 62
     7
100
AcDbLine
 10
343.359592
 20
13.615385
 30
0.0
 11
343.359592
 21
12.980769
 31
0.0
  0
LINE
  5
C6
330
BD
100
AcDbEntity
  8
0-1
  6
CONTINUOUS
 62
     7
100
AcDbLine
 10
343.359592
 20
12.980769
 30
0.0
 11
344.224977
 21
12.980769
 31
0.0
  0
LINE
  5
C7
330
BD
100
AcDbEntity
  8
0-1
  6
CONTINUOUS
 62
     7
100
AcDbLine
 10
344.224977
 20
12.980769
 30
0.0
 11
344.224977
 21
15.0
 31
0.0
  0
LINE
  5
C8
330
BD
100
AcDbEntity
  8
0-1
  6
CONTINUOUS
 62
     7
100
AcDbLine
 10
344.224977
 20
15.0
 30
0.0
 11
341.8019
 21
15.0
 31
0.0
  0
LINE
  5
C9
330
BD
100
AcDbEntity
  8
0-1
  6
CONTINUOUS
 62
     7
100
AcDbLine
 10
341.8019
 20
15.0
 30
0.0
 11
341.8019
 21
14.134615
 31
0.0
  0
LINE
  5
CA
330
BD
100
AcDbEntity
  8
0-1
  6
CONTINUOUS
 62
     7
100
AcDbLine
 10
341.8019
 20
14.134615
 30
0.0
 11
342.246131
 21
14.134615
 31
0.0
  0
LINE
  5
CB
330
BD
100
AcDbEntity
  8
0-1
  6
CONTINUOUS
 62
     7
100
AcDbLine
 10
342.246131
 20
14.134615
 30
0.0
 11
341.8019
 21
13.690385
 31
0.0
  0
LINE
  5
CC
330
BD
100
AcDbEntity
  8
0-1
  6
CONTINUOUS
 62
     7
100
AcDbLine
 10
341.8019
 20
13.690385
 30
0.0
 11
340.578823
 21
14.913462
 31
0.0
  0
LINE
  5
CD
330
BD
100
AcDbEntity
  8
0-1
  6
CONTINUOUS
 62
     7
100
AcDbLine
 10
340.578823
 20
14.913462
 30
0.0
 11
341.8019
 21
16.136538
 31
0.0
  0
LINE
  5
CE
330
BD
100
AcDbEntity
  8
0-1
  6
CONTINUOUS
 62
     7
100
AcDbLine
 10
341.8019
 20
16.136538
 30
0.0
 11
342.592284
 21
15.346154
 31
0.0
  0
LINE
  5
CF
330
BD
100
AcDbEntity
  8
0-1
  6
CONTINUOUS
 62
     7
100
AcDbLine
 10
342.592284
 20
15.346154
 30
0.0
 11
344.224977
 21
15.346154
 31
0.0
  0
ENDBLK
  5
BF
330
BD
100
AcDbEntity
  8
0
100
AcDbBlockEnd
  0
BLOCK
  5
114
330
113
100
AcDbEntity
  8
0
100
AcDbBlockBegin
  2
*D22
 70
     1
 71
     0
 10
0.0
 20
0.0
 30
0.0
  3
*D22
  1

  0
TEXT
  5
116
330
113
100
AcDbEntity
  8
GR1-1
  6
CONTINUOUS
 62
     7
100
AcDbText
 10
228.660919
 20
53.02898
 30
0.0
 40
4.0
  1
28
 41
0.851351
  7
FX_VECTOR
 72
     5
 11
234.660919
 21
53.02898
 31
0.0
100
AcDbText
  0
LINE
  5
117
330
113
100
AcDbEntity
  8
GR1-1
  6
CONTINUOUS
 62
     7
100
AcDbLine
 10
217.66092
 20
52.028981
 30
0.0
 11
245.66092
 21
52.028981
 31
0.0
  0
INSERT
  5
118
330
113
100
AcDbEntity
  8
GR1-1
  6
CONTINUOUS
 62
     7
100
AcDbBlockReference
  2
FXTIP_ARROW_S
 10
217.66092
 20
52.028981
 30
0.0
 41
4.0
 42
4.0
 50
180.0
  0
INSERT
  5
119
330
113
100
AcDbEntity
  8
GR1-1
  6
CONTINUOUS
 62
     7
100
AcDbBlockReference
  2
FXTIP_ARROW_E
 10
245.66092
 20
52.028981
 30
0.0
 41
4.0
 42
4.0
 50
360.0
  0
LINE
  5
11A
330
113
100
AcDbEntity
  8
GR1-1
  6
CONTINUOUS
 62
     7
100
AcDbLine
 10
217.66092
 20
56.814641
 30
0.0
 11
217.66092
 21
51.028981
 31
0.0
  0
LINE
  5
11B
330
113
100
AcDbEntity
  8
GR1-1
  6
CONTINUOUS
 62
     7
100
AcDbLine
 10
245.66092
 20
117.234817
 30
0.0
 11
245.66092
 21
51.028981
 31
0.0
  0
ENDBLK
  5
115
330
113
100
AcDbEntity
  8
0
100
AcDbBlockEnd
  0
BLOCK
  5
120
330
11F
100
AcDbEntity
  8
0
100
AcDbBlockBegin
  2
*D23
 70
     1
 71
     0
 10
0.0
 20
0.0
 30
0.0
  3
*D23
  1

  0
TEXT
  5
122
330
11F
100
AcDbEntity
  8
LAYERGROUP-1
  6
CONTINUOUS
 62
     7
100
AcDbText
 10
152.50531
 20
95.028999
 30
0.0
 40
4.0
  1
%%c75
 50
90.0
 41
0.84375
  7
FX_VECTOR
 72
     5
 11
152.50531
 21
104.028999
 31
0.0
100
AcDbText
  0
LINE
  5
123
330
11F
100
AcDbEntity
  8
LAYERGROUP-1
  6
CONTINUOUS
 62
     7
100
AcDbLine
 10
153.505302
 20
62.029
 30
0.0
 11
153.505302
 21
137.029
 31
0.0
  0
INSERT
  5
124
330
11F
100
AcDbEntity
  8
LAYERGROUP-1
  6
CONTINUOUS
 62
     7
100
AcDbBlockReference
  2
FXTIP_ARROW_S
 10
153.505302
 20
62.029
 30
0.0
 41
4.0
 42
4.0
 50
270.0
  0
INSERT
  5
125
330
11F
100
AcDbEntity
  8
LAYERGROUP-1
  6
CONTINUOUS
 62
     7
100
AcDbBlockReference
  2
FXTIP_ARROW_E
 10
153.505302
 20
137.029
 30
0.0
 41
4.0
 42
4.0
 50
90.0
  0
LINE
  5
126
330
11F
100
AcDbEntity
  8
LAYERGROUP-1
  6
CONTINUOUS
 62
     7
100
AcDbLine
 10
124.451941
 20
62.029
 30
0.0
 11
154.505302
 21
62.029
 31
0.0
  0
LINE
  5
127
330
11F
100
AcDbEntity
  8
LAYERGROUP-1
  6
CONTINUOUS
 62
     7
100
AcDbLine
 10
124.451941
 20
137.029
 30
0.0
 11
154.505302
 21
137.029
 31
0.0
  0
ENDBLK
  5
121
330
11F
100
AcDbEntity
  8
0
100
AcDbBlockEnd
  0
BLOCK
  5
12A
330
129
100
AcDbEntity
  8
0
100
AcDbBlockBegin
  2
*D24
 70
     1
 71
     0
 10
0.0
 20
0.0
 30
0.0
  3
*D24
  1

  0
TEXT
  5
12C
330
129
100
AcDbEntity
  8
LAYERGROUP-1
  6
CONTINUOUS
 62
     7
100
AcDbText
 10
120.451942
 20
43.028999
 30
0.0
 40
4.0
  1
23
 41
0.851351
  7
FX_VECTOR
 72
     5
 11
126.451942
 21
43.028999
 31
0.0
100
AcDbText
  0
LINE
  5
12D
330
129
100
AcDbEntity
  8
LAYERGROUP-1
  6
CONTINUOUS
 62
     7
100
AcDbLine
 10
111.951941
 20
42.029
 30
0.0
 11
134.951941
 21
42.029
 31
0.0
  0
INSERT
  5
12E
330
129
100
AcDbEntity
  8
LAYERGROUP-1
  6
CONTINUOUS
 62
     7
100
AcDbBlockReference
  2
FXTIP_ARROW_S
 10
111.951941
 20
42.029
 30
0.0
 41
4.0
 42
4.0
 50
180.0
  0
INSERT
  5
12F
330
129
100
AcDbEntity
  8
LAYERGROUP-1
  6
CONTINUOUS
 62
     7
100
AcDbBlockReference
  2
FXTIP_ARROW_E
 10
134.951941
 20
42.029
 30
0.0
 41
4.0
 42
4.0
 50
360.0
  0
LINE
  5
130
330
129
100
AcDbEntity
  8
LAYERGROUP-1
  6
CONTINUOUS
 62
     7
100
AcDbLine
 10
111.951941
 20
89.529
 30
0.0
 11
111.951941
 21
41.029
 31
0.0
  0
LINE
  5
131
330
129
100
AcDbEntity
  8
LAYERGROUP-1
  6
CONTINUOUS
 62
     7
100
AcDbLine
 10
134.951941
 20
89.529
 30
0.0
 11
134.951941
 21
41.029
 31
0.0
  0
ENDBLK
  5
12B
330
129
100
AcDbEntity
  8
0
100
AcDbBlockEnd
  0
BLOCK
  5
134
330
133
100
AcDbEntity
  8
0
100
AcDbBlockBegin
  2
*D25
 70
     1
 71
     0
 10
0.0
 20
0.0
 30
0.0
  3
*D25
  1

  0
TEXT
  5
136
330
133
100
AcDbEntity
  8
LAYERGROUP-1
  6
CONTINUOUS
 62
     7
100
AcDbText
 10
120.451942
 20
53.028999
 30
0.0
 40
4.0
  1
20
 41
0.851351
  7
FX_VECTOR
 72
     5
 11
126.451942
 21
53.028999
 31
0.0
100
AcDbText
  0
LINE
  5
137
330
133
100
AcDbEntity
  8
LAYERGROUP-1
  6
CONTINUOUS
 62
     7
100
AcDbLine
 10
113.451941
 20
52.029
 30
0.0
 11
133.451941
 21
52.029
 31
0.0
  0
INSERT
  5
138
330
133
100
AcDbEntity
  8
LAYERGROUP-1
  6
CONTINUOUS
 62
     7
100
AcDbBlockReference
  2
FXTIP_ARROW_S
 10
113.451941
 20
52.029
 30
0.0
 41
4.0
 42
4.0
 50
180.0
  0
INSERT
  5
139
330
133
100
AcDbEntity
  8
LAYERGROUP-1
  6
CONTINUOUS
 62
     7
100
AcDbBlockReference
  2
FXTIP_ARROW_E
 10
133.451941
 20
52.029
 30
0.0
 41
4.0
 42
4.0
 50
360.0
  0
LINE
  5
13A
330
133
100
AcDbEntity
  8
LAYERGROUP-1
  6
CONTINUOUS
 62
     7
100
AcDbLine
 10
113.451941
 20
63.826059
 30
0.0
 11
113.451941
 21
51.029
 31
0.0
  0
LINE
  5
13B
330
133
100
AcDbEntity
  8
LAYERGROUP-1
  6
CONTINUOUS
 62
     7
100
AcDbLine
 10
133.451941
 20
63.826059
 30
0.0
 11
133.451941
 21
51.029
 31
0.0
  0
ENDBLK
  5
135
330
133
100
AcDbEntity
  8
0
100
AcDbBlockEnd
  0
BLOCK
  5
166
330
165
100
AcDbEntity
  8
0
100
AcDbBlockBegin
  2
*D26
 70
     1
 71
     0
 10
0.0
 20
0.0
 30
0.0
  3
*D26
  1

  0
TEXT
  5
168
330
165
100
AcDbEntity
  8
GR1-1
  6
CONTINUOUS
 62
     7
100
AcDbText
 10
238.182904
 20
202.92543
 30
0.0
 40
5.753684
  1
M12X1.75
 41
0.425303
  7
FX_VECTOR
 72
     5
 11
255.77843
 21
202.92543
 31
0.0
100
AcDbText
  0
LINE
  5
169
330
165
100
AcDbEntity
  8
GR1-1
  6
CONTINUOUS
 62
     7
100
AcDbLine
 10
239.66092
 20
202.028981
 30
0.0
 11
251.66092
 21
202.028981
 31
0.0
  0
INSERT
  5
16A
330
165
100
AcDbEntity
  8
GR1-1
  6
CONTINUOUS
 62
     7
100
AcDbBlockReference
  2
FXTIP_ARROW_S
 10
239.66092
 20
202.028981
 30
0.0
 41
4.0
 42
4.0
 50
180.0
  0
INSERT
  5
16B
330
165
100
AcDbEntity
  8
GR1-1
  6
CONTINUOUS
 62
     7
100
AcDbBlockReference
  2
FXTIP_ARROW_E
 10
251.66092
 20
202.028981
 30
0.0
 41
4.0
 42
4.0
 50
360.0
  0
LINE
  5
16C
330
165
100
AcDbEntity
  8
GR1-1
  6
CONTINUOUS
 62
     7
100
AcDbLine
 10
239.66092
 20
192.528981
 30
0.0
 11
239.66092
 21
203.028981
 31
0.0
  0
LINE
  5
16D
330
165
100
AcDbEntity
  8
GR1-1
  6
CONTINUOUS
 62
     7
100
AcDbLine
 10
251.66092
 20
192.528981
 30
0.0
 11
251.66092
 21
203.028981
 31
0.0
  0
ENDBLK
  5
167
330
165
100
AcDbEntity
  8
0
100
AcDbBlockEnd
  0
BLOCK
  5
1A1
330
1A0
100
AcDbEntity
  8
0
100
AcDbBlockBegin
  2
*D27
 70
     1
 71
     0
 10
0.0
 20
0.0
 30
0.0
  3
*D27
  1

  0
TEXT
  5
1A3
330
1A0
100
AcDbEntity
  8
LAYERGROUP-1
  6
CONTINUOUS
 62
     7
100
AcDbText
 10
276.322632
 20
122.278976
 30
0.0
 40
4.0
  1
57.5
 50
90.0
 41
0.940299
  7
FX_VECTOR
 72
     5
 11
276.322632
 21
134.278976
 31
0.0
100
AcDbText
  0
LINE
  5
1A4
330
1A0
100
AcDbEntity
  8
LAYERGROUP-1
  6
CONTINUOUS
 62
     7
100
AcDbLine
 10
277.322632
 20
99.528981
 30
0.0
 11
277.322632
 21
157.028981
 31
0.0
  0
INSERT
  5
1A5
330
1A0
100
AcDbEntity
  8
LAYERGROUP-1
  6
CONTINUOUS
 62
     7
100
AcDbBlockReference
  2
FXTIP_ARROW_S
 10
277.322632
 20
99.528981
 30
0.0
 41
4.0
 42
4.0
 50
270.0
  0
INSERT
  5
1A6
330
1A0
100
AcDbEntity
  8
LAYERGROUP-1
  6
CONTINUOUS
 62
     7
100
AcDbBlockReference
  2
FXTIP_ARROW_E
 10
277.322632
 20
157.028981
 30
0.0
 41
4.0
 42
4.0
 50
90.0
  0
LINE
  5
1A7
330
1A0
100
AcDbEntity
  8
LAYERGROUP-1
  6
CONTINUOUS
 62
     7
100
AcDbLine
 10
258.55546
 20
99.528981
 30
0.0
 11
278.322632
 21
99.528981
 31
0.0
  0
LINE
  5
1A8
330
1A0
100
AcDbEntity
  8
LAYERGROUP-1
  6
CONTINUOUS
 62
     7
100
AcDbLine
 10
257.630575
 20
157.028981
 30
0.0
 11
278.322632
 21
157.028981
 31
0.0
  0
ENDBLK
  5
1A2
330
1A0
100
AcDbEntity
  8
0
100
AcDbBlockEnd
  0
BLOCK
  5
1AB
330
1AA
100
AcDbEntity
  8
0
100
AcDbBlockBegin
  2
*D28
 70
     1
 71
     0
 10
0.0
 20
0.0
 30
0.0
  3
*D28
  1

  0
TEXT
  5
1AD
330
1AA
100
AcDbEntity
  8
LAYERGROUP-1
  6
CONTINUOUS
 62
     7
100
AcDbText
 10
276.322632
 20
171.528976
 30
0.0
 40
4.0
  1
35
 50
90.0
 41
0.851351
  7
FX_VECTOR
 72
     5
 11
276.322632
 21
177.528976
 31
0.0
100
AcDbText
  0
LINE
  5
1AE
330
1AA
100
AcDbEntity
  8
LAYERGROUP-1
  6
CONTINUOUS
 62
     7
100
AcDbLine
 10
277.322632
 20
157.028981
 30
0.0
 11
277.322632
 21
192.028981
 31
0.0
  0
INSERT
  5
1AF
330
1AA
100
AcDbEntity
  8
LAYERGROUP-1
  6
CONTINUOUS
 62
     7
100
AcDbBlockReference
  2
FXTIP_ARROW_S
 10
277.322632
 20
157.028981
 30
0.0
 41
4.0
 42
4.0
 50
270.0
  0
INSERT
  5
1B0
330
1AA
100
AcDbEntity
  8
LAYERGROUP-1
  6
CONTINUOUS
 62
     7
100
AcDbBlockReference
  2
FXTIP_ARROW_E
 10
277.322632
 20
192.028981
 30
0.0
 41
4.0
 42
4.0
 50
90.0
  0
LINE
  5
1B1
330
1AA
100
AcDbEntity
  8
LAYERGROUP-1
  6
CONTINUOUS
 62
     7
100
AcDbLine
 10
252.16092
 20
192.028981
 30
0.0
 11
278.322632
 21
192.028981
 31
0.0
  0
ENDBLK
  5
1AC
330
1AA
100
AcDbEntity
  8
0
100
AcDbBlockEnd
  0
BLOCK
  5
1B4
330
1B3
100
AcDbEntity
  8
0
100
AcDbBlockBegin
  2
*D29
 70
     1
 71
     0
 10
0.0
 20
0.0
 30
0.0
  3
*D29
  1

  0
TEXT
  5
1B6
330
1B3
100
AcDbEntity
  8
LAYERGROUP-1
  6
CONTINUOUS
 62
     7
100
AcDbText
 10
287.090668
 20
106.528984
 30
0.0
 40
4.0
  1
95
 50
90.0
 41
0.851351
  7
FX_VECTOR
 72
     5
 11
287.090668
 21
112.528984
 31
0.0
100
AcDbText
  0
LINE
  5
1B7
330
1B3
100
AcDbEntity
  8
LAYERGROUP-1
  6
CONTINUOUS
 62
     7
100
AcDbLine
 10
288.090677
 20
62.028981
 30
0.0
 11
288.090677
 21
157.028981
 31
0.0
  0
INSERT
  5
1B8
330
1B3
100
AcDbEntity
  8
LAYERGROUP-1
  6
CONTINUOUS
 62
     7
100
AcDbBlockReference
  2
FXTIP_ARROW_S
 10
288.090677
 20
62.028981
 30
0.0
 41
4.0
 42
4.0
 50
270.0
  0
INSERT
  5
1B9
330
1B3
100
AcDbEntity
  8
LAYERGROUP-1
  6
CONTINUOUS
 62
     7
100
AcDbBlockReference
  2
FXTIP_ARROW_E
 10
288.090677
 20
157.028981
 30
0.0
 41
4.0
 42
4.0
 50
90.0
  0
LINE
  5
1BA
330
1B3
100
AcDbEntity
  8
LAYERGROUP-1
  6
CONTINUOUS
 62
     7
100
AcDbLine
 10
218.66092
 20
62.028981
 30
0.0
 11
289.090677
 21
62.028981
 31
0.0
  0
LINE
  5
1BB
330
1B3
100
AcDbEntity
  8
LAYERGROUP-1
  6
CONTINUOUS
 62
     7
100
AcDbLine
 10
257.630575
 20
157.028981
 30
0.0
 11
289.090677
 21
157.028981
 31
0.0
  0
ENDBLK
  5
1B5
330
1B3
100
AcDbEntity
  8
0
100
AcDbBlockEnd
  0
BLOCK
  5
1D3
330
1D2
100
AcDbEntity
  8
0
100
AcDbBlockBegin
  2
*D30
 70
     1
 71
     0
 10
0.0
 20
0.0
 30
0.0
  3
*D30
  1

  0
TEXT
  5
1D5
330
1D2
100
AcDbEntity
  8
GR1-1
  6
CONTINUOUS
 62
     7
100
AcDbText
 10
276.322632
 20
240.331116
 30
0.0
 40
4.0
  1
19
 50
90.0
 41
0.875
  7
FX_VECTOR
 72
     5
 11
276.322632
 21
246.331116
 31
0.0
100
AcDbText
  0
LINE
  5
1D6
330
1D2
100
AcDbEntity
  8
GR1-1
  6
CONTINUOUS
 62
     7
100
AcDbLine
 10
277.322632
 20
233.831109
 30
0.0
 11
277.322632
 21
252.831109
 31
0.0
  0
INSERT
  5
1D7
330
1D2
100
AcDbEntity
  8
GR1-1
  6
CONTINUOUS
 62
     7
100
AcDbBlockReference
  2
FXTIP_ARROW_S
 10
277.322632
 20
233.831109
 30
0.0
 41
4.0
 42
4.0
 50
270.0
  0
INSERT
  5
1D8
330
1D2
100
AcDbEntity
  8
GR1-1
  6
CONTINUOUS
 62
     7
100
AcDbBlockReference
  2
FXTIP_ARROW_E
 10
277.322632
 20
252.831109
 30
0.0
 41
4.0
 42
4.0
 50
90.0
  0
LINE
  5
1D9
330
1D2
100
AcDbEntity
  8
GR1-1
  6
CONTINUOUS
 62
     7
100
AcDbLine
 10
252.145747
 20
233.831109
 30
0.0
 11
278.322632
 21
233.831109
 31
0.0
  0
LINE
  5
1DA
330
1D2
100
AcDbEntity
  8
GR1-1
  6
CONTINUOUS
 62
     7
100
AcDbLine
 10
252.145747
 20
252.831109
 30
0.0
 11
278.322632
 21
252.831109
 31
0.0
  0
ENDBLK
  5
1D4
330
1D2
100
AcDbEntity
  8
0
100
AcDbBlockEnd
  0
BLOCK
  5
1FE
330
1FD
100
AcDbEntity
  8
0
100
AcDbBlockBegin
  2
BLKF033
 70
     0
 71
     0
 10
0.0
 20
0.0
 30
0.0
  3
BLKF033
  1

  0
LINE
  5
201
330
1FD
100
AcDbEntity
  8
GR1-1
  6
CONTINUOUS
 62
     7
100
AcDbLine
 10
234.41092
 20
97.264682
 30
0.0
 11
234.646622
 21
97.028979
 31
0.0
  0
LINE
  5
202
330
1FD
100
AcDbEntity
  8
GR1-1
  6
CONTINUOUS
 62
     7
100
AcDbLine
 10
234.41092
 20
97.500384
 30
0.0
 11
234.882324
 21
97.028979
 31
0.0
  0
LINE
  5
203
330
1FD
100
AcDbEntity
  8
GR1-1
  6
CONTINUOUS
 62
     7
100
AcDbLine
 10
234.41092
 20
97.736086
 30
0.0
 11
235.118027
 21
97.028979
 31
0.0
  0
LINE
  5
204
330
1FD
100
AcDbEntity
  8
GR1-1
  6
CONTINUOUS
 62
     7
100
AcDbLine
 10
234.41092
 20
97.971789
 30
0.0
 11
235.353729
 21
97.028979
 31
0.0
  0
LINE
  5
205
330
1FD
100
AcDbEntity
  8
GR1-1
  6
CONTINUOUS
 62
     7
100
AcDbLine
 10
234.41092
 20
98.207491
 30
0.0
 11
235.223986
 21
97.394425
 31
0.0
  0
LINE
  5
206
330
1FD
100
AcDbEntity
  8
GR1-1
  6
CONTINUOUS
 62
     7
100
AcDbLine
 10
235.446454
 20
97.171957
 30
0.0
 11
235.589432
 21
97.028979
 31
0.0
  0
LINE
  5
207
330
1FD
100
AcDbEntity
  8
GR1-1
  6
CONTINUOUS
 62
     7
100
AcDbLine
 10
234.41092
 20
98.443194
 30
0.0
 11
235.223986
 21
97.630127
 31
0.0
  0
LINE
  5
208
330
1FD
100
AcDbEntity
  8
GR1-1
  6
CONTINUOUS
 62
     7
100
AcDbLine
 10
235.682157
 20
97.171957
 30
0.0
 11
235.825134
 21
97.028979
 31
0.0
  0
LINE
  5
209
330
1FD
100
AcDbEntity
  8
GR1-1
  6
CONTINUOUS
 62
     7
100
AcDbLine
 10
234.41092
 20
98.678896
 30
0.0
 11
235.223986
 21
97.865829
 31
0.0
  0
LINE
  5
20A
330
1FD
100
AcDbEntity
  8
GR1-1
  6
CONTINUOUS
 62
     7
100
AcDbLine
 10
235.917859
 20
97.171957
 30
0.0
 11
236.060837
 21
97.028979
 31
0.0
  0
LINE
  5
20B
330
1FD
100
AcDbEntity
  8
GR1-1
  6
CONTINUOUS
 62
     7
100
AcDbLine
 10
234.41092
 20
98.914599
 30
0.0
 11
235.320228
 21
98.005291
 31
0.0
  0
LINE
  5
20C
330
1FD
100
AcDbEntity
  8
GR1-1
  6
CONTINUOUS
 62
     7
100
AcDbLine
 10
236.153562
 20
97.171957
 30
0.0
 11
236.296539
 21
97.028979
 31
0.0
  0
LINE
  5
20D
330
1FD
100
AcDbEntity
  8
GR1-1
  6
CONTINUOUS
 62
     7
100
AcDbLine
 10
234.41092
 20
99.150301
 30
0.0
 11
235.55593
 21
98.005291
 31
0.0
  0
LINE
  5
20E
330
1FD
100
AcDbEntity
  8
GR1-1
  6
CONTINUOUS
 62
     7
100
AcDbLine
 10
236.389264
 20
97.171957
 30
0.0
 11
236.532242
 21
97.028979
 31
0.0
  0
LINE
  5
20F
330
1FD
100
AcDbEntity
  8
GR1-1
  6
CONTINUOUS
 62
     7
100
AcDbLine
 10
234.41092
 20
99.386004
 30
0.0
 11
235.791633
 21
98.005291
 31
0.0
  0
LINE
  5
210
330
1FD
100
AcDbEntity
  8
GR1-1
  6
CONTINUOUS
 62
     7
100
AcDbLine
 10
236.624967
 20
97.171957
 30
0.0
 11
236.767944
 21
97.028979
 31
0.0
  0
LINE
  5
211
330
1FD
100
AcDbEntity
  8
GR1-1
  6
CONTINUOUS
 62
     7
100
AcDbLine
 10
234.41092
 20
99.621706
 30
0.0
 11
235.958471
 21
98.074155
 31
0.0
  0
LINE
  5
212
330
1FD
100
AcDbEntity
  8
GR1-1
  6
CONTINUOUS
 62
     7
100
AcDbLine
 10
236.860669
 20
97.171957
 30
0.0
 11
237.003646
 21
97.028979
 31
0.0
  0
LINE
  5
213
330
1FD
100
AcDbEntity
  8
GR1-1
  6
CONTINUOUS
 62
     7
100
AcDbLine
 10
234.41092
 20
99.857409
 30
0.0
 11
234.646622
 21
99.621706
 31
0.0
  0
LINE
  5
214
330
1FD
100
AcDbEntity
  8
GR1-1
  6
CONTINUOUS
 62
     7
100
AcDbLine
 10
236.910922
 20
97.357407
 30
0.0
 11
237.239349
 21
97.028979
 31
0.0
  0
LINE
  5
215
330
1FD
100
AcDbEntity
  8
GR1-1
  6
CONTINUOUS
 62
     7
100
AcDbLine
 10
234.41092
 20
100.093111
 30
0.0
 11
234.764473
 21
99.739557
 31
0.0
  0
LINE
  5
216
330
1FD
100
AcDbEntity
  8
GR1-1
  6
CONTINUOUS
 62
     7
100
AcDbLine
 10
236.910922
 20
97.593109
 30
0.0
 11
237.475051
 21
97.028979
 31
0.0
  0
LINE
  5
217
330
1FD
100
AcDbEntity
  8
GR1-1
  6
CONTINUOUS
 62
     7
100
AcDbLine
 10
234.41092
 20
100.328813
 30
0.0
 11
234.882324
 21
99.857409
 31
0.0
  0
LINE
  5
218
330
1FD
100
AcDbEntity
  8
GR1-1
  6
CONTINUOUS
 62
     7
100
AcDbLine
 10
236.910922
 20
97.828811
 30
0.0
 11
237.160922
 21
97.578811
 31
0.0
  0
LINE
  5
219
330
1FD
100
AcDbEntity
  8
GR1-1
  6
CONTINUOUS
 62
     7
100
AcDbLine
 10
237.239349
 20
97.500384
 30
0.0
 11
237.710754
 21
97.028979
 31
0.0
  0
LINE
  5
21A
330
1FD
100
AcDbEntity
  8
GR1-1
  6
CONTINUOUS
 62
     7
100
AcDbLine
 10
234.41092
 20
100.564516
 30
0.0
 11
235.000176
 21
99.97526
 31
0.0
  0
LINE
  5
21B
330
1FD
100
AcDbEntity
  8
GR1-1
  6
CONTINUOUS
 62
     7
100
AcDbLine
 10
236.910922
 20
98.064514
 30
0.0
 11
237.160922
 21
97.814514
 31
0.0
  0
LINE
  5
21C
330
1FD
100
AcDbEntity
  8
GR1-1
  6
CONTINUOUS
 62
     7
100
AcDbLine
 10
237.3572
 20
97.618235
 30
0.0
 11
237.946456
 21
97.028979
 31
0.0
  0
LINE
  5
21D
330
1FD
100
AcDbEntity
  8
GR1-1
  6
CONTINUOUS
 62
     7
100
AcDbLine
 10
234.41092
 20
100.800218
 30
0.0
 11
235.118027
 21
100.093111
 31
0.0
  0
LINE
  5
21E
330
1FD
100
AcDbEntity
  8
GR1-1
  6
CONTINUOUS
 62
     7
100
AcDbLine
 10
236.910922
 20
98.300216
 30
0.0
 11
237.160922
 21
98.050216
 31
0.0
  0
LINE
  5
21F
330
1FD
100
AcDbEntity
  8
GR1-1
  6
CONTINUOUS
 62
     7
100
AcDbLine
 10
237.475051
 20
97.736086
 30
0.0
 11
238.182159
 21
97.028979
 31
0.0
  0
LINE
  5
220
330
1FD
100
AcDbEntity
  8
GR1-1
  6
CONTINUOUS
 62
     7
100
AcDbLine
 10
234.41092
 20
101.035921
 30
0.0
 11
235.235878
 21
100.210962
 31
0.0
  0
LINE
  5
221
330
1FD
100
AcDbEntity
  8
GR1-1
  6
CONTINUOUS
 62
     7
100
AcDbLine
 10
235.825134
 20
99.621706
 30
0.0
 11
236.492989
 21
98.953852
 31
0.0
  0
LINE
  5
222
330
1FD
100
AcDbEntity
  8
GR1-1
  6
CONTINUOUS
 62
     7
100
AcDbLine
 10
236.910922
 20
98.535919
 30
0.0
 11
237.160922
 21
98.285919
 31
0.0
  0
LINE
  5
223
330
1FD
100
AcDbEntity
  8
GR1-1
  6
CONTINUOUS
 62
     7
100
AcDbLine
 10
237.592903
 20
97.853938
 30
0.0
 11
238.417861
 21
97.028979
 31
0.0
  0
LINE
  5
224
330
1FD
100
AcDbEntity
  8
GR1-1
  6
CONTINUOUS
 62
     7
100
AcDbLine
 10
234.41092
 20
101.271623
 30
0.0
 11
235.353729
 21
100.328813
 31
0.0
  0
LINE
  5
225
330
1FD
100
AcDbEntity
  8
GR1-1
  6
CONTINUOUS
 62
     7
100
AcDbLine
 10
235.942985
 20
99.739557
 30
0.0
 11
236.494255
 21
99.188288
 31
0.0
  0
LINE
  5
226
330
1FD
100
AcDbEntity
  8
GR1-1
  6
CONTINUOUS
 62
     7
100
AcDbLine
 10
236.910922
 20
98.771621
 30
0.0
 11
237.160922
 21
98.521621
 31
0.0
  0
LINE
  5
227
330
1FD
100
AcDbEntity
  8
GR1-1
  6
CONTINUOUS
 62
     7
100
AcDbLine
 10
237.710754
 20
97.971789
 30
0.0
 11
238.653564
 21
97.028979
 31
0.0
  0
LINE
  5
228
330
1FD
100
AcDbEntity
  8
GR1-1
  6
CONTINUOUS
 62
     7
100
AcDbLine
 10
234.41092
 20
101.507326
 30
0.0
 11
235.471581
 21
100.446665
 31
0.0
  0
LINE
  5
229
330
1FD
100
AcDbEntity
  8
GR1-1
  6
CONTINUOUS
 62
     7
100
AcDbLine
 10
236.060837
 20
99.857409
 30
0.0
 11
236.494255
 21
99.423991
 31
0.0
  0
LINE
  5
22A
330
1FD
100
AcDbEntity
  8
GR1-1
  6
CONTINUOUS
 62
     7
100
AcDbLine
 10
236.910922
 20
99.007324
 30
0.0
 11
237.239349
 21
98.678896
 31
0.0
  0
LINE
  5
22B
330
1FD
100
AcDbEntity
  8
GR1-1
  6
CONTINUOUS
 62
     7
100
AcDbLine
 10
237.828605
 20
98.08964
 30
0.0
 11
238.889266
 21
97.028979
 31
0.0
  0
LINE
  5
22C
330
1FD
100
AcDbEntity
  8
GR1-1
  6
CONTINUOUS
 62
     7
100
AcDbLine
 10
234.41092
 20
101.743028
 30
0.0
 11
235.589432
 21
100.564516
 31
0.0
  0
LINE
  5
22D
330
1FD
100
AcDbEntity
  8
GR1-1
  6
CONTINUOUS
 62
     7
100
AcDbLine
 10
236.178688
 20
99.97526
 30
0.0
 11
236.624967
 21
99.528981
 31
0.0
  0
LINE
  5
22E
330
1FD
100
AcDbEntity
  8
GR1-1
  6
CONTINUOUS
 62
     7
100
AcDbLine
 10
236.910922
 20
99.243026
 30
0.0
 11
237.3572
 21
98.796748
 31
0.0
  0
LINE
  5
22F
330
1FD
100
AcDbEntity
  8
GR1-1
  6
CONTINUOUS
 62
     7
100
AcDbLine
 10
237.946456
 20
98.207491
 30
0.0
 11
239.124969
 21
97.028979
 31
0.0
  0
LINE
  5
230
330
1FD
100
AcDbEntity
  8
GR1-1
  6
CONTINUOUS
 62
     7
100
AcDbLine
 10
234.41092
 20
101.978731
 30
0.0
 11
235.707283
 21
100.682367
 31
0.0
  0
LINE
  5
231
330
1FD
100
AcDbEntity
  8
GR1-1
  6
CONTINUOUS
 62
     7
100
AcDbLine
 10
236.296539
 20
100.093111
 30
0.0
 11
236.860669
 21
99.528981
 31
0.0
  0
LINE
  5
232
330
1FD
100
AcDbEntity
  8
GR1-1
  6
CONTINUOUS
 62
     7
100
AcDbLine
 10
236.910922
 20
99.478729
 30
0.0
 11
237.475051
 21
98.914599
 31
0.0
  0
LINE
  5
233
330
1FD
100
AcDbEntity
  8
GR1-1
  6
CONTINUOUS
 62
     7
100
AcDbLine
 10
238.064307
 20
98.325343
 30
0.0
 11
239.360671
 21
97.028979
 31
0.0
  0
LINE
  5
234
330
1FD
100
AcDbEntity
  8
GR1-1
  6
CONTINUOUS
 62
     7
100
AcDbLine
 10
234.596369
 20
102.028983
 30
0.0
 11
235.825134
 21
100.800218
 31
0.0
  0
LINE
  5
235
330
1FD
100
AcDbEntity
  8
GR1-1
  6
CONTINUOUS
 62
     7
100
AcDbLine
 10
236.41439
 20
100.210962
 30
0.0
 11
237.592903
 21
99.03245
 31
0.0
  0
LINE
  5
236
330
1FD
100
AcDbEntity
  8
GR1-1
  6
CONTINUOUS
 62
     7
100
AcDbLine
 10
238.182159
 20
98.443194
 30
0.0
 11
239.410924
 21
97.214429
 31
0.0
  0
LINE
  5
237
330
1FD
100
AcDbEntity
  8
GR1-1
  6
CONTINUOUS
 62
     7
100
AcDbLine
 10
234.832072
 20
102.028983
 30
0.0
 11
235.942985
 21
100.91807
 31
0.0
  0
LINE
  5
238
330
1FD
100
AcDbEntity
  8
GR1-1
  6
CONTINUOUS
 62
     7
100
AcDbLine
 10
236.532242
 20
100.328813
 30
0.0
 11
237.710754
 21
99.150301
 31
0.0
  0
LINE
  5
239
330
1FD
100
AcDbEntity
  8
GR1-1
  6
CONTINUOUS
 62
     7
100
AcDbLine
 10
238.30001
 20
98.561045
 30
0.0
 11
239.410924
 21
97.450131
 31
0.0
  0
LINE
  5
23A
330
1FD
100
AcDbEntity
  8
GR1-1
  6
CONTINUOUS
 62
     7
100
AcDbLine
 10
235.067774
 20
102.028983
 30
0.0
 11
236.060837
 21
101.035921
 31
0.0
  0
LINE
  5
23B
330
1FD
100
AcDbEntity
  8
GR1-1
  6
CONTINUOUS
 62
     7
100
AcDbLine
 10
236.650093
 20
100.446665
 30
0.0
 11
237.828605
 21
99.268152
 31
0.0
  0
LINE
  5
23C
330
1FD
100
AcDbEntity
  8
GR1-1
  6
CONTINUOUS
 62
     7
100
AcDbLine
 10
238.417861
 20
98.678896
 30
0.0
 11
239.410924
 21
97.685834
 31
0.0
  0
LINE
  5
23D
330
1FD
100
AcDbEntity
  8
GR1-1
  6
CONTINUOUS
 62
     7
100
AcDbLine
 10
235.303477
 20
102.028983
 30
0.0
 11
236.178688
 21
101.153772
 31
0.0
  0
LINE
  5
23E
330
1FD
100
AcDbEntity
  8
GR1-1
  6
CONTINUOUS
 62
     7
100
AcDbLine
 10
236.767944
 20
100.564516
 30
0.0
 11
237.946456
 21
99.386004
 31
0.0
  0
LINE
  5
23F
330
1FD
100
AcDbEntity
  8
GR1-1
  6
CONTINUOUS
 62
     7
100
AcDbLine
 10
238.535712
 20
98.796748
 30
0.0
 11
239.410924
 21
97.921536
 31
0.0
  0
LINE
  5
240
330
1FD
100
AcDbEntity
  8
GR1-1
  6
CONTINUOUS
 62
     7
100
AcDbLine
 10
235.539179
 20
102.028983
 30
0.0
 11
236.296539
 21
101.271623
 31
0.0
  0
LINE
  5
241
330
1FD
100
AcDbEntity
  8
GR1-1
  6
CONTINUOUS
 62
     7
100
AcDbLine
 10
236.885795
 20
100.682367
 30
0.0
 11
238.064307
 21
99.503855
 31
0.0
  0
LINE
  5
242
330
1FD
100
AcDbEntity
  8
GR1-1
  6
CONTINUOUS
 62
     7
100
AcDbLine
 10
238.653564
 20
98.914599
 30
0.0
 11
239.410924
 21
98.157239
 31
0.0
  0
LINE
  5
243
330
1FD
100
AcDbEntity
  8
GR1-1
  6
CONTINUOUS
 62
     7
100
AcDbLine
 10
235.774882
 20
102.028983
 30
0.0
 11
236.41439
 21
101.389474
 31
0.0
  0
LINE
  5
244
330
1FD
100
AcDbEntity
  8
GR1-1
  6
CONTINUOUS
 62
     7
100
AcDbLine
 10
238.771415
 20
99.03245
 30
0.0
 11
239.410924
 21
98.392941
 31
0.0
  0
LINE
  5
245
330
1FD
100
AcDbEntity
  8
GR1-1
  6
CONTINUOUS
 62
     7
100
AcDbLine
 10
236.010584
 20
102.028983
 30
0.0
 11
236.532242
 21
101.507326
 31
0.0
  0
LINE
  5
246
330
1FD
100
AcDbEntity
  8
GR1-1
  6
CONTINUOUS
 62
     7
100
AcDbLine
 10
238.889266
 20
99.150301
 30
0.0
 11
239.410924
 21
98.628644
 31
0.0
  0
LINE
  5
247
330
1FD
100
AcDbEntity
  8
GR1-1
  6
CONTINUOUS
 62
     7
100
AcDbLine
 10
236.246287
 20
102.028983
 30
0.0
 11
236.650093
 21
101.625177
 31
0.0
  0
LINE
  5
248
330
1FD
100
AcDbEntity
  8
GR1-1
  6
CONTINUOUS
 62
     7
100
AcDbLine
 10
239.007117
 20
99.268152
 30
0.0
 11
239.410924
 21
98.864346
 31
0.0
  0
LINE
  5
249
330
1FD
100
AcDbEntity
  8
GR1-1
  6
CONTINUOUS
 62
     7
100
AcDbLine
 10
236.481989
 20
102.028983
 30
0.0
 11
236.767944
 21
101.743028
 31
0.0
  0
LINE
  5
24A
330
1FD
100
AcDbEntity
  8
GR1-1
  6
CONTINUOUS
 62
     7
100
AcDbLine
 10
239.124969
 20
99.386004
 30
0.0
 11
239.410924
 21
99.100049
 31
0.0
  0
LINE
  5
24B
330
1FD
100
AcDbEntity
  8
GR1-1
  6
CONTINUOUS
 62
     7
100
AcDbLine
 10
236.717691
 20
102.028983
 30
0.0
 11
236.885795
 21
101.860879
 31
0.0
  0
LINE
  5
24C
330
1FD
100
AcDbEntity
  8
GR1-1
  6
CONTINUOUS
 62
     7
100
AcDbLine
 10
239.24282
 20
99.503855
 30
0.0
 11
239.410924
 21
99.335751
 31
0.0
  0
LINE
  5
24D
330
1FD
100
AcDbEntity
  8
GR1-1
  6
CONTINUOUS
 62
     7
100
AcDbLine
 10
236.953394
 20
102.028983
 30
0.0
 11
239.410924
 21
99.571454
 31
0.0
  0
LINE
  5
24E
330
1FD
100
AcDbEntity
  8
GR1-1
  6
CONTINUOUS
 62
     7
100
AcDbLine
 10
237.189096
 20
102.028983
 30
0.0
 11
239.410924
 21
99.807156
 31
0.0
  0
LINE
  5
24F
330
1FD
100
AcDbEntity
  8
GR1-1
  6
CONTINUOUS
 62
     7
100
AcDbLine
 10
237.424799
 20
102.028983
 30
0.0
 11
239.410924
 21
100.042858
 31
0.0
  0
LINE
  5
250
330
1FD
100
AcDbEntity
  8
GR1-1
  6
CONTINUOUS
 62
     7
100
AcDbLine
 10
237.660501
 20
102.028983
 30
0.0
 11
239.410924
 21
100.278561
 31
0.0
  0
LINE
  5
251
330
1FD
100
AcDbEntity
  8
GR1-1
  6
CONTINUOUS
 62
     7
100
AcDbLine
 10
237.896204
 20
102.028983
 30
0.0
 11
239.410924
 21
100.514263
 31
0.0
  0
LINE
  5
252
330
1FD
100
AcDbEntity
  8
GR1-1
  6
CONTINUOUS
 62
     7
100
AcDbLine
 10
238.131906
 20
102.028983
 30
0.0
 11
239.410924
 21
100.749966
 31
0.0
  0
LINE
  5
253
330
1FD
100
AcDbEntity
  8
GR1-1
  6
CONTINUOUS
 62
     7
100
AcDbLine
 10
238.367609
 20
102.028983
 30
0.0
 11
239.410924
 21
100.985668
 31
0.0
  0
LINE
  5
254
330
1FD
100
AcDbEntity
  8
GR1-1
  6
CONTINUOUS
 62
     7
100
AcDbLine
 10
238.603311
 20
102.028983
 30
0.0
 11
239.410924
 21
101.221371
 31
0.0
  0
LINE
  5
255
330
1FD
100
AcDbEntity
  8
GR1-1
  6
CONTINUOUS
 62
     7
100
AcDbLine
 10
238.839013
 20
102.028983
 30
0.0
 11
239.410924
 21
101.457073
 31
0.0
  0
LINE
  5
256
330
1FD
100
AcDbEntity
  8
GR1-1
  6
CONTINUOUS
 62
     7
100
AcDbLine
 10
239.074716
 20
102.028983
 30
0.0
 11
239.410924
 21
101.692776
 31
0.0
  0
LINE
  5
257
330
1FD
100
AcDbEntity
  8
GR1-1
  6
CONTINUOUS
 62
     7
100
AcDbLine
 10
239.310418
 20
102.028983
 30
0.0
 11
239.410924
 21
101.928478
 31
0.0
  0
ENDBLK
  5
1FF
330
1FD
100
AcDbEntity
  8
0
100
AcDbBlockEnd
  0
ENDSEC
  0
SECTION
  2
ENTITIES
  0
INSERT
  5
AB
330
1F
100
AcDbEntity
  8
0
100
AcDbBlockReference
  2
BLKF021
 10
0.0
 20
0.0
 30
0.0
  0
LINE
  5
D7
330
1F
100
AcDbEntity
  8
GR1-1
  6
CENTER
 62
     6
100
AcDbLine
 10
123.451941
 20
58.77351
 30
0.0
 11
123.451941
 21
152.729
 31
0.0
  0
LINE
  5
D8
330
1F
100
AcDbEntity
  8
GR1-1
  6
CENTER
 62
     6
100
AcDbLine
 10
245.66092
 20
194.130231
 30
0.0
 11
245.66092
 21
118.234817
 31
0.0
  0
LINE
  5
D9
330
1F
100
AcDbEntity
  8
GR1-1
  6
CENTER
 62
     6
100
AcDbLine
 10
178.436907
 20
243.331109
 30
0.0
 11
265.732183
 21
243.331109
 31
0.0
  0
LINE
  5
DA
330
1F
100
AcDbEntity
  8
GR1-1
  6
CENTER
 62
     6
100
AcDbLine
 10
245.66092
 20
221.827831
 30
0.0
 11
245.66092
 21
265.24667
 31
0.0
  0
LINE
  5
DB
330
1F
100
AcDbEntity
  8
GR1-1
  6
CONTINUOUS
 62
     3
100
AcDbLine
 10
210.11092
 20
142.546504
 30
0.0
 11
210.458263
 21
140.576623
 31
0.0
  0
LINE
  5
DC
330
1F
100
AcDbEntity
  8
GR1-1
  6
CONTINUOUS
 62
     3
100
AcDbLine
 10
210.458216
 20
140.576889
 30
0.0
 11
211.897599
 21
140.830691
 31
0.0
  0
LINE
  5
DD
330
1F
100
AcDbEntity
  8
GR1-1
  6
CONTINUOUS
 62
     3
100
AcDbLine
 10
264.46092
 20
139.999981
 30
0.0
 11
258.008651
 21
139.999981
 31
0.0
  0
ARC
  5
DE
330
1F
100
AcDbEntity
  8
GR1-1
  6
CONTINUOUS
 62
     3
100
AcDbCircle
 10
258.008651
 20
131.999981
 30
0.0
 40
8.0
100
AcDbArc
 50
90.0
 51
125.659088
  0
ARC
  5
DF
330
1F
100
AcDbEntity
  8
GR1-1
  6
CONTINUOUS
 62
     3
100
AcDbCircle
 10
451.860305
 20
-22.111173
 30
0.0
 40
255.3512963944253
100
AcDbArc
 50
141.025006
 51
148.974994
  0
LINE
  5
E0
330
1F
100
AcDbEntity
  8
GR1-1
  6
CONTINUOUS
 62
     3
100
AcDbLine
 10
233.038942
 20
109.499981
 30
0.0
 11
223.664136
 21
96.11137
 31
0.0
  0
LINE
  5
E1
330
1F
100
AcDbEntity
  8
GR1-1
  6
CONTINUOUS
 62
     3
100
AcDbLine
 10
209.130852
 20
101.264357
 30
0.0
 11
212.041383
 21
142.886897
 31
0.0
  0
LINE
  5
E2
330
1F
100
AcDbEntity
  8
GR1-1
  6
CONTINUOUS
 62
     3
100
AcDbLine
 10
210.11092
 20
142.546504
 30
0.0
 11
230.482644
 21
146.138589
 31
0.0
  0
LINE
  5
E3
330
1F
100
AcDbEntity
  8
GR1-1
  6
CONTINUOUS
 62
     3
100
AcDbLine
 10
226.86092
 20
145.499981
 30
0.0
 11
226.86092
 21
145.999981
 31
0.0
  0
ARC
  5
E4
330
1F
100
AcDbEntity
  8
GR1-1
  6
CONTINUOUS
 62
     3
100
AcDbCircle
 10
229.858242
 20
145.453215
 30
0.0
 40
3.046784742691989
100
AcDbArc
 50
90.0
 51
169.661885
  0
LINE
  5
E5
330
1F
100
AcDbEntity
  8
GR1-1
  6
CONTINUOUS
 62
     3
100
AcDbLine
 10
264.46092
 20
139.999981
 30
0.0
 11
264.46092
 21
145.999981
 31
0.0
  0
ARC
  5
E6
330
1F
100
AcDbEntity
  8
GR1-1
  6
CONTINUOUS
 62
     3
100
AcDbCircle
 10
261.463597
 20
145.453215
 30
0.0
 40
3.046784742691989
100
AcDbArc
 50
10.338115
 51
90.0
  0
ARC
  5
E7
330
1F
100
AcDbEntity
  8
GR1-1
  6
CONTINUOUS
 62
     3
100
AcDbCircle
 10
217.11092
 20
100.699981
 30
0.0
 40
8.0
100
AcDbArc
 50
172.058849
 51
326.93068
  0
LINE
  5
E8
330
1F
100
AcDbEntity
  8
GR1-1
  6
CONTINUOUS
 62
     6
100
AcDbLine
 10
233.456412
 20
112.893543
 30
0.0
 11
233.456412
 21
143.081955
 31
0.0
  0
LINE
  5
E9
330
1F
100
AcDbEntity
  8
GR1-1
  6
CONTINUOUS
 62
     3
100
AcDbLine
 10
229.858242
 20
148.5
 30
0.0
 11
261.463597
 21
148.5
 31
0.0
  0
CIRCLE
  5
EA
330
1F
100
AcDbEntity
  8
GR1-1
  6
CONTINUOUS
 62
     3
100
AcDbCircle
 10
217.66092
 20
99.528981
 30
0.0
 40
4.5
  0
CIRCLE
  5
EB
330
1F
100
AcDbEntity
  8
GR1-1
  6
CONTINUOUS
 62
     7
100
AcDbCircle
 10
217.66092
 20
99.528981
 30
0.0
 40
1.25
  0
LINE
  5
EC
330
1F
100
AcDbEntity
  8
GR1-1
  6
CENTER
 62
     6
100
AcDbLine
 10
177.127874
 20
99.528981
 30
0.0
 11
257.55546
 21
99.528981
 31
0.0
  0
LINE
  5
ED
330
1F
100
AcDbEntity
  8
GR1-1
  6
CENTER
 62
     6
100
AcDbLine
 10
217.66092
 20
111.925848
 30
0.0
 11
217.66092
 21
57.814641
 31
0.0
  0
LINE
  5
EE
330
1F
100
AcDbEntity
  8
GR1-1
  6
CONTINUOUS
 62
     3
100
AcDbLine
 10
111.151941
 20
92.7
 30
0.0
 11
109.151941
 21
92.7
 31
0.0
  0
LINE
  5
EF
330
1F
100
AcDbEntity
  8
GR1-1
  6
CONTINUOUS
 62
     3
100
AcDbLine
 10
109.151941
 20
92.7
 30
0.0
 11
109.151941
 21
140.046523
 31
0.0
  0
LINE
  5
F0
330
1F
100
AcDbEntity
  8
GR1-1
  6
CONTINUOUS
 62
     3
100
AcDbLine
 10
111.151941
 20
140.076642
 30
0.0
 11
111.151941
 21
92.7
 31
0.0
  0
ARC
  5
F1
330
1F
100
AcDbEntity
  8
GR1-1
  6
CONTINUOUS
 62
     3
100
AcDbCircle
 10
97.665547
 20
107.953581
 30
0.0
 40
11.59002427735587
100
AcDbArc
 50
7.667656
 51
19.678211
  0
ARC
  5
F2
330
1F
100
AcDbEntity
  8
GR1-1
  6
CONTINUOUS
 62
     3
100
AcDbCircle
 10
148.981825
 20
130.172992
 30
0.0
 40
44.3611441618762
100
AcDbArc
 50
182.151103
 51
204.387
  0
LINE
  5
F3
330
1F
100
AcDbEntity
  8
GR1-1
  6
CONTINUOUS
 62
     3
100
AcDbLine
 10
104.651941
 20
128.507895
 30
0.0
 11
104.651941
 21
145.5
 31
0.0
  0
LINE
  5
F4
330
1F
100
AcDbEntity
  8
GR1-1
  6
CONTINUOUS
 62
     3
100
AcDbLine
 10
107.651941
 20
148.5
 30
0.0
 11
139.251941
 21
148.5
 31
0.0
  0
ARC
  5
F5
330
1F
100
AcDbEntity
  8
GR1-1
  6
CONTINUOUS
 62
     3
100
AcDbCircle
 10
107.651941
 20
145.5
 30
0.0
 40
3.0
100
AcDbArc
 50
90.0
 51
180.0
  0
LINE
  5
F6
330
1F
100
AcDbEntity
  8
GR1-1
  6
CONTINUOUS
 62
     3
100
AcDbLine
 10
111.651941
 20
142.546523
 30
0.0
 11
135.251941
 21
142.546523
 31
0.0
  0
LINE
  5
F7
330
1F
100
AcDbEntity
  8
GR1-1
  6
CONTINUOUS
 62
     3
100
AcDbLine
 10
135.251941
 20
140.576642
 30
0.0
 11
111.651941
 21
140.576642
 31
0.0
  0
ARC
  5
F8
330
1F
100
AcDbEntity
  8
GR1-1
  6
CONTINUOUS
 62
     3
100
AcDbCircle
 10
111.651941
 20
140.076642
 30
0.0
 40
0.5
100
AcDbArc
 50
90.0
 51
180.0
  0
ARC
  5
F9
330
1F
100
AcDbEntity
  8
GR1-1
  6
CONTINUOUS
 62
     3
100
AcDbCircle
 10
111.651941
 20
140.046523
 30
0.0
 40
2.5
100
AcDbArc
 50
90.0
 51
180.0
  0
LINE
  5
FA
330
1F
100
AcDbEntity
  8
GR1-1
  6
CONTINUOUS
 62
     3
100
AcDbLine
 10
142.251941
 20
145.5
 30
0.0
 11
142.251941
 21
128.507895
 31
0.0
  0
LINE
  5
FB
330
1F
100
AcDbEntity
  8
GR1-1
  6
CONTINUOUS
 62
     3
100
AcDbLine
 10
137.751941
 20
140.046523
 30
0.0
 11
137.751941
 21
92.7
 31
0.0
  0
LINE
  5
FC
330
1F
100
AcDbEntity
  8
GR1-1
  6
CONTINUOUS
 62
     3
100
AcDbLine
 10
137.751941
 20
92.7
 30
0.0
 11
135.751941
 21
92.7
 31
0.0
  0
LINE
  5
FD
330
1F
100
AcDbEntity
  8
GR1-1
  6
CONTINUOUS
 62
     3
100
AcDbLine
 10
135.751941
 20
92.7
 30
0.0
 11
135.751941
 21
140.076642
 31
0.0
  0
ARC
  5
FE
330
1F
100
AcDbEntity
  8
GR1-1
  6
CONTINUOUS
 62
     3
100
AcDbCircle
 10
135.251941
 20
140.076642
 30
0.0
 40
0.5
100
AcDbArc
 50
0.0
 51
90.0
  0
ARC
  5
FF
330
1F
100
AcDbEntity
  8
GR1-1
  6
CONTINUOUS
 62
     3
100
AcDbCircle
 10
135.251941
 20
140.046523
 30
0.0
 40
2.5
100
AcDbArc
 50
0.0
 51
90.0
  0
ARC
  5
100
330
1F
100
AcDbEntity
  8
GR1-1
  6
CONTINUOUS
 62
     3
100
AcDbCircle
 10
139.251941
 20
145.5
 30
0.0
 40
3.0
100
AcDbArc
 50
0.0
 51
90.0
  0
ARC
  5
101
330
1F
100
AcDbEntity
  8
GR1-1
  6
CONTINUOUS
 62
     3
100
AcDbCircle
 10
149.238335
 20
107.953581
 30
0.0
 40
11.59002427735587
100
AcDbArc
 50
160.321789
 51
172.332344
  0
ARC
  5
102
330
1F
100
AcDbEntity
  8
GR1-1
  6
CONTINUOUS
 62
     3
100
AcDbCircle
 10
97.922058
 20
130.172992
 30
0.0
 40
44.3611441618762
100
AcDbArc
 50
335.613
 51
357.848897
  0
LINE
  5
103
330
1F
100
AcDbEntity
  8
GR1-1
  6
CENTER
 62
     6
100
AcDbLine
 10
105.490286
 20
99.529
 30
0.0
 11
141.231403
 21
99.529
 31
0.0
  0
ARC
  5
104
330
1F
100
AcDbEntity
  8
GR1-1
  6
CONTINUOUS
 62
     6
100
AcDbCircle
 10
123.451941
 20
240.53125
 30
0.0
 40
95.03125000000009
100
AcDbArc
 50
261.680715
 51
278.319285
  0
ARC
  5
105
330
1F
100
AcDbEntity
  8
GR1-1
  6
CONTINUOUS
 62
     3
100
AcDbCircle
 10
131.251941
 20
99.905894
 30
0.0
 40
9.0
100
AcDbArc
 50
0.0
 51
27.266044
  0
LINE
  5
106
330
1F
100
AcDbEntity
  8
GR1-1
  6
CONTINUOUS
 62
     3
100
AcDbLine
 10
139.251941
 20
104.029
 30
0.0
 11
137.751941
 21
104.029
 31
0.0
  0
LINE
  5
107
330
1F
100
AcDbEntity
  8
GR1-1
  6
CONTINUOUS
 62
     3
100
AcDbLine
 10
135.751941
 20
102.529
 30
0.0
 11
134.951941
 21
102.529
 31
0.0
  0
LINE
  5
108
330
1F
100
AcDbEntity
  8
GR1-1
  6
CONTINUOUS
 62
     3
100
AcDbLine
 10
111.151941
 20
96.529
 30
0.0
 11
111.951941
 21
96.529
 31
0.0
  0
LINE
  5
109
330
1F
100
AcDbEntity
  8
GR1-1
  6
CONTINUOUS
 62
     3
100
AcDbLine
 10
137.751941
 20
95.029
 30
0.0
 11
139.251941
 21
95.029
 31
0.0
  0
ARC
  5
10A
330
1F
100
AcDbEntity
  8
GR1-1
  6
CONTINUOUS
 62
     3
100
AcDbCircle
 10
131.251941
 20
99.152106
 30
0.0
 40
9.0
100
AcDbArc
 50
332.733956
 51
360.0
  0
LINE
  5
10B
330
1F
100
AcDbEntity
  8
GR1-1
  6
CONTINUOUS
 62
     3
100
AcDbLine
 10
140.251941
 20
99.152106
 30
0.0
 11
140.251941
 21
99.905894
 31
0.0
  0
LINE
  5
10C
330
1F
100
AcDbEntity
  8
GR1-1
  6
CONTINUOUS
 62
     6
100
AcDbLine
 10
139.251941
 20
104.029
 30
0.0
 11
139.251941
 21
95.029
 31
0.0
  0
ARC
  5
10D
330
1F
100
AcDbEntity
  8
GR1-1
  6
CONTINUOUS
 62
     3
100
AcDbCircle
 10
108.851941
 20
102.529
 30
0.0
 40
1.5
100
AcDbArc
 50
90.0
 51
180.0
  0
LINE
  5
10E
330
1F
100
AcDbEntity
  8
GR1-1
  6
CONTINUOUS
 62
     3
100
AcDbLine
 10
108.851941
 20
104.029
 30
0.0
 11
109.151941
 21
104.029
 31
0.0
  0
LINE
  5
10F
330
1F
100
AcDbEntity
  8
GR1-1
  6
CONTINUOUS
 62
     3
100
AcDbLine
 10
107.351941
 20
102.529
 30
0.0
 11
107.351941
 21
96.529
 31
0.0
  0
ARC
  5
110
330
1F
100
AcDbEntity
  8
GR1-1
  6
CONTINUOUS
 62
     3
100
AcDbCircle
 10
108.851941
 20
96.529
 30
0.0
 40
1.5
100
AcDbArc
 50
180.0
 51
270.0
  0
LINE
  5
111
330
1F
100
AcDbEntity
  8
GR1-1
  6
CONTINUOUS
 62
     3
100
AcDbLine
 10
108.851941
 20
95.029
 30
0.0
 11
109.151941
 21
95.029
 31
0.0
  0
DIMENSION
  5
112
330
1F
100
AcDbEntity
  8
GR1-1
100
AcDbDimension
  2
*D22
 10
245.66092
 20
52.028981
 30
0.0
 11
231.660919
 21
53.02898
 31
0.0
 70
    32
  3
FXDIMINFO
100
AcDbAlignedDimension
 13
217.66092
 23
57.814641
 33
0.0
 14
245.66092
 24
118.234817
 34
0.0
 50
180.0
100
AcDbRotatedDimension
1001
ACAD
1000
DSTYLE
1002
{
1070
     7
1000
FXTIP_ARROW_E
1070
     6
1000
FXTIP_ARROW_S
1070
   173
1070
     1
1002
}
  0
LINE
  5
11C
330
1F
100
AcDbEntity
  8
GR1-1
  6
CONTINUOUS
 62
     3
100
AcDbLine
 10
134.951941
 20
96.529
 30
0.0
 11
135.751941
 21
96.529
 31
0.0
  0
LINE
  5
11D
330
1F
100
AcDbEntity
  8
GR1-1
  6
CONTINUOUS
 62
     3
100
AcDbLine
 10
111.951941
 20
102.529
 30
0.0
 11
111.151941
 21
102.529
 31
0.0
  0
DIMENSION
  5
11E
330
1F
100
AcDbEntity
  8
LAYERGROUP-1
100
AcDbDimension
  2
*D23
 10
153.505302
 20
137.029
 30
0.0
 11
152.50531
 21
99.528999
 31
0.0
 70
    33
  3
FXDIMINFO
100
AcDbAlignedDimension
 13
123.451941
 23
62.029
 33
0.0
 14
123.451941
 24
137.029
 34
0.0
1001
ACAD
1000
DSTYLE
1002
{
1070
     7
1000
FXTIP_ARROW_E
1070
     6
1000
FXTIP_ARROW_S
1070
   173
1070
     1
1002
}
  0
DIMENSION
  5
128
330
1F
100
AcDbEntity
  8
LAYERGROUP-1
100
AcDbDimension
  2
*D24
 10
134.951941
 20
42.029
 30
0.0
 11
123.451942
 21
43.028999
 31
0.0
 70
    33
  3
FXDIMINFO
100
AcDbAlignedDimension
 13
111.951941
 23
90.529
 33
0.0
 14
134.951941
 24
90.529
 34
0.0
1001
ACAD
1000
DSTYLE
1002
{
1070
     7
1000
FXTIP_ARROW_E
1070
     6
1000
FXTIP_ARROW_S
1070
   173
1070
     1
1002
}
  0
DIMENSION
  5
132
330
1F
100
AcDbEntity
  8
LAYERGROUP-1
100
AcDbDimension
  2
*D25
 10
133.451941
 20
52.029
 30
0.0
 11
123.451942
 21
53.028999
 31
0.0
 70
    33
  3
FXDIMINFO
100
AcDbAlignedDimension
 13
113.451941
 23
64.826059
 33
0.0
 14
133.451941
 24
64.826059
 34
0.0
1001
ACAD
1000
DSTYLE
1002
{
1070
     7
1000
FXTIP_ARROW_E
1070
     6
1000
FXTIP_ARROW_S
1070
   173
1070
     1
1002
}
  0
ARC
  5
13C
330
1F
100
AcDbEntity
  8
GR1-1
  6
CONTINUOUS
 62
     3
100
AcDbCircle
 10
127.37257
 20
149.4845
 30
0.0
 40
1.9845
100
AcDbArc
 50
196.255393
 51
209.741964
  0
ARC
  5
13D
330
1F
100
AcDbEntity
  8
GR1-1
  6
CONTINUOUS
 62
     3
100
AcDbCircle
 10
130.913274
 20
149.4845
 30
0.0
 40
1.9845
100
AcDbArc
 50
206.862976
 51
209.741964
  0
ARC
  5
13E
330
1F
100
AcDbEntity
  8
GR1-1
  6
CONTINUOUS
 62
     3
100
AcDbCircle
 10
133.730945
 20
149.4845
 30
0.0
 40
1.9845
100
AcDbArc
 50
330.258036
 51
343.744607
  0
ARC
  5
13F
330
1F
100
AcDbEntity
  8
GR1-1
  6
CONTINUOUS
 62
     3
100
AcDbCircle
 10
135.552539
 20
149.4845
 30
0.0
 40
1.9845
100
AcDbArc
 50
330.258036
 51
343.744607
  0
ARC
  5
140
330
1F
100
AcDbEntity
  8
GR1-1
  6
CONTINUOUS
 62
     3
100
AcDbCircle
 10
136.201536
 20
149.4845
 30
0.0
 40
1.9845
100
AcDbArc
 50
330.258036
 51
343.744607
  0
ARC
  5
141
330
1F
100
AcDbEntity
  8
GR1-1
  6
CONTINUOUS
 62
     3
100
AcDbCircle
 10
123.451941
 20
149.4845
 30
0.0
 40
1.9845
100
AcDbArc
 50
330.258036
 51
343.744607
  0
ARC
  5
142
330
1F
100
AcDbEntity
  8
GR1-1
  6
CONTINUOUS
 62
     3
100
AcDbCircle
 10
127.37257
 20
149.4845
 30
0.0
 40
1.9845
100
AcDbArc
 50
330.258036
 51
343.744607
  0
ARC
  5
143
330
1F
100
AcDbEntity
  8
GR1-1
  6
CONTINUOUS
 62
     3
100
AcDbCircle
 10
130.913274
 20
149.4845
 30
0.0
 40
1.9845
100
AcDbArc
 50
330.258036
 51
343.744607
  0
ARC
  5
144
330
1F
100
AcDbEntity
  8
GR1-1
  6
CONTINUOUS
 62
     3
100
AcDbCircle
 10
119.531312
 20
149.4845
 30
0.0
 40
1.9845
100
AcDbArc
 50
330.258036
 51
343.744607
  0
ARC
  5
145
330
1F
100
AcDbEntity
  8
GR1-1
  6
CONTINUOUS
 62
     3
100
AcDbCircle
 10
115.990608
 20
149.4845
 30
0.0
 40
1.9845
100
AcDbArc
 50
330.258036
 51
333.137024
  0
ARC
  5
146
330
1F
100
AcDbEntity
  8
GR1-1
  6
CONTINUOUS
 62
     3
100
AcDbCircle
 10
113.172938
 20
149.4845
 30
0.0
 40
1.9845
100
AcDbArc
 50
196.255393
 51
209.741964
  0
ARC
  5
147
330
1F
100
AcDbEntity
  8
GR1-1
  6
CONTINUOUS
 62
     3
100
AcDbCircle
 10
111.351344
 20
149.4845
 30
0.0
 40
1.9845
100
AcDbArc
 50
196.255393
 51
209.741964
  0
ARC
  5
148
330
1F
100
AcDbEntity
  8
GR1-1
  6
CONTINUOUS
 62
     3
100
AcDbCircle
 10
110.702346
 20
149.4845
 30
0.0
 40
1.9845
100
AcDbArc
 50
196.255393
 51
209.741964
  0
ARC
  5
149
330
1F
100
AcDbEntity
  8
GR1-1
  6
CONTINUOUS
 62
     3
100
AcDbCircle
 10
123.451941
 20
149.4845
 30
0.0
 40
1.9845
100
AcDbArc
 50
196.255393
 51
209.741964
  0
ARC
  5
14A
330
1F
100
AcDbEntity
  8
GR1-1
  6
CONTINUOUS
 62
     3
100
AcDbCircle
 10
119.531312
 20
149.4845
 30
0.0
 40
1.9845
100
AcDbArc
 50
196.255393
 51
209.741964
  0
ARC
  5
14B
330
1F
100
AcDbEntity
  8
GR1-1
  6
CONTINUOUS
 62
     3
100
AcDbCircle
 10
115.990608
 20
149.4845
 30
0.0
 40
1.9845
100
AcDbArc
 50
196.255393
 51
209.741964
  0
ARC
  5
14C
330
1F
100
AcDbEntity
  8
GR1-1
  6
CONTINUOUS
 62
     3
100
AcDbCircle
 10
249.581548
 20
149.4845
 30
0.0
 40
1.9845
100
AcDbArc
 50
196.25596
 51
209.741964
  0
ARC
  5
14D
330
1F
100
AcDbEntity
  8
GR1-1
  6
CONTINUOUS
 62
     3
100
AcDbCircle
 10
253.122252
 20
149.4845
 30
0.0
 40
1.9845
100
AcDbArc
 50
206.862976
 51
209.741964
  0
ARC
  5
14E
330
1F
100
AcDbEntity
  8
GR1-1
  6
CONTINUOUS
 62
     3
100
AcDbCircle
 10
255.939923
 20
149.4845
 30
0.0
 40
1.9845
100
AcDbArc
 50
330.258036
 51
343.74404
  0
ARC
  5
14F
330
1F
100
AcDbEntity
  8
GR1-1
  6
CONTINUOUS
 62
     3
100
AcDbCircle
 10
257.761517
 20
149.4845
 30
0.0
 40
1.9845
100
AcDbArc
 50
330.258036
 51
343.74404
  0
ARC
  5
150
330
1F
100
AcDbEntity
  8
GR1-1
  6
CONTINUOUS
 62
     3
100
AcDbCircle
 10
258.410514
 20
149.4845
 30
0.0
 40
1.9845
100
AcDbArc
 50
330.258036
 51
343.74404
  0
ARC
  5
151
330
1F
100
AcDbEntity
  8
GR1-1
  6
CONTINUOUS
 62
     3
100
AcDbCircle
 10
245.66092
 20
149.4845
 30
0.0
 40
1.9845
100
AcDbArc
 50
330.258036
 51
343.74404
  0
ARC
  5
152
330
1F
100
AcDbEntity
  8
GR1-1
  6
CONTINUOUS
 62
     3
100
AcDbCircle
 10
249.581548
 20
149.4845
 30
0.0
 40
1.9845
100
AcDbArc
 50
330.258036
 51
343.74404
  0
ARC
  5
153
330
1F
100
AcDbEntity
  8
GR1-1
  6
CONTINUOUS
 62
     3
100
AcDbCircle
 10
253.122252
 20
149.4845
 30
0.0
 40
1.9845
100
AcDbArc
 50
330.258036
 51
343.74404
  0
LINE
  5
154
330
1F
100
AcDbEntity
  8
GR1-1
  6
CONTINUOUS
 62
     3
100
AcDbLine
 10
259.41092
 20
152.728981
 30
0.0
 11
245.66092
 21
152.728981
 31
0.0
  0
LINE
  5
155
330
1F
100
AcDbEntity
  8
GR1-1
  6
CONTINUOUS
 62
     3
100
AcDbLine
 10
245.66092
 20
148.928981
 30
0.0
 11
261.96092
 21
148.928981
 31
0.0
  0
LINE
  5
156
330
1F
100
AcDbEntity
  8
GR1-1
  6
CONTINUOUS
 62
     3
100
AcDbLine
 10
261.96092
 20
148.928981
 30
0.0
 11
261.96092
 21
150.928981
 31
0.0
  0
ARC
  5
157
330
1F
100
AcDbEntity
  8
GR1-1
  6
CONTINUOUS
 62
     3
100
AcDbCircle
 10
257.344919
 20
147.095897
 30
0.0
 40
6.0
100
AcDbArc
 50
39.705928
 51
69.858887
  0
LINE
  5
158
330
1F
100
AcDbEntity
  8
GR1-1
  6
CONTINUOUS
 62
     6
100
AcDbLine
 10
261.96092
 20
150.928981
 30
0.0
 11
245.66092
 21
150.928981
 31
0.0
  0
LINE
  5
159
330
1F
100
AcDbEntity
  8
GR1-1
  6
CONTINUOUS
 62
     3
100
AcDbLine
 10
251.16092
 20
192.028981
 30
0.0
 11
240.16092
 21
192.028981
 31
0.0
  0
LINE
  5
15A
330
1F
100
AcDbEntity
  8
GR1-1
  6
CONTINUOUS
 62
     3
100
AcDbLine
 10
240.16092
 20
192.028981
 30
0.0
 11
239.66092
 21
191.528981
 31
0.0
  0
LINE
  5
15B
330
1F
100
AcDbEntity
  8
GR1-1
  6
CONTINUOUS
 62
     3
100
AcDbLine
 10
239.66092
 20
191.528981
 30
0.0
 11
239.66092
 21
157.028981
 31
0.0
  0
LINE
  5
15C
330
1F
100
AcDbEntity
  8
GR1-1
  6
CONTINUOUS
 62
     3
100
AcDbLine
 10
251.145747
 20
152.728981
 30
0.0
 11
251.145747
 21
157.028981
 31
0.0
  0
LINE
  5
15D
330
1F
100
AcDbEntity
  8
GR1-1
  6
CONTINUOUS
 62
     3
100
AcDbLine
 10
251.66092
 20
157.028981
 30
0.0
 11
251.66092
 21
191.528981
 31
0.0
  0
LINE
  5
15E
330
1F
100
AcDbEntity
  8
GR1-1
  6
CONTINUOUS
 62
     3
100
AcDbLine
 10
251.66092
 20
191.528981
 30
0.0
 11
251.16092
 21
192.028981
 31
0.0
  0
LINE
  5
15F
330
1F
100
AcDbEntity
  8
GR1-1
  6
CONTINUOUS
 62
     3
100
AcDbLine
 10
256.630575
 20
157.028981
 30
0.0
 11
245.66092
 21
157.028981
 31
0.0
  0
LINE
  5
160
330
1F
100
AcDbEntity
  8
GR1-1
  6
CONTINUOUS
 62
     3
100
AcDbLine
 10
256.630575
 20
152.728981
 30
0.0
 11
256.630575
 21
157.028981
 31
0.0
  0
LINE
  5
161
330
1F
100
AcDbEntity
  8
GR1-1
  6
CONTINUOUS
 62
     6
100
AcDbLine
 10
250.71392
 20
157.028981
 30
0.0
 11
250.71392
 21
192.028981
 31
0.0
  0
LINE
  5
162
330
1F
100
AcDbEntity
  8
GR1-1
  6
CONTINUOUS
 62
     6
100
AcDbLine
 10
251.66092
 20
191.528981
 30
0.0
 11
239.66092
 21
191.528981
 31
0.0
  0
LINE
  5
163
330
1F
100
AcDbEntity
  8
GR1-1
  6
CONTINUOUS
 62
     6
100
AcDbLine
 10
240.60792
 20
192.028981
 30
0.0
 11
240.60792
 21
157.028981
 31
0.0
  0
DIMENSION
  5
164
330
1F
100
AcDbEntity
  8
GR1-1
100
AcDbDimension
  2
*D26
 10
251.66092
 20
202.028981
 30
0.0
 11
246.980667
 21
202.92543
 31
0.0
 70
    33
  3
FXDIMINFO
100
AcDbAlignedDimension
 13
239.66092
 23
191.528981
 33
0.0
 14
251.66092
 24
191.528981
 34
0.0
1001
ACAD
1000
DSTYLE
1002
{
1070
     7
1000
FXTIP_ARROW_E
1070
     6
1000
FXTIP_ARROW_S
1070
   173
1070
     1
1002
}
  0
ARC
  5
16E
330
1F
100
AcDbEntity
  8
GR1-1
  6
CONTINUOUS
 62
     3
100
AcDbCircle
 10
241.740291
 20
149.4845
 30
0.0
 40
1.9845
100
AcDbArc
 50
330.258036
 51
343.74404
  0
ARC
  5
16F
330
1F
100
AcDbEntity
  8
GR1-1
  6
CONTINUOUS
 62
     3
100
AcDbCircle
 10
238.199587
 20
149.4845
 30
0.0
 40
1.9845
100
AcDbArc
 50
330.258036
 51
333.137024
  0
ARC
  5
170
330
1F
100
AcDbEntity
  8
GR1-1
  6
CONTINUOUS
 62
     3
100
AcDbCircle
 10
235.381916
 20
149.4845
 30
0.0
 40
1.9845
100
AcDbArc
 50
196.25596
 51
209.741964
  0
ARC
  5
171
330
1F
100
AcDbEntity
  8
GR1-1
  6
CONTINUOUS
 62
     3
100
AcDbCircle
 10
233.560322
 20
149.4845
 30
0.0
 40
1.9845
100
AcDbArc
 50
196.25596
 51
209.741964
  0
ARC
  5
172
330
1F
100
AcDbEntity
  8
GR1-1
  6
CONTINUOUS
 62
     3
100
AcDbCircle
 10
232.911325
 20
149.4845
 30
0.0
 40
1.9845
100
AcDbArc
 50
196.25596
 51
209.741964
  0
ARC
  5
173
330
1F
100
AcDbEntity
  8
GR1-1
  6
CONTINUOUS
 62
     3
100
AcDbCircle
 10
245.66092
 20
149.4845
 30
0.0
 40
1.9845
100
AcDbArc
 50
196.25596
 51
209.741964
  0
ARC
  5
174
330
1F
100
AcDbEntity
  8
GR1-1
  6
CONTINUOUS
 62
     3
100
AcDbCircle
 10
241.740291
 20
149.4845
 30
0.0
 40
1.9845
100
AcDbArc
 50
196.25596
 51
209.741964
  0
ARC
  5
175
330
1F
100
AcDbEntity
  8
GR1-1
  6
CONTINUOUS
 62
     3
100
AcDbCircle
 10
238.199587
 20
149.4845
 30
0.0
 40
1.9845
100
AcDbArc
 50
196.25596
 51
209.741964
  0
LINE
  5
176
330
1F
100
AcDbEntity
  8
GR1-1
  6
CONTINUOUS
 62
     3
100
AcDbLine
 10
231.91092
 20
152.728981
 30
0.0
 11
245.66092
 21
152.728981
 31
0.0
  0
LINE
  5
177
330
1F
100
AcDbEntity
  8
GR1-1
  6
CONTINUOUS
 62
     3
100
AcDbLine
 10
245.66092
 20
148.928981
 30
0.0
 11
229.36092
 21
148.928981
 31
0.0
  0
LINE
  5
178
330
1F
100
AcDbEntity
  8
GR1-1
  6
CONTINUOUS
 62
     3
100
AcDbLine
 10
229.36092
 20
148.928981
 30
0.0
 11
229.36092
 21
150.928981
 31
0.0
  0
ARC
  5
179
330
1F
100
AcDbEntity
  8
GR1-1
  6
CONTINUOUS
 62
     3
100
AcDbCircle
 10
233.97692
 20
147.095897
 30
0.0
 40
6.0
100
AcDbArc
 50
110.141113
 51
140.294072
  0
LINE
  5
17A
330
1F
100
AcDbEntity
  8
GR1-1
  6
CONTINUOUS
 62
     6
100
AcDbLine
 10
229.36092
 20
150.928981
 30
0.0
 11
245.66092
 21
150.928981
 31
0.0
  0
LINE
  5
17B
330
1F
100
AcDbEntity
  8
GR1-1
  6
CONTINUOUS
 62
     3
100
AcDbLine
 10
240.176092
 20
152.728981
 30
0.0
 11
240.176092
 21
157.028981
 31
0.0
  0
LINE
  5
17C
330
1F
100
AcDbEntity
  8
GR1-1
  6
CONTINUOUS
 62
     3
100
AcDbLine
 10
234.691264
 20
157.028981
 30
0.0
 11
245.66092
 21
157.028981
 31
0.0
  0
LINE
  5
17D
330
1F
100
AcDbEntity
  8
GR1-1
  6
CONTINUOUS
 62
     3
100
AcDbLine
 10
234.691264
 20
152.728981
 30
0.0
 11
234.691264
 21
157.028981
 31
0.0
  0
ARC
  5
17E
330
1F
100
AcDbEntity
  8
GR1-1
  6
CONTINUOUS
 62
     3
100
AcDbCircle
 10
245.66092
 20
243.331109
 30
0.0
 40
18.80000000000004
100
AcDbArc
 50
-123.686012
 51
123.686012
  0
LINE
  5
17F
330
1F
100
AcDbEntity
  8
GR1-1
  6
CONTINUOUS
 62
     3
100
AcDbLine
 10
230.796533
 20
257.631109
 30
0.0
 11
209.11092
 21
257.631109
 31
0.0
  0
LINE
  5
180
330
1F
100
AcDbEntity
  8
GR1-1
  6
CONTINUOUS
 62
     3
100
AcDbLine
 10
209.11092
 20
257.631109
 30
0.0
 11
209.11092
 21
255.631109
 31
0.0
  0
LINE
  5
181
330
1F
100
AcDbEntity
  8
GR1-1
  6
CONTINUOUS
 62
     3
100
AcDbLine
 10
209.11092
 20
255.631109
 30
0.0
 11
212.748354
 21
255.631109
 31
0.0
  0
ARC
  5
182
330
1F
100
AcDbEntity
  8
GR1-1
  6
CONTINUOUS
 62
     3
100
AcDbCircle
 10
240.11092
 20
243.331109
 30
0.0
 40
30.0
100
AcDbArc
 50
151.532078
 51
208.467922
  0
LINE
  5
183
330
1F
100
AcDbEntity
  8
GR1-1
  6
CONTINUOUS
 62
     3
100
AcDbLine
 10
212.748354
 20
231.031109
 30
0.0
 11
209.11092
 21
231.031109
 31
0.0
  0
LINE
  5
184
330
1F
100
AcDbEntity
  8
GR1-1
  6
CONTINUOUS
 62
     3
100
AcDbLine
 10
209.11092
 20
231.031109
 30
0.0
 11
209.11092
 21
229.031109
 31
0.0
  0
LINE
  5
185
330
1F
100
AcDbEntity
  8
GR1-1
  6
CONTINUOUS
 62
     3
100
AcDbLine
 10
209.11092
 20
229.031109
 30
0.0
 11
230.796533
 21
229.031109
 31
0.0
  0
ARC
  5
186
330
1F
100
AcDbEntity
  8
GR1-1
  6
CONTINUOUS
 62
     3
100
AcDbCircle
 10
230.796533
 20
221.031109
 30
0.0
 40
8.0
100
AcDbArc
 50
56.313988
 51
90.0
  0
LINE
  5
187
330
1F
100
AcDbEntity
  8
GR1-1
  6
CONTINUOUS
 62
     3
100
AcDbLine
 10
240.176092
 20
233.831109
 30
0.0
 11
234.691264
 21
243.331109
 31
0.0
  0
LINE
  5
188
330
1F
100
AcDbEntity
  8
GR1-1
  6
CONTINUOUS
 62
     3
100
AcDbLine
 10
234.691264
 20
243.331109
 30
0.0
 11
240.176092
 21
252.831109
 31
0.0
  0
LINE
  5
189
330
1F
100
AcDbEntity
  8
GR1-1
  6
CONTINUOUS
 62
     3
100
AcDbLine
 10
240.176092
 20
252.831109
 30
0.0
 11
251.145747
 21
252.831109
 31
0.0
  0
LINE
  5
18A
330
1F
100
AcDbEntity
  8
GR1-1
  6
CONTINUOUS
 62
     3
100
AcDbLine
 10
251.145747
 20
252.831109
 30
0.0
 11
256.630575
 21
243.331109
 31
0.0
  0
LINE
  5
18B
330
1F
100
AcDbEntity
  8
GR1-1
  6
CONTINUOUS
 62
     3
100
AcDbLine
 10
256.630575
 20
243.331109
 30
0.0
 11
251.145747
 21
233.831109
 31
0.0
  0
LINE
  5
18C
330
1F
100
AcDbEntity
  8
GR1-1
  6
CONTINUOUS
 62
     3
100
AcDbLine
 10
251.145747
 20
233.831109
 30
0.0
 11
240.176092
 21
233.831109
 31
0.0
  0
CIRCLE
  5
18D
330
1F
100
AcDbEntity
  8
GR1-1
  6
CONTINUOUS
 62
     3
100
AcDbCircle
 10
245.66092
 20
243.331109
 30
0.0
 40
6.0
  0
CIRCLE
  5
18E
330
1F
100
AcDbEntity
  8
GR1-1
  6
CONTINUOUS
 62
     3
100
AcDbCircle
 10
245.66092
 20
243.331109
 30
0.0
 40
16.25
  0
ARC
  5
18F
330
1F
100
AcDbEntity
  8
GR1-1
  6
CONTINUOUS
 62
     3
100
AcDbCircle
 10
230.796533
 20
265.631109
 30
0.0
 40
8.0
100
AcDbArc
 50
270.0
 51
303.686012
  0
ARC
  5
190
330
1F
100
AcDbEntity
  8
GR1-1
  6
CONTINUOUS
 62
     6
100
AcDbCircle
 10
245.66092
 20
243.331109
 30
0.0
 40
18.80000000000004
100
AcDbArc
 50
132.99754
 51
229.520501
  0
CIRCLE
  5
191
330
1F
100
AcDbEntity
  8
GR1-1
  6
CONTINUOUS
 62
     6
100
AcDbCircle
 10
245.66092
 20
243.331109
 30
0.0
 40
5.052999999999983
  0
CIRCLE
  5
192
330
1F
100
AcDbEntity
  8
GR1-1
  6
CONTINUOUS
 62
     6
100
AcDbCircle
 10
245.66092
 20
243.331109
 30
0.0
 40
11.5
  0
CIRCLE
  5
193
330
1F
100
AcDbEntity
  8
GR1-1
  6
CONTINUOUS
 62
     6
100
AcDbCircle
 10
245.66092
 20
243.331109
 30
0.0
 40
14.0
  0
ARC
  5
194
330
1F
100
AcDbEntity
  8
GR1-1
  6
CONTINUOUS
 62
     3
100
AcDbCircle
 10
220.66092
 20
257.931109
 30
0.0
 40
1.5
100
AcDbArc
 50
0.0
 51
90.0
  0
LINE
  5
195
330
1F
100
AcDbEntity
  8
GR1-1
  6
CONTINUOUS
 62
     3
100
AcDbLine
 10
222.16092
 20
257.931109
 30
0.0
 11
222.16092
 21
257.631109
 31
0.0
  0
LINE
  5
196
330
1F
100
AcDbEntity
  8
GR1-1
  6
CONTINUOUS
 62
     3
100
AcDbLine
 10
220.66092
 20
259.431109
 30
0.0
 11
214.66092
 21
259.431109
 31
0.0
  0
ARC
  5
197
330
1F
100
AcDbEntity
  8
GR1-1
  6
CONTINUOUS
 62
     3
100
AcDbCircle
 10
214.66092
 20
257.931109
 30
0.0
 40
1.5
100
AcDbArc
 50
90.0
 51
180.0
  0
LINE
  5
198
330
1F
100
AcDbEntity
  8
GR1-1
  6
CONTINUOUS
 62
     3
100
AcDbLine
 10
213.16092
 20
257.931109
 30
0.0
 11
213.16092
 21
257.631109
 31
0.0
  0
ARC
  5
199
330
1F
100
AcDbEntity
  8
GR1-1
  6
CONTINUOUS
 62
     3
100
AcDbCircle
 10
218.037814
 20
235.531109
 30
0.0
 40
9.0
100
AcDbArc
 50
270.0
 51
297.266044
  0
LINE
  5
19A
330
1F
100
AcDbEntity
  8
GR1-1
  6
CONTINUOUS
 62
     3
100
AcDbLine
 10
222.16092
 20
227.531109
 30
0.0
 11
222.16092
 21
229.031109
 31
0.0
  0
LINE
  5
19B
330
1F
100
AcDbEntity
  8
GR1-1
  6
CONTINUOUS
 62
     3
100
AcDbLine
 10
213.16092
 20
229.031109
 30
0.0
 11
213.16092
 21
227.531109
 31
0.0
  0
ARC
  5
19C
330
1F
100
AcDbEntity
  8
GR1-1
  6
CONTINUOUS
 62
     3
100
AcDbCircle
 10
217.284025
 20
235.531109
 30
0.0
 40
9.0
100
AcDbArc
 50
242.733956
 51
270.0
  0
LINE
  5
19D
330
1F
100
AcDbEntity
  8
GR1-1
  6
CONTINUOUS
 62
     3
100
AcDbLine
 10
217.284025
 20
226.531109
 30
0.0
 11
218.037814
 21
226.531109
 31
0.0
  0
LINE
  5
19E
330
1F
100
AcDbEntity
  8
GR1-1
  6
CONTINUOUS
 62
     6
100
AcDbLine
 10
222.16092
 20
227.531109
 30
0.0
 11
213.16092
 21
227.531109
 31
0.0
  0
DIMENSION
  5
19F
330
1F
100
AcDbEntity
  8
LAYERGROUP-1
100
AcDbDimension
  2
*D27
 10
277.322632
 20
157.028981
 30
0.0
 11
276.322632
 21
128.278976
 31
0.0
 70
    32
  3
FXDIMINFO
100
AcDbAlignedDimension
 13
257.55546
 23
99.528981
 33
0.0
 14
256.630575
 24
157.028981
 34
0.0
 50
270.0
100
AcDbRotatedDimension
1001
ACAD
1000
DSTYLE
1002
{
1070
     7
1000
FXTIP_ARROW_E
1070
     6
1000
FXTIP_ARROW_S
1070
   173
1070
     1
1002
}
  0
DIMENSION
  5
1A9
330
1F
100
AcDbEntity
  8
LAYERGROUP-1
100
AcDbDimension
  2
*D28
 10
277.322632
 20
192.028981
 30
0.0
 11
276.322632
 21
174.528976
 31
0.0
 70
    32
  3
FXDIMINFO
100
AcDbAlignedDimension
 13
256.630575
 23
157.028981
 33
0.0
 14
251.16092
 24
192.028981
 34
0.0
 50
270.0
100
AcDbRotatedDimension
1001
ACAD
1000
DSTYLE
1002
{
1070
     7
1000
FXTIP_ARROW_E
1070
     6
1000
FXTIP_ARROW_S
1070
   173
1070
     1
1002
}
  0
DIMENSION
  5
1B2
330
1F
100
AcDbEntity
  8
LAYERGROUP-1
100
AcDbDimension
  2
*D29
 10
288.090677
 20
157.028981
 30
0.0
 11
287.090668
 21
109.528984
 31
0.0
 70
    32
  3
FXDIMINFO
100
AcDbAlignedDimension
 13
217.66092
 23
62.028981
 33
0.0
 14
256.630575
 24
157.028981
 34
0.0
 50
270.0
100
AcDbRotatedDimension
1001
ACAD
1000
DSTYLE
1002
{
1070
     7
1000
FXTIP_ARROW_E
1070
     6
1000
FXTIP_ARROW_S
1070
   173
1070
     1
1002
}
  0
LINE
  5
1BC
330
1F
100
AcDbEntity
  8
LAYERGROUP-1
  6
CENTER
 62
     6
100
AcDbLine
 10
217.66092
 20
261.250237
 30
0.0
 11
217.66092
 21
224.749062
 31
0.0
  0
LINE
  5
1BD
330
1F
100
AcDbEntity
  8
GR1-1
  6
CONTINUOUS
 62
     3
100
AcDbLine
 10
137.201941
 20
152.729
 30
0.0
 11
109.701941
 21
152.729
 31
0.0
  0
LINE
  5
1BE
330
1F
100
AcDbEntity
  8
GR1-1
  6
CONTINUOUS
 62
     3
100
AcDbLine
 10
139.751941
 20
148.929
 30
0.0
 11
107.151941
 21
148.929
 31
0.0
  0
LINE
  5
1BF
330
1F
100
AcDbEntity
  8
GR1-1
  6
CONTINUOUS
 62
     3
100
AcDbLine
 10
139.751941
 20
148.929
 30
0.0
 11
139.751941
 21
150.929
 31
0.0
  0
ARC
  5
1C0
330
1F
100
AcDbEntity
  8
GR1-1
  6
CONTINUOUS
 62
     3
100
AcDbCircle
 10
135.13594
 20
147.095916
 30
0.0
 40
6.0
100
AcDbArc
 50
39.705928
 51
69.858887
  0
LINE
  5
1C1
330
1F
100
AcDbEntity
  8
GR1-1
  6
CONTINUOUS
 62
     6
100
AcDbLine
 10
139.751941
 20
150.929
 30
0.0
 11
107.151941
 21
150.929
 31
0.0
  0
LINE
  5
1C2
330
1F
100
AcDbEntity
  8
GR1-1
  6
CONTINUOUS
 62
     3
100
AcDbLine
 10
107.151941
 20
148.929
 30
0.0
 11
107.151941
 21
150.929
 31
0.0
  0
ARC
  5
1C3
330
1F
100
AcDbEntity
  8
GR1-1
  6
CONTINUOUS
 62
     3
100
AcDbCircle
 10
111.767942
 20
147.095916
 30
0.0
 40
6.0
100
AcDbArc
 50
110.141113
 51
140.294072
  0
LINE
  5
1C4
330
1F
100
AcDbEntity
  8
GR1-1
  6
CONTINUOUS
 62
     3
100
AcDbLine
 10
128.951941
 20
192.029
 30
0.0
 11
117.951941
 21
192.029
 31
0.0
  0
LINE
  5
1C5
330
1F
100
AcDbEntity
  8
GR1-1
  6
CONTINUOUS
 62
     3
100
AcDbLine
 10
117.951941
 20
192.029
 30
0.0
 11
117.451941
 21
191.529
 31
0.0
  0
LINE
  5
1C6
330
1F
100
AcDbEntity
  8
GR1-1
  6
CONTINUOUS
 62
     3
100
AcDbLine
 10
117.451941
 20
191.529
 30
0.0
 11
117.451941
 21
157.029
 31
0.0
  0
LINE
  5
1C7
330
1F
100
AcDbEntity
  8
GR1-1
  6
CONTINUOUS
 62
     3
100
AcDbLine
 10
129.451941
 20
157.029
 30
0.0
 11
129.451941
 21
191.529
 31
0.0
  0
LINE
  5
1C8
330
1F
100
AcDbEntity
  8
GR1-1
  6
CONTINUOUS
 62
     3
100
AcDbLine
 10
129.451941
 20
191.529
 30
0.0
 11
128.951941
 21
192.029
 31
0.0
  0
LINE
  5
1C9
330
1F
100
AcDbEntity
  8
GR1-1
  6
CONTINUOUS
 62
     6
100
AcDbLine
 10
128.504941
 20
157.029
 30
0.0
 11
128.504941
 21
192.029
 31
0.0
  0
LINE
  5
1CA
330
1F
100
AcDbEntity
  8
GR1-1
  6
CONTINUOUS
 62
     6
100
AcDbLine
 10
129.451941
 20
191.529
 30
0.0
 11
117.451941
 21
191.529
 31
0.0
  0
LINE
  5
1CB
330
1F
100
AcDbEntity
  8
GR1-1
  6
CONTINUOUS
 62
     6
100
AcDbLine
 10
118.398941
 20
192.029
 30
0.0
 11
118.398941
 21
157.029
 31
0.0
  0
LINE
  5
1CC
330
1F
100
AcDbEntity
  8
GR1-1
  6
CONTINUOUS
 62
     3
100
AcDbLine
 10
132.951941
 20
157.029
 30
0.0
 11
113.951941
 21
157.029
 31
0.0
  0
LINE
  5
1CD
330
1F
100
AcDbEntity
  8
GR1-1
  6
CONTINUOUS
 62
     3
100
AcDbLine
 10
132.951941
 20
157.029
 30
0.0
 11
132.951941
 21
152.729
 31
0.0
  0
LINE
  5
1CE
330
1F
100
AcDbEntity
  8
GR1-1
  6
CONTINUOUS
 62
     3
100
AcDbLine
 10
123.451941
 20
157.029
 30
0.0
 11
123.451941
 21
152.729
 31
0.0
  0
LINE
  5
1CF
330
1F
100
AcDbEntity
  8
GR1-1
  6
CONTINUOUS
 62
     3
100
AcDbLine
 10
113.951941
 20
157.029
 30
0.0
 11
113.951941
 21
152.729
 31
0.0
  0
LINE
  5
1D0
330
1F
100
AcDbEntity
  8
GR1-1
  6
CENTER
 62
     6
100
AcDbLine
 10
123.451941
 20
157.029
 30
0.0
 11
123.451941
 21
194.09387
 31
0.0
  0
DIMENSION
  5
1D1
330
1F
100
AcDbEntity
  8
GR1-1
100
AcDbDimension
  2
*D30
 10
277.322632
 20
252.831109
 30
0.0
 11
276.322632
 21
243.331116
 31
0.0
 70
    33
  3
FXDIMINFO
100
AcDbAlignedDimension
 13
251.145747
 23
233.831109
 33
0.0
 14
251.145747
 24
252.831109
 34
0.0
1001
ACAD
1000
DSTYLE
1002
{
1070
     7
1000
FXTIP_ARROW_E
1070
     6
1000
FXTIP_ARROW_S
1070
   173
1070
     1
1002
}
  0
ARC
  5
1DB
330
1F
100
AcDbEntity
  8
GR1-1
  6
CONTINUOUS
 62
     3
100
AcDbCircle
 10
123.451941
 20
57.029
 30
0.0
 40
80.0
100
AcDbArc
 50
84.113158
 51
95.886842
  0
LINE
  5
1DC
330
1F
100
AcDbEntity
  8
GR1-1
  6
CONTINUOUS
 62
     3
100
AcDbLine
 10
113.451941
 20
134.617659
 30
0.0
 11
113.451941
 21
129.368344
 31
0.0
  0
ARC
  5
1DD
330
1F
100
AcDbEntity
  8
GR1-1
  6
CONTINUOUS
 62
     3
100
AcDbCircle
 10
115.451941
 20
134.617659
 30
0.0
 40
2.0
100
AcDbArc
 50
95.886842
 51
180.0
  0
ARC
  5
1DE
330
1F
100
AcDbEntity
  8
GR1-1
  6
CONTINUOUS
 62
     3
100
AcDbCircle
 10
131.451941
 20
134.617659
 30
0.0
 40
2.0
100
AcDbArc
 50
0.0
 51
84.113158
  0
LINE
  5
1DF
330
1F
100
AcDbEntity
  8
GR1-1
  6
CONTINUOUS
 62
     3
100
AcDbLine
 10
133.451941
 20
134.617659
 30
0.0
 11
133.451941
 21
129.368344
 31
0.0
  0
ARC
  5
1E0
330
1F
100
AcDbEntity
  8
GR1-1
  6
CONTINUOUS
 62
     3
100
AcDbCircle
 10
123.451941
 20
142.029
 30
0.0
 40
80.0
100
AcDbArc
 50
264.113158
 51
275.886842
  0
LINE
  5
1E1
330
1F
100
AcDbEntity
  8
GR1-1
  6
CONTINUOUS
 62
     3
100
AcDbLine
 10
113.451941
 20
64.440341
 30
0.0
 11
113.451941
 21
69.689656
 31
0.0
  0
LINE
  5
1E2
330
1F
100
AcDbEntity
  8
GR1-1
  6
CONTINUOUS
 62
     3
100
AcDbLine
 10
111.951941
 20
93.529
 30
0.0
 11
111.951941
 21
95.379
 31
0.0
  0
ARC
  5
1E3
330
1F
100
AcDbEntity
  8
GR1-1
  6
CONTINUOUS
 62
     3
100
AcDbCircle
 10
115.451941
 20
64.440341
 30
0.0
 40
2.0
100
AcDbArc
 50
180.0
 51
264.113158
  0
ARC
  5
1E4
330
1F
100
AcDbEntity
  8
GR1-1
  6
CONTINUOUS
 62
     3
100
AcDbCircle
 10
131.451941
 20
64.440341
 30
0.0
 40
2.0
100
AcDbArc
 50
275.886842
 51
360.0
  0
LINE
  5
1E5
330
1F
100
AcDbEntity
  8
GR1-1
  6
CONTINUOUS
 62
     3
100
AcDbLine
 10
133.451941
 20
64.440341
 30
0.0
 11
133.451941
 21
69.689656
 31
0.0
  0
LINE
  5
1E6
330
1F
100
AcDbEntity
  8
GR1-1
  6
CONTINUOUS
 62
     3
100
AcDbLine
 10
134.951941
 20
103.679
 30
0.0
 11
134.951941
 21
95.379
 31
0.0
  0
LINE
  5
1E7
330
1F
100
AcDbEntity
  8
GR1-1
  6
CONTINUOUS
 62
     3
100
AcDbLine
 10
111.951941
 20
95.379
 30
0.0
 11
111.951941
 21
103.679
 31
0.0
  0
LINE
  5
1E8
330
1F
100
AcDbEntity
  8
GR1-1
  6
CONTINUOUS
 62
     3
100
AcDbLine
 10
112.951941
 20
92.529
 30
0.0
 11
113.451941
 21
92.529
 31
0.0
  0
ARC
  5
1E9
330
1F
100
AcDbEntity
  8
GR1-1
  6
CONTINUOUS
 62
     3
100
AcDbCircle
 10
112.951941
 20
93.529
 30
0.0
 40
1.0
100
AcDbArc
 50
180.0
 51
270.0
  0
LINE
  5
1EA
330
1F
100
AcDbEntity
  8
GR1-1
  6
CONTINUOUS
 62
     3
100
AcDbLine
 10
134.951941
 20
93.529
 30
0.0
 11
134.951941
 21
95.379
 31
0.0
  0
LINE
  5
1EB
330
1F
100
AcDbEntity
  8
GR1-1
  6
CONTINUOUS
 62
     3
100
AcDbLine
 10
133.951941
 20
92.529
 30
0.0
 11
133.451941
 21
92.529
 31
0.0
  0
ARC
  5
1EC
330
1F
100
AcDbEntity
  8
GR1-1
  6
CONTINUOUS
 62
     3
100
AcDbCircle
 10
133.951941
 20
93.529
 30
0.0
 40
1.0
100
AcDbArc
 50
270.0
 51
360.0
  0
LINE
  5
1ED
330
1F
100
AcDbEntity
  8
GR1-1
  6
CONTINUOUS
 62
     3
100
AcDbLine
 10
111.951941
 20
105.529
 30
0.0
 11
111.951941
 21
103.679
 31
0.0
  0
LINE
  5
1EE
330
1F
100
AcDbEntity
  8
GR1-1
  6
CONTINUOUS
 62
     3
100
AcDbLine
 10
112.951941
 20
106.529
 30
0.0
 11
113.451941
 21
106.529
 31
0.0
  0
ARC
  5
1EF
330
1F
100
AcDbEntity
  8
GR1-1
  6
CONTINUOUS
 62
     3
100
AcDbCircle
 10
112.951941
 20
105.529
 30
0.0
 40
1.0
100
AcDbArc
 50
90.0
 51
180.0
  0
LINE
  5
1F0
330
1F
100
AcDbEntity
  8
GR1-1
  6
CONTINUOUS
 62
     3
100
AcDbLine
 10
134.951941
 20
105.529
 30
0.0
 11
134.951941
 21
103.679
 31
0.0
  0
LINE
  5
1F1
330
1F
100
AcDbEntity
  8
GR1-1
  6
CONTINUOUS
 62
     3
100
AcDbLine
 10
133.951941
 20
106.529
 30
0.0
 11
133.451941
 21
106.529
 31
0.0
  0
ARC
  5
1F2
330
1F
100
AcDbEntity
  8
GR1-1
  6
CONTINUOUS
 62
     3
100
AcDbCircle
 10
133.951941
 20
105.529
 30
0.0
 40
1.0
100
AcDbArc
 50
0.0
 51
90.0
  0
ARC
  5
1F3
330
1F
100
AcDbEntity
  8
GR1-1
  6
CONTINUOUS
 62
     6
100
AcDbCircle
 10
217.66092
 20
99.528981
 30
0.0
 40
10.5
100
AcDbArc
 50
-218.720794
 51
14.078124
  0
ARC
  5
1F4
330
1F
100
AcDbEntity
  8
GR1-1
  6
CONTINUOUS
 62
     6
100
AcDbCircle
 10
217.66092
 20
99.528981
 30
0.0
 40
7.0
100
AcDbArc
 50
252.530156
 51
335.7212
  0
ARC
  5
1F5
330
1F
100
AcDbEntity
  8
GR1-1
  6
CONTINUOUS
 62
     3
100
AcDbCircle
 10
217.66092
 20
99.528981
 30
0.0
 40
37.5
100
AcDbArc
 50
-260.69454
 51
45.369155
  0
ARC
  5
1F6
330
1F
100
AcDbEntity
  8
GR1-1
  6
CONTINUOUS
 62
     3
100
AcDbCircle
 10
217.66092
 20
99.528981
 30
0.0
 40
29.0
100
AcDbArc
 50
-256.686608
 51
42.36479
  0
ARC
  5
1F7
330
1F
100
AcDbEntity
  8
GR1-1
  6
CONTINUOUS
 62
     6
100
AcDbCircle
 10
217.66092
 20
99.528981
 30
0.0
 40
33.49999999999997
100
AcDbArc
 50
-259.070983
 51
44.213102
  0
TEXT
  5
1F8
330
1F
100
AcDbEntity
  8
LAYERGROUP-1
  6
CONTINUOUS
 62
     7
100
AcDbText
 10
204.985535
 20
88.419281
 30
0.0
 40
5.463624
  1
7
 50
122.0
 41
1.191101
  7
FX_VECTOR
 72
     5
 11
202.193834
 21
92.886936
 31
0.0
100
AcDbText
  0
TEXT
  5
1F9
330
1F
100
AcDbEntity
  8
LAYERGROUP-1
  6
CONTINUOUS
 62
     7
100
AcDbText
 10
202.352814
 20
92.475388
 30
0.0
 40
5.463624
  1
5
 50
105.5
 41
1.191101
  7
FX_VECTOR
 72
     5
 11
200.944959
 21
97.551949
 31
0.0
100
AcDbText
  0
TEXT
  5
1FA
330
1F
100
AcDbEntity
  8
LAYERGROUP-1
  6
CONTINUOUS
 62
     7
100
AcDbText
 10
201.002625
 20
102.096176
 30
0.0
 40
5.463624
  1
2
 50
72.0
 41
1.191101
  7
FX_VECTOR
 72
     5
 11
202.630576
 21
107.106496
 31
0.0
100
AcDbText
  0
TEXT
  5
1FB
330
1F
100
AcDbEntity
  8
LAYERGROUP-1
  6
CONTINUOUS
 62
     7
100
AcDbText
 10
202.259216
 20
106.477036
 30
0.0
 40
5.463624
  1
0
 50
56.5
 41
1.191101
  7
FX_VECTOR
 72
     5
 11
205.16691
 21
110.870081
 31
0.0
100
AcDbText
  0
TEXT
  5
1FC
330
1F
100
AcDbEntity
  8
LAYERGROUP-1
  6
CONTINUOUS
 62
     7
100
AcDbText
 10
200.981735
 20
97.113602
 30
0.0
 40
5.463624
  1
X
 50
89.0
 41
1.191101
  7
FX_VECTOR
 72
     5
 11
201.073677
 21
102.380961
 31
0.0
100
AcDbText
  0
INSERT
  5
200
330
1F
100
AcDbEntity
  8
0
100
AcDbBlockReference
  2
BLKF033
 10
0.0
 20
0.0
 30
0.0
  0
LINE
  5
258
330
1F
100
AcDbEntity
  8
GR1-1
  6
CONTINUOUS
 62
     7
100
AcDbLine
 10
234.41092
 20
102.028983
 30
0.0
 11
234.41092
 21
97.028979
 31
0.0
  0
LINE
  5
259
330
1F
100
AcDbEntity
  8
GR1-1
  6
CONTINUOUS
 62
     7
100
AcDbLine
 10
234.41092
 20
97.028979
 30
0.0
 11
239.410924
 21
97.028979
 31
0.0
  0
LINE
  5
25A
330
1F
100
AcDbEntity
  8
GR1-1
  6
CONTINUOUS
 62
     7
100
AcDbLine
 10
239.410924
 20
97.028979
 30
0.0
 11
239.410924
 21
102.028983
 31
0.0
  0
LINE
  5
25B
330
1F
100
AcDbEntity
  8
GR1-1
  6
CONTINUOUS
 62
     7
100
AcDbLine
 10
239.410924
 20
102.028983
 30
0.0
 11
234.41092
 21
102.028983
 31
0.0
  0
LINE
  5
25C
330
1F
100
AcDbEntity
  8
GR1-1
  6
CONTINUOUS
 62
     7
100
AcDbLine
 10
236.910922
 20
101.886006
 30
0.0
 11
239.267946
 21
99.528981
 31
0.0
  0
LINE
  5
25D
330
1F
100
AcDbEntity
  8
GR1-1
  6
CONTINUOUS
 62
     7
100
AcDbLine
 10
239.267946
 20
99.528981
 30
0.0
 11
237.160922
 21
97.421957
 31
0.0
  0
LINE
  5
25E
330
1F
100
AcDbEntity
  8
GR1-1
  6
CONTINUOUS
 62
     7
100
AcDbLine
 10
237.160922
 20
97.421957
 30
0.0
 11
237.160922
 21
98.600469
 31
0.0
  0
LINE
  5
25F
330
1F
100
AcDbEntity
  8
GR1-1
  6
CONTINUOUS
 62
     7
100
AcDbLine
 10
237.160922
 20
98.600469
 30
0.0
 11
238.089434
 21
99.528981
 31
0.0
  0
LINE
  5
260
330
1F
100
AcDbEntity
  8
GR1-1
  6
CONTINUOUS
 62
     7
100
AcDbLine
 10
238.089434
 20
99.528981
 30
0.0
 11
236.910922
 21
100.707493
 31
0.0
  0
LINE
  5
261
330
1F
100
AcDbEntity
  8
GR1-1
  6
CONTINUOUS
 62
     7
100
AcDbLine
 10
236.910922
 20
100.707493
 30
0.0
 11
235.732409
 21
99.528981
 31
0.0
  0
LINE
  5
262
330
1F
100
AcDbEntity
  8
GR1-1
  6
CONTINUOUS
 62
     7
100
AcDbLine
 10
235.732409
 20
99.528981
 30
0.0
 11
236.351996
 21
98.909395
 31
0.0
  0
ARC
  5
263
330
1F
100
AcDbEntity
  8
GR1-1
  6
CONTINUOUS
 62
     7
100
AcDbCircle
 10
236.410921
 20
98.968321
 30
0.0
 40
0.0833334
100
AcDbArc
 50
225.0
 51
360.0
  0
LINE
  5
264
330
1F
100
AcDbEntity
  8
GR1-1
  6
CONTINUOUS
 62
     7
100
AcDbLine
 10
236.494255
 20
98.968321
 30
0.0
 11
236.494255
 21
99.528981
 31
0.0
  0
LINE
  5
265
330
1F
100
AcDbEntity
  8
GR1-1
  6
CONTINUOUS
 62
     7
100
AcDbLine
 10
236.494255
 20
99.528981
 30
0.0
 11
236.910922
 21
99.528981
 31
0.0
  0
LINE
  5
266
330
1F
100
AcDbEntity
  8
GR1-1
  6
CONTINUOUS
 62
     7
100
AcDbLine
 10
236.910922
 20
99.528981
 30
0.0
 11
236.910922
 21
97.171957
 31
0.0
  0
LINE
  5
267
330
1F
100
AcDbEntity
  8
GR1-1
  6
CONTINUOUS
 62
     7
100
AcDbLine
 10
236.910922
 20
97.171957
 30
0.0
 11
235.223986
 21
97.171957
 31
0.0
  0
LINE
  5
268
330
1F
100
AcDbEntity
  8
GR1-1
  6
CONTINUOUS
 62
     7
100
AcDbLine
 10
235.223986
 20
97.171957
 30
0.0
 11
235.223986
 21
98.005291
 31
0.0
  0
LINE
  5
269
330
1F
100
AcDbEntity
  8
GR1-1
  6
CONTINUOUS
 62
     7
100
AcDbLine
 10
235.223986
 20
98.005291
 30
0.0
 11
235.876403
 21
98.005291
 31
0.0
  0
ARC
  5
26A
330
1F
100
AcDbEntity
  8
GR1-1
  6
CONTINUOUS
 62
     7
100
AcDbCircle
 10
235.876403
 20
98.088624
 30
0.0
 40
0.0833334
100
AcDbArc
 50
-90.0
 51
45.0
  0
LINE
  5
26B
330
1F
100
AcDbEntity
  8
GR1-1
  6
CONTINUOUS
 62
     7
100
AcDbLine
 10
235.935329
 20
98.14755
 30
0.0
 11
234.553897
 21
99.528981
 31
0.0
  0
LINE
  5
26C
330
1F
100
AcDbEntity
  8
GR1-1
  6
CONTINUOUS
 62
     7
100
AcDbLine
 10
234.553897
 20
99.528981
 30
0.0
 11
236.910922
 21
101.886006
 31
0.0
  0
LINE
  5
26D
330
1F
100
AcDbEntity
  8
GR1-1
  6
CONTINUOUS
 62
     3
100
AcDbLine
 10
113.451941
 20
129.368344
 30
0.0
 11
113.451941
 21
99.529
 31
0.0
  0
LINE
  5
26E
330
1F
100
AcDbEntity
  8
GR1-1
  6
CONTINUOUS
 62
     3
100
AcDbLine
 10
133.451941
 20
129.368344
 30
0.0
 11
133.451941
 21
99.529
 31
0.0
  0
LINE
  5
26F
330
1F
100
AcDbEntity
  8
GR1-1
  6
CONTINUOUS
 62
     3
100
AcDbLine
 10
133.451941
 20
99.529
 30
0.0
 11
133.451941
 21
69.689656
 31
0.0
  0
LINE
  5
270
330
1F
100
AcDbEntity
  8
GR1-1
  6
CONTINUOUS
 62
     3
100
AcDbLine
 10
113.451941
 20
99.529
 30
0.0
 11
113.451941
 21
69.689656
 31
0.0
  0
ARC
  5
271
330
1F
100
AcDbEntity
  8
GR1-1
  6
CONTINUOUS
 62
     3
100
AcDbCircle
 10
260.16092
 20
243.331109
 30
0.0
 40
80.0
100
AcDbArc
 50
174.113158
 51
185.886842
  0
LINE
  5
272
330
1F
100
AcDbEntity
  8
GR1-1
  6
CONTINUOUS
 62
     3
100
AcDbLine
 10
182.572261
 20
253.331109
 30
0.0
 11
187.821576
 21
253.331109
 31
0.0
  0
LINE
  5
273
330
1F
100
AcDbEntity
  8
GR1-1
  6
CONTINUOUS
 62
     3
100
AcDbLine
 10
211.66092
 20
254.831109
 30
0.0
 11
212.402618
 21
254.831109
 31
0.0
  0
ARC
  5
274
330
1F
100
AcDbEntity
  8
GR1-1
  6
CONTINUOUS
 62
     3
100
AcDbCircle
 10
182.572261
 20
251.331109
 30
0.0
 40
2.0
100
AcDbArc
 50
90.0
 51
174.113158
  0
ARC
  5
275
330
1F
100
AcDbEntity
  8
GR1-1
  6
CONTINUOUS
 62
     3
100
AcDbCircle
 10
182.572261
 20
235.331109
 30
0.0
 40
2.0
100
AcDbArc
 50
185.886842
 51
270.0
  0
LINE
  5
276
330
1F
100
AcDbEntity
  8
GR1-1
  6
CONTINUOUS
 62
     3
100
AcDbLine
 10
182.572261
 20
233.331109
 30
0.0
 11
187.821576
 21
233.331109
 31
0.0
  0
LINE
  5
277
330
1F
100
AcDbEntity
  8
GR1-1
  6
CONTINUOUS
 62
     3
100
AcDbLine
 10
210.66092
 20
253.831109
 30
0.0
 11
210.66092
 21
253.331109
 31
0.0
  0
ARC
  5
278
330
1F
100
AcDbEntity
  8
GR1-1
  6
CONTINUOUS
 62
     3
100
AcDbCircle
 10
211.66092
 20
253.831109
 30
0.0
 40
1.0
100
AcDbArc
 50
90.0
 51
180.0
  0
LINE
  5
279
330
1F
100
AcDbEntity
  8
GR1-1
  6
CONTINUOUS
 62
     3
100
AcDbLine
 10
211.66092
 20
231.831109
 30
0.0
 11
212.402618
 21
231.831109
 31
0.0
  0
LINE
  5
27A
330
1F
100
AcDbEntity
  8
GR1-1
  6
CONTINUOUS
 62
     3
100
AcDbLine
 10
210.66092
 20
232.831109
 30
0.0
 11
210.66092
 21
233.331109
 31
0.0
  0
ARC
  5
27B
330
1F
100
AcDbEntity
  8
GR1-1
  6
CONTINUOUS
 62
     3
100
AcDbCircle
 10
211.66092
 20
232.831109
 30
0.0
 40
1.0
100
AcDbArc
 50
180.0
 51
270.0
  0
LINE
  5
27C
330
1F
100
AcDbEntity
  8
GR1-1
  6
CONTINUOUS
 62
     3
100
AcDbLine
 10
211.826648
 20
233.331109
 30
0.0
 11
187.821576
 21
233.331109
 31
0.0
  0
LINE
  5
27D
330
1F
100
AcDbEntity
  8
GR1-1
  6
CONTINUOUS
 62
     3
100
AcDbLine
 10
211.826648
 20
253.331109
 30
0.0
 11
187.821576
 21
253.331109
 31
0.0
  0
TEXT
  5
27E
330
1F
100
AcDbEntity
  8
}}ﾊﾊGG血CCТ
  6
CONTINUOUS
 62
     7
100
AcDbText
 10
155.0
 20
12.0
 30
0.0
 40
6.0
  1
ＥＡ－　７５　１２×３５　Ｕ
 41
0.787149
  7
FX_VECTOR
 72
     5
 11
211.0
 21
12.0
 31
0.0
100
AcDbText
  0
TEXT
  5
27F
330
1F
100
AcDbEntity
  8
LAYERGROUP-1
  6
CONTINUOUS
 62
     7
100
AcDbText
 10
255.0
 20
12.0
 30
0.0
 40
6.0
  1
E25CA0LAA-C02
 41
0.713725
  7
FX_VECTOR
 72
     5
 11
307.0
 21
12.0
 31
0.0
100
AcDbText
  0
ENDSEC
  0
SECTION
  2
OBJECTS
  0
DICTIONARY
  5
C
330
0
100
AcDbDictionary
  3
ACAD_GROUP
350
D
  3
ACAD_LAYOUT
350
1A
  3
ACAD_MLINESTYLE
350
17
  3
ACAD_PLOTSETTINGS
350
19
  3
ACDBHEADERROUNDTRIPXREC
350
280
  0
DICTIONARY
  5
D
102
{ACAD_REACTORS
330
C
102
}
330
C
100
AcDbDictionary
  0
DICTIONARY
  5
1A
102
{ACAD_REACTORS
330
C
102
}
330
C
100
AcDbDictionary
  0
DICTIONARY
  5
17
102
{ACAD_REACTORS
330
C
102
}
330
C
100
AcDbDictionary
  3
STANDARD
350
18
  0
DICTIONARY
  5
19
102
{ACAD_REACTORS
330
C
102
}
330
C
100
AcDbDictionary
  0
DICTIONARY
  5
280
102
{ACAD_REACTORS
330
C
102
}
330
C
100
AcDbDictionary
  3
CEPSNTYPE
350
289
  3
DIMSTYLEDATA
350
29F
  3
FINGERPRINTGUID
350
28A
  3
HYPERLINKBASE
350
283
  3
INSUNITS
350
288
  3
LAYOUTDICT
350
285
  3
LWETCUNION
350
287
  3
PLOTSETDICT
350
286
  3
PSVPSCALE
350
28C
  3
PUCSBASE
350
28F
  3
PUCSORGBACK
350
295
  3
PUCSORGBOTTOM
350
291
  3
PUCSORGFRONT
350
294
  3
PUCSORGLEFT
350
292
  3
PUCSORGRIGHT
350
293
  3
PUCSORGTOP
350
290
  3
PUCSORTHOREF
350
28D
  3
PUCSORTHOVIEW
350
28E
  3
STYLESHEET
350
284
  3
TSTACKALIGN
350
281
  3
TSTACKSIZE
350
282
  3
UCSBASE
350
298
  3
UCSORGBACK
350
29E
  3
UCSORGBOTTOM
350
29A
  3
UCSORGFRONT
350
29D
  3
UCSORGLEFT
350
29B
  3
UCSORGRIGHT
350
29C
  3
UCSORGTOP
350
299
  3
UCSORTHOREF
350
296
  3
UCSORTHOVIEW
350
297
  3
VERSIONGUID
350
28B
  0
MLINESTYLE
  5
18
102
{ACAD_REACTORS
330
17
102
}
330
17
100
AcDbMlineStyle
  2
Standard
 70
     0
  3

 62
   256
 51
90.0
 52
90.0
 71
     2
 49
0.5
 62
   256
  6
BYLAYER
 49
-0.5
 62
   256
  6
BYLAYER
  0
XRECORD
  5
289
102
{ACAD_REACTORS
330
280
102
}
330
280
100
AcDbXrecord
 90
        0
  0
XRECORD
  5
29F
102
{ACAD_REACTORS
330
280
102
}
330
280
100
AcDbXrecord
1000
DSTYLE
1002
{
1070
   179
 70
     2
1070
   171
 70
     3
1070
   143
 40
0.03937
1070
   274
 70
     3
1070
    41
 40
4.0
1070
   343
340
41
1070
   344
340
47
1070
   141
 40
2.5
1070
   176
 70
     7
1070
   177
 70
     7
1070
   178
 70
     7
1070
   271
 70
     2
1070
    46
 40
6.0
1070
    43
 40
10.0
1070
    44
 40
1.0
1070
    42
 40
1.0
1070
   147
 40
1.0
1070
   341
340
41
1070
   173
 70
     1
1070
    77
 70
     1
1070
   272
 70
     2
1070
    73
 70
     0
1070
   172
 70
     1
1070
    74
 70
     0
1070
   283
 70
     0
1070
   340
340
3F
1070
   140
 40
4.0
1070
   284
 70
     8
1070
    78
 70
     8
1002
}
  0
XRECORD
  5
28A
102
{ACAD_REACTORS
330
280
102
}
330
280
100
AcDbXrecord
  1
{229167C9-A2A0-4365-AB04-9DD6C8F759F5}
  0
XRECORD
  5
283
102
{ACAD_REACTORS
330
280
102
}
330
280
100
AcDbXrecord
  1

  0
XRECORD
  5
288
102
{ACAD_REACTORS
330
280
102
}
330
280
100
AcDbXrecord
 90
        1
  0
XRECORD
  5
285
102
{ACAD_REACTORS
330
280
102
}
330
280
100
AcDbXrecord
340
1A
  0
XRECORD
  5
287
102
{ACAD_REACTORS
330
280
102
}
330
280
100
AcDbXrecord
 90
    10781
  0
XRECORD
  5
286
102
{ACAD_REACTORS
330
280
102
}
330
280
100
AcDbXrecord
340
19
  0
XRECORD
  5
28C
102
{ACAD_REACTORS
330
280
102
}
330
280
100
AcDbXrecord
 40
0.0
  0
XRECORD
  5
28F
102
{ACAD_REACTORS
330
280
102
}
330
280
100
AcDbXrecord
340
0
  0
XRECORD
  5
295
102
{ACAD_REACTORS
330
280
102
}
330
280
100
AcDbXrecord
 10
0.0
 20
0.0
 30
0.0
  0
XRECORD
  5
291
102
{ACAD_REACTORS
330
280
102
}
330
280
100
AcDbXrecord
 10
0.0
 20
0.0
 30
0.0
  0
XRECORD
  5
294
102
{ACAD_REACTORS
330
280
102
}
330
280
100
AcDbXrecord
 10
0.0
 20
0.0
 30
0.0
  0
XRECORD
  5
292
102
{ACAD_REACTORS
330
280
102
}
330
280
100
AcDbXrecord
 10
0.0
 20
0.0
 30
0.0
  0
XRECORD
  5
293
102
{ACAD_REACTORS
330
280
102
}
330
280
100
AcDbXrecord
 10
0.0
 20
0.0
 30
0.0
  0
XRECORD
  5
290
102
{ACAD_REACTORS
330
280
102
}
330
280
100
AcDbXrecord
 10
0.0
 20
0.0
 30
0.0
  0
XRECORD
  5
28D
102
{ACAD_REACTORS
330
280
102
}
330
280
100
AcDbXrecord
340
0
  0
XRECORD
  5
28E
102
{ACAD_REACTORS
330
280
102
}
330
280
100
AcDbXrecord
 70
     0
  0
XRECORD
  5
284
102
{ACAD_REACTORS
330
280
102
}
330
280
100
AcDbXrecord
  1

  0
XRECORD
  5
281
102
{ACAD_REACTORS
330
280
102
}
330
280
100
AcDbXrecord
 90
        1
  0
XRECORD
  5
282
102
{ACAD_REACTORS
330
280
102
}
330
280
100
AcDbXrecord
 90
       70
  0
XRECORD
  5
298
102
{ACAD_REACTORS
330
280
102
}
330
280
100
AcDbXrecord
340
0
  0
XRECORD
  5
29E
102
{ACAD_REACTORS
330
280
102
}
330
280
100
AcDbXrecord
 10
0.0
 20
0.0
 30
0.0
  0
XRECORD
  5
29A
102
{ACAD_REACTORS
330
280
102
}
330
280
100
AcDbXrecord
 10
0.0
 20
0.0
 30
0.0
  0
XRECORD
  5
29D
102
{ACAD_REACTORS
330
280
102
}
330
280
100
AcDbXrecord
 10
0.0
 20
0.0
 30
0.0
  0
XRECORD
  5
29B
102
{ACAD_REACTORS
330
280
102
}
330
280
100
AcDbXrecord
 10
0.0
 20
0.0
 30
0.0
  0
XRECORD
  5
29C
102
{ACAD_REACTORS
330
280
102
}
330
280
100
AcDbXrecord
 10
0.0
 20
0.0
 30
0.0
  0
XRECORD
  5
299
102
{ACAD_REACTORS
330
280
102
}
330
280
100
AcDbXrecord
 10
0.0
 20
0.0
 30
0.0
  0
XRECORD
  5
296
102
{ACAD_REACTORS
330
280
102
}
330
280
100
AcDbXrecord
340
0
  0
XRECORD
  5
297
102
{ACAD_REACTORS
330
280
102
}
330
280
100
AcDbXrecord
 70
     0
  0
XRECORD
  5
28B
102
{ACAD_REACTORS
330
280
102
}
330
280
100
AcDbXrecord
  1
{FAEB1C32-E019-11D5-929B-00C0DF256EC4}
  0
ENDSEC
  0
EOF
