  0
SECTION
  2
HEADER
  9
$ACADVER
  1
AC1014
  9
$ACADMAINTVER
 70
     9
  9
$DWGCODEPAGE
  3
ANSI_932
  9
$INSBASE
 10
0.0
 20
0.0
 30
0.0
  9
$EXTMIN
 10
0.0
 20
0.0
 30
0.0
  9
$EXTMAX
 10
420.0
 20
297.0
 30
0.0
  9
$LIMMIN
 10
0.0
 20
0.0
  9
$LIMMAX
 10
420.0
 20
297.0
  9
$ORTHOMODE
 70
     0
  9
$REGENMODE
 70
     1
  9
$FILLMODE
 70
     1
  9
$QTEXTMODE
 70
     0
  9
$MIRRTEXT
 70
     1
  9
$DRAGMODE
 70
     2
  9
$LTSCALE
 40
1.0
  9
$OSMODE
 70
    37
  9
$ATTMODE
 70
     1
  9
$TEXTSIZE
 40
0.2
  9
$TRACEWID
 40
0.05
  9
$TEXTSTYLE
  7
STYLE1
  9
$CLAYER
  8
0
  9
$CELTYPE
  6
BYLAYER
  9
$CECOLOR
 62
   256
  9
$CELTSCALE
 40
1.0
  9
$DELOBJ
 70
     1
  9
$DISPSILH
 70
     0
  9
$DIMSCALE
 40
1.0
  9
$DIMASZ
 40
4.0
  9
$DIMEXO
 40
1.0
  9
$DIMDLI
 40
10.0
  9
$DIMRND
 40
0.0
  9
$DIMDLE
 40
6.0
  9
$DIMEXE
 40
1.0
  9
$DIMTP
 40
0.0
  9
$DIMTM
 40
0.0
  9
$DIMTXT
 40
4.0
  9
$DIMCEN
 40
2.5
  9
$DIMTSZ
 40
0.0
  9
$DIMTOL
 70
     0
  9
$DIMLIM
 70
     0
  9
$DIMTIH
 70
     0
  9
$DIMTOH
 70
     0
  9
$DIMSE1
 70
     0
  9
$DIMSE2
 70
     0
  9
$DIMTAD
 70
     1
  9
$DIMZIN
 70
     8
  9
$DIMBLK
  1

  9
$DIMASO
 70
     1
  9
$DIMSHO
 70
     1
  9
$DIMPOST
  1

  9
$DIMAPOST
  1

  9
$DIMALT
 70
     0
  9
$DIMALTD
 70
     3
  9
$DIMALTF
 40
0.03937
  9
$DIMLFAC
 40
1.0
  9
$DIMTOFL
 70
     1
  9
$DIMTVP
 40
0.0
  9
$DIMTIX
 70
     0
  9
$DIMSOXD
 70
     0
  9
$DIMSAH
 70
     1
  9
$DIMBLK1
  1
FXTIP_ARROW_S
  9
$DIMBLK2
  1
FXTIP_ARROW_E
  9
$DIMSTYLE
  2
FXDIMINFO
  9
$DIMCLRD
 70
     7
  9
$DIMCLRE
 70
     7
  9
$DIMCLRT
 70
     7
  9
$DIMTFAC
 40
1.0
  9
$DIMGAP
 40
1.0
  9
$DIMJUST
 70
     0
  9
$DIMSD1
 70
     0
  9
$DIMSD2
 70
     0
  9
$DIMTOLJ
 70
     0
  9
$DIMTZIN
 70
     8
  9
$DIMALTZ
 70
     0
  9
$DIMALTTZ
 70
     0
  9
$DIMFIT
 70
     3
  9
$DIMUPT
 70
     0
  9
$DIMUNIT
 70
     2
  9
$DIMDEC
 70
     2
  9
$DIMTDEC
 70
     2
  9
$DIMALTU
 70
     2
  9
$DIMALTTD
 70
     3
  9
$DIMTXSTY
  7
STYLE1
  9
$DIMAUNIT
 70
     0
  9
$LUNITS
 70
     2
  9
$LUPREC
 70
     4
  9
$SKETCHINC
 40
0.1
  9
$FILLETRAD
 40
0.5
  9
$AUNITS
 70
     0
  9
$AUPREC
 70
     0
  9
$MENU
  1
.
  9
$ELEVATION
 40
0.0
  9
$PELEVATION
 40
0.0
  9
$THICKNESS
 40
0.0
  9
$LIMCHECK
 70
     0
  9
$CHAMFERA
 40
0.5
  9
$CHAMFERB
 40
0.5
  9
$CHAMFERC
 40
1.0
  9
$CHAMFERD
 40
0.0
  9
$SKPOLY
 70
     0
  9
$TDCREATE
 40
2455303.468687488
  9
$TDUPDATE
 40
2455303.4686875
  9
$TDINDWG
 40
0.0000000116
  9
$TDUSRTIMER
 40
0.0000000116
  9
$USRTIMER
 70
     1
  9
$ANGBASE
 50
0.0
  9
$ANGDIR
 70
     0
  9
$PDMODE
 70
     0
  9
$PDSIZE
 40
0.0
  9
$PLINEWID
 40
0.0
  9
$COORDS
 70
     1
  9
$SPLFRAME
 70
     0
  9
$SPLINETYPE
 70
     6
  9
$SPLINESEGS
 70
     8
  9
$ATTDIA
 70
     0
  9
$ATTREQ
 70
     1
  9
$HANDLING
 70
     1
  9
$HANDSEED
  5
2D3
  9
$SURFTAB1
 70
     6
  9
$SURFTAB2
 70
     6
  9
$SURFTYPE
 70
     6
  9
$SURFU
 70
     6
  9
$SURFV
 70
     6
  9
$UCSNAME
  2

  9
$UCSORG
 10
0.0
 20
0.0
 30
0.0
  9
$UCSXDIR
 10
1.0
 20
0.0
 30
0.0
  9
$UCSYDIR
 10
0.0
 20
1.0
 30
0.0
  9
$PUCSNAME
  2

  9
$PUCSORG
 10
0.0
 20
0.0
 30
0.0
  9
$PUCSXDIR
 10
1.0
 20
0.0
 30
0.0
  9
$PUCSYDIR
 10
0.0
 20
1.0
 30
0.0
  9
$USERI1
 70
     0
  9
$USERI2
 70
     0
  9
$USERI3
 70
     0
  9
$USERI4
 70
     0
  9
$USERI5
 70
     0
  9
$USERR1
 40
0.0
  9
$USERR2
 40
0.0
  9
$USERR3
 40
0.0
  9
$USERR4
 40
0.0
  9
$USERR5
 40
0.0
  9
$WORLDVIEW
 70
     1
  9
$SHADEDGE
 70
     3
  9
$SHADEDIF
 70
    70
  9
$TILEMODE
 70
     1
  9
$MAXACTVP
 70
    64
  9
$PINSBASE
 10
0.0
 20
0.0
 30
0.0
  9
$PLIMCHECK
 70
     0
  9
$PEXTMIN
 10
1.000000E+20
 20
1.000000E+20
 30
1.000000E+20
  9
$PEXTMAX
 10
-1.000000E+20
 20
-1.000000E+20
 30
-1.000000E+20
  9
$PLIMMIN
 10
0.0
 20
0.0
  9
$PLIMMAX
 10
12.0
 20
9.0
  9
$UNITMODE
 70
     0
  9
$VISRETAIN
 70
     1
  9
$PLINEGEN
 70
     0
  9
$PSLTSCALE
 70
     1
  9
$TREEDEPTH
 70
  3020
  9
$PICKSTYLE
 70
     1
  9
$CMLSTYLE
  2
STANDARD
  9
$CMLJUST
 70
     0
  9
$CMLSCALE
 40
1.0
  9
$PROXYGRAPHICS
 70
     1
  9
$MEASUREMENT
 70
     0
  0
ENDSEC
  0
SECTION
  2
CLASSES
  0
CLASS
  1
ACDBDICTIONARYWDFLT
  2
AcDbDictionaryWithDefault
  3
ObjectDBX Classes
 90
        0
280
     0
281
     0
  0
CLASS
  1
XRECORD
  2
AcDbXrecord
  3
AutoCAD 2000
 90
        0
280
     0
281
     0
  0
CLASS
  1
LWPOLYLINE
  2
AcDbPolyline
  3
AutoCAD 2000
 90
        0
280
     0
281
     1
  0
CLASS
  1
HATCH
  2
AcDbHatch
  3
AutoCAD 2000
 90
        0
280
     0
281
     1
  0
CLASS
  1
ACDBPLACEHOLDER
  2
AcDbPlaceHolder
  3
ObjectDBX Classes
 90
        0
280
     0
281
     0
  0
CLASS
  1
LAYOUT
  2
AcDbLayout
  3
ObjectDBX Classes
 90
        0
280
     0
281
     0
  0
ENDSEC
  0
SECTION
  2
TABLES
  0
TABLE
  2
VPORT
  5
8
330
0
100
AcDbSymbolTable
 70
     1
  0
VPORT
  5
29
330
8
100
AcDbSymbolTableRecord
100
AcDbViewportTableRecord
  2
*ACTIVE
 70
     0
 10
0.0
 20
0.0
 11
1.0
 21
1.0
 12
210.0
 22
148.5
 13
0.0
 23
0.0
 14
0.5
 24
0.5
 15
0.5
 25
0.5
 16
0.0
 26
0.0
 36
1.0
 17
0.0
 27
0.0
 37
0.0
 40
297.0
 41
1.414141
 42
50.0
 43
0.0
 44
0.0
 50
0.0
 51
0.0
 71
     0
 72
   100
 73
     1
 74
     3
 75
     0
 76
     0
 77
     0
 78
     0
  0
ENDTAB
  0
TABLE
  2
LTYPE
  5
5
330
0
100
AcDbSymbolTable
 70
     4
  0
LTYPE
  5
14
330
5
100
AcDbSymbolTableRecord
100
AcDbLinetypeTableRecord
  2
BYBLOCK
 70
     0
  3

 72
    65
 73
     0
 40
0.0
  0
LTYPE
  5
15
330
5
100
AcDbSymbolTableRecord
100
AcDbLinetypeTableRecord
  2
BYLAYER
 70
     0
  3

 72
    65
 73
     0
 40
0.0
  0
LTYPE
  5
16
330
5
100
AcDbSymbolTableRecord
100
AcDbLinetypeTableRecord
  2
CONTINUOUS
 70
     0
  3
--------------------
 72
    65
 73
     0
 40
0.0
  0
LTYPE
  5
2A
330
5
100
AcDbSymbolTableRecord
100
AcDbLinetypeTableRecord
  2
CENTER
 70
     0
  3
Center ____ _ ____ _ ____ _ ____ _ ____ _ ____
 72
    65
 73
     4
 40
13.0
 49
10.0
 74
     0
 49
-1.0
 74
     0
 49
1.0
 74
     0
 49
-1.0
 74
     0
  0
ENDTAB
  0
TABLE
  2
LAYER
  5
2
330
0
100
AcDbSymbolTable
 70
    20
  0
LAYER
  5
10
330
2
100
AcDbSymbolTableRecord
100
AcDbLayerTableRecord
  2
0
 70
     0
 62
     7
  6
CONTINUOUS
  0
LAYER
  5
2D
330
2
100
AcDbSymbolTableRecord
100
AcDbLayerTableRecord
  2
LAYERGROUP-1
 70
     0
 62
     3
  6
CONTINUOUS
  0
LAYER
  5
3D
330
2
100
AcDbSymbolTableRecord
100
AcDbLayerTableRecord
  2
}}ﾊﾊGG血CCТ
 70
     0
 62
     3
  6
CONTINUOUS
  0
LAYER
  5
B8
330
2
100
AcDbSymbolTableRecord
100
AcDbLayerTableRecord
  2
0-1
 70
     0
 62
     7
  6
CONTINUOUS
  0
LAYER
  5
D0
330
2
100
AcDbSymbolTableRecord
100
AcDbLayerTableRecord
  2
GR1-1
 70
     0
 62
     7
  6
CONTINUOUS
  0
ENDTAB
  0
TABLE
  2
STYLE
  5
3
330
0
100
AcDbSymbolTable
 70
     4
  0
STYLE
  5
11
330
3
100
AcDbSymbolTableRecord
100
AcDbTextStyleTableRecord
  2
STANDARD
 70
     0
 40
0.0
 41
1.0
 50
0.0
 71
     0
 42
0.2
  3
txt
  4

  0
STYLE
  5
3F
330
3
100
AcDbSymbolTableRecord
100
AcDbTextStyleTableRecord
  2
STYLE1
 70
     0
 40
0.0
 41
1.0
 50
0.0
 71
     0
 42
0.2
  3
MONOTXT.SHX
  4
extfont.shx
  0
STYLE
  5
40
330
3
100
AcDbSymbolTableRecord
100
AcDbTextStyleTableRecord
  2
FX_VECTOR
 70
     0
 40
0.0
 41
1.0
 50
0.0
 71
     0
 42
0.2
  3
MONOTXT.SHX
  4
BIGFONT.SHX
  0
ENDTAB
  0
TABLE
  2
VIEW
  5
6
330
0
100
AcDbSymbolTable
 70
     0
  0
ENDTAB
  0
TABLE
  2
UCS
  5
7
330
0
100
AcDbSymbolTable
 70
     0
  0
ENDTAB
  0
TABLE
  2
APPID
  5
9
330
0
100
AcDbSymbolTable
 70
     1
  0
APPID
  5
12
330
9
100
AcDbSymbolTableRecord
100
AcDbRegAppTableRecord
  2
ACAD
 70
     0
  0
ENDTAB
  0
TABLE
  2
DIMSTYLE
  5
A
330
0
100
AcDbSymbolTable
 70
     2
  0
DIMSTYLE
105
27
330
A
100
AcDbSymbolTableRecord
100
AcDbDimStyleTableRecord
  2
STANDARD
 70
     0
  3

  4

  5

  6

  7

 40
1.0
 41
0.18
 42
0.0625
 43
0.38
 44
0.18
 45
0.0
 46
0.0
 47
0.0
 48
0.0
140
0.18
141
0.09
142
0.0
143
25.4
144
1.0
145
0.0
146
1.0
147
0.09
 71
     0
 72
     0
 73
     1
 74
     1
 75
     0
 76
     0
 77
     0
 78
     0
170
     0
171
     2
172
     0
173
     0
174
     0
175
     0
176
     0
177
     0
178
     0
270
     2
271
     4
272
     4
273
     2
274
     2
340
11
275
     0
280
     0
281
     0
282
     0
283
     1
284
     0
285
     0
286
     0
287
     3
288
     0
  0
DIMSTYLE
105
A7
102
{ACAD_REACTORS
330
17B
330
185
330
18F
330
199
330
1A3
330
1AD
330
1B7
330
26D
330
29B
102
}
330
A
100
AcDbSymbolTableRecord
100
AcDbDimStyleTableRecord
  2
FXDIMINFO
 70
     0
  3

  4

  5

  6
FXTIP_ARROW_S
  7
FXTIP_ARROW_E
 40
1.0
 41
4.0
 42
1.0
 43
10.0
 44
1.0
 45
0.0
 46
6.0
 47
0.0
 48
0.0
140
4.0
141
2.5
142
0.0
143
0.03937
144
1.0
145
0.0
146
1.0
147
1.0
 71
     0
 72
     0
 73
     0
 74
     0
 75
     0
 76
     0
 77
     1
 78
     8
170
     0
171
     3
172
     1
173
     1
174
     0
175
     0
176
     7
177
     7
178
     7
179
     2
270
     2
271
     2
272
     2
273
     2
274
     3
340
3F
275
     0
280
     0
281
     0
282
     0
283
     0
284
     8
285
     0
286
     0
287
     3
288
     0
  0
ENDTAB
  0
TABLE
  2
BLOCK_RECORD
  5
1
330
0
100
AcDbSymbolTable
 70
    34
  0
BLOCK_RECORD
  5
1F
330
1
100
AcDbSymbolTableRecord
100
AcDbBlockTableRecord
  2
*MODEL_SPACE
  0
BLOCK_RECORD
  5
1B
330
1
100
AcDbSymbolTableRecord
100
AcDbBlockTableRecord
  2
*PAPER_SPACE
  0
BLOCK_RECORD
  5
41
330
1
100
AcDbSymbolTableRecord
100
AcDbBlockTableRecord
  2
FXTIP_ARROW_S
  0
BLOCK_RECORD
  5
47
330
1
100
AcDbSymbolTableRecord
100
AcDbBlockTableRecord
  2
FXTIP_ARROW_E
  0
BLOCK_RECORD
  5
4D
330
1
100
AcDbSymbolTableRecord
100
AcDbBlockTableRecord
  2
FXTIP_BLACKDOT_S
  0
BLOCK_RECORD
  5
53
330
1
100
AcDbSymbolTableRecord
100
AcDbBlockTableRecord
  2
FXTIP_BLACKDOT_E
  0
BLOCK_RECORD
  5
59
330
1
100
AcDbSymbolTableRecord
100
AcDbBlockTableRecord
  2
FXTIP_TRIANGLE_S
  0
BLOCK_RECORD
  5
60
330
1
100
AcDbSymbolTableRecord
100
AcDbBlockTableRecord
  2
FXTIP_TRIANGLE_E
  0
BLOCK_RECORD
  5
67
330
1
100
AcDbSymbolTableRecord
100
AcDbBlockTableRecord
  2
FXTIP_ARCHITECT_S
  0
BLOCK_RECORD
  5
6D
330
1
100
AcDbSymbolTableRecord
100
AcDbBlockTableRecord
  2
FXTIP_ARCHITECT_E
  0
BLOCK_RECORD
  5
73
330
1
100
AcDbSymbolTableRecord
100
AcDbBlockTableRecord
  2
FXTIP_CIVIL_S
  0
BLOCK_RECORD
  5
79
330
1
100
AcDbSymbolTableRecord
100
AcDbBlockTableRecord
  2
FXTIP_CIVIL_E
  0
BLOCK_RECORD
  5
7F
330
1
100
AcDbSymbolTableRecord
100
AcDbBlockTableRecord
  2
FXTIP_WHITEDOT_S
  0
BLOCK_RECORD
  5
84
330
1
100
AcDbSymbolTableRecord
100
AcDbBlockTableRecord
  2
FXTIP_WHITEDOT_E
  0
BLOCK_RECORD
  5
89
330
1
100
AcDbSymbolTableRecord
100
AcDbBlockTableRecord
  2
FXTIP_UPARROW_S
  0
BLOCK_RECORD
  5
8E
330
1
100
AcDbSymbolTableRecord
100
AcDbBlockTableRecord
  2
FXTIP_UPARROW_E
  0
BLOCK_RECORD
  5
93
330
1
100
AcDbSymbolTableRecord
100
AcDbBlockTableRecord
  2
FXTIP_DOWNARROW_S
  0
BLOCK_RECORD
  5
98
330
1
100
AcDbSymbolTableRecord
100
AcDbBlockTableRecord
  2
FXTIP_DOWNARROW_E
  0
BLOCK_RECORD
  5
9D
330
1
100
AcDbSymbolTableRecord
100
AcDbBlockTableRecord
  2
FXTIP_BLACKTRIANGLE_S
  0
BLOCK_RECORD
  5
A2
330
1
100
AcDbSymbolTableRecord
100
AcDbBlockTableRecord
  2
FXTIP_BLACKTRIANGLE_E
  0
BLOCK_RECORD
  5
A8
330
1
100
AcDbSymbolTableRecord
100
AcDbBlockTableRecord
  2
BLKF021
  0
BLOCK_RECORD
  5
B4
330
1
100
AcDbSymbolTableRecord
100
AcDbBlockTableRecord
  2
BLKF022
  0
BLOCK_RECORD
  5
BD
330
1
100
AcDbSymbolTableRecord
100
AcDbBlockTableRecord
  2
BLKF023
  0
BLOCK_RECORD
  5
17C
330
1
100
AcDbSymbolTableRecord
100
AcDbBlockTableRecord
  2
*D22
  0
BLOCK_RECORD
  5
186
330
1
100
AcDbSymbolTableRecord
100
AcDbBlockTableRecord
  2
*D23
  0
BLOCK_RECORD
  5
190
330
1
100
AcDbSymbolTableRecord
100
AcDbBlockTableRecord
  2
*D24
  0
BLOCK_RECORD
  5
19A
330
1
100
AcDbSymbolTableRecord
100
AcDbBlockTableRecord
  2
*D25
  0
BLOCK_RECORD
  5
1A4
330
1
100
AcDbSymbolTableRecord
100
AcDbBlockTableRecord
  2
*D26
  0
BLOCK_RECORD
  5
1AE
330
1
100
AcDbSymbolTableRecord
100
AcDbBlockTableRecord
  2
*D27
  0
BLOCK_RECORD
  5
1B8
330
1
100
AcDbSymbolTableRecord
100
AcDbBlockTableRecord
  2
*D28
  0
BLOCK_RECORD
  5
1C5
330
1
100
AcDbSymbolTableRecord
100
AcDbBlockTableRecord
  2
BLKF031
  0
BLOCK_RECORD
  5
1F7
330
1
100
AcDbSymbolTableRecord
100
AcDbBlockTableRecord
  2
BLKF032
  0
BLOCK_RECORD
  5
26E
330
1
100
AcDbSymbolTableRecord
100
AcDbBlockTableRecord
  2
*D31
  0
BLOCK_RECORD
  5
277
330
1
100
AcDbSymbolTableRecord
100
AcDbBlockTableRecord
  2
BLKF034
  0
BLOCK_RECORD
  5
29C
330
1
100
AcDbSymbolTableRecord
100
AcDbBlockTableRecord
  2
*D33
  0
ENDTAB
  0
ENDSEC
  0
SECTION
  2
BLOCKS
  0
BLOCK
  5
20
330
1F
100
AcDbEntity
  8
0
100
AcDbBlockBegin
  2
*MODEL_SPACE
 70
     0
 71
     0
 10
0.0
 20
0.0
 30
0.0
  3
*MODEL_SPACE
  1

  0
ENDBLK
  5
21
330
1F
100
AcDbEntity
  8
0
100
AcDbBlockEnd
  0
BLOCK
  5
1C
330
1B
100
AcDbEntity
 67
     1
  8
0
100
AcDbBlockBegin
  2
*PAPER_SPACE
 70
     0
 71
     0
 10
0.0
 20
0.0
 30
0.0
  3
*PAPER_SPACE
  1

  0
ENDBLK
  5
1D
330
1B
100
AcDbEntity
 67
     1
  8
0
100
AcDbBlockEnd
  0
BLOCK
  5
42
330
41
100
AcDbEntity
  8
0
100
AcDbBlockBegin
  2
FXTIP_ARROW_S
 70
     0
 71
     0
 10
0.0
 20
0.0
 30
0.0
  3
FXTIP_ARROW_S
  1

  0
LINE
  5
44
330
41
100
AcDbEntity
  8
0
  6
CONTINUOUS
 62
     0
100
AcDbLine
 10
0.0
 20
0.0
 30
0.0
 11
-1.0
 21
0.0
 31
0.0
  0
LINE
  5
45
330
41
100
AcDbEntity
  8
0
  6
CONTINUOUS
 62
     0
100
AcDbLine
 10
0.0
 20
0.0
 30
0.0
 11
-0.965926
 21
-0.258819
 31
0.0
  0
LINE
  5
46
330
41
100
AcDbEntity
  8
0
  6
CONTINUOUS
 62
     0
100
AcDbLine
 10
0.0
 20
0.0
 30
0.0
 11
-0.965926
 21
0.258819
 31
0.0
  0
ENDBLK
  5
43
330
41
100
AcDbEntity
  8
0
100
AcDbBlockEnd
  0
BLOCK
  5
48
330
47
100
AcDbEntity
  8
0
100
AcDbBlockBegin
  2
FXTIP_ARROW_E
 70
     0
 71
     0
 10
0.0
 20
0.0
 30
0.0
  3
FXTIP_ARROW_E
  1

  0
LINE
  5
4A
330
47
100
AcDbEntity
  8
0
  6
CONTINUOUS
 62
     0
100
AcDbLine
 10
0.0
 20
0.0
 30
0.0
 11
-1.0
 21
0.0
 31
0.0
  0
LINE
  5
4B
330
47
100
AcDbEntity
  8
0
  6
CONTINUOUS
 62
     0
100
AcDbLine
 10
0.0
 20
0.0
 30
0.0
 11
-0.965926
 21
0.258819
 31
0.0
  0
LINE
  5
4C
330
47
100
AcDbEntity
  8
0
  6
CONTINUOUS
 62
     0
100
AcDbLine
 10
0.0
 20
0.0
 30
0.0
 11
-0.965926
 21
-0.258819
 31
0.0
  0
ENDBLK
  5
49
330
47
100
AcDbEntity
  8
0
100
AcDbBlockEnd
  0
BLOCK
  5
4E
330
4D
100
AcDbEntity
  8
0
100
AcDbBlockBegin
  2
FXTIP_BLACKDOT_S
 70
     0
 71
     0
 10
0.0
 20
0.0
 30
0.0
  3
FXTIP_BLACKDOT_S
  1

  0
LINE
  5
50
330
4D
100
AcDbEntity
  8
0
  6
CONTINUOUS
 62
     0
100
AcDbLine
 10
0.0
 20
0.0
 30
0.0
 11
-1.0
 21
0.0
 31
0.0
  0
LWPOLYLINE
  5
51
330
4D
100
AcDbEntity
  8
0
  6
CONTINUOUS
 62
     0
100
AcDbPolyline
 90
        2
 70
     1
 10
-0.25
 20
0.0
 40
0.5
 41
0.5
 42
1.0
 10
0.25
 20
0.0
 40
0.5
 41
0.5
 42
1.0
  0
CIRCLE
  5
52
330
4D
100
AcDbEntity
  8
0
  6
CONTINUOUS
 62
     0
100
AcDbCircle
 10
0.0
 20
0.0
 30
0.0
 40
0.5
  0
ENDBLK
  5
4F
330
4D
100
AcDbEntity
  8
0
100
AcDbBlockEnd
  0
BLOCK
  5
54
330
53
100
AcDbEntity
  8
0
100
AcDbBlockBegin
  2
FXTIP_BLACKDOT_E
 70
     0
 71
     0
 10
0.0
 20
0.0
 30
0.0
  3
FXTIP_BLACKDOT_E
  1

  0
LINE
  5
56
330
53
100
AcDbEntity
  8
0
  6
CONTINUOUS
 62
     0
100
AcDbLine
 10
0.0
 20
0.0
 30
0.0
 11
-1.0
 21
0.0
 31
0.0
  0
LWPOLYLINE
  5
57
330
53
100
AcDbEntity
  8
0
  6
CONTINUOUS
 62
     0
100
AcDbPolyline
 90
        2
 70
     1
 10
-0.25
 20
0.0
 40
0.5
 41
0.5
 42
1.0
 10
0.25
 20
0.0
 40
0.5
 41
0.5
 42
1.0
  0
CIRCLE
  5
58
330
53
100
AcDbEntity
  8
0
  6
CONTINUOUS
 62
     0
100
AcDbCircle
 10
0.0
 20
0.0
 30
0.0
 40
0.5
  0
ENDBLK
  5
55
330
53
100
AcDbEntity
  8
0
100
AcDbBlockEnd
  0
BLOCK
  5
5A
330
59
100
AcDbEntity
  8
0
100
AcDbBlockBegin
  2
FXTIP_TRIANGLE_S
 70
     0
 71
     0
 10
0.0
 20
0.0
 30
0.0
  3
FXTIP_TRIANGLE_S
  1

  0
LINE
  5
5C
330
59
100
AcDbEntity
  8
0
  6
CONTINUOUS
 62
     0
100
AcDbLine
 10
0.0
 20
0.0
 30
0.0
 11
-1.0
 21
0.0
 31
0.0
  0
LINE
  5
5D
330
59
100
AcDbEntity
  8
0
  6
CONTINUOUS
 62
     0
100
AcDbLine
 10
0.0
 20
0.0
 30
0.0
 11
-0.965926
 21
-0.258819
 31
0.0
  0
LINE
  5
5E
330
59
100
AcDbEntity
  8
0
  6
CONTINUOUS
 62
     0
100
AcDbLine
 10
0.0
 20
0.0
 30
0.0
 11
-0.965926
 21
0.258819
 31
0.0
  0
LINE
  5
5F
330
59
100
AcDbEntity
  8
0
  6
CONTINUOUS
 62
     0
100
AcDbLine
 10
-0.965926
 20
-0.258819
 30
0.0
 11
-0.965926
 21
0.258819
 31
0.0
  0
ENDBLK
  5
5B
330
59
100
AcDbEntity
  8
0
100
AcDbBlockEnd
  0
BLOCK
  5
61
330
60
100
AcDbEntity
  8
0
100
AcDbBlockBegin
  2
FXTIP_TRIANGLE_E
 70
     0
 71
     0
 10
0.0
 20
0.0
 30
0.0
  3
FXTIP_TRIANGLE_E
  1

  0
LINE
  5
63
330
60
100
AcDbEntity
  8
0
  6
CONTINUOUS
 62
     0
100
AcDbLine
 10
0.0
 20
0.0
 30
0.0
 11
-1.0
 21
0.0
 31
0.0
  0
LINE
  5
64
330
60
100
AcDbEntity
  8
0
  6
CONTINUOUS
 62
     0
100
AcDbLine
 10
0.0
 20
0.0
 30
0.0
 11
-0.965926
 21
0.258819
 31
0.0
  0
LINE
  5
65
330
60
100
AcDbEntity
  8
0
  6
CONTINUOUS
 62
     0
100
AcDbLine
 10
0.0
 20
0.0
 30
0.0
 11
-0.965926
 21
-0.258819
 31
0.0
  0
LINE
  5
66
330
60
100
AcDbEntity
  8
0
  6
CONTINUOUS
 62
     0
100
AcDbLine
 10
-0.965926
 20
0.258819
 30
0.0
 11
-0.965926
 21
-0.258819
 31
0.0
  0
ENDBLK
  5
62
330
60
100
AcDbEntity
  8
0
100
AcDbBlockEnd
  0
BLOCK
  5
68
330
67
100
AcDbEntity
  8
0
100
AcDbBlockBegin
  2
FXTIP_ARCHITECT_S
 70
     0
 71
     0
 10
0.0
 20
0.0
 30
0.0
  3
FXTIP_ARCHITECT_S
  1

  0
LINE
  5
6A
330
67
100
AcDbEntity
  8
0
  6
CONTINUOUS
 62
     0
100
AcDbLine
 10
0.0
 20
0.0
 30
0.0
 11
-1.0
 21
0.0
 31
0.0
  0
LINE
  5
6B
330
67
100
AcDbEntity
  8
0
  6
CONTINUOUS
 62
     0
100
AcDbLine
 10
0.0
 20
0.0
 30
0.0
 11
-0.707107
 21
-0.707107
 31
0.0
  0
LINE
  5
6C
330
67
100
AcDbEntity
  8
0
  6
CONTINUOUS
 62
     0
100
AcDbLine
 10
0.0
 20
0.0
 30
0.0
 11
0.707107
 21
0.707107
 31
0.0
  0
ENDBLK
  5
69
330
67
100
AcDbEntity
  8
0
100
AcDbBlockEnd
  0
BLOCK
  5
6E
330
6D
100
AcDbEntity
  8
0
100
AcDbBlockBegin
  2
FXTIP_ARCHITECT_E
 70
     0
 71
     0
 10
0.0
 20
0.0
 30
0.0
  3
FXTIP_ARCHITECT_E
  1

  0
LINE
  5
70
330
6D
100
AcDbEntity
  8
0
  6
CONTINUOUS
 62
     0
100
AcDbLine
 10
0.0
 20
0.0
 30
0.0
 11
-1.0
 21
0.0
 31
0.0
  0
LINE
  5
71
330
6D
100
AcDbEntity
  8
0
  6
CONTINUOUS
 62
     0
100
AcDbLine
 10
0.0
 20
0.0
 30
0.0
 11
0.707107
 21
0.707107
 31
0.0
  0
LINE
  5
72
330
6D
100
AcDbEntity
  8
0
  6
CONTINUOUS
 62
     0
100
AcDbLine
 10
0.0
 20
0.0
 30
0.0
 11
-0.707107
 21
-0.707107
 31
0.0
  0
ENDBLK
  5
6F
330
6D
100
AcDbEntity
  8
0
100
AcDbBlockEnd
  0
BLOCK
  5
74
330
73
100
AcDbEntity
  8
0
100
AcDbBlockBegin
  2
FXTIP_CIVIL_S
 70
     0
 71
     0
 10
0.0
 20
0.0
 30
0.0
  3
FXTIP_CIVIL_S
  1

  0
LINE
  5
76
330
73
100
AcDbEntity
  8
0
  6
CONTINUOUS
 62
     0
100
AcDbLine
 10
0.0
 20
0.0
 30
0.0
 11
-1.0
 21
0.0
 31
0.0
  0
LINE
  5
77
330
73
100
AcDbEntity
  8
0
  6
CONTINUOUS
 62
     0
100
AcDbLine
 10
0.0
 20
-0.0625
 30
0.0
 11
-1.0
 21
-0.0625
 31
0.0
  0
LINE
  5
78
330
73
100
AcDbEntity
  8
0
  6
CONTINUOUS
 62
     0
100
AcDbLine
 10
0.0
 20
-0.125
 30
0.0
 11
-1.0
 21
-0.125
 31
0.0
  0
ENDBLK
  5
75
330
73
100
AcDbEntity
  8
0
100
AcDbBlockEnd
  0
BLOCK
  5
7A
330
79
100
AcDbEntity
  8
0
100
AcDbBlockBegin
  2
FXTIP_CIVIL_E
 70
     0
 71
     0
 10
0.0
 20
0.0
 30
0.0
  3
FXTIP_CIVIL_E
  1

  0
LINE
  5
7C
330
79
100
AcDbEntity
  8
0
  6
CONTINUOUS
 62
     0
100
AcDbLine
 10
0.0
 20
0.0
 30
0.0
 11
-1.0
 21
0.0
 31
0.0
  0
LINE
  5
7D
330
79
100
AcDbEntity
  8
0
  6
CONTINUOUS
 62
     0
100
AcDbLine
 10
0.0
 20
0.0625
 30
0.0
 11
-1.0
 21
0.0625
 31
0.0
  0
LINE
  5
7E
330
79
100
AcDbEntity
  8
0
  6
CONTINUOUS
 62
     0
100
AcDbLine
 10
0.0
 20
0.125
 30
0.0
 11
-1.0
 21
0.125
 31
0.0
  0
ENDBLK
  5
7B
330
79
100
AcDbEntity
  8
0
100
AcDbBlockEnd
  0
BLOCK
  5
80
330
7F
100
AcDbEntity
  8
0
100
AcDbBlockBegin
  2
FXTIP_WHITEDOT_S
 70
     0
 71
     0
 10
0.0
 20
0.0
 30
0.0
  3
FXTIP_WHITEDOT_S
  1

  0
LINE
  5
82
330
7F
100
AcDbEntity
  8
0
  6
CONTINUOUS
 62
     0
100
AcDbLine
 10
0.0
 20
0.0
 30
0.0
 11
-1.0
 21
0.0
 31
0.0
  0
CIRCLE
  5
83
330
7F
100
AcDbEntity
  8
0
  6
CONTINUOUS
 62
     0
100
AcDbCircle
 10
0.0
 20
0.0
 30
0.0
 40
0.5
  0
ENDBLK
  5
81
330
7F
100
AcDbEntity
  8
0
100
AcDbBlockEnd
  0
BLOCK
  5
85
330
84
100
AcDbEntity
  8
0
100
AcDbBlockBegin
  2
FXTIP_WHITEDOT_E
 70
     0
 71
     0
 10
0.0
 20
0.0
 30
0.0
  3
FXTIP_WHITEDOT_E
  1

  0
LINE
  5
87
330
84
100
AcDbEntity
  8
0
  6
CONTINUOUS
 62
     0
100
AcDbLine
 10
0.0
 20
0.0
 30
0.0
 11
-1.0
 21
0.0
 31
0.0
  0
CIRCLE
  5
88
330
84
100
AcDbEntity
  8
0
  6
CONTINUOUS
 62
     0
100
AcDbCircle
 10
0.0
 20
0.0
 30
0.0
 40
0.5
  0
ENDBLK
  5
86
330
84
100
AcDbEntity
  8
0
100
AcDbBlockEnd
  0
BLOCK
  5
8A
330
89
100
AcDbEntity
  8
0
100
AcDbBlockBegin
  2
FXTIP_UPARROW_S
 70
     0
 71
     0
 10
0.0
 20
0.0
 30
0.0
  3
FXTIP_UPARROW_S
  1

  0
LINE
  5
8C
330
89
100
AcDbEntity
  8
0
  6
CONTINUOUS
 62
     0
100
AcDbLine
 10
0.0
 20
0.0
 30
0.0
 11
-1.0
 21
0.0
 31
0.0
  0
LINE
  5
8D
330
89
100
AcDbEntity
  8
0
  6
CONTINUOUS
 62
     0
100
AcDbLine
 10
0.0
 20
0.0
 30
0.0
 11
-0.965926
 21
-0.258819
 31
0.0
  0
ENDBLK
  5
8B
330
89
100
AcDbEntity
  8
0
100
AcDbBlockEnd
  0
BLOCK
  5
8F
330
8E
100
AcDbEntity
  8
0
100
AcDbBlockBegin
  2
FXTIP_UPARROW_E
 70
     0
 71
     0
 10
0.0
 20
0.0
 30
0.0
  3
FXTIP_UPARROW_E
  1

  0
LINE
  5
91
330
8E
100
AcDbEntity
  8
0
  6
CONTINUOUS
 62
     0
100
AcDbLine
 10
0.0
 20
0.0
 30
0.0
 11
-1.0
 21
0.0
 31
0.0
  0
LINE
  5
92
330
8E
100
AcDbEntity
  8
0
  6
CONTINUOUS
 62
     0
100
AcDbLine
 10
0.0
 20
0.0
 30
0.0
 11
-0.965926
 21
0.258819
 31
0.0
  0
ENDBLK
  5
90
330
8E
100
AcDbEntity
  8
0
100
AcDbBlockEnd
  0
BLOCK
  5
94
330
93
100
AcDbEntity
  8
0
100
AcDbBlockBegin
  2
FXTIP_DOWNARROW_S
 70
     0
 71
     0
 10
0.0
 20
0.0
 30
0.0
  3
FXTIP_DOWNARROW_S
  1

  0
LINE
  5
96
330
93
100
AcDbEntity
  8
0
  6
CONTINUOUS
 62
     0
100
AcDbLine
 10
0.0
 20
0.0
 30
0.0
 11
-1.0
 21
0.0
 31
0.0
  0
LINE
  5
97
330
93
100
AcDbEntity
  8
0
  6
CONTINUOUS
 62
     0
100
AcDbLine
 10
0.0
 20
0.0
 30
0.0
 11
-0.965926
 21
0.258819
 31
0.0
  0
ENDBLK
  5
95
330
93
100
AcDbEntity
  8
0
100
AcDbBlockEnd
  0
BLOCK
  5
99
330
98
100
AcDbEntity
  8
0
100
AcDbBlockBegin
  2
FXTIP_DOWNARROW_E
 70
     0
 71
     0
 10
0.0
 20
0.0
 30
0.0
  3
FXTIP_DOWNARROW_E
  1

  0
LINE
  5
9B
330
98
100
AcDbEntity
  8
0
  6
CONTINUOUS
 62
     0
100
AcDbLine
 10
0.0
 20
0.0
 30
0.0
 11
-1.0
 21
0.0
 31
0.0
  0
LINE
  5
9C
330
98
100
AcDbEntity
  8
0
  6
CONTINUOUS
 62
     0
100
AcDbLine
 10
0.0
 20
0.0
 30
0.0
 11
-0.965926
 21
-0.258819
 31
0.0
  0
ENDBLK
  5
9A
330
98
100
AcDbEntity
  8
0
100
AcDbBlockEnd
  0
BLOCK
  5
9E
330
9D
100
AcDbEntity
  8
0
100
AcDbBlockBegin
  2
FXTIP_BLACKTRIANGLE_S
 70
     0
 71
     0
 10
0.0
 20
0.0
 30
0.0
  3
FXTIP_BLACKTRIANGLE_S
  1

  0
LINE
  5
A0
330
9D
100
AcDbEntity
  8
0
  6
CONTINUOUS
 62
     0
100
AcDbLine
 10
0.0
 20
0.0
 30
0.0
 11
-1.0
 21
0.0
 31
0.0
  0
SOLID
  5
A1
330
9D
100
AcDbEntity
  8
0
  6
CONTINUOUS
 62
     0
100
AcDbTrace
 10
0.0
 20
0.0
 30
0.0
 11
-0.965926
 21
-0.258819
 31
0.0
 12
-0.965926
 22
0.258819
 32
0.0
 13
-0.965926
 23
0.258819
 33
0.0
  0
ENDBLK
  5
9F
330
9D
100
AcDbEntity
  8
0
100
AcDbBlockEnd
  0
BLOCK
  5
A3
330
A2
100
AcDbEntity
  8
0
100
AcDbBlockBegin
  2
FXTIP_BLACKTRIANGLE_E
 70
     0
 71
     0
 10
0.0
 20
0.0
 30
0.0
  3
FXTIP_BLACKTRIANGLE_E
  1

  0
LINE
  5
A5
330
A2
100
AcDbEntity
  8
0
  6
CONTINUOUS
 62
     0
100
AcDbLine
 10
0.0
 20
0.0
 30
0.0
 11
-1.0
 21
0.0
 31
0.0
  0
SOLID
  5
A6
330
A2
100
AcDbEntity
  8
0
  6
CONTINUOUS
 62
     0
100
AcDbTrace
 10
0.0
 20
0.0
 30
0.0
 11
-0.965926
 21
0.258819
 31
0.0
 12
-0.965926
 22
-0.258819
 32
0.0
 13
-0.965926
 23
-0.258819
 33
0.0
  0
ENDBLK
  5
A4
330
A2
100
AcDbEntity
  8
0
100
AcDbBlockEnd
  0
BLOCK
  5
A9
330
A8
100
AcDbEntity
  8
0
100
AcDbBlockBegin
  2
BLKF021
 70
     0
 71
     0
 10
0.0
 20
0.0
 30
0.0
  3
BLKF021
  1

  0
LINE
  5
AC
330
A8
100
AcDbEntity
  8
}}ﾊﾊGG血CCТ
  6
CONTINUOUS
 62
     7
100
AcDbLine
 10
10.0
 20
10.0
 30
0.0
 11
410.0
 21
10.0
 31
0.0
  0
LINE
  5
AD
330
A8
100
AcDbEntity
  8
}}ﾊﾊGG血CCТ
  6
CONTINUOUS
 62
     7
100
AcDbLine
 10
10.0
 20
10.0
 30
0.0
 11
10.0
 21
287.0
 31
0.0
  0
LINE
  5
AE
330
A8
100
AcDbEntity
  8
}}ﾊﾊGG血CCТ
  6
CONTINUOUS
 62
     7
100
AcDbLine
 10
10.0
 20
287.0
 30
0.0
 11
410.0
 21
287.0
 31
0.0
  0
LINE
  5
AF
330
A8
100
AcDbEntity
  8
}}ﾊﾊGG血CCТ
  6
CONTINUOUS
 62
     7
100
AcDbLine
 10
410.0
 20
287.0
 30
0.0
 11
410.0
 21
10.0
 31
0.0
  0
LINE
  5
B0
330
A8
100
AcDbEntity
  8
}}ﾊﾊGG血CCТ
  6
CONTINUOUS
 62
     7
100
AcDbLine
 10
153.0
 20
10.0
 30
0.0
 11
153.0
 21
20.0
 31
0.0
  0
TEXT
  5
B1
330
A8
100
AcDbEntity
  8
}}ﾊﾊGG血CCТ
  6
CONTINUOUS
 62
     7
100
AcDbText
 10
137.738815
 20
11.596879
 30
0.0
 40
6.648749
  1
品名
 41
1.083413
  7
FX_VECTOR
 72
     5
 11
149.058355
 21
11.596879
 31
0.0
100
AcDbText
  0
LINE
  5
B2
330
A8
100
AcDbEntity
  8
}}ﾊﾊGG血CCТ
  6
CONTINUOUS
 62
     7
100
AcDbLine
 10
233.0
 20
20.0
 30
0.0
 11
233.0
 21
10.0
 31
0.0
  0
LINE
  5
B3
330
A8
100
AcDbEntity
  8
}}ﾊﾊGG血CCТ
  6
CONTINUOUS
 62
     7
100
AcDbLine
 10
133.0
 20
20.0
 30
0.0
 11
410.0
 21
20.0
 31
0.0
  0
INSERT
  5
B7
330
A8
100
AcDbEntity
  8
0
100
AcDbBlockReference
  2
BLKF022
 10
0.0
 20
0.0
 30
0.0
  0
INSERT
  5
C0
330
A8
100
AcDbEntity
  8
0
100
AcDbBlockReference
  2
BLKF023
 10
0.0
 20
0.0
 30
0.0
  0
HATCH
  5
D1
330
A8
100
AcDbEntity
  8
GR1-1
  6
CONTINUOUS
 62
     7
100
AcDbHatch
 10
0.0
 20
0.0
 30
0.0
210
0.0
220
0.0
230
1.0
  2

 70
     0
 71
     1
 91
        2
 92
        0
 93
        4
 72
     1
 10
338.8018997861325
 20
17.91346152
 11
344.8018997861325
 21
17.91346152
 72
     1
 10
344.8018997861325
 20
17.91346152
 11
344.8018997861325
 21
11.91346152
 72
     1
 10
344.8018997861325
 20
11.91346152
 11
338.8018997861325
 21
11.91346152
 72
     1
 10
338.8018997861325
 20
11.91346152
 11
338.8018997861325
 21
17.91346152
 97
        0
 92
        0
 93
       15
 72
     1
 10
341.8018997861325
 20
17.76923076000002
 11
338.9461305461325
 21
14.91346152
 72
     1
 10
338.9461305461325
 20
14.91346152
 11
341.8018997861325
 21
12.05769228000001
 72
     1
 10
341.8018997861325
 20
12.05769228000001
 11
343.3595920661325
 21
13.61538462
 72
     1
 10
343.3595920661325
 20
13.61538462
 11
343.3595920661325
 21
12.98076924
 72
     1
 10
343.3595920661325
 20
12.98076924
 11
344.2249766861325
 21
12.98076924
 72
     1
 10
344.2249766861325
 20
12.98076924
 11
344.2249766861325
 21
15.00000000000001
 72
     1
 10
344.2249766861325
 20
15.00000000000001
 11
341.8018997861325
 21
15.00000000000001
 72
     1
 10
341.8018997861325
 20
15.00000000000001
 11
341.8018997861325
 21
14.13461538000001
 72
     1
 10
341.8018997861325
 20
14.13461538000001
 11
342.2461305461325
 21
14.13461538000001
 72
     1
 10
342.2461305461325
 20
14.13461538000001
 11
341.8018997861325
 21
13.69038462
 72
     1
 10
341.8018997861325
 20
13.69038462
 11
340.5788228861325
 21
14.91346152
 72
     1
 10
340.5788228861325
 20
14.91346152
 11
341.8018997861325
 21
16.13653842000003
 72
     1
 10
341.8018997861325
 20
16.13653842000003
 11
342.5922844061325
 21
15.3461538
 72
     1
 10
342.5922844061325
 20
15.3461538
 11
344.2249766861325
 21
15.3461538
 72
     1
 10
344.2249766861325
 20
15.3461538
 11
341.8018997861325
 21
17.76923076000002
 97
        0
 75
     0
 76
     0
 52
45.0
 41
0.05
 77
     0
 78
     1
 53
45.0
 43
0.0
 44
0.0
 45
-0.0353553390593274
 46
0.0353553390593274
 79
     0
 98
        0
  0
TEXT
  5
D2
330
A8
100
AcDbEntity
  8
}}ﾊﾊGG血CCТ
  6
CONTINUOUS
 62
     7
100
AcDbText
 10
349.225769
 20
11.461285
 30
0.0
 40
7.170908
  1
GOLD CASTER
 41
0.63978
  7
FX_VECTOR
 72
     5
 11
395.977636
 21
11.461285
 31
0.0
100
AcDbText
  0
LINE
  5
D3
330
A8
100
AcDbEntity
  8
}}ﾊﾊGG血CCТ
  6
CONTINUOUS
 62
     7
100
AcDbLine
 10
253.0
 20
10.0
 30
0.0
 11
253.0
 21
20.0
 31
0.0
  0
TEXT
  5
D4
330
A8
100
AcDbEntity
  8
}}ﾊﾊGG血CCТ
  6
CONTINUOUS
 62
     7
100
AcDbText
 10
237.738815
 20
11.596879
 30
0.0
 40
6.648749
  1
図番
 41
1.083413
  7
FX_VECTOR
 72
     5
 11
249.058355
 21
11.596879
 31
0.0
100
AcDbText
  0
LINE
  5
D5
330
A8
100
AcDbEntity
  8
}}ﾊﾊGG血CCТ
  6
CONTINUOUS
 62
     7
100
AcDbLine
 10
333.0
 20
20.0
 30
0.0
 11
333.0
 21
10.0
 31
0.0
  0
LINE
  5
D6
330
A8
100
AcDbEntity
  8
}}ﾊﾊGG血CCТ
  6
CONTINUOUS
 62
     7
100
AcDbLine
 10
133.0
 20
20.0
 30
0.0
 11
133.0
 21
10.0
 31
0.0
  0
ENDBLK
  5
AA
330
A8
100
AcDbEntity
  8
0
100
AcDbBlockEnd
  0
BLOCK
  5
B5
330
B4
100
AcDbEntity
  8
0
100
AcDbBlockBegin
  2
BLKF022
 70
     0
 71
     0
 10
0.0
 20
0.0
 30
0.0
  3
BLKF022
  1

  0
LINE
  5
B9
330
B4
100
AcDbEntity
  8
0-1
  6
CONTINUOUS
 62
     7
100
AcDbLine
 10
344.8019
 20
17.913462
 30
0.0
 11
338.8019
 21
17.913462
 31
0.0
  0
LINE
  5
BA
330
B4
100
AcDbEntity
  8
0-1
  6
CONTINUOUS
 62
     7
100
AcDbLine
 10
338.8019
 20
17.913462
 30
0.0
 11
338.8019
 21
11.913462
 31
0.0
  0
LINE
  5
BB
330
B4
100
AcDbEntity
  8
0-1
  6
CONTINUOUS
 62
     7
100
AcDbLine
 10
338.8019
 20
11.913462
 30
0.0
 11
344.8019
 21
11.913462
 31
0.0
  0
LINE
  5
BC
330
B4
100
AcDbEntity
  8
0-1
  6
CONTINUOUS
 62
     7
100
AcDbLine
 10
344.8019
 20
11.913462
 30
0.0
 11
344.8019
 21
17.913462
 31
0.0
  0
ENDBLK
  5
B6
330
B4
100
AcDbEntity
  8
0
100
AcDbBlockEnd
  0
BLOCK
  5
BE
330
BD
100
AcDbEntity
  8
0
100
AcDbBlockBegin
  2
BLKF023
 70
     0
 71
     0
 10
0.0
 20
0.0
 30
0.0
  3
BLKF023
  1

  0
LINE
  5
C1
330
BD
100
AcDbEntity
  8
0-1
  6
CONTINUOUS
 62
     7
100
AcDbLine
 10
344.224977
 20
15.346154
 30
0.0
 11
341.8019
 21
17.769231
 31
0.0
  0
LINE
  5
C2
330
BD
100
AcDbEntity
  8
0-1
  6
CONTINUOUS
 62
     7
100
AcDbLine
 10
341.8019
 20
17.769231
 30
0.0
 11
338.946131
 21
14.913462
 31
0.0
  0
LINE
  5
C3
330
BD
100
AcDbEntity
  8
0-1
  6
CONTINUOUS
 62
     7
100
AcDbLine
 10
338.946131
 20
14.913462
 30
0.0
 11
341.8019
 21
12.057692
 31
0.0
  0
LINE
  5
C4
330
BD
100
AcDbEntity
  8
0-1
  6
CONTINUOUS
 62
     7
100
AcDbLine
 10
341.8019
 20
12.057692
 30
0.0
 11
343.359592
 21
13.615385
 31
0.0
  0
LINE
  5
C5
330
BD
100
AcDbEntity
  8
0-1
  6
CONTINUOUS
 62
     7
100
AcDbLine
 10
343.359592
 20
13.615385
 30
0.0
 11
343.359592
 21
12.980769
 31
0.0
  0
LINE
  5
C6
330
BD
100
AcDbEntity
  8
0-1
  6
CONTINUOUS
 62
     7
100
AcDbLine
 10
343.359592
 20
12.980769
 30
0.0
 11
344.224977
 21
12.980769
 31
0.0
  0
LINE
  5
C7
330
BD
100
AcDbEntity
  8
0-1
  6
CONTINUOUS
 62
     7
100
AcDbLine
 10
344.224977
 20
12.980769
 30
0.0
 11
344.224977
 21
15.0
 31
0.0
  0
LINE
  5
C8
330
BD
100
AcDbEntity
  8
0-1
  6
CONTINUOUS
 62
     7
100
AcDbLine
 10
344.224977
 20
15.0
 30
0.0
 11
341.8019
 21
15.0
 31
0.0
  0
LINE
  5
C9
330
BD
100
AcDbEntity
  8
0-1
  6
CONTINUOUS
 62
     7
100
AcDbLine
 10
341.8019
 20
15.0
 30
0.0
 11
341.8019
 21
14.134615
 31
0.0
  0
LINE
  5
CA
330
BD
100
AcDbEntity
  8
0-1
  6
CONTINUOUS
 62
     7
100
AcDbLine
 10
341.8019
 20
14.134615
 30
0.0
 11
342.246131
 21
14.134615
 31
0.0
  0
LINE
  5
CB
330
BD
100
AcDbEntity
  8
0-1
  6
CONTINUOUS
 62
     7
100
AcDbLine
 10
342.246131
 20
14.134615
 30
0.0
 11
341.8019
 21
13.690385
 31
0.0
  0
LINE
  5
CC
330
BD
100
AcDbEntity
  8
0-1
  6
CONTINUOUS
 62
     7
100
AcDbLine
 10
341.8019
 20
13.690385
 30
0.0
 11
340.578823
 21
14.913462
 31
0.0
  0
LINE
  5
CD
330
BD
100
AcDbEntity
  8
0-1
  6
CONTINUOUS
 62
     7
100
AcDbLine
 10
340.578823
 20
14.913462
 30
0.0
 11
341.8019
 21
16.136538
 31
0.0
  0
LINE
  5
CE
330
BD
100
AcDbEntity
  8
0-1
  6
CONTINUOUS
 62
     7
100
AcDbLine
 10
341.8019
 20
16.136538
 30
0.0
 11
342.592284
 21
15.346154
 31
0.0
  0
LINE
  5
CF
330
BD
100
AcDbEntity
  8
0-1
  6
CONTINUOUS
 62
     7
100
AcDbLine
 10
342.592284
 20
15.346154
 30
0.0
 11
344.224977
 21
15.346154
 31
0.0
  0
ENDBLK
  5
BF
330
BD
100
AcDbEntity
  8
0
100
AcDbBlockEnd
  0
BLOCK
  5
17D
330
17C
100
AcDbEntity
  8
0
100
AcDbBlockBegin
  2
*D22
 70
     1
 71
     0
 10
0.0
 20
0.0
 30
0.0
  3
*D22
  1

  0
TEXT
  5
17F
330
17C
100
AcDbEntity
  8
GR1-1
  6
CONTINUOUS
 62
     7
100
AcDbText
 10
249.385071
 20
29.134613
 30
0.0
 40
4.0
  1
30
 41
0.851351
  7
FX_VECTOR
 72
     5
 11
255.385071
 21
29.134613
 31
0.0
100
AcDbText
  0
LINE
  5
180
330
17C
100
AcDbEntity
  8
GR1-1
  6
CONTINUOUS
 62
     7
100
AcDbLine
 10
237.385057
 20
28.134622
 30
0.0
 11
267.385057
 21
28.134622
 31
0.0
  0
INSERT
  5
181
330
17C
100
AcDbEntity
  8
GR1-1
  6
CONTINUOUS
 62
     7
100
AcDbBlockReference
  2
FXTIP_ARROW_S
 10
237.385057
 20
28.134622
 30
0.0
 41
4.0
 42
4.0
 50
180.0
  0
INSERT
  5
182
330
17C
100
AcDbEntity
  8
GR1-1
  6
CONTINUOUS
 62
     7
100
AcDbBlockReference
  2
FXTIP_ARROW_E
 10
267.385057
 20
28.134622
 30
0.0
 41
4.0
 42
4.0
 50
360.0
  0
LINE
  5
183
330
17C
100
AcDbEntity
  8
GR1-1
  6
CONTINUOUS
 62
     7
100
AcDbLine
 10
237.385057
 20
33.828559
 30
0.0
 11
237.385057
 21
27.134622
 31
0.0
  0
LINE
  5
184
330
17C
100
AcDbEntity
  8
GR1-1
  6
CONTINUOUS
 62
     7
100
AcDbLine
 10
267.385057
 20
108.463872
 30
0.0
 11
267.385057
 21
27.134622
 31
0.0
  0
ENDBLK
  5
17E
330
17C
100
AcDbEntity
  8
0
100
AcDbBlockEnd
  0
BLOCK
  5
187
330
186
100
AcDbEntity
  8
0
100
AcDbBlockBegin
  2
*D23
 70
     1
 71
     0
 10
0.0
 20
0.0
 30
0.0
  3
*D23
  1

  0
TEXT
  5
189
330
186
100
AcDbEntity
  8
GR1-1
  6
CONTINUOUS
 62
     7
100
AcDbText
 10
311.028534
 20
96.631287
 30
0.0
 40
4.0
  1
126
 50
90.0
 41
0.828947
  7
FX_VECTOR
 72
     5
 11
311.028534
 21
105.631287
 31
0.0
100
AcDbText
  0
LINE
  5
18A
330
186
100
AcDbEntity
  8
GR1-1
  6
CONTINUOUS
 62
     7
100
AcDbLine
 10
312.028541
 20
38.131305
 30
0.0
 11
312.028541
 21
164.131305
 31
0.0
  0
INSERT
  5
18B
330
186
100
AcDbEntity
  8
GR1-1
  6
CONTINUOUS
 62
     7
100
AcDbBlockReference
  2
FXTIP_ARROW_S
 10
312.028541
 20
38.131305
 30
0.0
 41
4.0
 42
4.0
 50
270.0
  0
INSERT
  5
18C
330
186
100
AcDbEntity
  8
GR1-1
  6
CONTINUOUS
 62
     7
100
AcDbBlockReference
  2
FXTIP_ARROW_E
 10
312.028541
 20
164.131305
 30
0.0
 41
4.0
 42
4.0
 50
90.0
  0
LINE
  5
18D
330
186
100
AcDbEntity
  8
GR1-1
  6
CONTINUOUS
 62
     7
100
AcDbLine
 10
238.385057
 20
38.131305
 30
0.0
 11
313.028541
 21
38.131305
 31
0.0
  0
LINE
  5
18E
330
186
100
AcDbEntity
  8
GR1-1
  6
CONTINUOUS
 62
     7
100
AcDbLine
 10
281.664114
 20
164.131305
 30
0.0
 11
313.028541
 21
164.131305
 31
0.0
  0
ENDBLK
  5
188
330
186
100
AcDbEntity
  8
0
100
AcDbBlockEnd
  0
BLOCK
  5
191
330
190
100
AcDbEntity
  8
0
100
AcDbBlockBegin
  2
*D24
 70
     1
 71
     0
 10
0.0
 20
0.0
 30
0.0
  3
*D24
  1

  0
TEXT
  5
193
330
190
100
AcDbEntity
  8
GR1-1
  6
CONTINUOUS
 62
     7
100
AcDbText
 10
301.028534
 20
181.131302
 30
0.0
 40
4.0
  1
40
 50
90.0
 41
0.851351
  7
FX_VECTOR
 72
     5
 11
301.028534
 21
187.131302
 31
0.0
100
AcDbText
  0
LINE
  5
194
330
190
100
AcDbEntity
  8
GR1-1
  6
CONTINUOUS
 62
     7
100
AcDbLine
 10
302.028541
 20
164.131305
 30
0.0
 11
302.028541
 21
204.131305
 31
0.0
  0
INSERT
  5
195
330
190
100
AcDbEntity
  8
GR1-1
  6
CONTINUOUS
 62
     7
100
AcDbBlockReference
  2
FXTIP_ARROW_S
 10
302.028541
 20
164.131305
 30
0.0
 41
4.0
 42
4.0
 50
270.0
  0
INSERT
  5
196
330
190
100
AcDbEntity
  8
GR1-1
  6
CONTINUOUS
 62
     7
100
AcDbBlockReference
  2
FXTIP_ARROW_E
 10
302.028541
 20
204.131305
 30
0.0
 41
4.0
 42
4.0
 50
90.0
  0
LINE
  5
197
330
190
100
AcDbEntity
  8
GR1-1
  6
CONTINUOUS
 62
     7
100
AcDbLine
 10
275.302557
 20
164.131305
 30
0.0
 11
303.028541
 21
164.131305
 31
0.0
  0
LINE
  5
198
330
190
100
AcDbEntity
  8
GR1-1
  6
CONTINUOUS
 62
     7
100
AcDbLine
 10
275.302557
 20
204.131305
 30
0.0
 11
303.028541
 21
204.131305
 31
0.0
  0
ENDBLK
  5
192
330
190
100
AcDbEntity
  8
0
100
AcDbBlockEnd
  0
BLOCK
  5
19B
330
19A
100
AcDbEntity
  8
0
100
AcDbBlockBegin
  2
*D25
 70
     1
 71
     0
 10
0.0
 20
0.0
 30
0.0
  3
*D25
  1

  0
TEXT
  5
19D
330
19A
100
AcDbEntity
  8
GR1-1
  6
CONTINUOUS
 62
     7
100
AcDbText
 10
301.028534
 20
123.131302
 30
0.0
 40
4.0
  1
76
 50
90.0
 41
0.851351
  7
FX_VECTOR
 72
     5
 11
301.028534
 21
129.131302
 31
0.0
100
AcDbText
  0
LINE
  5
19E
330
19A
100
AcDbEntity
  8
GR1-1
  6
CONTINUOUS
 62
     7
100
AcDbLine
 10
302.028541
 20
88.131305
 30
0.0
 11
302.028541
 21
164.131305
 31
0.0
  0
INSERT
  5
19F
330
19A
100
AcDbEntity
  8
GR1-1
  6
CONTINUOUS
 62
     7
100
AcDbBlockReference
  2
FXTIP_ARROW_S
 10
302.028541
 20
88.131305
 30
0.0
 41
4.0
 42
4.0
 50
270.0
  0
INSERT
  5
1A0
330
19A
100
AcDbEntity
  8
GR1-1
  6
CONTINUOUS
 62
     7
100
AcDbBlockReference
  2
FXTIP_ARROW_E
 10
302.028541
 20
164.131305
 30
0.0
 41
4.0
 42
4.0
 50
90.0
  0
LINE
  5
1A1
330
19A
100
AcDbEntity
  8
GR1-1
  6
CONTINUOUS
 62
     7
100
AcDbLine
 10
291.482758
 20
88.131305
 30
0.0
 11
303.028541
 21
88.131305
 31
0.0
  0
LINE
  5
1A2
330
19A
100
AcDbEntity
  8
GR1-1
  6
CONTINUOUS
 62
     7
100
AcDbLine
 10
291.482758
 20
164.131305
 30
0.0
 11
303.028541
 21
164.131305
 31
0.0
  0
ENDBLK
  5
19C
330
19A
100
AcDbEntity
  8
0
100
AcDbBlockEnd
  0
BLOCK
  5
1A5
330
1A4
100
AcDbEntity
  8
0
100
AcDbBlockBegin
  2
*D26
 70
     1
 71
     0
 10
0.0
 20
0.0
 30
0.0
  3
*D26
  1

  0
TEXT
  5
1A7
330
1A4
100
AcDbEntity
  8
GR1-1
  6
CONTINUOUS
 62
     7
100
AcDbText
 10
301.217743
 20
248.425095
 30
0.0
 40
4.0
  1
23
 50
90.0
 41
0.851351
  7
FX_VECTOR
 72
     5
 11
301.217743
 21
254.425095
 31
0.0
100
AcDbText
  0
LINE
  5
1A8
330
1A4
100
AcDbEntity
  8
GR1-1
  6
CONTINUOUS
 62
     7
100
AcDbLine
 10
302.21775
 20
239.9251
 30
0.0
 11
302.21775
 21
262.9251
 31
0.0
  0
INSERT
  5
1A9
330
1A4
100
AcDbEntity
  8
GR1-1
  6
CONTINUOUS
 62
     7
100
AcDbBlockReference
  2
FXTIP_ARROW_S
 10
302.21775
 20
239.9251
 30
0.0
 41
4.0
 42
4.0
 50
270.0
  0
INSERT
  5
1AA
330
1A4
100
AcDbEntity
  8
GR1-1
  6
CONTINUOUS
 62
     7
100
AcDbBlockReference
  2
FXTIP_ARROW_E
 10
302.21775
 20
262.9251
 30
0.0
 41
4.0
 42
4.0
 50
90.0
  0
LINE
  5
1AB
330
1A4
100
AcDbEntity
  8
GR1-1
  6
CONTINUOUS
 62
     7
100
AcDbLine
 10
275.024586
 20
239.9251
 30
0.0
 11
303.21775
 21
239.9251
 31
0.0
  0
LINE
  5
1AC
330
1A4
100
AcDbEntity
  8
GR1-1
  6
CONTINUOUS
 62
     7
100
AcDbLine
 10
275.024586
 20
262.9251
 30
0.0
 11
303.21775
 21
262.9251
 31
0.0
  0
ENDBLK
  5
1A6
330
1A4
100
AcDbEntity
  8
0
100
AcDbBlockEnd
  0
BLOCK
  5
1AF
330
1AE
100
AcDbEntity
  8
0
100
AcDbBlockBegin
  2
*D27
 70
     1
 71
     0
 10
0.0
 20
0.0
 30
0.0
  3
*D27
  1

  0
TEXT
  5
1B1
330
1AE
100
AcDbEntity
  8
GR1-1
  6
CONTINUOUS
 62
     7
100
AcDbText
 10
146.559631
 20
82.131287
 30
0.0
 40
4.0
  1
%%c100
 50
90.0
 41
0.828947
  7
FX_VECTOR
 72
     5
 11
146.559631
 21
94.131287
 31
0.0
100
AcDbText
  0
LINE
  5
1B2
330
1AE
100
AcDbEntity
  8
GR1-1
  6
CONTINUOUS
 62
     7
100
AcDbLine
 10
147.559621
 20
38.131305
 30
0.0
 11
147.559621
 21
138.131305
 31
0.0
  0
INSERT
  5
1B3
330
1AE
100
AcDbEntity
  8
GR1-1
  6
CONTINUOUS
 62
     7
100
AcDbBlockReference
  2
FXTIP_ARROW_S
 10
147.559621
 20
38.131305
 30
0.0
 41
4.0
 42
4.0
 50
270.0
  0
INSERT
  5
1B4
330
1AE
100
AcDbEntity
  8
GR1-1
  6
CONTINUOUS
 62
     7
100
AcDbBlockReference
  2
FXTIP_ARROW_E
 10
147.559621
 20
138.131305
 30
0.0
 41
4.0
 42
4.0
 50
90.0
  0
LINE
  5
1B5
330
1AE
100
AcDbEntity
  8
GR1-1
  6
CONTINUOUS
 62
     7
100
AcDbLine
 10
106.380074
 20
38.131305
 30
0.0
 11
148.559621
 21
38.131305
 31
0.0
  0
LINE
  5
1B6
330
1AE
100
AcDbEntity
  8
GR1-1
  6
CONTINUOUS
 62
     7
100
AcDbLine
 10
106.380074
 20
138.131305
 30
0.0
 11
148.559621
 21
138.131305
 31
0.0
  0
ENDBLK
  5
1B0
330
1AE
100
AcDbEntity
  8
0
100
AcDbBlockEnd
  0
BLOCK
  5
1B9
330
1B8
100
AcDbEntity
  8
0
100
AcDbBlockBegin
  2
*D28
 70
     1
 71
     0
 10
0.0
 20
0.0
 30
0.0
  3
*D28
  1

  0
TEXT
  5
1BB
330
1B8
100
AcDbEntity
  8
GR1-1
  6
CONTINUOUS
 62
     7
100
AcDbText
 10
256.885071
 20
215.146118
 30
0.0
 40
4.0
  1
M16X2.0
 41
0.841603
  7
FX_VECTOR
 72
     5
 11
277.885071
 21
215.146118
 31
0.0
100
AcDbText
  0
LINE
  5
1BC
330
1B8
100
AcDbEntity
  8
GR1-1
  6
CONTINUOUS
 62
     7
100
AcDbLine
 10
259.385057
 20
214.146111
 30
0.0
 11
275.385057
 21
214.146111
 31
0.0
  0
INSERT
  5
1BD
330
1B8
100
AcDbEntity
  8
GR1-1
  6
CONTINUOUS
 62
     7
100
AcDbBlockReference
  2
FXTIP_ARROW_S
 10
259.385057
 20
214.146111
 30
0.0
 41
4.0
 42
4.0
 50
180.0
  0
INSERT
  5
1BE
330
1B8
100
AcDbEntity
  8
GR1-1
  6
CONTINUOUS
 62
     7
100
AcDbBlockReference
  2
FXTIP_ARROW_E
 10
275.385057
 20
214.146111
 30
0.0
 41
4.0
 42
4.0
 50
360.0
  0
LINE
  5
1BF
330
1B8
100
AcDbEntity
  8
GR1-1
  6
CONTINUOUS
 62
     7
100
AcDbLine
 10
259.385057
 20
204.131305
 30
0.0
 11
259.385057
 21
215.146111
 31
0.0
  0
LINE
  5
1C0
330
1B8
100
AcDbEntity
  8
GR1-1
  6
CONTINUOUS
 62
     7
100
AcDbLine
 10
275.385057
 20
204.131305
 30
0.0
 11
275.385057
 21
215.146111
 31
0.0
  0
ENDBLK
  5
1BA
330
1B8
100
AcDbEntity
  8
0
100
AcDbBlockEnd
  0
BLOCK
  5
1C6
330
1C5
100
AcDbEntity
  8
0
100
AcDbBlockBegin
  2
BLKF031
 70
     0
 71
     0
 10
0.0
 20
0.0
 30
0.0
  3
BLKF031
  1

  0
ARC
  5
1C9
330
1C5
100
AcDbEntity
  8
LAYERGROUP-1
  6
CONTINUOUS
 62
     3
100
AcDbCircle
 10
237.385057
 20
88.131305
 30
0.0
 40
43.5
100
AcDbArc
 50
-256.89023
 51
46.56709
  0
ARC
  5
1CA
330
1C5
100
AcDbEntity
  8
LAYERGROUP-1
  6
CONTINUOUS
 62
     6
100
AcDbCircle
 10
237.385057
 20
88.131305
 30
0.0
 40
38.5
100
AcDbArc
 50
186.400113
 51
233.599887
  0
ARC
  5
1CB
330
1C5
100
AcDbEntity
  8
LAYERGROUP-1
  6
CONTINUOUS
 62
     6
100
AcDbCircle
 10
237.385057
 20
88.131305
 30
0.0
 40
14.0
100
AcDbArc
 50
-217.910299
 51
10.245393
  0
ARC
  5
1CC
330
1C5
100
AcDbEntity
  8
LAYERGROUP-1
  6
CONTINUOUS
 62
     6
100
AcDbCircle
 10
237.385057
 20
88.131305
 30
0.0
 40
38.5
100
AcDbArc
 50
105.128892
 51
113.519471
  0
LINE
  5
1CD
330
1C5
100
AcDbEntity
  8
LAYERGROUP-1
  6
CONTINUOUS
 62
     6
100
AcDbLine
 10
214.494899
 20
119.087575
 30
0.0
 11
223.372829
 21
100.963197
 31
0.0
  0
LINE
  5
1CE
330
1C5
100
AcDbEntity
  8
LAYERGROUP-1
  6
CONTINUOUS
 62
     6
100
AcDbLine
 10
222.021221
 20
123.432899
 30
0.0
 11
227.012443
 21
116.005969
 31
0.0
  0
LINE
  5
1CF
330
1C5
100
AcDbEntity
  8
LAYERGROUP-1
  6
CONTINUOUS
 62
     6
100
AcDbLine
 10
215.635057
 20
125.80341
 30
0.0
 11
214.494899
 21
119.087575
 31
0.0
  0
LINE
  5
1D0
330
1C5
100
AcDbEntity
  8
LAYERGROUP-1
  6
CONTINUOUS
 62
     6
100
AcDbLine
 10
215.635057
 20
125.80341
 30
0.0
 11
222.021221
 21
123.432899
 31
0.0
  0
LINE
  5
1D1
330
1C5
100
AcDbEntity
  8
LAYERGROUP-1
  6
CONTINUOUS
 62
     6
100
AcDbLine
 10
223.372829
 20
100.963197
 30
0.0
 11
226.476203
 21
100.650066
 31
0.0
  0
LINE
  5
1D2
330
1C5
100
AcDbEntity
  8
LAYERGROUP-1
  6
CONTINUOUS
 62
     6
100
AcDbLine
 10
199.131062
 20
83.785981
 30
0.0
 11
219.266199
 21
82.412305
 31
0.0
  0
LINE
  5
1D3
330
1C5
100
AcDbEntity
  8
LAYERGROUP-1
  6
CONTINUOUS
 62
     6
100
AcDbLine
 10
199.131062
 20
92.476629
 30
0.0
 11
219.266199
 21
93.850305
 31
0.0
  0
LINE
  5
1D4
330
1C5
100
AcDbEntity
  8
LAYERGROUP-1
  6
CONTINUOUS
 62
     6
100
AcDbLine
 10
193.885057
 20
88.131305
 30
0.0
 11
199.131062
 21
83.785981
 31
0.0
  0
LINE
  5
1D5
330
1C5
100
AcDbEntity
  8
LAYERGROUP-1
  6
CONTINUOUS
 62
     6
100
AcDbLine
 10
193.885057
 20
88.131305
 30
0.0
 11
199.131062
 21
92.476629
 31
0.0
  0
LINE
  5
1D6
330
1C5
100
AcDbEntity
  8
LAYERGROUP-1
  6
CONTINUOUS
 62
     6
100
AcDbLine
 10
219.266199
 20
82.412305
 30
0.0
 11
223.385057
 21
88.131305
 31
0.0
  0
LINE
  5
1D7
330
1C5
100
AcDbEntity
  8
LAYERGROUP-1
  6
CONTINUOUS
 62
     6
100
AcDbLine
 10
223.385057
 20
88.131305
 30
0.0
 11
219.266199
 21
93.850305
 31
0.0
  0
LINE
  5
1D8
330
1C5
100
AcDbEntity
  8
LAYERGROUP-1
  6
CONTINUOUS
 62
     6
100
AcDbLine
 10
222.021221
 20
52.829711
 30
0.0
 11
233.278427
 21
69.580413
 31
0.0
  0
LINE
  5
1D9
330
1C5
100
AcDbEntity
  8
LAYERGROUP-1
  6
CONTINUOUS
 62
     6
100
AcDbLine
 10
214.494899
 20
57.175035
 30
0.0
 11
223.372829
 21
75.299413
 31
0.0
  0
LINE
  5
1DA
330
1C5
100
AcDbEntity
  8
LAYERGROUP-1
  6
CONTINUOUS
 62
     6
100
AcDbLine
 10
215.635057
 20
50.4592
 30
0.0
 11
222.021221
 21
52.829711
 31
0.0
  0
LINE
  5
1DB
330
1C5
100
AcDbEntity
  8
LAYERGROUP-1
  6
CONTINUOUS
 62
     6
100
AcDbLine
 10
215.635057
 20
50.4592
 30
0.0
 11
214.494899
 21
57.175035
 31
0.0
  0
LINE
  5
1DC
330
1C5
100
AcDbEntity
  8
LAYERGROUP-1
  6
CONTINUOUS
 62
     6
100
AcDbLine
 10
233.278427
 20
69.580413
 30
0.0
 11
230.385057
 21
76.00695
 31
0.0
  0
LINE
  5
1DD
330
1C5
100
AcDbEntity
  8
LAYERGROUP-1
  6
CONTINUOUS
 62
     6
100
AcDbLine
 10
230.385057
 20
76.00695
 30
0.0
 11
223.372829
 21
75.299413
 31
0.0
  0
LINE
  5
1DE
330
1C5
100
AcDbEntity
  8
LAYERGROUP-1
  6
CONTINUOUS
 62
     6
100
AcDbLine
 10
260.275216
 20
57.175035
 30
0.0
 11
251.397286
 21
75.299413
 31
0.0
  0
LINE
  5
1DF
330
1C5
100
AcDbEntity
  8
LAYERGROUP-1
  6
CONTINUOUS
 62
     6
100
AcDbLine
 10
252.748894
 20
52.829711
 30
0.0
 11
241.491688
 21
69.580413
 31
0.0
  0
LINE
  5
1E0
330
1C5
100
AcDbEntity
  8
LAYERGROUP-1
  6
CONTINUOUS
 62
     6
100
AcDbLine
 10
259.135057
 20
50.4592
 30
0.0
 11
260.275216
 21
57.175035
 31
0.0
  0
LINE
  5
1E1
330
1C5
100
AcDbEntity
  8
LAYERGROUP-1
  6
CONTINUOUS
 62
     6
100
AcDbLine
 10
259.135057
 20
50.4592
 30
0.0
 11
252.748894
 21
52.829711
 31
0.0
  0
LINE
  5
1E2
330
1C5
100
AcDbEntity
  8
LAYERGROUP-1
  6
CONTINUOUS
 62
     6
100
AcDbLine
 10
251.397286
 20
75.299413
 30
0.0
 11
244.385057
 21
76.00695
 31
0.0
  0
LINE
  5
1E3
330
1C5
100
AcDbEntity
  8
LAYERGROUP-1
  6
CONTINUOUS
 62
     6
100
AcDbLine
 10
244.385057
 20
76.00695
 30
0.0
 11
241.491688
 21
69.580413
 31
0.0
  0
LINE
  5
1E4
330
1C5
100
AcDbEntity
  8
LAYERGROUP-1
  6
CONTINUOUS
 62
     6
100
AcDbLine
 10
275.639053
 20
92.476629
 30
0.0
 11
255.503916
 21
93.850305
 31
0.0
  0
LINE
  5
1E5
330
1C5
100
AcDbEntity
  8
LAYERGROUP-1
  6
CONTINUOUS
 62
     6
100
AcDbLine
 10
275.639053
 20
83.785981
 30
0.0
 11
255.503916
 21
82.412305
 31
0.0
  0
LINE
  5
1E6
330
1C5
100
AcDbEntity
  8
LAYERGROUP-1
  6
CONTINUOUS
 62
     6
100
AcDbLine
 10
280.885057
 20
88.131305
 30
0.0
 11
275.639053
 21
92.476629
 31
0.0
  0
LINE
  5
1E7
330
1C5
100
AcDbEntity
  8
LAYERGROUP-1
  6
CONTINUOUS
 62
     6
100
AcDbLine
 10
280.885057
 20
88.131305
 30
0.0
 11
275.639053
 21
83.785981
 31
0.0
  0
LINE
  5
1E8
330
1C5
100
AcDbEntity
  8
LAYERGROUP-1
  6
CONTINUOUS
 62
     6
100
AcDbLine
 10
255.503916
 20
93.850305
 30
0.0
 11
251.385057
 21
88.131305
 31
0.0
  0
LINE
  5
1E9
330
1C5
100
AcDbEntity
  8
LAYERGROUP-1
  6
CONTINUOUS
 62
     6
100
AcDbLine
 10
251.385057
 20
88.131305
 30
0.0
 11
255.503916
 21
82.412305
 31
0.0
  0
ARC
  5
1EA
330
1C5
100
AcDbEntity
  8
LAYERGROUP-1
  6
CONTINUOUS
 62
     6
100
AcDbCircle
 10
237.385057
 20
88.131305
 30
0.0
 40
38.5
100
AcDbArc
 50
126.480529
 51
173.519471
  0
ARC
  5
1EB
330
1C5
100
AcDbEntity
  8
LAYERGROUP-1
  6
CONTINUOUS
 62
     6
100
AcDbCircle
 10
237.385057
 20
88.131305
 30
0.0
 40
38.5
100
AcDbArc
 50
246.480529
 51
293.519471
  0
ARC
  5
1EC
330
1C5
100
AcDbEntity
  8
LAYERGROUP-1
  6
CONTINUOUS
 62
     6
100
AcDbCircle
 10
237.385057
 20
88.131305
 30
0.0
 40
38.5
100
AcDbArc
 50
306.480529
 51
353.519471
  0
ARC
  5
1ED
330
1C5
100
AcDbEntity
  8
LAYERGROUP-1
  6
CONTINUOUS
 62
     6
100
AcDbCircle
 10
237.385057
 20
88.131305
 30
0.0
 40
38.5
100
AcDbArc
 50
6.480529
 51
44.643334
  0
LINE
  5
1EE
330
1C5
100
AcDbEntity
  8
LAYERGROUP-1
  6
CONTINUOUS
 62
     6
100
AcDbLine
 10
251.385057
 20
88.131305
 30
0.0
 11
280.885057
 21
88.131305
 31
0.0
  0
LINE
  5
1EF
330
1C5
100
AcDbEntity
  8
LAYERGROUP-1
  6
CONTINUOUS
 62
     6
100
AcDbLine
 10
244.385057
 20
76.00695
 30
0.0
 11
259.135057
 21
50.4592
 31
0.0
  0
LINE
  5
1F0
330
1C5
100
AcDbEntity
  8
LAYERGROUP-1
  6
CONTINUOUS
 62
     6
100
AcDbLine
 10
215.635057
 20
125.80341
 30
0.0
 11
226.686157
 21
106.662345
 31
0.0
  0
LINE
  5
1F1
330
1C5
100
AcDbEntity
  8
LAYERGROUP-1
  6
CONTINUOUS
 62
     6
100
AcDbLine
 10
230.385057
 20
76.00695
 30
0.0
 11
215.635057
 21
50.4592
 31
0.0
  0
ARC
  5
1F2
330
1C5
100
AcDbEntity
  8
LAYERGROUP-1
  6
CONTINUOUS
 62
     6
100
AcDbCircle
 10
237.385057
 20
88.131305
 30
0.0
 40
19.0
100
AcDbArc
 50
137.538152
 51
162.482325
  0
ARC
  5
1F3
330
1C5
100
AcDbEntity
  8
LAYERGROUP-1
  6
CONTINUOUS
 62
     6
100
AcDbCircle
 10
237.385057
 20
88.131305
 30
0.0
 40
19.0
100
AcDbArc
 50
197.517675
 51
222.482325
  0
ARC
  5
1F4
330
1C5
100
AcDbEntity
  8
LAYERGROUP-1
  6
CONTINUOUS
 62
     6
100
AcDbCircle
 10
237.385057
 20
88.131305
 30
0.0
 40
19.0
100
AcDbArc
 50
257.517675
 51
282.482325
  0
ARC
  5
1F5
330
1C5
100
AcDbEntity
  8
LAYERGROUP-1
  6
CONTINUOUS
 62
     6
100
AcDbCircle
 10
237.385057
 20
88.131305
 30
0.0
 40
19.0
100
AcDbArc
 50
317.517675
 51
342.461848
  0
ARC
  5
1F6
330
1C5
100
AcDbEntity
  8
LAYERGROUP-1
  6
CONTINUOUS
 62
     6
100
AcDbCircle
 10
237.385057
 20
88.131305
 30
0.0
 40
19.0
100
AcDbArc
 50
17.463102
 51
26.204952
  0
INSERT
  5
1FA
330
1C5
100
AcDbEntity
  8
0
100
AcDbBlockReference
  2
BLKF032
 10
0.0
 20
0.0
 30
0.0
  0
LINE
  5
252
330
1C5
100
AcDbEntity
  8
GR1-1
  6
CONTINUOUS
 62
     7
100
AcDbLine
 10
264.499178
 20
77.09634
 30
0.0
 11
260.498678
 21
70.167271
 31
0.0
  0
LINE
  5
253
330
1C5
100
AcDbEntity
  8
GR1-1
  6
CONTINUOUS
 62
     7
100
AcDbLine
 10
260.498678
 20
70.167271
 30
0.0
 11
267.427747
 21
66.166771
 31
0.0
  0
LINE
  5
254
330
1C5
100
AcDbEntity
  8
GR1-1
  6
CONTINUOUS
 62
     7
100
AcDbLine
 10
267.427747
 20
66.166771
 30
0.0
 11
271.428247
 21
73.09584
 31
0.0
  0
LINE
  5
255
330
1C5
100
AcDbEntity
  8
GR1-1
  6
CONTINUOUS
 62
     7
100
AcDbLine
 10
271.428247
 20
73.09584
 30
0.0
 11
264.499178
 21
77.09634
 31
0.0
  0
LINE
  5
256
330
1C5
100
AcDbEntity
  8
GR1-1
  6
CONTINUOUS
 62
     7
100
AcDbLine
 10
267.849317
 20
74.89795
 30
0.0
 11
269.229857
 21
69.745701
 31
0.0
  0
LINE
  5
257
330
1C5
100
AcDbEntity
  8
GR1-1
  6
CONTINUOUS
 62
     7
100
AcDbLine
 10
269.229857
 20
69.745701
 30
0.0
 11
264.624087
 21
68.511589
 31
0.0
  0
LINE
  5
258
330
1C5
100
AcDbEntity
  8
GR1-1
  6
CONTINUOUS
 62
     7
100
AcDbLine
 10
264.624087
 20
68.511589
 30
0.0
 11
265.567014
 21
70.144786
 31
0.0
  0
LINE
  5
259
330
1C5
100
AcDbEntity
  8
GR1-1
  6
CONTINUOUS
 62
     7
100
AcDbLine
 10
265.567014
 20
70.144786
 30
0.0
 11
267.59666
 21
70.688628
 31
0.0
  0
LINE
  5
25A
330
1C5
100
AcDbEntity
  8
GR1-1
  6
CONTINUOUS
 62
     7
100
AcDbLine
 10
267.59666
 20
70.688628
 30
0.0
 11
266.90639
 21
73.264752
 31
0.0
  0
LINE
  5
25B
330
1C5
100
AcDbEntity
  8
GR1-1
  6
CONTINUOUS
 62
     7
100
AcDbLine
 10
266.90639
 20
73.264752
 30
0.0
 11
264.330265
 21
72.574482
 31
0.0
  0
LINE
  5
25C
330
1C5
100
AcDbEntity
  8
GR1-1
  6
CONTINUOUS
 62
     7
100
AcDbLine
 10
264.330265
 20
72.574482
 30
0.0
 11
264.693165
 21
71.220121
 31
0.0
  0
ARC
  5
25D
330
1C5
100
AcDbEntity
  8
GR1-1
  6
CONTINUOUS
 62
     7
100
AcDbCircle
 10
264.821972
 20
71.254635
 30
0.0
 40
0.13335
100
AcDbArc
 50
195.0
 51
330.0
  0
LINE
  5
25E
330
1C5
100
AcDbEntity
  8
GR1-1
  6
CONTINUOUS
 62
     7
100
AcDbLine
 10
264.937456
 20
71.18796
 30
0.0
 11
265.38604
 21
71.96493
 31
0.0
  0
LINE
  5
25F
330
1C5
100
AcDbEntity
  8
GR1-1
  6
CONTINUOUS
 62
     7
100
AcDbLine
 10
265.38604
 20
71.96493
 30
0.0
 11
265.963463
 21
71.631555
 31
0.0
  0
LINE
  5
260
330
1C5
100
AcDbEntity
  8
GR1-1
  6
CONTINUOUS
 62
     7
100
AcDbLine
 10
265.963463
 20
71.631555
 30
0.0
 11
264.077609
 21
68.365161
 31
0.0
  0
LINE
  5
261
330
1C5
100
AcDbEntity
  8
GR1-1
  6
CONTINUOUS
 62
     7
100
AcDbLine
 10
264.077609
 20
68.365161
 30
0.0
 11
261.739833
 21
69.714876
 31
0.0
  0
LINE
  5
262
330
1C5
100
AcDbEntity
  8
GR1-1
  6
CONTINUOUS
 62
     7
100
AcDbLine
 10
261.739833
 20
69.714876
 30
0.0
 11
262.406583
 21
70.869721
 31
0.0
  0
LINE
  5
263
330
1C5
100
AcDbEntity
  8
GR1-1
  6
CONTINUOUS
 62
     7
100
AcDbLine
 10
262.406583
 20
70.869721
 30
0.0
 11
263.31071
 21
70.347723
 31
0.0
  0
ARC
  5
264
330
1C5
100
AcDbEntity
  8
GR1-1
  6
CONTINUOUS
 62
     7
100
AcDbCircle
 10
263.377385
 20
70.463208
 30
0.0
 40
0.13335
100
AcDbArc
 50
-120.0
 51
15.0
  0
LINE
  5
265
330
1C5
100
AcDbEntity
  8
GR1-1
  6
CONTINUOUS
 62
     7
100
AcDbLine
 10
263.506191
 20
70.497721
 30
0.0
 11
262.697068
 21
73.517409
 31
0.0
  0
LINE
  5
266
330
1C5
100
AcDbEntity
  8
GR1-1
  6
CONTINUOUS
 62
     7
100
AcDbLine
 10
262.697068
 20
73.517409
 30
0.0
 11
267.849317
 21
74.89795
 31
0.0
  0
TEXT
  5
267
330
1C5
100
AcDbEntity
  8
LAYERGROUP-1
  6
CONTINUOUS
 62
     7
100
AcDbText
 10
208.673401
 20
99.762772
 30
0.0
 40
7.111485
  1
0
 50
64.5
 41
0.667612
  7
FX_VECTOR
 72
     5
 11
210.32802
 21
103.231753
 31
0.0
100
AcDbText
  0
TEXT
  5
268
330
1C5
100
AcDbEntity
  8
LAYERGROUP-1
  6
CONTINUOUS
 62
     7
100
AcDbText
 10
207.400818
 20
95.915619
 30
0.0
 40
7.111485
  1
0
 50
72.0
 41
0.667612
  7
FX_VECTOR
 72
     5
 11
208.588489
 21
99.570894
 31
0.0
100
AcDbText
  0
TEXT
  5
269
330
1C5
100
AcDbEntity
  8
LAYERGROUP-1
  6
CONTINUOUS
 62
     7
100
AcDbText
 10
206.79277
 20
93.00592
 30
0.0
 40
7.111485
  1
1
 50
77.5
 41
1.031763
  7
FX_VECTOR
 72
     5
 11
207.624631
 21
96.758201
 31
0.0
100
AcDbText
  0
TEXT
  5
26A
330
1C5
100
AcDbEntity
  8
LAYERGROUP-1
  6
CONTINUOUS
 62
     7
100
AcDbText
 10
210.174683
 20
102.938263
 30
0.0
 40
7.111485
  1
X
 50
58.0
 41
0.667612
  7
FX_VECTOR
 72
     5
 11
212.211366
 21
106.197637
 31
0.0
100
AcDbText
  0
TEXT
  5
26B
330
1C5
100
AcDbEntity
  8
LAYERGROUP-1
  6
CONTINUOUS
 62
     7
100
AcDbText
 10
212.182007
 20
106.143997
 30
0.0
 40
7.111485
  1
2
 50
51.0
 41
0.667612
  7
FX_VECTOR
 72
     5
 11
214.600727
 21
109.130868
 31
0.0
100
AcDbText
  0
TEXT
  5
26C
330
1C5
100
AcDbEntity
  8
LAYERGROUP-1
  6
CONTINUOUS
 62
     7
100
AcDbText
 10
214.565048
 20
109.081207
 30
0.0
 40
7.111485
  1
5
 50
44.0
 41
0.667612
  7
FX_VECTOR
 72
     5
 11
217.329747
 21
111.751046
 31
0.0
100
AcDbText
  0
ENDBLK
  5
1C7
330
1C5
100
AcDbEntity
  8
0
100
AcDbBlockEnd
  0
BLOCK
  5
1F8
330
1F7
100
AcDbEntity
  8
0
100
AcDbBlockBegin
  2
BLKF032
 70
     0
 71
     0
 10
0.0
 20
0.0
 30
0.0
  3
BLKF032
  1

  0
LINE
  5
1FB
330
1F7
100
AcDbEntity
  8
GR1-1
  6
CONTINUOUS
 62
     7
100
AcDbLine
 10
260.687264
 20
70.49391
 30
0.0
 11
260.825318
 21
69.978685
 31
0.0
  0
LINE
  5
1FC
330
1F7
100
AcDbEntity
  8
GR1-1
  6
CONTINUOUS
 62
     7
100
AcDbLine
 10
260.875849
 20
70.820549
 30
0.0
 11
261.151957
 21
69.7901
 31
0.0
  0
LINE
  5
1FD
330
1F7
100
AcDbEntity
  8
GR1-1
  6
CONTINUOUS
 62
     7
100
AcDbLine
 10
261.064434
 20
71.147189
 30
0.0
 11
261.478597
 21
69.601514
 31
0.0
  0
LINE
  5
1FE
330
1F7
100
AcDbEntity
  8
GR1-1
  6
CONTINUOUS
 62
     7
100
AcDbLine
 10
261.25302
 20
71.473828
 30
0.0
 11
261.805236
 21
69.412929
 31
0.0
  0
LINE
  5
1FF
330
1F7
100
AcDbEntity
  8
GR1-1
  6
CONTINUOUS
 62
     7
100
AcDbLine
 10
261.441605
 20
71.800468
 30
0.0
 11
261.917829
 21
70.023175
 31
0.0
  0
LINE
  5
200
330
1F7
100
AcDbEntity
  8
GR1-1
  6
CONTINUOUS
 62
     7
100
AcDbLine
 10
262.048132
 20
69.53688
 30
0.0
 11
262.131875
 21
69.224344
 31
0.0
  0
LINE
  5
201
330
1F7
100
AcDbEntity
  8
GR1-1
  6
CONTINUOUS
 62
     7
100
AcDbLine
 10
261.63019
 20
72.127107
 30
0.0
 11
262.106415
 21
70.349815
 31
0.0
  0
LINE
  5
202
330
1F7
100
AcDbEntity
  8
GR1-1
  6
CONTINUOUS
 62
     7
100
AcDbLine
 10
262.374771
 20
69.348295
 30
0.0
 11
262.458515
 21
69.035758
 31
0.0
  0
LINE
  5
203
330
1F7
100
AcDbEntity
  8
GR1-1
  6
CONTINUOUS
 62
     7
100
AcDbLine
 10
261.818776
 20
72.453747
 30
0.0
 11
262.295
 21
70.676454
 31
0.0
  0
LINE
  5
204
330
1F7
100
AcDbEntity
  8
GR1-1
  6
CONTINUOUS
 62
     7
100
AcDbLine
 10
262.701411
 20
69.159709
 30
0.0
 11
262.785154
 21
68.847173
 31
0.0
  0
LINE
  5
205
330
1F7
100
AcDbEntity
  8
GR1-1
  6
CONTINUOUS
 62
     7
100
AcDbLine
 10
262.007361
 20
72.780386
 30
0.0
 11
262.539955
 21
70.792719
 31
0.0
  0
LINE
  5
206
330
1F7
100
AcDbEntity
  8
GR1-1
  6
CONTINUOUS
 62
     7
100
AcDbLine
 10
263.02805
 20
68.971124
 30
0.0
 11
263.111794
 21
68.658588
 31
0.0
  0
LINE
  5
207
330
1F7
100
AcDbEntity
  8
GR1-1
  6
CONTINUOUS
 62
     7
100
AcDbLine
 10
262.195947
 20
73.107026
 30
0.0
 11
262.866595
 21
70.604133
 31
0.0
  0
LINE
  5
208
330
1F7
100
AcDbEntity
  8
GR1-1
  6
CONTINUOUS
 62
     7
100
AcDbLine
 10
263.354689
 20
68.782538
 30
0.0
 11
263.438433
 21
68.470002
 31
0.0
  0
LINE
  5
209
330
1F7
100
AcDbEntity
  8
GR1-1
  6
CONTINUOUS
 62
     7
100
AcDbLine
 10
262.384532
 20
73.433665
 30
0.0
 11
263.193234
 21
70.415548
 31
0.0
  0
LINE
  5
20A
330
1F7
100
AcDbEntity
  8
GR1-1
  6
CONTINUOUS
 62
     7
100
AcDbLine
 10
263.681329
 20
68.593953
 30
0.0
 11
263.765073
 21
68.281417
 31
0.0
  0
LINE
  5
20B
330
1F7
100
AcDbEntity
  8
GR1-1
  6
CONTINUOUS
 62
     7
100
AcDbLine
 10
262.573117
 20
73.760305
 30
0.0
 11
263.479539
 21
70.377494
 31
0.0
  0
LINE
  5
20C
330
1F7
100
AcDbEntity
  8
GR1-1
  6
CONTINUOUS
 62
     7
100
AcDbLine
 10
264.007968
 20
68.405368
 30
0.0
 11
264.091712
 21
68.092831
 31
0.0
  0
LINE
  5
20D
330
1F7
100
AcDbEntity
  8
GR1-1
  6
CONTINUOUS
 62
     7
100
AcDbLine
 10
262.761703
 20
74.086944
 30
0.0
 11
262.899757
 21
73.571719
 31
0.0
  0
LINE
  5
20E
330
1F7
100
AcDbEntity
  8
GR1-1
  6
CONTINUOUS
 62
     7
100
AcDbLine
 10
264.225987
 20
68.622159
 30
0.0
 11
264.418352
 21
67.904246
 31
0.0
  0
LINE
  5
20F
330
1F7
100
AcDbEntity
  8
GR1-1
  6
CONTINUOUS
 62
     7
100
AcDbLine
 10
262.950288
 20
74.413584
 30
0.0
 11
263.157369
 21
73.640746
 31
0.0
  0
LINE
  5
210
330
1F7
100
AcDbEntity
  8
GR1-1
  6
CONTINUOUS
 62
     7
100
AcDbLine
 10
264.414573
 20
68.948799
 30
0.0
 11
264.744991
 21
67.715661
 31
0.0
  0
LINE
  5
211
330
1F7
100
AcDbEntity
  8
GR1-1
  6
CONTINUOUS
 62
     7
100
AcDbLine
 10
263.138873
 20
74.740223
 30
0.0
 11
263.414982
 21
73.709773
 31
0.0
  0
LINE
  5
212
330
1F7
100
AcDbEntity
  8
GR1-1
  6
CONTINUOUS
 62
     7
100
AcDbLine
 10
264.603158
 20
69.275438
 30
0.0
 11
264.749587
 21
68.72896
 31
0.0
  0
LINE
  5
213
330
1F7
100
AcDbEntity
  8
GR1-1
  6
CONTINUOUS
 62
     7
100
AcDbLine
 10
264.795522
 20
68.557525
 30
0.0
 11
265.071631
 21
67.527075
 31
0.0
  0
LINE
  5
214
330
1F7
100
AcDbEntity
  8
GR1-1
  6
CONTINUOUS
 62
     7
100
AcDbLine
 10
263.327459
 20
75.066862
 30
0.0
 11
263.672594
 21
73.7788
 31
0.0
  0
LINE
  5
215
330
1F7
100
AcDbEntity
  8
GR1-1
  6
CONTINUOUS
 62
     7
100
AcDbLine
 10
264.791743
 20
69.602078
 30
0.0
 11
264.938172
 21
69.055599
 31
0.0
  0
LINE
  5
216
330
1F7
100
AcDbEntity
  8
GR1-1
  6
CONTINUOUS
 62
     7
100
AcDbLine
 10
265.053135
 20
68.626552
 30
0.0
 11
265.39827
 21
67.33849
 31
0.0
  0
LINE
  5
217
330
1F7
100
AcDbEntity
  8
GR1-1
  6
CONTINUOUS
 62
     7
100
AcDbLine
 10
263.516044
 20
75.393502
 30
0.0
 11
263.930206
 21
73.847827
 31
0.0
  0
LINE
  5
218
330
1F7
100
AcDbEntity
  8
GR1-1
  6
CONTINUOUS
 62
     7
100
AcDbLine
 10
264.980329
 20
69.928717
 30
0.0
 11
265.126757
 21
69.382239
 31
0.0
  0
LINE
  5
219
330
1F7
100
AcDbEntity
  8
GR1-1
  6
CONTINUOUS
 62
     7
100
AcDbLine
 10
265.310747
 20
68.695579
 30
0.0
 11
265.724909
 21
67.149905
 31
0.0
  0
LINE
  5
21A
330
1F7
100
AcDbEntity
  8
GR1-1
  6
CONTINUOUS
 62
     7
100
AcDbLine
 10
263.70463
 20
75.720141
 30
0.0
 11
264.187819
 21
73.916854
 31
0.0
  0
LINE
  5
21B
330
1F7
100
AcDbEntity
  8
GR1-1
  6
CONTINUOUS
 62
     7
100
AcDbLine
 10
264.532954
 20
72.628792
 30
0.0
 11
264.924125
 21
71.168921
 31
0.0
  0
LINE
  5
21C
330
1F7
100
AcDbEntity
  8
GR1-1
  6
CONTINUOUS
 62
     7
100
AcDbLine
 10
265.168914
 20
70.255357
 30
0.0
 11
265.315343
 21
69.708878
 31
0.0
  0
LINE
  5
21D
330
1F7
100
AcDbEntity
  8
GR1-1
  6
CONTINUOUS
 62
     7
100
AcDbLine
 10
265.56836
 20
68.764606
 30
0.0
 11
266.051549
 21
66.961319
 31
0.0
  0
LINE
  5
21E
330
1F7
100
AcDbEntity
  8
GR1-1
  6
CONTINUOUS
 62
     7
100
AcDbLine
 10
263.893215
 20
76.046781
 30
0.0
 11
264.445431
 21
73.985881
 31
0.0
  0
LINE
  5
21F
330
1F7
100
AcDbEntity
  8
GR1-1
  6
CONTINUOUS
 62
     7
100
AcDbLine
 10
264.790566
 20
72.697819
 30
0.0
 11
265.113452
 21
71.492794
 31
0.0
  0
LINE
  5
220
330
1F7
100
AcDbEntity
  8
GR1-1
  6
CONTINUOUS
 62
     7
100
AcDbLine
 10
265.3575
 20
70.581996
 30
0.0
 11
265.503928
 21
70.035518
 31
0.0
  0
LINE
  5
221
330
1F7
100
AcDbEntity
  8
GR1-1
  6
CONTINUOUS
 62
     7
100
AcDbLine
 10
265.825972
 20
68.833633
 30
0.0
 11
266.378188
 21
66.772734
 31
0.0
  0
LINE
  5
222
330
1F7
100
AcDbEntity
  8
GR1-1
  6
CONTINUOUS
 62
     7
100
AcDbLine
 10
264.0818
 20
76.37342
 30
0.0
 11
264.703044
 21
74.054908
 31
0.0
  0
LINE
  5
223
330
1F7
100
AcDbEntity
  8
GR1-1
  6
CONTINUOUS
 62
     7
100
AcDbLine
 10
265.048179
 20
72.766846
 30
0.0
 11
265.302038
 21
71.819433
 31
0.0
  0
LINE
  5
224
330
1F7
100
AcDbEntity
  8
GR1-1
  6
CONTINUOUS
 62
     7
100
AcDbLine
 10
265.546085
 20
70.908636
 30
0.0
 11
265.738449
 21
70.190722
 31
0.0
  0
LINE
  5
225
330
1F7
100
AcDbEntity
  8
GR1-1
  6
CONTINUOUS
 62
     7
100
AcDbLine
 10
266.083584
 20
68.90266
 30
0.0
 11
266.704828
 21
66.584148
 31
0.0
  0
LINE
  5
226
330
1F7
100
AcDbEntity
  8
GR1-1
  6
CONTINUOUS
 62
     7
100
AcDbLine
 10
264.270386
 20
76.70006
 30
0.0
 11
264.960656
 21
74.123936
 31
0.0
  0
LINE
  5
227
330
1F7
100
AcDbEntity
  8
GR1-1
  6
CONTINUOUS
 62
     7
100
AcDbLine
 10
265.305791
 20
72.835873
 30
0.0
 11
265.567183
 21
71.860348
 31
0.0
  0
LINE
  5
228
330
1F7
100
AcDbEntity
  8
GR1-1
  6
CONTINUOUS
 62
     7
100
AcDbLine
 10
265.73467
 20
71.235275
 30
0.0
 11
265.996062
 21
70.259749
 31
0.0
  0
LINE
  5
229
330
1F7
100
AcDbEntity
  8
GR1-1
  6
CONTINUOUS
 62
     7
100
AcDbLine
 10
266.341197
 20
68.971687
 30
0.0
 11
267.031467
 21
66.395563
 31
0.0
  0
LINE
  5
22A
330
1F7
100
AcDbEntity
  8
GR1-1
  6
CONTINUOUS
 62
     7
100
AcDbLine
 10
264.458971
 20
77.026699
 30
0.0
 11
265.218269
 21
74.192963
 31
0.0
  0
LINE
  5
22B
330
1F7
100
AcDbEntity
  8
GR1-1
  6
CONTINUOUS
 62
     7
100
AcDbLine
 10
265.563404
 20
72.9049
 30
0.0
 11
265.893822
 21
71.671762
 31
0.0
  0
LINE
  5
22C
330
1F7
100
AcDbEntity
  8
GR1-1
  6
CONTINUOUS
 62
     7
100
AcDbLine
 10
265.923256
 20
71.561915
 30
0.0
 11
266.253674
 21
70.328776
 31
0.0
  0
LINE
  5
22D
330
1F7
100
AcDbEntity
  8
GR1-1
  6
CONTINUOUS
 62
     7
100
AcDbLine
 10
266.598809
 20
69.040714
 30
0.0
 11
267.358107
 21
66.206978
 31
0.0
  0
LINE
  5
22E
330
1F7
100
AcDbEntity
  8
GR1-1
  6
CONTINUOUS
 62
     7
100
AcDbLine
 10
264.756177
 20
76.947961
 30
0.0
 11
265.475881
 21
74.26199
 31
0.0
  0
LINE
  5
22F
330
1F7
100
AcDbEntity
  8
GR1-1
  6
CONTINUOUS
 62
     7
100
AcDbLine
 10
265.821016
 20
72.973928
 30
0.0
 11
266.511287
 21
70.397803
 31
0.0
  0
LINE
  5
230
330
1F7
100
AcDbEntity
  8
GR1-1
  6
CONTINUOUS
 62
     7
100
AcDbLine
 10
266.856422
 20
69.109741
 30
0.0
 11
267.576126
 21
66.423769
 31
0.0
  0
LINE
  5
231
330
1F7
100
AcDbEntity
  8
GR1-1
  6
CONTINUOUS
 62
     7
100
AcDbLine
 10
265.082816
 20
76.759376
 30
0.0
 11
265.733493
 21
74.331017
 31
0.0
  0
LINE
  5
232
330
1F7
100
AcDbEntity
  8
GR1-1
  6
CONTINUOUS
 62
     7
100
AcDbLine
 10
266.078629
 20
73.042955
 30
0.0
 11
266.768899
 21
70.46683
 31
0.0
  0
LINE
  5
233
330
1F7
100
AcDbEntity
  8
GR1-1
  6
CONTINUOUS
 62
     7
100
AcDbLine
 10
267.114034
 20
69.178768
 30
0.0
 11
267.764711
 21
66.750409
 31
0.0
  0
LINE
  5
234
330
1F7
100
AcDbEntity
  8
GR1-1
  6
CONTINUOUS
 62
     7
100
AcDbLine
 10
265.409456
 20
76.570791
 30
0.0
 11
265.991106
 21
74.400044
 31
0.0
  0
LINE
  5
235
330
1F7
100
AcDbEntity
  8
GR1-1
  6
CONTINUOUS
 62
     7
100
AcDbLine
 10
266.336241
 20
73.111982
 30
0.0
 11
267.026511
 21
70.535857
 31
0.0
  0
LINE
  5
236
330
1F7
100
AcDbEntity
  8
GR1-1
  6
CONTINUOUS
 62
     7
100
AcDbLine
 10
267.371647
 20
69.247795
 30
0.0
 11
267.953296
 21
67.077048
 31
0.0
  0
LINE
  5
237
330
1F7
100
AcDbEntity
  8
GR1-1
  6
CONTINUOUS
 62
     7
100
AcDbLine
 10
265.736095
 20
76.382205
 30
0.0
 11
266.248718
 21
74.469071
 31
0.0
  0
LINE
  5
238
330
1F7
100
AcDbEntity
  8
GR1-1
  6
CONTINUOUS
 62
     7
100
AcDbLine
 10
266.593853
 20
73.181009
 30
0.0
 11
267.284124
 21
70.604884
 31
0.0
  0
LINE
  5
239
330
1F7
100
AcDbEntity
  8
GR1-1
  6
CONTINUOUS
 62
     7
100
AcDbLine
 10
267.629259
 20
69.316822
 30
0.0
 11
268.141882
 21
67.403688
 31
0.0
  0
LINE
  5
23A
330
1F7
100
AcDbEntity
  8
GR1-1
  6
CONTINUOUS
 62
     7
100
AcDbLine
 10
266.062735
 20
76.19362
 30
0.0
 11
266.506331
 21
74.538098
 31
0.0
  0
LINE
  5
23B
330
1F7
100
AcDbEntity
  8
GR1-1
  6
CONTINUOUS
 62
     7
100
AcDbLine
 10
266.851466
 20
73.250036
 30
0.0
 11
267.541736
 21
70.673911
 31
0.0
  0
LINE
  5
23C
330
1F7
100
AcDbEntity
  8
GR1-1
  6
CONTINUOUS
 62
     7
100
AcDbLine
 10
267.886871
 20
69.385849
 30
0.0
 11
268.330467
 21
67.730327
 31
0.0
  0
LINE
  5
23D
330
1F7
100
AcDbEntity
  8
GR1-1
  6
CONTINUOUS
 62
     7
100
AcDbLine
 10
266.389374
 20
76.005035
 30
0.0
 11
266.763943
 21
74.607125
 31
0.0
  0
LINE
  5
23E
330
1F7
100
AcDbEntity
  8
GR1-1
  6
CONTINUOUS
 62
     7
100
AcDbLine
 10
268.144484
 20
69.454876
 30
0.0
 11
268.519053
 21
68.056967
 31
0.0
  0
LINE
  5
23F
330
1F7
100
AcDbEntity
  8
GR1-1
  6
CONTINUOUS
 62
     7
100
AcDbLine
 10
266.716014
 20
75.816449
 30
0.0
 11
267.021555
 21
74.676152
 31
0.0
  0
LINE
  5
240
330
1F7
100
AcDbEntity
  8
GR1-1
  6
CONTINUOUS
 62
     7
100
AcDbLine
 10
268.402096
 20
69.523903
 30
0.0
 11
268.707638
 21
68.383606
 31
0.0
  0
LINE
  5
241
330
1F7
100
AcDbEntity
  8
GR1-1
  6
CONTINUOUS
 62
     7
100
AcDbLine
 10
267.042653
 20
75.627864
 30
0.0
 11
267.279168
 21
74.745179
 31
0.0
  0
LINE
  5
242
330
1F7
100
AcDbEntity
  8
GR1-1
  6
CONTINUOUS
 62
     7
100
AcDbLine
 10
268.659709
 20
69.592931
 30
0.0
 11
268.896223
 21
68.710246
 31
0.0
  0
LINE
  5
243
330
1F7
100
AcDbEntity
  8
GR1-1
  6
CONTINUOUS
 62
     7
100
AcDbLine
 10
267.369293
 20
75.439278
 30
0.0
 11
267.53678
 21
74.814206
 31
0.0
  0
LINE
  5
244
330
1F7
100
AcDbEntity
  8
GR1-1
  6
CONTINUOUS
 62
     7
100
AcDbLine
 10
268.917321
 20
69.661958
 30
0.0
 11
269.084809
 21
69.036885
 31
0.0
  0
LINE
  5
245
330
1F7
100
AcDbEntity
  8
GR1-1
  6
CONTINUOUS
 62
     7
100
AcDbLine
 10
267.695932
 20
75.250693
 30
0.0
 11
267.794393
 21
74.883233
 31
0.0
  0
LINE
  5
246
330
1F7
100
AcDbEntity
  8
GR1-1
  6
CONTINUOUS
 62
     7
100
AcDbLine
 10
269.174934
 20
69.730985
 30
0.0
 11
269.273394
 21
69.363524
 31
0.0
  0
LINE
  5
247
330
1F7
100
AcDbEntity
  8
GR1-1
  6
CONTINUOUS
 62
     7
100
AcDbLine
 10
268.022572
 20
75.062108
 30
0.0
 11
269.46198
 21
69.690164
 31
0.0
  0
LINE
  5
248
330
1F7
100
AcDbEntity
  8
GR1-1
  6
CONTINUOUS
 62
     7
100
AcDbLine
 10
268.349211
 20
74.873522
 30
0.0
 11
269.650565
 21
70.016803
 31
0.0
  0
LINE
  5
249
330
1F7
100
AcDbEntity
  8
GR1-1
  6
CONTINUOUS
 62
     7
100
AcDbLine
 10
268.67585
 20
74.684937
 30
0.0
 11
269.83915
 21
70.343443
 31
0.0
  0
LINE
  5
24A
330
1F7
100
AcDbEntity
  8
GR1-1
  6
CONTINUOUS
 62
     7
100
AcDbLine
 10
269.00249
 20
74.496352
 30
0.0
 11
270.027736
 21
70.670082
 31
0.0
  0
LINE
  5
24B
330
1F7
100
AcDbEntity
  8
GR1-1
  6
CONTINUOUS
 62
     7
100
AcDbLine
 10
269.329129
 20
74.307766
 30
0.0
 11
270.216321
 21
70.996722
 31
0.0
  0
LINE
  5
24C
330
1F7
100
AcDbEntity
  8
GR1-1
  6
CONTINUOUS
 62
     7
100
AcDbLine
 10
269.655769
 20
74.119181
 30
0.0
 11
270.404906
 21
71.323361
 31
0.0
  0
LINE
  5
24D
330
1F7
100
AcDbEntity
  8
GR1-1
  6
CONTINUOUS
 62
     7
100
AcDbLine
 10
269.982408
 20
73.930595
 30
0.0
 11
270.593492
 21
71.650001
 31
0.0
  0
LINE
  5
24E
330
1F7
100
AcDbEntity
  8
GR1-1
  6
CONTINUOUS
 62
     7
100
AcDbLine
 10
270.309048
 20
73.74201
 30
0.0
 11
270.782077
 21
71.97664
 31
0.0
  0
LINE
  5
24F
330
1F7
100
AcDbEntity
  8
GR1-1
  6
CONTINUOUS
 62
     7
100
AcDbLine
 10
270.635687
 20
73.553425
 30
0.0
 11
270.970663
 21
72.30328
 31
0.0
  0
LINE
  5
250
330
1F7
100
AcDbEntity
  8
GR1-1
  6
CONTINUOUS
 62
     7
100
AcDbLine
 10
270.962327
 20
73.364839
 30
0.0
 11
271.159248
 21
72.629919
 31
0.0
  0
LINE
  5
251
330
1F7
100
AcDbEntity
  8
GR1-1
  6
CONTINUOUS
 62
     7
100
AcDbLine
 10
271.288966
 20
73.176254
 30
0.0
 11
271.347833
 21
72.956559
 31
0.0
  0
ENDBLK
  5
1F9
330
1F7
100
AcDbEntity
  8
0
100
AcDbBlockEnd
  0
BLOCK
  5
26F
330
26E
100
AcDbEntity
  8
0
100
AcDbBlockBegin
  2
*D31
 70
     1
 71
     0
 10
0.0
 20
0.0
 30
0.0
  3
*D31
  1

  0
TEXT
  5
271
330
26E
100
AcDbEntity
  8
LAYERGROUP-1
  6
CONTINUOUS
 62
     7
100
AcDbText
 10
102.380074
 20
19.416626
 30
0.0
 40
4.0
  1
30
 41
0.851351
  7
FX_VECTOR
 72
     5
 11
108.380074
 21
19.416626
 31
0.0
100
AcDbText
  0
LINE
  5
272
330
26E
100
AcDbEntity
  8
LAYERGROUP-1
  6
CONTINUOUS
 62
     7
100
AcDbLine
 10
90.380074
 20
18.416638
 30
0.0
 11
120.380074
 21
18.416638
 31
0.0
  0
INSERT
  5
273
330
26E
100
AcDbEntity
  8
LAYERGROUP-1
  6
CONTINUOUS
 62
     7
100
AcDbBlockReference
  2
FXTIP_ARROW_S
 10
90.380074
 20
18.416638
 30
0.0
 41
4.0
 42
4.0
 50
180.0
  0
INSERT
  5
274
330
26E
100
AcDbEntity
  8
LAYERGROUP-1
  6
CONTINUOUS
 62
     7
100
AcDbBlockReference
  2
FXTIP_ARROW_E
 10
120.380074
 20
18.416638
 30
0.0
 41
4.0
 42
4.0
 50
360.0
  0
LINE
  5
275
330
26E
100
AcDbEntity
  8
LAYERGROUP-1
  6
CONTINUOUS
 62
     7
100
AcDbLine
 10
90.380074
 20
73.131305
 30
0.0
 11
90.380074
 21
17.416638
 31
0.0
  0
LINE
  5
276
330
26E
100
AcDbEntity
  8
LAYERGROUP-1
  6
CONTINUOUS
 62
     7
100
AcDbLine
 10
120.380074
 20
73.131305
 30
0.0
 11
120.380074
 21
17.416638
 31
0.0
  0
ENDBLK
  5
270
330
26E
100
AcDbEntity
  8
0
100
AcDbBlockEnd
  0
BLOCK
  5
278
330
277
100
AcDbEntity
  8
0
100
AcDbBlockBegin
  2
BLKF034
 70
     0
 71
     0
 10
0.0
 20
0.0
 30
0.0
  3
BLKF034
  1

  0
ARC
  5
27B
330
277
100
AcDbEntity
  8
LAYERGROUP-1
  6
CONTINUOUS
 62
     3
100
AcDbCircle
 10
105.380074
 20
58.131305
 30
0.0
 40
80.0
100
AcDbArc
 50
81.944782
 51
98.055218
  0
ARC
  5
27C
330
277
100
AcDbEntity
  8
LAYERGROUP-1
  6
CONTINUOUS
 62
     3
100
AcDbCircle
 10
94.380074
 20
135.856784
 30
0.0
 40
1.5
100
AcDbArc
 50
98.055218
 51
180.0
  0
LINE
  5
27D
330
277
100
AcDbEntity
  8
LAYERGROUP-1
  6
CONTINUOUS
 62
     3
100
AcDbLine
 10
92.880074
 20
135.856784
 30
0.0
 11
92.880074
 21
132.631305
 31
0.0
  0
LINE
  5
27E
330
277
100
AcDbEntity
  8
LAYERGROUP-1
  6
CONTINUOUS
 62
     3
100
AcDbLine
 10
92.880074
 20
101.131305
 30
0.0
 11
92.880074
 21
88.131305
 31
0.0
  0
LINE
  5
27F
330
277
100
AcDbEntity
  8
LAYERGROUP-1
  6
CONTINUOUS
 62
     3
100
AcDbLine
 10
92.880074
 20
98.131305
 30
0.0
 11
91.380074
 21
98.131305
 31
0.0
  0
LINE
  5
280
330
277
100
AcDbEntity
  8
LAYERGROUP-1
  6
CONTINUOUS
 62
     3
100
AcDbLine
 10
90.380074
 20
97.131305
 30
0.0
 11
90.380074
 21
93.131305
 31
0.0
  0
ARC
  5
281
330
277
100
AcDbEntity
  8
LAYERGROUP-1
  6
CONTINUOUS
 62
     3
100
AcDbCircle
 10
91.380074
 20
97.131305
 30
0.0
 40
1.0
100
AcDbArc
 50
90.0
 51
180.0
  0
ARC
  5
282
330
277
100
AcDbEntity
  8
LAYERGROUP-1
  6
CONTINUOUS
 62
     3
100
AcDbCircle
 10
116.380074
 20
135.856784
 30
0.0
 40
1.5
100
AcDbArc
 50
0.0
 51
81.944782
  0
LINE
  5
283
330
277
100
AcDbEntity
  8
LAYERGROUP-1
  6
CONTINUOUS
 62
     3
100
AcDbLine
 10
117.880074
 20
135.856784
 30
0.0
 11
117.880074
 21
132.631305
 31
0.0
  0
LINE
  5
284
330
277
100
AcDbEntity
  8
LAYERGROUP-1
  6
CONTINUOUS
 62
     3
100
AcDbLine
 10
117.880074
 20
101.131305
 30
0.0
 11
117.880074
 21
88.131305
 31
0.0
  0
LINE
  5
285
330
277
100
AcDbEntity
  8
LAYERGROUP-1
  6
CONTINUOUS
 62
     3
100
AcDbLine
 10
117.880074
 20
98.131305
 30
0.0
 11
119.380074
 21
98.131305
 31
0.0
  0
LINE
  5
286
330
277
100
AcDbEntity
  8
LAYERGROUP-1
  6
CONTINUOUS
 62
     3
100
AcDbLine
 10
120.380074
 20
97.131305
 30
0.0
 11
120.380074
 21
93.131305
 31
0.0
  0
ARC
  5
287
330
277
100
AcDbEntity
  8
LAYERGROUP-1
  6
CONTINUOUS
 62
     3
100
AcDbCircle
 10
119.380074
 20
97.131305
 30
0.0
 40
1.0
100
AcDbArc
 50
0.0
 51
90.0
  0
LINE
  5
288
330
277
100
AcDbEntity
  8
LAYERGROUP-1
  6
CONTINUOUS
 62
     3
100
AcDbLine
 10
120.380074
 20
93.131305
 30
0.0
 11
120.380074
 21
83.131305
 31
0.0
  0
LINE
  5
289
330
277
100
AcDbEntity
  8
LAYERGROUP-1
  6
CONTINUOUS
 62
     3
100
AcDbLine
 10
90.380074
 20
93.131305
 30
0.0
 11
90.380074
 21
83.131305
 31
0.0
  0
LINE
  5
28A
330
277
100
AcDbEntity
  8
LAYERGROUP-1
  6
CONTINUOUS
 62
     3
100
AcDbLine
 10
117.880074
 20
132.631305
 30
0.0
 11
117.880074
 21
101.131305
 31
0.0
  0
LINE
  5
28B
330
277
100
AcDbEntity
  8
LAYERGROUP-1
  6
CONTINUOUS
 62
     3
100
AcDbLine
 10
92.880074
 20
132.631305
 30
0.0
 11
92.880074
 21
101.131305
 31
0.0
  0
ARC
  5
28C
330
277
100
AcDbEntity
  8
LAYERGROUP-1
  6
CONTINUOUS
 62
     3
100
AcDbCircle
 10
105.380074
 20
118.131305
 30
0.0
 40
80.0
100
AcDbArc
 50
261.944782
 51
278.055218
  0
ARC
  5
28D
330
277
100
AcDbEntity
  8
LAYERGROUP-1
  6
CONTINUOUS
 62
     3
100
AcDbCircle
 10
94.380074
 20
40.405827
 30
0.0
 40
1.5
100
AcDbArc
 50
180.0
 51
261.944782
  0
LINE
  5
28E
330
277
100
AcDbEntity
  8
LAYERGROUP-1
  6
CONTINUOUS
 62
     3
100
AcDbLine
 10
92.880074
 20
40.405827
 30
0.0
 11
92.880074
 21
43.631305
 31
0.0
  0
LINE
  5
28F
330
277
100
AcDbEntity
  8
LAYERGROUP-1
  6
CONTINUOUS
 62
     3
100
AcDbLine
 10
92.880074
 20
75.131305
 30
0.0
 11
92.880074
 21
88.131305
 31
0.0
  0
LINE
  5
290
330
277
100
AcDbEntity
  8
LAYERGROUP-1
  6
CONTINUOUS
 62
     3
100
AcDbLine
 10
92.880074
 20
78.131305
 30
0.0
 11
91.380074
 21
78.131305
 31
0.0
  0
LINE
  5
291
330
277
100
AcDbEntity
  8
LAYERGROUP-1
  6
CONTINUOUS
 62
     3
100
AcDbLine
 10
90.380074
 20
79.131305
 30
0.0
 11
90.380074
 21
83.131305
 31
0.0
  0
ARC
  5
292
330
277
100
AcDbEntity
  8
LAYERGROUP-1
  6
CONTINUOUS
 62
     3
100
AcDbCircle
 10
91.380074
 20
79.131305
 30
0.0
 40
1.0
100
AcDbArc
 50
180.0
 51
270.0
  0
ARC
  5
293
330
277
100
AcDbEntity
  8
LAYERGROUP-1
  6
CONTINUOUS
 62
     3
100
AcDbCircle
 10
116.380074
 20
40.405827
 30
0.0
 40
1.5
100
AcDbArc
 50
278.055218
 51
360.0
  0
LINE
  5
294
330
277
100
AcDbEntity
  8
LAYERGROUP-1
  6
CONTINUOUS
 62
     3
100
AcDbLine
 10
117.880074
 20
40.405827
 30
0.0
 11
117.880074
 21
43.631305
 31
0.0
  0
LINE
  5
295
330
277
100
AcDbEntity
  8
LAYERGROUP-1
  6
CONTINUOUS
 62
     3
100
AcDbLine
 10
117.880074
 20
75.131305
 30
0.0
 11
117.880074
 21
88.131305
 31
0.0
  0
LINE
  5
296
330
277
100
AcDbEntity
  8
LAYERGROUP-1
  6
CONTINUOUS
 62
     3
100
AcDbLine
 10
117.880074
 20
78.131305
 30
0.0
 11
119.380074
 21
78.131305
 31
0.0
  0
LINE
  5
297
330
277
100
AcDbEntity
  8
LAYERGROUP-1
  6
CONTINUOUS
 62
     3
100
AcDbLine
 10
120.380074
 20
79.131305
 30
0.0
 11
120.380074
 21
83.131305
 31
0.0
  0
ARC
  5
298
330
277
100
AcDbEntity
  8
LAYERGROUP-1
  6
CONTINUOUS
 62
     3
100
AcDbCircle
 10
119.380074
 20
79.131305
 30
0.0
 40
1.0
100
AcDbArc
 50
270.0
 51
360.0
  0
LINE
  5
299
330
277
100
AcDbEntity
  8
LAYERGROUP-1
  6
CONTINUOUS
 62
     3
100
AcDbLine
 10
117.880074
 20
43.631305
 30
0.0
 11
117.880074
 21
75.131305
 31
0.0
  0
LINE
  5
29A
330
277
100
AcDbEntity
  8
LAYERGROUP-1
  6
CONTINUOUS
 62
     3
100
AcDbLine
 10
92.880074
 20
43.631305
 30
0.0
 11
92.880074
 21
75.131305
 31
0.0
  0
ENDBLK
  5
279
330
277
100
AcDbEntity
  8
0
100
AcDbBlockEnd
  0
BLOCK
  5
29D
330
29C
100
AcDbEntity
  8
0
100
AcDbBlockBegin
  2
*D33
 70
     1
 71
     0
 10
0.0
 20
0.0
 30
0.0
  3
*D33
  1

  0
TEXT
  5
29F
330
29C
100
AcDbEntity
  8
LAYERGROUP-1
  6
CONTINUOUS
 62
     7
100
AcDbText
 10
102.380074
 20
28.097534
 30
0.0
 40
4.0
  1
25
 41
0.851351
  7
FX_VECTOR
 72
     5
 11
108.380074
 21
28.097534
 31
0.0
100
AcDbText
  0
LINE
  5
2A0
330
29C
100
AcDbEntity
  8
LAYERGROUP-1
  6
CONTINUOUS
 62
     7
100
AcDbLine
 10
92.880074
 20
27.097528
 30
0.0
 11
117.880074
 21
27.097528
 31
0.0
  0
INSERT
  5
2A1
330
29C
100
AcDbEntity
  8
LAYERGROUP-1
  6
CONTINUOUS
 62
     7
100
AcDbBlockReference
  2
FXTIP_ARROW_S
 10
92.880074
 20
27.097528
 30
0.0
 41
4.0
 42
4.0
 50
180.0
  0
INSERT
  5
2A2
330
29C
100
AcDbEntity
  8
LAYERGROUP-1
  6
CONTINUOUS
 62
     7
100
AcDbBlockReference
  2
FXTIP_ARROW_E
 10
117.880074
 20
27.097528
 30
0.0
 41
4.0
 42
4.0
 50
360.0
  0
LINE
  5
2A3
330
29C
100
AcDbEntity
  8
LAYERGROUP-1
  6
CONTINUOUS
 62
     7
100
AcDbLine
 10
92.880074
 20
39.405827
 30
0.0
 11
92.880074
 21
26.097528
 31
0.0
  0
LINE
  5
2A4
330
29C
100
AcDbEntity
  8
LAYERGROUP-1
  6
CONTINUOUS
 62
     7
100
AcDbLine
 10
117.880074
 20
39.405827
 30
0.0
 11
117.880074
 21
26.097528
 31
0.0
  0
ENDBLK
  5
29E
330
29C
100
AcDbEntity
  8
0
100
AcDbBlockEnd
  0
ENDSEC
  0
SECTION
  2
ENTITIES
  0
INSERT
  5
AB
330
1F
100
AcDbEntity
  8
0
100
AcDbBlockReference
  2
BLKF021
 10
0.0
 20
0.0
 30
0.0
  0
LINE
  5
D7
330
1F
100
AcDbEntity
  8
GR1-1
  6
CONTINUOUS
 62
     3
100
AcDbLine
 10
85.830074
 20
86.067797
 30
0.0
 11
85.830074
 21
90.194814
 31
0.0
  0
ARC
  5
D8
330
1F
100
AcDbEntity
  8
GR1-1
  6
CONTINUOUS
 62
     3
100
AcDbCircle
 10
87.830074
 20
90.194814
 30
0.0
 40
2.0
100
AcDbArc
 50
104.477512
 51
180.0
  0
ARC
  5
D9
330
1F
100
AcDbEntity
  8
GR1-1
  6
CONTINUOUS
 62
     3
100
AcDbCircle
 10
87.830074
 20
86.067797
 30
0.0
 40
2.0
100
AcDbArc
 50
180.0
 51
255.522488
  0
LINE
  5
DA
330
1F
100
AcDbEntity
  8
GR1-1
  6
CONTINUOUS
 62
     3
100
AcDbLine
 10
89.630074
 20
84.131305
 30
0.0
 11
90.380074
 21
84.131305
 31
0.0
  0
LINE
  5
DB
330
1F
100
AcDbEntity
  8
GR1-1
  6
CONTINUOUS
 62
     3
100
AcDbLine
 10
89.630074
 20
76.617075
 30
0.0
 11
87.330074
 21
76.617075
 31
0.0
  0
LINE
  5
DC
330
1F
100
AcDbEntity
  8
GR1-1
  6
CONTINUOUS
 62
     3
100
AcDbLine
 10
87.330074
 20
76.617075
 30
0.0
 11
87.330074
 21
142.834251
 31
0.0
  0
LINE
  5
DD
330
1F
100
AcDbEntity
  8
GR1-1
  6
CONTINUOUS
 62
     3
100
AcDbLine
 10
89.630074
 20
143.069193
 30
0.0
 11
89.630074
 21
76.617075
 31
0.0
  0
LINE
  5
DE
330
1F
100
AcDbEntity
  8
GR1-1
  6
CONTINUOUS
 62
     3
100
AcDbLine
 10
90.380074
 20
92.131305
 30
0.0
 11
89.630074
 21
92.131305
 31
0.0
  0
LINE
  5
DF
330
1F
100
AcDbEntity
  8
GR1-1
  6
CONTINUOUS
 62
     3
100
AcDbLine
 10
123.430074
 20
94.131305
 30
0.0
 11
124.930074
 21
94.131305
 31
0.0
  0
ARC
  5
E0
330
1F
100
AcDbEntity
  8
GR1-1
  6
CONTINUOUS
 62
     3
100
AcDbCircle
 10
56.871606
 20
122.101368
 30
0.0
 40
73.3402116851108
100
AcDbArc
 50
-22.418828
 51
1.68582
  0
LINE
  5
E1
330
1F
100
AcDbEntity
  8
GR1-1
  6
CONTINUOUS
 62
     3
100
AcDbLine
 10
130.180074
 20
124.258953
 30
0.0
 11
130.180074
 21
148.267075
 31
0.0
  0
ARC
  5
E2
330
1F
100
AcDbEntity
  8
GR1-1
  6
CONTINUOUS
 62
     3
100
AcDbCircle
 10
126.180074
 20
148.267075
 30
0.0
 40
4.0
100
AcDbArc
 50
0.0
 51
90.0
  0
LINE
  5
E3
330
1F
100
AcDbEntity
  8
GR1-1
  6
CONTINUOUS
 62
     3
100
AcDbLine
 10
126.180074
 20
152.267075
 30
0.0
 11
84.580074
 21
152.267075
 31
0.0
  0
ARC
  5
E4
330
1F
100
AcDbEntity
  8
GR1-1
  6
CONTINUOUS
 62
     3
100
AcDbCircle
 10
84.580074
 20
148.267075
 30
0.0
 40
4.0
100
AcDbArc
 50
90.0
 51
180.0
  0
LINE
  5
E5
330
1F
100
AcDbEntity
  8
GR1-1
  6
CONTINUOUS
 62
     3
100
AcDbLine
 10
80.580074
 20
148.267075
 30
0.0
 11
80.580074
 21
124.258953
 31
0.0
  0
ARC
  5
E6
330
1F
100
AcDbEntity
  8
GR1-1
  6
CONTINUOUS
 62
     3
100
AcDbCircle
 10
153.888542
 20
122.101368
 30
0.0
 40
73.3402116851108
100
AcDbArc
 50
178.31418
 51
204.218544
  0
LINE
  5
E7
330
1F
100
AcDbEntity
  8
GR1-1
  6
CONTINUOUS
 62
     3
100
AcDbLine
 10
120.380074
 20
92.131305
 30
0.0
 11
121.130074
 21
92.131305
 31
0.0
  0
LINE
  5
E8
330
1F
100
AcDbEntity
  8
GR1-1
  6
CONTINUOUS
 62
     3
100
AcDbLine
 10
126.930074
 20
92.131305
 30
0.0
 11
126.930074
 21
84.131305
 31
0.0
  0
LINE
  5
E9
330
1F
100
AcDbEntity
  8
GR1-1
  6
CONTINUOUS
 62
     3
100
AcDbLine
 10
124.930074
 20
82.131305
 30
0.0
 11
123.430074
 21
82.131305
 31
0.0
  0
ARC
  5
EA
330
1F
100
AcDbEntity
  8
GR1-1
  6
CONTINUOUS
 62
     3
100
AcDbCircle
 10
124.930074
 20
84.131305
 30
0.0
 40
2.0
100
AcDbArc
 50
270.0
 51
360.0
  0
LINE
  5
EB
330
1F
100
AcDbEntity
  8
GR1-1
  6
CONTINUOUS
 62
     3
100
AcDbLine
 10
121.130074
 20
84.131305
 30
0.0
 11
120.380074
 21
84.131305
 31
0.0
  0
LINE
  5
EC
330
1F
100
AcDbEntity
  8
GR1-1
  6
CONTINUOUS
 62
     3
100
AcDbLine
 10
121.130074
 20
76.617075
 30
0.0
 11
121.130074
 21
143.069193
 31
0.0
  0
ARC
  5
ED
330
1F
100
AcDbEntity
  8
GR1-1
  6
CONTINUOUS
 62
     3
100
AcDbCircle
 10
120.630074
 20
143.069193
 30
0.0
 40
0.5
100
AcDbArc
 50
0.0
 51
90.0
  0
LINE
  5
EE
330
1F
100
AcDbEntity
  8
GR1-1
  6
CONTINUOUS
 62
     3
100
AcDbLine
 10
120.630074
 20
143.569193
 30
0.0
 11
90.130074
 21
143.569193
 31
0.0
  0
ARC
  5
EF
330
1F
100
AcDbEntity
  8
GR1-1
  6
CONTINUOUS
 62
     3
100
AcDbCircle
 10
90.130074
 20
143.069193
 30
0.0
 40
0.5
100
AcDbArc
 50
90.0
 51
180.0
  0
ARC
  5
F0
330
1F
100
AcDbEntity
  8
GR1-1
  6
CONTINUOUS
 62
     3
100
AcDbCircle
 10
90.330074
 20
142.834251
 30
0.0
 40
3.0
100
AcDbArc
 50
90.0
 51
180.0
  0
LINE
  5
F1
330
1F
100
AcDbEntity
  8
GR1-1
  6
CONTINUOUS
 62
     3
100
AcDbLine
 10
90.330074
 20
145.834251
 30
0.0
 11
120.430074
 21
145.834251
 31
0.0
  0
LINE
  5
F2
330
1F
100
AcDbEntity
  8
GR1-1
  6
CONTINUOUS
 62
     3
100
AcDbLine
 10
123.430074
 20
142.834251
 30
0.0
 11
123.430074
 21
76.617075
 31
0.0
  0
LINE
  5
F3
330
1F
100
AcDbEntity
  8
GR1-1
  6
CONTINUOUS
 62
     3
100
AcDbLine
 10
123.430074
 20
76.617075
 30
0.0
 11
121.130074
 21
76.617075
 31
0.0
  0
ARC
  5
F4
330
1F
100
AcDbEntity
  8
GR1-1
  6
CONTINUOUS
 62
     3
100
AcDbCircle
 10
124.930074
 20
92.131305
 30
0.0
 40
2.0
100
AcDbArc
 50
0.0
 51
90.0
  0
LINE
  5
F5
330
1F
100
AcDbEntity
  8
GR1-1
  6
CONTINUOUS
 62
     3
100
AcDbLine
 10
82.830074
 20
153.573075
 30
0.0
 11
127.930074
 21
153.573075
 31
0.0
  0
LINE
  5
F6
330
1F
100
AcDbEntity
  8
GR1-1
  6
CONTINUOUS
 62
     3
100
AcDbLine
 10
127.930074
 20
153.573075
 30
0.0
 11
127.930074
 21
157.073075
 31
0.0
  0
ARC
  5
F7
330
1F
100
AcDbEntity
  8
GR1-1
  6
CONTINUOUS
 62
     3
100
AcDbCircle
 10
123.031629
 20
153.608218
 30
0.0
 40
6.0
100
AcDbArc
 50
35.273224
 51
83.795686
  0
LINE
  5
F8
330
1F
100
AcDbEntity
  8
GR1-1
  6
CONTINUOUS
 62
     3
100
AcDbLine
 10
123.680074
 20
159.573075
 30
0.0
 11
87.080074
 21
159.573075
 31
0.0
  0
ARC
  5
F9
330
1F
100
AcDbEntity
  8
GR1-1
  6
CONTINUOUS
 62
     3
100
AcDbCircle
 10
87.728519
 20
153.608218
 30
0.0
 40
6.0
100
AcDbArc
 50
96.204314
 51
144.726776
  0
LINE
  5
FA
330
1F
100
AcDbEntity
  8
GR1-1
  6
CONTINUOUS
 62
     3
100
AcDbLine
 10
82.830074
 20
157.073075
 30
0.0
 11
82.830074
 21
153.573075
 31
0.0
  0
LINE
  5
FB
330
1F
100
AcDbEntity
  8
GR1-1
  6
CONTINUOUS
 62
     3
100
AcDbLine
 10
93.880074
 20
159.573075
 30
0.0
 11
93.880074
 21
164.131305
 31
0.0
  0
LINE
  5
FC
330
1F
100
AcDbEntity
  8
GR1-1
  6
CONTINUOUS
 62
     3
100
AcDbLine
 10
93.880074
 20
164.131305
 30
0.0
 11
116.880074
 21
164.131305
 31
0.0
  0
LINE
  5
FD
330
1F
100
AcDbEntity
  8
GR1-1
  6
CONTINUOUS
 62
     3
100
AcDbLine
 10
116.880074
 20
164.131305
 30
0.0
 11
116.880074
 21
159.573075
 31
0.0
  0
LINE
  5
FE
330
1F
100
AcDbEntity
  8
GR1-1
  6
CONTINUOUS
 62
     3
100
AcDbLine
 10
113.380074
 20
164.131305
 30
0.0
 11
113.380074
 21
203.131305
 31
0.0
  0
LINE
  5
FF
330
1F
100
AcDbEntity
  8
GR1-1
  6
CONTINUOUS
 62
     3
100
AcDbLine
 10
113.380074
 20
203.131305
 30
0.0
 11
112.380074
 21
204.131305
 31
0.0
  0
LINE
  5
100
330
1F
100
AcDbEntity
  8
GR1-1
  6
CONTINUOUS
 62
     3
100
AcDbLine
 10
112.380074
 20
204.131305
 30
0.0
 11
98.380074
 21
204.131305
 31
0.0
  0
LINE
  5
101
330
1F
100
AcDbEntity
  8
GR1-1
  6
CONTINUOUS
 62
     3
100
AcDbLine
 10
98.380074
 20
204.131305
 30
0.0
 11
97.380074
 21
203.131305
 31
0.0
  0
LINE
  5
102
330
1F
100
AcDbEntity
  8
GR1-1
  6
CONTINUOUS
 62
     3
100
AcDbLine
 10
97.380074
 20
203.131305
 30
0.0
 11
97.380074
 21
164.131305
 31
0.0
  0
LINE
  5
103
330
1F
100
AcDbEntity
  8
GR1-1
  6
CONTINUOUS
 62
     3
100
AcDbLine
 10
105.380074
 20
164.123075
 30
0.0
 11
105.380074
 21
159.573075
 31
0.0
  0
ARC
  5
104
330
1F
100
AcDbEntity
  8
GR1-1
  6
CONTINUOUS
 62
     3
100
AcDbCircle
 10
120.430074
 20
142.834251
 30
0.0
 40
3.0
100
AcDbArc
 50
0.0
 51
90.0
  0
ARC
  5
105
330
1F
100
AcDbEntity
  8
GR1-1
  6
CONTINUOUS
 62
     3
100
AcDbCircle
 10
288.686486
 20
148.775305
 30
0.0
 40
3.5
100
AcDbArc
 50
1.637245
 51
90.0
  0
LINE
  5
106
330
1F
100
AcDbEntity
  8
GR1-1
  6
CONTINUOUS
 62
     3
100
AcDbLine
 10
288.686486
 20
152.275305
 30
0.0
 11
246.083629
 21
152.275305
 31
0.0
  0
LINE
  5
107
330
1F
100
AcDbEntity
  8
GR1-1
  6
CONTINUOUS
 62
     3
100
AcDbLine
 10
244.935057
 20
153.581305
 30
0.0
 11
289.935057
 21
153.581305
 31
0.0
  0
LINE
  5
108
330
1F
100
AcDbEntity
  8
GR1-1
  6
CONTINUOUS
 62
     3
100
AcDbLine
 10
289.935057
 20
153.581305
 30
0.0
 11
289.935057
 21
157.081305
 31
0.0
  0
ARC
  5
109
330
1F
100
AcDbEntity
  8
GR1-1
  6
CONTINUOUS
 62
     3
100
AcDbCircle
 10
285.036612
 20
153.616448
 30
0.0
 40
6.0
100
AcDbArc
 50
35.273224
 51
83.795686
  0
LINE
  5
10A
330
1F
100
AcDbEntity
  8
GR1-1
  6
CONTINUOUS
 62
     3
100
AcDbLine
 10
285.685057
 20
159.581305
 30
0.0
 11
249.185057
 21
159.581305
 31
0.0
  0
LINE
  5
10B
330
1F
100
AcDbEntity
  8
GR1-1
  6
CONTINUOUS
 62
     3
100
AcDbLine
 10
274.024586
 20
159.581305
 30
0.0
 11
274.024586
 21
164.131305
 31
0.0
  0
LINE
  5
10C
330
1F
100
AcDbEntity
  8
GR1-1
  6
CONTINUOUS
 62
     3
100
AcDbLine
 10
275.385057
 20
164.131305
 30
0.0
 11
275.385057
 21
203.131305
 31
0.0
  0
LINE
  5
10D
330
1F
100
AcDbEntity
  8
GR1-1
  6
CONTINUOUS
 62
     3
100
AcDbLine
 10
275.385057
 20
203.131305
 30
0.0
 11
274.385057
 21
204.131305
 31
0.0
  0
LINE
  5
10E
330
1F
100
AcDbEntity
  8
GR1-1
  6
CONTINUOUS
 62
     3
100
AcDbLine
 10
274.385057
 20
204.131305
 30
0.0
 11
260.385057
 21
204.131305
 31
0.0
  0
LINE
  5
10F
330
1F
100
AcDbEntity
  8
GR1-1
  6
CONTINUOUS
 62
     3
100
AcDbLine
 10
260.385057
 20
204.131305
 30
0.0
 11
259.385057
 21
203.131305
 31
0.0
  0
LINE
  5
110
330
1F
100
AcDbEntity
  8
GR1-1
  6
CONTINUOUS
 62
     3
100
AcDbLine
 10
259.385057
 20
203.131305
 30
0.0
 11
259.385057
 21
164.131305
 31
0.0
  0
LINE
  5
111
330
1F
100
AcDbEntity
  8
GR1-1
  6
CONTINUOUS
 62
     3
100
AcDbLine
 10
260.745529
 20
164.131305
 30
0.0
 11
260.745529
 21
159.581305
 31
0.0
  0
ARC
  5
112
330
1F
100
AcDbEntity
  8
GR1-1
  6
CONTINUOUS
 62
     3
100
AcDbCircle
 10
249.833503
 20
153.616448
 30
0.0
 40
6.0
100
AcDbArc
 50
96.204314
 51
144.726776
  0
LINE
  5
113
330
1F
100
AcDbEntity
  8
GR1-1
  6
CONTINUOUS
 62
     3
100
AcDbLine
 10
244.935057
 20
157.081305
 30
0.0
 11
244.935057
 21
153.581305
 31
0.0
  0
ARC
  5
114
330
1F
100
AcDbEntity
  8
GR1-1
  6
CONTINUOUS
 62
     3
100
AcDbCircle
 10
246.083629
 20
148.775305
 30
0.0
 40
3.5
100
AcDbArc
 50
90.0
 51
175.049208
  0
LINE
  5
115
330
1F
100
AcDbEntity
  8
GR1-1
  6
CONTINUOUS
 62
     3
100
AcDbLine
 10
225.385057
 20
145.842481
 30
0.0
 11
225.784448
 21
143.577423
 31
0.0
  0
LINE
  5
116
330
1F
100
AcDbEntity
  8
GR1-1
  6
CONTINUOUS
 62
     3
100
AcDbLine
 10
225.784448
 20
143.577423
 30
0.0
 11
227.995861
 21
143.967355
 31
0.0
  0
LINE
  5
117
330
1F
100
AcDbEntity
  8
GR1-1
  6
CONTINUOUS
 62
     3
100
AcDbLine
 10
254.106001
 20
159.581305
 30
0.0
 11
254.106001
 21
164.131305
 31
0.0
  0
LINE
  5
118
330
1F
100
AcDbEntity
  8
GR1-1
  6
CONTINUOUS
 62
     3
100
AcDbLine
 10
254.106001
 20
164.131305
 30
0.0
 11
280.664114
 21
164.131305
 31
0.0
  0
LINE
  5
119
330
1F
100
AcDbEntity
  8
GR1-1
  6
CONTINUOUS
 62
     3
100
AcDbLine
 10
280.664114
 20
164.131305
 30
0.0
 11
280.664114
 21
159.581305
 31
0.0
  0
LINE
  5
11A
330
1F
100
AcDbEntity
  8
GR1-1
  6
CONTINUOUS
 62
     3
100
AcDbLine
 10
292.185057
 20
148.875305
 30
0.0
 11
292.185057
 21
143.275305
 31
0.0
  0
LINE
  5
11B
330
1F
100
AcDbEntity
  8
GR1-1
  6
CONTINUOUS
 62
     3
100
AcDbLine
 10
292.185057
 20
143.275305
 30
0.0
 11
289.885057
 21
143.275305
 31
0.0
  0
ARC
  5
11C
330
1F
100
AcDbEntity
  8
GR1-1
  6
CONTINUOUS
 62
     3
100
AcDbCircle
 10
290.956806
 20
100.125742
 30
0.0
 40
43.1628713378084
100
AcDbArc
 50
91.42282
 51
102.126685
  0
ARC
  5
11D
330
1F
100
AcDbEntity
  8
GR1-1
  6
CONTINUOUS
 62
     3
100
AcDbCircle
 10
282.939782
 20
137.437028
 30
0.0
 40
5.0
100
AcDbArc
 50
102.126685
 51
151.0
  0
LINE
  5
11E
330
1F
100
AcDbEntity
  8
GR1-1
  6
CONTINUOUS
 62
     3
100
AcDbLine
 10
278.566683
 20
139.861076
 30
0.0
 11
246.667375
 21
82.313201
 31
0.0
  0
CIRCLE
  5
11F
330
1F
100
AcDbEntity
  8
GR1-1
  6
CONTINUOUS
 62
     3
100
AcDbCircle
 10
237.385057
 20
88.131305
 30
0.0
 40
6.0
  0
LINE
  5
120
330
1F
100
AcDbEntity
  8
GR1-1
  6
CONTINUOUS
 62
     3
100
AcDbLine
 10
226.035057
 20
87.8173
 30
0.0
 11
228.077923
 21
146.317306
 31
0.0
  0
ARC
  5
121
330
1F
100
AcDbEntity
  8
GR1-1
  6
CONTINUOUS
 62
     3
100
AcDbCircle
 10
267.385057
 20
251.4251
 30
0.0
 40
24.80000000000004
100
AcDbArc
 50
-127.419551
 51
127.419551
  0
LINE
  5
122
330
1F
100
AcDbEntity
  8
GR1-1
  6
CONTINUOUS
 62
     3
100
AcDbLine
 10
247.45424
 20
269.4751
 30
0.0
 11
226.035057
 21
269.4751
 31
0.0
  0
LINE
  5
123
330
1F
100
AcDbEntity
  8
GR1-1
  6
CONTINUOUS
 62
     3
100
AcDbLine
 10
226.035057
 20
269.4751
 30
0.0
 11
226.035057
 21
267.1751
 31
0.0
  0
LINE
  5
124
330
1F
100
AcDbEntity
  8
GR1-1
  6
CONTINUOUS
 62
     3
100
AcDbLine
 10
226.035057
 20
267.1751
 30
0.0
 11
228.450015
 21
267.1751
 31
0.0
  0
LINE
  5
125
330
1F
100
AcDbEntity
  8
GR1-1
  6
CONTINUOUS
 62
     3
100
AcDbLine
 10
226.035057
 20
235.6751
 30
0.0
 11
228.450015
 21
235.6751
 31
0.0
  0
LINE
  5
126
330
1F
100
AcDbEntity
  8
GR1-1
  6
CONTINUOUS
 62
     3
100
AcDbLine
 10
226.035057
 20
235.6751
 30
0.0
 11
226.035057
 21
233.3751
 31
0.0
  0
LINE
  5
127
330
1F
100
AcDbEntity
  8
GR1-1
  6
CONTINUOUS
 62
     3
100
AcDbLine
 10
226.035057
 20
233.3751
 30
0.0
 11
247.45424
 21
233.3751
 31
0.0
  0
LINE
  5
128
330
1F
100
AcDbEntity
  8
GR1-1
  6
CONTINUOUS
 62
     3
100
AcDbLine
 10
243.385057
 20
233.3751
 30
0.0
 11
243.385057
 21
232.811591
 31
0.0
  0
ARC
  5
129
330
1F
100
AcDbEntity
  8
GR1-1
  6
CONTINUOUS
 62
     3
100
AcDbCircle
 10
241.385057
 20
232.811591
 30
0.0
 40
2.0
100
AcDbArc
 50
284.477512
 51
360.0
  0
LINE
  5
12A
330
1F
100
AcDbEntity
  8
GR1-1
  6
CONTINUOUS
 62
     3
100
AcDbLine
 10
241.885057
 20
230.8751
 30
0.0
 11
232.885057
 21
230.8751
 31
0.0
  0
LINE
  5
12B
330
1F
100
AcDbEntity
  8
GR1-1
  6
CONTINUOUS
 62
     3
100
AcDbLine
 10
231.385057
 20
232.811591
 30
0.0
 11
231.385057
 21
233.3751
 31
0.0
  0
ARC
  5
12C
330
1F
100
AcDbEntity
  8
GR1-1
  6
CONTINUOUS
 62
     3
100
AcDbCircle
 10
233.385057
 20
232.811591
 30
0.0
 40
2.0
100
AcDbArc
 50
180.0
 51
255.522488
  0
ARC
  5
12D
330
1F
100
AcDbEntity
  8
GR1-1
  6
CONTINUOUS
 62
     3
100
AcDbCircle
 10
247.45424
 20
225.3751
 30
0.0
 40
8.0
100
AcDbArc
 50
52.580449
 51
90.0
  0
LINE
  5
12E
330
1F
100
AcDbEntity
  8
GR1-1
  6
CONTINUOUS
 62
     3
100
AcDbLine
 10
260.745529
 20
239.9251
 30
0.0
 11
254.106001
 21
251.4251
 31
0.0
  0
LINE
  5
12F
330
1F
100
AcDbEntity
  8
GR1-1
  6
CONTINUOUS
 62
     3
100
AcDbLine
 10
254.106001
 20
251.4251
 30
0.0
 11
260.745529
 21
262.9251
 31
0.0
  0
LINE
  5
130
330
1F
100
AcDbEntity
  8
GR1-1
  6
CONTINUOUS
 62
     3
100
AcDbLine
 10
260.745529
 20
262.9251
 30
0.0
 11
274.024586
 21
262.9251
 31
0.0
  0
LINE
  5
131
330
1F
100
AcDbEntity
  8
GR1-1
  6
CONTINUOUS
 62
     3
100
AcDbLine
 10
274.024586
 20
262.9251
 30
0.0
 11
280.664114
 21
251.4251
 31
0.0
  0
LINE
  5
132
330
1F
100
AcDbEntity
  8
GR1-1
  6
CONTINUOUS
 62
     3
100
AcDbLine
 10
280.664114
 20
251.4251
 30
0.0
 11
274.024586
 21
239.9251
 31
0.0
  0
LINE
  5
133
330
1F
100
AcDbEntity
  8
GR1-1
  6
CONTINUOUS
 62
     3
100
AcDbLine
 10
274.024586
 20
239.9251
 30
0.0
 11
260.745529
 21
239.9251
 31
0.0
  0
CIRCLE
  5
134
330
1F
100
AcDbEntity
  8
GR1-1
  6
CONTINUOUS
 62
     3
100
AcDbCircle
 10
267.385057
 20
251.4251
 30
0.0
 40
8.0
  0
CIRCLE
  5
135
330
1F
100
AcDbEntity
  8
GR1-1
  6
CONTINUOUS
 62
     3
100
AcDbCircle
 10
267.385057
 20
251.4251
 30
0.0
 40
22.5
  0
ARC
  5
136
330
1F
100
AcDbEntity
  8
GR1-1
  6
CONTINUOUS
 62
     3
100
AcDbCircle
 10
247.45424
 20
277.4751
 30
0.0
 40
8.0
100
AcDbArc
 50
270.0
 51
307.419551
  0
ARC
  5
137
330
1F
100
AcDbEntity
  8
GR1-1
  6
CONTINUOUS
 62
     3
100
AcDbCircle
 10
239.448566
 20
268.9751
 30
0.0
 40
2.0
100
AcDbArc
 50
14.477512
 51
90.0
  0
LINE
  5
138
330
1F
100
AcDbEntity
  8
GR1-1
  6
CONTINUOUS
 62
     3
100
AcDbLine
 10
239.448566
 20
270.9751
 30
0.0
 11
235.321549
 21
270.9751
 31
0.0
  0
ARC
  5
139
330
1F
100
AcDbEntity
  8
GR1-1
  6
CONTINUOUS
 62
     3
100
AcDbCircle
 10
235.321549
 20
268.9751
 30
0.0
 40
2.0
100
AcDbArc
 50
90.0
 51
165.522488
  0
ARC
  5
13A
330
1F
100
AcDbEntity
  8
GR1-1
  6
CONTINUOUS
 62
     3
100
AcDbCircle
 10
267.385057
 20
251.4251
 30
0.0
 40
42.00000000000006
100
AcDbArc
 50
154.547549
 51
205.452451
  0
ARC
  5
13B
330
1F
100
AcDbEntity
  8
GR1-1
  6
CONTINUOUS
 62
     3
100
AcDbCircle
 10
237.035057
 20
87.625305
 30
0.0
 40
11.0
100
AcDbArc
 50
180.0
 51
331.123806
  0
LINE
  5
13C
330
1F
100
AcDbEntity
  8
GR1-1
  6
CENTER
 62
     6
100
AcDbLine
 10
105.380074
 20
35.923917
 30
0.0
 11
105.380074
 21
159.573075
 31
0.0
  0
LINE
  5
13D
330
1F
100
AcDbEntity
  8
GR1-1
  6
CONTINUOUS
 62
     6
100
AcDbLine
 10
112.297574
 20
204.131305
 30
0.0
 11
112.297574
 21
164.131305
 31
0.0
  0
LINE
  5
13E
330
1F
100
AcDbEntity
  8
GR1-1
  6
CONTINUOUS
 62
     6
100
AcDbLine
 10
98.462574
 20
164.131305
 30
0.0
 11
98.462574
 21
204.131305
 31
0.0
  0
LINE
  5
13F
330
1F
100
AcDbEntity
  8
GR1-1
  6
CONTINUOUS
 62
     6
100
AcDbLine
 10
97.380074
 20
203.131305
 30
0.0
 11
113.380074
 21
203.131305
 31
0.0
  0
LINE
  5
140
330
1F
100
AcDbEntity
  8
GR1-1
  6
CONTINUOUS
 62
     6
100
AcDbLine
 10
127.930074
 20
157.073075
 30
0.0
 11
82.830074
 21
157.073075
 31
0.0
  0
ARC
  5
141
330
1F
100
AcDbEntity
  8
GR1-1
  6
CONTINUOUS
 62
     6
100
AcDbCircle
 10
105.380074
 20
306.998325
 30
0.0
 40
158.0312500000001
100
AcDbArc
 50
263.550955
 51
276.449045
  0
LINE
  5
142
330
1F
100
AcDbEntity
  8
GR1-1
  6
CENTER
 62
     6
100
AcDbLine
 10
129.456244
 20
88.131305
 30
0.0
 11
83.969249
 21
88.131305
 31
0.0
  0
LINE
  5
143
330
1F
100
AcDbEntity
  8
GR1-1
  6
CENTER
 62
     6
100
AcDbLine
 10
183.780882
 20
88.131305
 30
0.0
 11
290.482758
 21
88.131305
 31
0.0
  0
LINE
  5
144
330
1F
100
AcDbEntity
  8
GR1-1
  6
CENTER
 62
     6
100
AcDbLine
 10
267.385057
 20
109.463872
 30
0.0
 11
267.385057
 21
206.340015
 31
0.0
  0
LINE
  5
145
330
1F
100
AcDbEntity
  8
GR1-1
  6
CONTINUOUS
 62
     6
100
AcDbLine
 10
274.302557
 20
204.131305
 30
0.0
 11
274.302557
 21
164.131305
 31
0.0
  0
LINE
  5
146
330
1F
100
AcDbEntity
  8
GR1-1
  6
CONTINUOUS
 62
     6
100
AcDbLine
 10
244.935057
 20
157.081305
 30
0.0
 11
289.935057
 21
157.081305
 31
0.0
  0
LINE
  5
147
330
1F
100
AcDbEntity
  8
GR1-1
  6
CONTINUOUS
 62
     6
100
AcDbLine
 10
260.467557
 20
164.131305
 30
0.0
 11
260.467557
 21
204.131305
 31
0.0
  0
LINE
  5
148
330
1F
100
AcDbEntity
  8
GR1-1
  6
CONTINUOUS
 62
     6
100
AcDbLine
 10
259.385057
 20
203.131305
 30
0.0
 11
275.385057
 21
203.131305
 31
0.0
  0
LINE
  5
149
330
1F
100
AcDbEntity
  8
GR1-1
  6
CENTER
 62
     6
100
AcDbLine
 10
267.385057
 20
222.86352
 30
0.0
 11
267.385057
 21
280.516177
 31
0.0
  0
ARC
  5
14A
330
1F
100
AcDbEntity
  8
GR1-1
  6
CONTINUOUS
 62
     6
100
AcDbCircle
 10
267.385057
 20
251.4251
 30
0.0
 40
12.5
100
AcDbArc
 50
66.926082
 51
113.073918
  0
ARC
  5
14B
330
1F
100
AcDbEntity
  8
GR1-1
  6
CONTINUOUS
 62
     6
100
AcDbCircle
 10
267.385057
 20
251.4251
 30
0.0
 40
12.5
100
AcDbArc
 50
126.926082
 51
173.073918
  0
ARC
  5
14C
330
1F
100
AcDbEntity
  8
GR1-1
  6
CONTINUOUS
 62
     6
100
AcDbCircle
 10
267.385057
 20
251.4251
 30
0.0
 40
12.5
100
AcDbArc
 50
186.926082
 51
233.073918
  0
ARC
  5
14D
330
1F
100
AcDbEntity
  8
GR1-1
  6
CONTINUOUS
 62
     6
100
AcDbCircle
 10
267.385057
 20
251.4251
 30
0.0
 40
12.5
100
AcDbArc
 50
246.926082
 51
293.073918
  0
ARC
  5
14E
330
1F
100
AcDbEntity
  8
GR1-1
  6
CONTINUOUS
 62
     6
100
AcDbCircle
 10
267.385057
 20
251.4251
 30
0.0
 40
12.5
100
AcDbArc
 50
306.926082
 51
353.073918
  0
ARC
  5
14F
330
1F
100
AcDbEntity
  8
GR1-1
  6
CONTINUOUS
 62
     6
100
AcDbCircle
 10
267.385057
 20
251.4251
 30
0.0
 40
12.5
100
AcDbArc
 50
6.926082
 51
53.073918
  0
CIRCLE
  5
150
330
1F
100
AcDbEntity
  8
GR1-1
  6
CONTINUOUS
 62
     6
100
AcDbCircle
 10
267.385057
 20
251.4251
 30
0.0
 40
6.917500000000018
  0
CIRCLE
  5
151
330
1F
100
AcDbEntity
  8
GR1-1
  6
CONTINUOUS
 62
     6
100
AcDbCircle
 10
267.385057
 20
251.4251
 30
0.0
 40
17.25
  0
CIRCLE
  5
152
330
1F
100
AcDbEntity
  8
GR1-1
  6
CONTINUOUS
 62
     6
100
AcDbCircle
 10
267.385057
 20
251.4251
 30
0.0
 40
18.25
  0
LINE
  5
153
330
1F
100
AcDbEntity
  8
GR1-1
  6
CENTER
 62
     6
100
AcDbLine
 10
296.372027
 20
251.4251
 30
0.0
 11
182.462457
 21
251.4251
 31
0.0
  0
ARC
  5
154
330
1F
100
AcDbEntity
  8
GR1-1
  6
CONTINUOUS
 62
     6
100
AcDbCircle
 10
267.385057
 20
251.4251
 30
0.0
 40
24.80000000000004
100
AcDbArc
 50
140.574034
 51
219.425966
  0
CIRCLE
  5
155
330
1F
100
AcDbEntity
  8
GR1-1
  6
CONTINUOUS
 62
     6
100
AcDbCircle
 10
237.385057
 20
88.131305
 30
0.0
 40
3.999999999999972
  0
LINE
  5
156
330
1F
100
AcDbEntity
  8
GR1-1
  6
CENTER
 62
     6
100
AcDbLine
 10
237.385057
 20
100.160058
 30
0.0
 11
237.385057
 21
34.828559
 31
0.0
  0
LINE
  5
157
330
1F
100
AcDbEntity
  8
GR1-1
  6
CONTINUOUS
 62
     3
100
AcDbLine
 10
225.385057
 20
146.042481
 30
0.0
 11
248.256339
 21
150.075305
 31
0.0
  0
LINE
  5
158
330
1F
100
AcDbEntity
  8
GR1-1
  6
CONTINUOUS
 62
     6
100
AcDbLine
 10
250.378074
 20
92.475305
 30
0.0
 11
250.378074
 21
147.975305
 31
0.0
  0
ARC
  5
159
330
1F
100
AcDbEntity
  8
GR1-1
  6
CONTINUOUS
 62
     3
100
AcDbCircle
 10
267.385057
 20
153.853305
 30
0.0
 40
2.778
100
AcDbArc
 50
325.386717
 51
354.381044
  0
ARC
  5
15A
330
1F
100
AcDbEntity
  8
GR1-1
  6
CONTINUOUS
 62
     3
100
AcDbCircle
 10
272.8722
 20
153.853305
 30
0.0
 40
2.778
100
AcDbArc
 50
325.386717
 51
354.381044
  0
ARC
  5
15B
330
1F
100
AcDbEntity
  8
GR1-1
  6
CONTINUOUS
 62
     3
100
AcDbCircle
 10
277.818683
 20
153.853305
 30
0.0
 40
2.778
100
AcDbArc
 50
207.089575
 51
214.613283
  0
ARC
  5
15C
330
1F
100
AcDbEntity
  8
GR1-1
  6
CONTINUOUS
 62
     3
100
AcDbCircle
 10
272.8722
 20
153.853305
 30
0.0
 40
2.778
100
AcDbArc
 50
189.029858
 51
214.613283
  0
ARC
  5
15D
330
1F
100
AcDbEntity
  8
GR1-1
  6
CONTINUOUS
 62
     3
100
AcDbCircle
 10
277.818683
 20
153.853305
 30
0.0
 40
2.778
100
AcDbArc
 50
325.386717
 51
354.381044
  0
ARC
  5
15E
330
1F
100
AcDbEntity
  8
GR1-1
  6
CONTINUOUS
 62
     3
100
AcDbCircle
 10
281.737118
 20
153.853305
 30
0.0
 40
2.778
100
AcDbArc
 50
325.386717
 51
354.381044
  0
ARC
  5
15F
330
1F
100
AcDbEntity
  8
GR1-1
  6
CONTINUOUS
 62
     3
100
AcDbCircle
 10
284.241414
 20
153.853305
 30
0.0
 40
2.778
100
AcDbArc
 50
325.386717
 51
354.381044
  0
ARC
  5
160
330
1F
100
AcDbEntity
  8
GR1-1
  6
CONTINUOUS
 62
     3
100
AcDbCircle
 10
285.084817
 20
153.853305
 30
0.0
 40
2.778
100
AcDbArc
 50
325.386717
 51
354.381044
  0
ARC
  5
161
330
1F
100
AcDbEntity
  8
GR1-1
  6
CONTINUOUS
 62
     3
100
AcDbCircle
 10
267.385057
 20
153.853305
 30
0.0
 40
2.778
100
AcDbArc
 50
185.618956
 51
214.613283
  0
ARC
  5
162
330
1F
100
AcDbEntity
  8
GR1-1
  6
CONTINUOUS
 62
     3
100
AcDbCircle
 10
261.897915
 20
153.853305
 30
0.0
 40
2.778
100
AcDbArc
 50
185.618956
 51
214.613283
  0
ARC
  5
163
330
1F
100
AcDbEntity
  8
GR1-1
  6
CONTINUOUS
 62
     3
100
AcDbCircle
 10
256.951432
 20
153.853305
 30
0.0
 40
2.778
100
AcDbArc
 50
325.386717
 51
332.910425
  0
ARC
  5
164
330
1F
100
AcDbEntity
  8
GR1-1
  6
CONTINUOUS
 62
     3
100
AcDbCircle
 10
261.897915
 20
153.853305
 30
0.0
 40
2.778
100
AcDbArc
 50
325.386717
 51
350.970142
  0
ARC
  5
165
330
1F
100
AcDbEntity
  8
GR1-1
  6
CONTINUOUS
 62
     3
100
AcDbCircle
 10
256.951432
 20
153.853305
 30
0.0
 40
2.778
100
AcDbArc
 50
185.618956
 51
214.613283
  0
ARC
  5
166
330
1F
100
AcDbEntity
  8
GR1-1
  6
CONTINUOUS
 62
     3
100
AcDbCircle
 10
253.032997
 20
153.853305
 30
0.0
 40
2.778
100
AcDbArc
 50
185.618956
 51
214.613283
  0
ARC
  5
167
330
1F
100
AcDbEntity
  8
GR1-1
  6
CONTINUOUS
 62
     3
100
AcDbCircle
 10
250.528701
 20
153.853305
 30
0.0
 40
2.778
100
AcDbArc
 50
185.618956
 51
214.613283
  0
ARC
  5
168
330
1F
100
AcDbEntity
  8
GR1-1
  6
CONTINUOUS
 62
     3
100
AcDbCircle
 10
249.685298
 20
153.853305
 30
0.0
 40
2.778
100
AcDbArc
 50
185.618956
 51
214.613283
  0
ARC
  5
169
330
1F
100
AcDbEntity
  8
GR1-1
  6
CONTINUOUS
 62
     3
100
AcDbCircle
 10
105.380074
 20
153.845075
 30
0.0
 40
2.778
100
AcDbArc
 50
325.386717
 51
354.381044
  0
ARC
  5
16A
330
1F
100
AcDbEntity
  8
GR1-1
  6
CONTINUOUS
 62
     3
100
AcDbCircle
 10
110.867217
 20
153.845075
 30
0.0
 40
2.778
100
AcDbArc
 50
325.386717
 51
354.381044
  0
ARC
  5
16B
330
1F
100
AcDbEntity
  8
GR1-1
  6
CONTINUOUS
 62
     3
100
AcDbCircle
 10
115.813699
 20
153.845075
 30
0.0
 40
2.778
100
AcDbArc
 50
207.089575
 51
214.613283
  0
ARC
  5
16C
330
1F
100
AcDbEntity
  8
GR1-1
  6
CONTINUOUS
 62
     3
100
AcDbCircle
 10
110.867217
 20
153.845075
 30
0.0
 40
2.778
100
AcDbArc
 50
189.029858
 51
214.613283
  0
ARC
  5
16D
330
1F
100
AcDbEntity
  8
GR1-1
  6
CONTINUOUS
 62
     3
100
AcDbCircle
 10
115.813699
 20
153.845075
 30
0.0
 40
2.778
100
AcDbArc
 50
325.386717
 51
354.381044
  0
ARC
  5
16E
330
1F
100
AcDbEntity
  8
GR1-1
  6
CONTINUOUS
 62
     3
100
AcDbCircle
 10
119.732135
 20
153.845075
 30
0.0
 40
2.778
100
AcDbArc
 50
325.386717
 51
354.381044
  0
ARC
  5
16F
330
1F
100
AcDbEntity
  8
GR1-1
  6
CONTINUOUS
 62
     3
100
AcDbCircle
 10
122.236431
 20
153.845075
 30
0.0
 40
2.778
100
AcDbArc
 50
325.386717
 51
354.381044
  0
ARC
  5
170
330
1F
100
AcDbEntity
  8
GR1-1
  6
CONTINUOUS
 62
     3
100
AcDbCircle
 10
123.079834
 20
153.845075
 30
0.0
 40
2.778
100
AcDbArc
 50
325.386717
 51
354.381044
  0
ARC
  5
171
330
1F
100
AcDbEntity
  8
GR1-1
  6
CONTINUOUS
 62
     3
100
AcDbCircle
 10
105.380074
 20
153.845075
 30
0.0
 40
2.778
100
AcDbArc
 50
185.618956
 51
214.613283
  0
ARC
  5
172
330
1F
100
AcDbEntity
  8
GR1-1
  6
CONTINUOUS
 62
     3
100
AcDbCircle
 10
99.892931
 20
153.845075
 30
0.0
 40
2.778
100
AcDbArc
 50
185.618956
 51
214.613283
  0
ARC
  5
173
330
1F
100
AcDbEntity
  8
GR1-1
  6
CONTINUOUS
 62
     3
100
AcDbCircle
 10
94.946448
 20
153.845075
 30
0.0
 40
2.778
100
AcDbArc
 50
325.386717
 51
332.910425
  0
ARC
  5
174
330
1F
100
AcDbEntity
  8
GR1-1
  6
CONTINUOUS
 62
     3
100
AcDbCircle
 10
99.892931
 20
153.845075
 30
0.0
 40
2.778
100
AcDbArc
 50
325.386717
 51
350.970142
  0
ARC
  5
175
330
1F
100
AcDbEntity
  8
GR1-1
  6
CONTINUOUS
 62
     3
100
AcDbCircle
 10
94.946448
 20
153.845075
 30
0.0
 40
2.778
100
AcDbArc
 50
185.618956
 51
214.613283
  0
ARC
  5
176
330
1F
100
AcDbEntity
  8
GR1-1
  6
CONTINUOUS
 62
     3
100
AcDbCircle
 10
91.028013
 20
153.845075
 30
0.0
 40
2.778
100
AcDbArc
 50
185.618956
 51
214.613283
  0
ARC
  5
177
330
1F
100
AcDbEntity
  8
GR1-1
  6
CONTINUOUS
 62
     3
100
AcDbCircle
 10
88.523717
 20
153.845075
 30
0.0
 40
2.778
100
AcDbArc
 50
185.618956
 51
214.613283
  0
ARC
  5
178
330
1F
100
AcDbEntity
  8
GR1-1
  6
CONTINUOUS
 62
     3
100
AcDbCircle
 10
87.680314
 20
153.845075
 30
0.0
 40
2.778
100
AcDbArc
 50
185.618956
 51
214.613283
  0
LINE
  5
179
330
1F
100
AcDbEntity
  8
LAYERGROUP-1
  6
CENTER
 62
     6
100
AcDbLine
 10
237.385057
 20
272.203161
 30
0.0
 11
237.385057
 21
228.89332
 31
0.0
  0
LINE
  5
17A
330
1F
100
AcDbEntity
  8
GR1-1
  6
CENTER
 62
     6
100
AcDbLine
 10
105.380074
 20
164.131305
 30
0.0
 11
105.380074
 21
206.900539
 31
0.0
  0
DIMENSION
  5
17B
330
1F
100
AcDbEntity
  8
GR1-1
100
AcDbDimension
  2
*D22
 10
267.385057
 20
28.134622
 30
0.0
 11
252.385071
 21
29.134613
 31
0.0
 70
    32
  3
FXDIMINFO
100
AcDbAlignedDimension
 13
237.385057
 23
34.828559
 33
0.0
 14
267.385057
 24
109.463872
 34
0.0
 50
180.0
100
AcDbRotatedDimension
1001
ACAD
1000
DSTYLE
1002
{
1070
     7
1000
FXTIP_ARROW_E
1070
     6
1000
FXTIP_ARROW_S
1070
   173
1070
     1
1002
}
  0
DIMENSION
  5
185
330
1F
100
AcDbEntity
  8
GR1-1
100
AcDbDimension
  2
*D23
 10
312.028541
 20
164.131305
 30
0.0
 11
311.028534
 21
101.131287
 31
0.0
 70
    32
  3
FXDIMINFO
100
AcDbAlignedDimension
 13
237.385057
 23
38.131305
 33
0.0
 14
280.664114
 24
164.131305
 34
0.0
 50
270.0
100
AcDbRotatedDimension
1001
ACAD
1000
DSTYLE
1002
{
1070
     7
1000
FXTIP_ARROW_E
1070
     6
1000
FXTIP_ARROW_S
1070
   173
1070
     1
1002
}
  0
DIMENSION
  5
18F
330
1F
100
AcDbEntity
  8
GR1-1
100
AcDbDimension
  2
*D24
 10
302.028541
 20
204.131305
 30
0.0
 11
301.028534
 21
184.131302
 31
0.0
 70
    33
  3
FXDIMINFO
100
AcDbAlignedDimension
 13
274.302557
 23
164.131305
 33
0.0
 14
274.302557
 24
204.131305
 34
0.0
1001
ACAD
1000
DSTYLE
1002
{
1070
     7
1000
FXTIP_ARROW_E
1070
     6
1000
FXTIP_ARROW_S
1070
   173
1070
     1
1002
}
  0
DIMENSION
  5
199
330
1F
100
AcDbEntity
  8
GR1-1
100
AcDbDimension
  2
*D25
 10
302.028541
 20
164.131305
 30
0.0
 11
301.028534
 21
126.131302
 31
0.0
 70
    33
  3
FXDIMINFO
100
AcDbAlignedDimension
 13
290.482758
 23
88.131305
 33
0.0
 14
290.482758
 24
164.131305
 34
0.0
1001
ACAD
1000
DSTYLE
1002
{
1070
     7
1000
FXTIP_ARROW_E
1070
     6
1000
FXTIP_ARROW_S
1070
   173
1070
     1
1002
}
  0
DIMENSION
  5
1A3
330
1F
100
AcDbEntity
  8
GR1-1
100
AcDbDimension
  2
*D26
 10
302.21775
 20
262.9251
 30
0.0
 11
301.217743
 21
251.425095
 31
0.0
 70
    33
  3
FXDIMINFO
100
AcDbAlignedDimension
 13
274.024586
 23
239.9251
 33
0.0
 14
274.024586
 24
262.9251
 34
0.0
1001
ACAD
1000
DSTYLE
1002
{
1070
     7
1000
FXTIP_ARROW_E
1070
     6
1000
FXTIP_ARROW_S
1070
   173
1070
     1
1002
}
  0
DIMENSION
  5
1AD
330
1F
100
AcDbEntity
  8
GR1-1
100
AcDbDimension
  2
*D27
 10
147.559621
 20
138.131305
 30
0.0
 11
146.559631
 21
88.131287
 31
0.0
 70
    33
  3
FXDIMINFO
100
AcDbAlignedDimension
 13
105.380074
 23
38.131305
 33
0.0
 14
105.380074
 24
138.131305
 34
0.0
1001
ACAD
1000
DSTYLE
1002
{
1070
     7
1000
FXTIP_ARROW_E
1070
     6
1000
FXTIP_ARROW_S
1070
   173
1070
     1
1002
}
  0
DIMENSION
  5
1B7
330
1F
100
AcDbEntity
  8
GR1-1
100
AcDbDimension
  2
*D28
 10
275.385057
 20
214.146111
 30
0.0
 11
267.385071
 21
215.146118
 31
0.0
 70
    33
  3
FXDIMINFO
100
AcDbAlignedDimension
 13
259.385057
 23
203.131305
 33
0.0
 14
275.385057
 24
203.131305
 34
0.0
1001
ACAD
1000
DSTYLE
1002
{
1070
     7
1000
FXTIP_ARROW_E
1070
     6
1000
FXTIP_ARROW_S
1070
   173
1070
     1
1002
}
  0
CIRCLE
  5
1C1
330
1F
100
AcDbEntity
  8
LAYERGROUP-1
  6
CONTINUOUS
 62
     3
100
AcDbCircle
 10
237.385057
 20
88.131305
 30
0.0
 40
1.5
  0
CIRCLE
  5
1C2
330
1F
100
AcDbEntity
  8
LAYERGROUP-1
  6
CONTINUOUS
 62
     6
100
AcDbCircle
 10
237.385057
 20
88.131305
 30
0.0
 40
2.0
  0
TEXT
  5
1C3
330
1F
100
AcDbEntity
  8
}}ﾊﾊGG血CCТ
  6
CONTINUOUS
 62
     7
100
AcDbText
 10
155.0
 20
12.0
 30
0.0
 40
6.0
  1
ＥＡ－１００　１６×４０　Ｎ
 41
0.787149
  7
FX_VECTOR
 72
     5
 11
211.0
 21
12.0
 31
0.0
100
AcDbText
  0
TEXT
  5
1C4
330
1F
100
AcDbEntity
  8
LAYERGROUP-1
  6
CONTINUOUS
 62
     7
100
AcDbText
 10
255.0
 20
12.0
 30
0.0
 40
6.0
  1
E30CA0UAA-C01
 41
0.716535
  7
FX_VECTOR
 72
     5
 11
307.0
 21
12.0
 31
0.0
100
AcDbText
  0
INSERT
  5
1C8
330
1F
100
AcDbEntity
  8
0
100
AcDbBlockReference
  2
BLKF031
 10
0.0
 20
0.0
 30
0.0
  0
DIMENSION
  5
26D
330
1F
100
AcDbEntity
  8
LAYERGROUP-1
100
AcDbDimension
  2
*D31
 10
120.380074
 20
18.416638
 30
0.0
 11
105.380074
 21
19.416626
 31
0.0
 70
    33
  3
FXDIMINFO
100
AcDbAlignedDimension
 13
90.380074
 23
74.131305
 33
0.0
 14
120.380074
 24
74.131305
 34
0.0
1001
ACAD
1000
DSTYLE
1002
{
1070
     7
1000
FXTIP_ARROW_E
1070
     6
1000
FXTIP_ARROW_S
1070
   173
1070
     1
1002
}
  0
INSERT
  5
27A
330
1F
100
AcDbEntity
  8
0
100
AcDbBlockReference
  2
BLKF034
 10
0.0
 20
0.0
 30
0.0
  0
DIMENSION
  5
29B
330
1F
100
AcDbEntity
  8
LAYERGROUP-1
100
AcDbDimension
  2
*D33
 10
117.880074
 20
27.097528
 30
0.0
 11
105.380074
 21
28.097534
 31
0.0
 70
    33
  3
FXDIMINFO
100
AcDbAlignedDimension
 13
92.880074
 23
40.405827
 33
0.0
 14
117.880074
 24
40.405827
 34
0.0
1001
ACAD
1000
DSTYLE
1002
{
1070
     7
1000
FXTIP_ARROW_E
1070
     6
1000
FXTIP_ARROW_S
1070
   173
1070
     1
1002
}
  0
ARC
  5
2A5
330
1F
100
AcDbEntity
  8
LAYERGROUP-1
  6
CONTINUOUS
 62
     3
100
AcDbCircle
 10
267.385057
 20
251.4251
 30
0.0
 40
80.0
100
AcDbArc
 50
171.944782
 51
188.055218
  0
ARC
  5
2A6
330
1F
100
AcDbEntity
  8
LAYERGROUP-1
  6
CONTINUOUS
 62
     3
100
AcDbCircle
 10
189.659579
 20
240.4251
 30
0.0
 40
1.5
100
AcDbArc
 50
188.055218
 51
270.0
  0
LINE
  5
2A7
330
1F
100
AcDbEntity
  8
LAYERGROUP-1
  6
CONTINUOUS
 62
     3
100
AcDbLine
 10
189.659579
 20
238.9251
 30
0.0
 11
192.885057
 21
238.9251
 31
0.0
  0
LINE
  5
2A8
330
1F
100
AcDbEntity
  8
LAYERGROUP-1
  6
CONTINUOUS
 62
     3
100
AcDbLine
 10
224.385057
 20
238.9251
 30
0.0
 11
227.288299
 21
238.9251
 31
0.0
  0
LINE
  5
2A9
330
1F
100
AcDbEntity
  8
LAYERGROUP-1
  6
CONTINUOUS
 62
     3
100
AcDbLine
 10
227.385057
 20
238.618851
 30
0.0
 11
227.385057
 21
237.4251
 31
0.0
  0
ARC
  5
2AA
330
1F
100
AcDbEntity
  8
LAYERGROUP-1
  6
CONTINUOUS
 62
     3
100
AcDbCircle
 10
228.385057
 20
237.4251
 30
0.0
 40
1.0
100
AcDbArc
 50
180.0
 51
256.031746
  0
ARC
  5
2AB
330
1F
100
AcDbEntity
  8
LAYERGROUP-1
  6
CONTINUOUS
 62
     3
100
AcDbCircle
 10
189.659579
 20
262.4251
 30
0.0
 40
1.5
100
AcDbArc
 50
90.0
 51
171.944782
  0
LINE
  5
2AC
330
1F
100
AcDbEntity
  8
LAYERGROUP-1
  6
CONTINUOUS
 62
     3
100
AcDbLine
 10
189.659579
 20
263.9251
 30
0.0
 11
192.885057
 21
263.9251
 31
0.0
  0
LINE
  5
2AD
330
1F
100
AcDbEntity
  8
LAYERGROUP-1
  6
CONTINUOUS
 62
     3
100
AcDbLine
 10
224.385057
 20
263.9251
 30
0.0
 11
227.288299
 21
263.9251
 31
0.0
  0
LINE
  5
2AE
330
1F
100
AcDbEntity
  8
LAYERGROUP-1
  6
CONTINUOUS
 62
     3
100
AcDbLine
 10
227.385057
 20
264.231348
 30
0.0
 11
227.385057
 21
265.4251
 31
0.0
  0
ARC
  5
2AF
330
1F
100
AcDbEntity
  8
LAYERGROUP-1
  6
CONTINUOUS
 62
     3
100
AcDbCircle
 10
228.385057
 20
265.4251
 30
0.0
 40
1.0
100
AcDbArc
 50
103.968254
 51
180.0
  0
LINE
  5
2B0
330
1F
100
AcDbEntity
  8
LAYERGROUP-1
  6
CONTINUOUS
 62
     3
100
AcDbLine
 10
192.885057
 20
263.9251
 30
0.0
 11
224.385057
 21
263.9251
 31
0.0
  0
LINE
  5
2B1
330
1F
100
AcDbEntity
  8
LAYERGROUP-1
  6
CONTINUOUS
 62
     3
100
AcDbLine
 10
192.885057
 20
238.9251
 30
0.0
 11
224.385057
 21
238.9251
 31
0.0
  0
ARC
  5
2B2
330
1F
100
AcDbEntity
  8
LAYERGROUP-1
  6
CONTINUOUS
 62
     3
100
AcDbCircle
 10
237.385057
 20
88.131305
 30
0.0
 40
50.0
100
AcDbArc
 50
-258.900515
 51
48.362412
  0
ENDSEC
  0
SECTION
  2
OBJECTS
  0
DICTIONARY
  5
C
330
0
100
AcDbDictionary
  3
ACAD_GROUP
350
D
  3
ACAD_LAYOUT
350
1A
  3
ACAD_MLINESTYLE
350
17
  3
ACAD_PLOTSETTINGS
350
19
  3
ACDBHEADERROUNDTRIPXREC
350
2B3
  0
DICTIONARY
  5
D
102
{ACAD_REACTORS
330
C
102
}
330
C
100
AcDbDictionary
  0
DICTIONARY
  5
1A
102
{ACAD_REACTORS
330
C
102
}
330
C
100
AcDbDictionary
  0
DICTIONARY
  5
17
102
{ACAD_REACTORS
330
C
102
}
330
C
100
AcDbDictionary
  3
STANDARD
350
18
  0
DICTIONARY
  5
19
102
{ACAD_REACTORS
330
C
102
}
330
C
100
AcDbDictionary
  0
DICTIONARY
  5
2B3
102
{ACAD_REACTORS
330
C
102
}
330
C
100
AcDbDictionary
  3
CEPSNTYPE
350
2BC
  3
DIMSTYLEDATA
350
2D2
  3
FINGERPRINTGUID
350
2BD
  3
HYPERLINKBASE
350
2B6
  3
INSUNITS
350
2BB
  3
LAYOUTDICT
350
2B8
  3
LWETCUNION
350
2BA
  3
PLOTSETDICT
350
2B9
  3
PSVPSCALE
350
2BF
  3
PUCSBASE
350
2C2
  3
PUCSORGBACK
350
2C8
  3
PUCSORGBOTTOM
350
2C4
  3
PUCSORGFRONT
350
2C7
  3
PUCSORGLEFT
350
2C5
  3
PUCSORGRIGHT
350
2C6
  3
PUCSORGTOP
350
2C3
  3
PUCSORTHOREF
350
2C0
  3
PUCSORTHOVIEW
350
2C1
  3
STYLESHEET
350
2B7
  3
TSTACKALIGN
350
2B4
  3
TSTACKSIZE
350
2B5
  3
UCSBASE
350
2CB
  3
UCSORGBACK
350
2D1
  3
UCSORGBOTTOM
350
2CD
  3
UCSORGFRONT
350
2D0
  3
UCSORGLEFT
350
2CE
  3
UCSORGRIGHT
350
2CF
  3
UCSORGTOP
350
2CC
  3
UCSORTHOREF
350
2C9
  3
UCSORTHOVIEW
350
2CA
  3
VERSIONGUID
350
2BE
  0
MLINESTYLE
  5
18
102
{ACAD_REACTORS
330
17
102
}
330
17
100
AcDbMlineStyle
  2
Standard
 70
     0
  3

 62
   256
 51
90.0
 52
90.0
 71
     2
 49
0.5
 62
   256
  6
BYLAYER
 49
-0.5
 62
   256
  6
BYLAYER
  0
XRECORD
  5
2BC
102
{ACAD_REACTORS
330
2B3
102
}
330
2B3
100
AcDbXrecord
 90
        0
  0
XRECORD
  5
2D2
102
{ACAD_REACTORS
330
2B3
102
}
330
2B3
100
AcDbXrecord
1000
DSTYLE
1002
{
1070
   179
 70
     2
1070
   171
 70
     3
1070
   143
 40
0.03937
1070
   274
 70
     3
1070
    41
 40
4.0
1070
   343
340
41
1070
   344
340
47
1070
   141
 40
2.5
1070
   176
 70
     7
1070
   177
 70
     7
1070
   178
 70
     7
1070
   271
 70
     2
1070
    46
 40
6.0
1070
    43
 40
10.0
1070
    44
 40
1.0
1070
    42
 40
1.0
1070
   147
 40
1.0
1070
   341
340
41
1070
   173
 70
     1
1070
    77
 70
     1
1070
   272
 70
     2
1070
    73
 70
     0
1070
   172
 70
     1
1070
    74
 70
     0
1070
   283
 70
     0
1070
   340
340
3F
1070
   140
 40
4.0
1070
   284
 70
     8
1070
    78
 70
     8
1002
}
  0
XRECORD
  5
2BD
102
{ACAD_REACTORS
330
2B3
102
}
330
2B3
100
AcDbXrecord
  1
{5C6BE94F-2F23-498A-A06D-07238A143ECC}
  0
XRECORD
  5
2B6
102
{ACAD_REACTORS
330
2B3
102
}
330
2B3
100
AcDbXrecord
  1

  0
XRECORD
  5
2BB
102
{ACAD_REACTORS
330
2B3
102
}
330
2B3
100
AcDbXrecord
 90
        1
  0
XRECORD
  5
2B8
102
{ACAD_REACTORS
330
2B3
102
}
330
2B3
100
AcDbXrecord
340
1A
  0
XRECORD
  5
2BA
102
{ACAD_REACTORS
330
2B3
102
}
330
2B3
100
AcDbXrecord
 90
    10781
  0
XRECORD
  5
2B9
102
{ACAD_REACTORS
330
2B3
102
}
330
2B3
100
AcDbXrecord
340
19
  0
XRECORD
  5
2BF
102
{ACAD_REACTORS
330
2B3
102
}
330
2B3
100
AcDbXrecord
 40
0.0
  0
XRECORD
  5
2C2
102
{ACAD_REACTORS
330
2B3
102
}
330
2B3
100
AcDbXrecord
340
0
  0
XRECORD
  5
2C8
102
{ACAD_REACTORS
330
2B3
102
}
330
2B3
100
AcDbXrecord
 10
0.0
 20
0.0
 30
0.0
  0
XRECORD
  5
2C4
102
{ACAD_REACTORS
330
2B3
102
}
330
2B3
100
AcDbXrecord
 10
0.0
 20
0.0
 30
0.0
  0
XRECORD
  5
2C7
102
{ACAD_REACTORS
330
2B3
102
}
330
2B3
100
AcDbXrecord
 10
0.0
 20
0.0
 30
0.0
  0
XRECORD
  5
2C5
102
{ACAD_REACTORS
330
2B3
102
}
330
2B3
100
AcDbXrecord
 10
0.0
 20
0.0
 30
0.0
  0
XRECORD
  5
2C6
102
{ACAD_REACTORS
330
2B3
102
}
330
2B3
100
AcDbXrecord
 10
0.0
 20
0.0
 30
0.0
  0
XRECORD
  5
2C3
102
{ACAD_REACTORS
330
2B3
102
}
330
2B3
100
AcDbXrecord
 10
0.0
 20
0.0
 30
0.0
  0
XRECORD
  5
2C0
102
{ACAD_REACTORS
330
2B3
102
}
330
2B3
100
AcDbXrecord
340
0
  0
XRECORD
  5
2C1
102
{ACAD_REACTORS
330
2B3
102
}
330
2B3
100
AcDbXrecord
 70
     0
  0
XRECORD
  5
2B7
102
{ACAD_REACTORS
330
2B3
102
}
330
2B3
100
AcDbXrecord
  1

  0
XRECORD
  5
2B4
102
{ACAD_REACTORS
330
2B3
102
}
330
2B3
100
AcDbXrecord
 90
        1
  0
XRECORD
  5
2B5
102
{ACAD_REACTORS
330
2B3
102
}
330
2B3
100
AcDbXrecord
 90
       70
  0
XRECORD
  5
2CB
102
{ACAD_REACTORS
330
2B3
102
}
330
2B3
100
AcDbXrecord
340
0
  0
XRECORD
  5
2D1
102
{ACAD_REACTORS
330
2B3
102
}
330
2B3
100
AcDbXrecord
 10
0.0
 20
0.0
 30
0.0
  0
XRECORD
  5
2CD
102
{ACAD_REACTORS
330
2B3
102
}
330
2B3
100
AcDbXrecord
 10
0.0
 20
0.0
 30
0.0
  0
XRECORD
  5
2D0
102
{ACAD_REACTORS
330
2B3
102
}
330
2B3
100
AcDbXrecord
 10
0.0
 20
0.0
 30
0.0
  0
XRECORD
  5
2CE
102
{ACAD_REACTORS
330
2B3
102
}
330
2B3
100
AcDbXrecord
 10
0.0
 20
0.0
 30
0.0
  0
XRECORD
  5
2CF
102
{ACAD_REACTORS
330
2B3
102
}
330
2B3
100
AcDbXrecord
 10
0.0
 20
0.0
 30
0.0
  0
XRECORD
  5
2CC
102
{ACAD_REACTORS
330
2B3
102
}
330
2B3
100
AcDbXrecord
 10
0.0
 20
0.0
 30
0.0
  0
XRECORD
  5
2C9
102
{ACAD_REACTORS
330
2B3
102
}
330
2B3
100
AcDbXrecord
340
0
  0
XRECORD
  5
2CA
102
{ACAD_REACTORS
330
2B3
102
}
330
2B3
100
AcDbXrecord
 70
     0
  0
XRECORD
  5
2BE
102
{ACAD_REACTORS
330
2B3
102
}
330
2B3
100
AcDbXrecord
  1
{FAEB1C32-E019-11D5-929B-00C0DF256EC4}
  0
ENDSEC
  0
EOF
