  0
SECTION
  2
HEADER
  9
$ACADVER
  1
AC1014
  9
$ACADMAINTVER
 70
     9
  9
$DWGCODEPAGE
  3
ANSI_932
  9
$INSBASE
 10
0.0
 20
0.0
 30
0.0
  9
$EXTMIN
 10
0.0
 20
0.0
 30
0.0
  9
$EXTMAX
 10
420.0
 20
297.0
 30
0.0
  9
$LIMMIN
 10
0.0
 20
0.0
  9
$LIMMAX
 10
420.0
 20
297.0
  9
$ORTHOMODE
 70
     0
  9
$REGENMODE
 70
     1
  9
$FILLMODE
 70
     1
  9
$QTEXTMODE
 70
     0
  9
$MIRRTEXT
 70
     1
  9
$DRAGMODE
 70
     2
  9
$LTSCALE
 40
1.0
  9
$OSMODE
 70
    37
  9
$ATTMODE
 70
     1
  9
$TEXTSIZE
 40
0.2
  9
$TRACEWID
 40
0.05
  9
$TEXTSTYLE
  7
STYLE1
  9
$CLAYER
  8
0
  9
$CELTYPE
  6
BYLAYER
  9
$CECOLOR
 62
   256
  9
$CELTSCALE
 40
1.0
  9
$DELOBJ
 70
     1
  9
$DISPSILH
 70
     0
  9
$DIMSCALE
 40
1.0
  9
$DIMASZ
 40
4.0
  9
$DIMEXO
 40
1.0
  9
$DIMDLI
 40
10.0
  9
$DIMRND
 40
0.0
  9
$DIMDLE
 40
6.0
  9
$DIMEXE
 40
1.0
  9
$DIMTP
 40
0.0
  9
$DIMTM
 40
0.0
  9
$DIMTXT
 40
4.0
  9
$DIMCEN
 40
2.5
  9
$DIMTSZ
 40
0.0
  9
$DIMTOL
 70
     0
  9
$DIMLIM
 70
     0
  9
$DIMTIH
 70
     0
  9
$DIMTOH
 70
     0
  9
$DIMSE1
 70
     0
  9
$DIMSE2
 70
     0
  9
$DIMTAD
 70
     1
  9
$DIMZIN
 70
     8
  9
$DIMBLK
  1

  9
$DIMASO
 70
     1
  9
$DIMSHO
 70
     1
  9
$DIMPOST
  1

  9
$DIMAPOST
  1

  9
$DIMALT
 70
     0
  9
$DIMALTD
 70
     3
  9
$DIMALTF
 40
0.03937
  9
$DIMLFAC
 40
1.0
  9
$DIMTOFL
 70
     1
  9
$DIMTVP
 40
0.0
  9
$DIMTIX
 70
     0
  9
$DIMSOXD
 70
     0
  9
$DIMSAH
 70
     1
  9
$DIMBLK1
  1
FXTIP_ARROW_S
  9
$DIMBLK2
  1
FXTIP_ARROW_E
  9
$DIMSTYLE
  2
FXDIMINFO
  9
$DIMCLRD
 70
     7
  9
$DIMCLRE
 70
     7
  9
$DIMCLRT
 70
     7
  9
$DIMTFAC
 40
1.0
  9
$DIMGAP
 40
1.0
  9
$DIMJUST
 70
     0
  9
$DIMSD1
 70
     0
  9
$DIMSD2
 70
     0
  9
$DIMTOLJ
 70
     0
  9
$DIMTZIN
 70
     8
  9
$DIMALTZ
 70
     0
  9
$DIMALTTZ
 70
     0
  9
$DIMFIT
 70
     3
  9
$DIMUPT
 70
     0
  9
$DIMUNIT
 70
     2
  9
$DIMDEC
 70
     2
  9
$DIMTDEC
 70
     2
  9
$DIMALTU
 70
     2
  9
$DIMALTTD
 70
     3
  9
$DIMTXSTY
  7
STYLE1
  9
$DIMAUNIT
 70
     0
  9
$LUNITS
 70
     2
  9
$LUPREC
 70
     4
  9
$SKETCHINC
 40
0.1
  9
$FILLETRAD
 40
0.5
  9
$AUNITS
 70
     0
  9
$AUPREC
 70
     0
  9
$MENU
  1
.
  9
$ELEVATION
 40
0.0
  9
$PELEVATION
 40
0.0
  9
$THICKNESS
 40
0.0
  9
$LIMCHECK
 70
     0
  9
$CHAMFERA
 40
0.5
  9
$CHAMFERB
 40
0.5
  9
$CHAMFERC
 40
1.0
  9
$CHAMFERD
 40
0.0
  9
$SKPOLY
 70
     0
  9
$TDCREATE
 40
2455303.468797801
  9
$TDUPDATE
 40
2455303.468797813
  9
$TDINDWG
 40
0.0000000116
  9
$TDUSRTIMER
 40
0.0000000116
  9
$USRTIMER
 70
     1
  9
$ANGBASE
 50
0.0
  9
$ANGDIR
 70
     0
  9
$PDMODE
 70
     0
  9
$PDSIZE
 40
0.0
  9
$PLINEWID
 40
0.0
  9
$COORDS
 70
     1
  9
$SPLFRAME
 70
     0
  9
$SPLINETYPE
 70
     6
  9
$SPLINESEGS
 70
     8
  9
$ATTDIA
 70
     0
  9
$ATTREQ
 70
     1
  9
$HANDLING
 70
     1
  9
$HANDSEED
  5
37F
  9
$SURFTAB1
 70
     6
  9
$SURFTAB2
 70
     6
  9
$SURFTYPE
 70
     6
  9
$SURFU
 70
     6
  9
$SURFV
 70
     6
  9
$UCSNAME
  2

  9
$UCSORG
 10
0.0
 20
0.0
 30
0.0
  9
$UCSXDIR
 10
1.0
 20
0.0
 30
0.0
  9
$UCSYDIR
 10
0.0
 20
1.0
 30
0.0
  9
$PUCSNAME
  2

  9
$PUCSORG
 10
0.0
 20
0.0
 30
0.0
  9
$PUCSXDIR
 10
1.0
 20
0.0
 30
0.0
  9
$PUCSYDIR
 10
0.0
 20
1.0
 30
0.0
  9
$USERI1
 70
     0
  9
$USERI2
 70
     0
  9
$USERI3
 70
     0
  9
$USERI4
 70
     0
  9
$USERI5
 70
     0
  9
$USERR1
 40
0.0
  9
$USERR2
 40
0.0
  9
$USERR3
 40
0.0
  9
$USERR4
 40
0.0
  9
$USERR5
 40
0.0
  9
$WORLDVIEW
 70
     1
  9
$SHADEDGE
 70
     3
  9
$SHADEDIF
 70
    70
  9
$TILEMODE
 70
     1
  9
$MAXACTVP
 70
    64
  9
$PINSBASE
 10
0.0
 20
0.0
 30
0.0
  9
$PLIMCHECK
 70
     0
  9
$PEXTMIN
 10
1.000000E+20
 20
1.000000E+20
 30
1.000000E+20
  9
$PEXTMAX
 10
-1.000000E+20
 20
-1.000000E+20
 30
-1.000000E+20
  9
$PLIMMIN
 10
0.0
 20
0.0
  9
$PLIMMAX
 10
12.0
 20
9.0
  9
$UNITMODE
 70
     0
  9
$VISRETAIN
 70
     1
  9
$PLINEGEN
 70
     0
  9
$PSLTSCALE
 70
     1
  9
$TREEDEPTH
 70
  3020
  9
$PICKSTYLE
 70
     1
  9
$CMLSTYLE
  2
STANDARD
  9
$CMLJUST
 70
     0
  9
$CMLSCALE
 40
1.0
  9
$PROXYGRAPHICS
 70
     1
  9
$MEASUREMENT
 70
     0
  0
ENDSEC
  0
SECTION
  2
CLASSES
  0
CLASS
  1
ACDBDICTIONARYWDFLT
  2
AcDbDictionaryWithDefault
  3
ObjectDBX Classes
 90
        0
280
     0
281
     0
  0
CLASS
  1
XRECORD
  2
AcDbXrecord
  3
AutoCAD 2000
 90
        0
280
     0
281
     0
  0
CLASS
  1
LWPOLYLINE
  2
AcDbPolyline
  3
AutoCAD 2000
 90
        0
280
     0
281
     1
  0
CLASS
  1
HATCH
  2
AcDbHatch
  3
AutoCAD 2000
 90
        0
280
     0
281
     1
  0
CLASS
  1
ACDBPLACEHOLDER
  2
AcDbPlaceHolder
  3
ObjectDBX Classes
 90
        0
280
     0
281
     0
  0
CLASS
  1
LAYOUT
  2
AcDbLayout
  3
ObjectDBX Classes
 90
        0
280
     0
281
     0
  0
ENDSEC
  0
SECTION
  2
TABLES
  0
TABLE
  2
VPORT
  5
8
330
0
100
AcDbSymbolTable
 70
     1
  0
VPORT
  5
29
330
8
100
AcDbSymbolTableRecord
100
AcDbViewportTableRecord
  2
*ACTIVE
 70
     0
 10
0.0
 20
0.0
 11
1.0
 21
1.0
 12
210.0
 22
148.5
 13
0.0
 23
0.0
 14
0.5
 24
0.5
 15
0.5
 25
0.5
 16
0.0
 26
0.0
 36
1.0
 17
0.0
 27
0.0
 37
0.0
 40
297.0
 41
1.414141
 42
50.0
 43
0.0
 44
0.0
 50
0.0
 51
0.0
 71
     0
 72
   100
 73
     1
 74
     3
 75
     0
 76
     0
 77
     0
 78
     0
  0
ENDTAB
  0
TABLE
  2
LTYPE
  5
5
330
0
100
AcDbSymbolTable
 70
     4
  0
LTYPE
  5
14
330
5
100
AcDbSymbolTableRecord
100
AcDbLinetypeTableRecord
  2
BYBLOCK
 70
     0
  3

 72
    65
 73
     0
 40
0.0
  0
LTYPE
  5
15
330
5
100
AcDbSymbolTableRecord
100
AcDbLinetypeTableRecord
  2
BYLAYER
 70
     0
  3

 72
    65
 73
     0
 40
0.0
  0
LTYPE
  5
16
330
5
100
AcDbSymbolTableRecord
100
AcDbLinetypeTableRecord
  2
CONTINUOUS
 70
     0
  3
--------------------
 72
    65
 73
     0
 40
0.0
  0
LTYPE
  5
2A
330
5
100
AcDbSymbolTableRecord
100
AcDbLinetypeTableRecord
  2
CENTER
 70
     0
  3
Center ____ _ ____ _ ____ _ ____ _ ____ _ ____
 72
    65
 73
     4
 40
13.0
 49
10.0
 74
     0
 49
-1.0
 74
     0
 49
1.0
 74
     0
 49
-1.0
 74
     0
  0
ENDTAB
  0
TABLE
  2
LAYER
  5
2
330
0
100
AcDbSymbolTable
 70
    20
  0
LAYER
  5
10
330
2
100
AcDbSymbolTableRecord
100
AcDbLayerTableRecord
  2
0
 70
     0
 62
     7
  6
CONTINUOUS
  0
LAYER
  5
2D
330
2
100
AcDbSymbolTableRecord
100
AcDbLayerTableRecord
  2
LAYERGROUP-1
 70
     0
 62
     3
  6
CONTINUOUS
  0
LAYER
  5
3D
330
2
100
AcDbSymbolTableRecord
100
AcDbLayerTableRecord
  2
}}ﾊﾊGG血CCТ
 70
     0
 62
     3
  6
CONTINUOUS
  0
LAYER
  5
A9
330
2
100
AcDbSymbolTableRecord
100
AcDbLayerTableRecord
  2
GR1-1
 70
     0
 62
     7
  6
CONTINUOUS
  0
LAYER
  5
302
330
2
100
AcDbSymbolTableRecord
100
AcDbLayerTableRecord
  2
0-1
 70
     0
 62
     7
  6
CONTINUOUS
  0
ENDTAB
  0
TABLE
  2
STYLE
  5
3
330
0
100
AcDbSymbolTable
 70
     4
  0
STYLE
  5
11
330
3
100
AcDbSymbolTableRecord
100
AcDbTextStyleTableRecord
  2
STANDARD
 70
     0
 40
0.0
 41
1.0
 50
0.0
 71
     0
 42
0.2
  3
txt
  4

  0
STYLE
  5
3F
330
3
100
AcDbSymbolTableRecord
100
AcDbTextStyleTableRecord
  2
STYLE1
 70
     0
 40
0.0
 41
1.0
 50
0.0
 71
     0
 42
0.2
  3
MONOTXT.SHX
  4
extfont.shx
  0
STYLE
  5
40
330
3
100
AcDbSymbolTableRecord
100
AcDbTextStyleTableRecord
  2
FX_VECTOR
 70
     0
 40
0.0
 41
1.0
 50
0.0
 71
     0
 42
0.2
  3
MONOTXT.SHX
  4
BIGFONT.SHX
  0
ENDTAB
  0
TABLE
  2
VIEW
  5
6
330
0
100
AcDbSymbolTable
 70
     0
  0
ENDTAB
  0
TABLE
  2
UCS
  5
7
330
0
100
AcDbSymbolTable
 70
     0
  0
ENDTAB
  0
TABLE
  2
APPID
  5
9
330
0
100
AcDbSymbolTable
 70
     1
  0
APPID
  5
12
330
9
100
AcDbSymbolTableRecord
100
AcDbRegAppTableRecord
  2
ACAD
 70
     0
  0
ENDTAB
  0
TABLE
  2
DIMSTYLE
  5
A
330
0
100
AcDbSymbolTable
 70
     2
  0
DIMSTYLE
105
27
330
A
100
AcDbSymbolTableRecord
100
AcDbDimStyleTableRecord
  2
STANDARD
 70
     0
  3

  4

  5

  6

  7

 40
1.0
 41
0.18
 42
0.0625
 43
0.38
 44
0.18
 45
0.0
 46
0.0
 47
0.0
 48
0.0
140
0.18
141
0.09
142
0.0
143
25.4
144
1.0
145
0.0
146
1.0
147
0.09
 71
     0
 72
     0
 73
     1
 74
     1
 75
     0
 76
     0
 77
     0
 78
     0
170
     0
171
     2
172
     0
173
     0
174
     0
175
     0
176
     0
177
     0
178
     0
270
     2
271
     4
272
     4
273
     2
274
     2
340
11
275
     0
280
     0
281
     0
282
     0
283
     1
284
     0
285
     0
286
     0
287
     3
288
     0
  0
DIMSTYLE
105
A7
102
{ACAD_REACTORS
330
10B
330
115
330
11F
330
129
330
133
330
13D
330
18F
330
1B5
330
208
330
212
102
}
330
A
100
AcDbSymbolTableRecord
100
AcDbDimStyleTableRecord
  2
FXDIMINFO
 70
     0
  3

  4

  5

  6
FXTIP_ARROW_S
  7
FXTIP_ARROW_E
 40
1.0
 41
4.0
 42
1.0
 43
10.0
 44
1.0
 45
0.0
 46
6.0
 47
0.0
 48
0.0
140
4.0
141
2.5
142
0.0
143
0.03937
144
1.0
145
0.0
146
1.0
147
1.0
 71
     0
 72
     0
 73
     0
 74
     0
 75
     0
 76
     0
 77
     1
 78
     8
170
     0
171
     3
172
     1
173
     1
174
     0
175
     0
176
     7
177
     7
178
     7
179
     2
270
     2
271
     2
272
     2
273
     2
274
     3
340
3F
275
     0
280
     0
281
     0
282
     0
283
     0
284
     8
285
     0
286
     0
287
     3
288
     0
  0
ENDTAB
  0
TABLE
  2
BLOCK_RECORD
  5
1
330
0
100
AcDbSymbolTable
 70
    34
  0
BLOCK_RECORD
  5
1F
330
1
100
AcDbSymbolTableRecord
100
AcDbBlockTableRecord
  2
*MODEL_SPACE
  0
BLOCK_RECORD
  5
1B
330
1
100
AcDbSymbolTableRecord
100
AcDbBlockTableRecord
  2
*PAPER_SPACE
  0
BLOCK_RECORD
  5
41
330
1
100
AcDbSymbolTableRecord
100
AcDbBlockTableRecord
  2
FXTIP_ARROW_S
  0
BLOCK_RECORD
  5
47
330
1
100
AcDbSymbolTableRecord
100
AcDbBlockTableRecord
  2
FXTIP_ARROW_E
  0
BLOCK_RECORD
  5
4D
330
1
100
AcDbSymbolTableRecord
100
AcDbBlockTableRecord
  2
FXTIP_BLACKDOT_S
  0
BLOCK_RECORD
  5
53
330
1
100
AcDbSymbolTableRecord
100
AcDbBlockTableRecord
  2
FXTIP_BLACKDOT_E
  0
BLOCK_RECORD
  5
59
330
1
100
AcDbSymbolTableRecord
100
AcDbBlockTableRecord
  2
FXTIP_TRIANGLE_S
  0
BLOCK_RECORD
  5
60
330
1
100
AcDbSymbolTableRecord
100
AcDbBlockTableRecord
  2
FXTIP_TRIANGLE_E
  0
BLOCK_RECORD
  5
67
330
1
100
AcDbSymbolTableRecord
100
AcDbBlockTableRecord
  2
FXTIP_ARCHITECT_S
  0
BLOCK_RECORD
  5
6D
330
1
100
AcDbSymbolTableRecord
100
AcDbBlockTableRecord
  2
FXTIP_ARCHITECT_E
  0
BLOCK_RECORD
  5
73
330
1
100
AcDbSymbolTableRecord
100
AcDbBlockTableRecord
  2
FXTIP_CIVIL_S
  0
BLOCK_RECORD
  5
79
330
1
100
AcDbSymbolTableRecord
100
AcDbBlockTableRecord
  2
FXTIP_CIVIL_E
  0
BLOCK_RECORD
  5
7F
330
1
100
AcDbSymbolTableRecord
100
AcDbBlockTableRecord
  2
FXTIP_WHITEDOT_S
  0
BLOCK_RECORD
  5
84
330
1
100
AcDbSymbolTableRecord
100
AcDbBlockTableRecord
  2
FXTIP_WHITEDOT_E
  0
BLOCK_RECORD
  5
89
330
1
100
AcDbSymbolTableRecord
100
AcDbBlockTableRecord
  2
FXTIP_UPARROW_S
  0
BLOCK_RECORD
  5
8E
330
1
100
AcDbSymbolTableRecord
100
AcDbBlockTableRecord
  2
FXTIP_UPARROW_E
  0
BLOCK_RECORD
  5
93
330
1
100
AcDbSymbolTableRecord
100
AcDbBlockTableRecord
  2
FXTIP_DOWNARROW_S
  0
BLOCK_RECORD
  5
98
330
1
100
AcDbSymbolTableRecord
100
AcDbBlockTableRecord
  2
FXTIP_DOWNARROW_E
  0
BLOCK_RECORD
  5
9D
330
1
100
AcDbSymbolTableRecord
100
AcDbBlockTableRecord
  2
FXTIP_BLACKTRIANGLE_S
  0
BLOCK_RECORD
  5
A2
330
1
100
AcDbSymbolTableRecord
100
AcDbBlockTableRecord
  2
FXTIP_BLACKTRIANGLE_E
  0
BLOCK_RECORD
  5
10C
330
1
100
AcDbSymbolTableRecord
100
AcDbBlockTableRecord
  2
*D19
  0
BLOCK_RECORD
  5
116
330
1
100
AcDbSymbolTableRecord
100
AcDbBlockTableRecord
  2
*D20
  0
BLOCK_RECORD
  5
120
330
1
100
AcDbSymbolTableRecord
100
AcDbBlockTableRecord
  2
*D21
  0
BLOCK_RECORD
  5
12A
330
1
100
AcDbSymbolTableRecord
100
AcDbBlockTableRecord
  2
*D22
  0
BLOCK_RECORD
  5
134
330
1
100
AcDbSymbolTableRecord
100
AcDbBlockTableRecord
  2
*D23
  0
BLOCK_RECORD
  5
13E
330
1
100
AcDbSymbolTableRecord
100
AcDbBlockTableRecord
  2
*D24
  0
BLOCK_RECORD
  5
190
330
1
100
AcDbSymbolTableRecord
100
AcDbBlockTableRecord
  2
*D25
  0
BLOCK_RECORD
  5
1B6
330
1
100
AcDbSymbolTableRecord
100
AcDbBlockTableRecord
  2
*D26
  0
BLOCK_RECORD
  5
209
330
1
100
AcDbSymbolTableRecord
100
AcDbBlockTableRecord
  2
*D27
  0
BLOCK_RECORD
  5
213
330
1
100
AcDbSymbolTableRecord
100
AcDbBlockTableRecord
  2
*D28
  0
BLOCK_RECORD
  5
21C
330
1
100
AcDbSymbolTableRecord
100
AcDbBlockTableRecord
  2
BLKF031
  0
BLOCK_RECORD
  5
279
330
1
100
AcDbSymbolTableRecord
100
AcDbBlockTableRecord
  2
BLKF032
  0
BLOCK_RECORD
  5
332
330
1
100
AcDbSymbolTableRecord
100
AcDbBlockTableRecord
  2
BLKF033
  0
BLOCK_RECORD
  5
33E
330
1
100
AcDbSymbolTableRecord
100
AcDbBlockTableRecord
  2
BLKF034
  0
BLOCK_RECORD
  5
346
330
1
100
AcDbSymbolTableRecord
100
AcDbBlockTableRecord
  2
BLKF035
  0
ENDTAB
  0
ENDSEC
  0
SECTION
  2
BLOCKS
  0
BLOCK
  5
20
330
1F
100
AcDbEntity
  8
0
100
AcDbBlockBegin
  2
*MODEL_SPACE
 70
     0
 71
     0
 10
0.0
 20
0.0
 30
0.0
  3
*MODEL_SPACE
  1

  0
ENDBLK
  5
21
330
1F
100
AcDbEntity
  8
0
100
AcDbBlockEnd
  0
BLOCK
  5
1C
330
1B
100
AcDbEntity
 67
     1
  8
0
100
AcDbBlockBegin
  2
*PAPER_SPACE
 70
     0
 71
     0
 10
0.0
 20
0.0
 30
0.0
  3
*PAPER_SPACE
  1

  0
ENDBLK
  5
1D
330
1B
100
AcDbEntity
 67
     1
  8
0
100
AcDbBlockEnd
  0
BLOCK
  5
42
330
41
100
AcDbEntity
  8
0
100
AcDbBlockBegin
  2
FXTIP_ARROW_S
 70
     0
 71
     0
 10
0.0
 20
0.0
 30
0.0
  3
FXTIP_ARROW_S
  1

  0
LINE
  5
44
330
41
100
AcDbEntity
  8
0
  6
CONTINUOUS
 62
     0
100
AcDbLine
 10
0.0
 20
0.0
 30
0.0
 11
-1.0
 21
0.0
 31
0.0
  0
LINE
  5
45
330
41
100
AcDbEntity
  8
0
  6
CONTINUOUS
 62
     0
100
AcDbLine
 10
0.0
 20
0.0
 30
0.0
 11
-0.965926
 21
-0.258819
 31
0.0
  0
LINE
  5
46
330
41
100
AcDbEntity
  8
0
  6
CONTINUOUS
 62
     0
100
AcDbLine
 10
0.0
 20
0.0
 30
0.0
 11
-0.965926
 21
0.258819
 31
0.0
  0
ENDBLK
  5
43
330
41
100
AcDbEntity
  8
0
100
AcDbBlockEnd
  0
BLOCK
  5
48
330
47
100
AcDbEntity
  8
0
100
AcDbBlockBegin
  2
FXTIP_ARROW_E
 70
     0
 71
     0
 10
0.0
 20
0.0
 30
0.0
  3
FXTIP_ARROW_E
  1

  0
LINE
  5
4A
330
47
100
AcDbEntity
  8
0
  6
CONTINUOUS
 62
     0
100
AcDbLine
 10
0.0
 20
0.0
 30
0.0
 11
-1.0
 21
0.0
 31
0.0
  0
LINE
  5
4B
330
47
100
AcDbEntity
  8
0
  6
CONTINUOUS
 62
     0
100
AcDbLine
 10
0.0
 20
0.0
 30
0.0
 11
-0.965926
 21
0.258819
 31
0.0
  0
LINE
  5
4C
330
47
100
AcDbEntity
  8
0
  6
CONTINUOUS
 62
     0
100
AcDbLine
 10
0.0
 20
0.0
 30
0.0
 11
-0.965926
 21
-0.258819
 31
0.0
  0
ENDBLK
  5
49
330
47
100
AcDbEntity
  8
0
100
AcDbBlockEnd
  0
BLOCK
  5
4E
330
4D
100
AcDbEntity
  8
0
100
AcDbBlockBegin
  2
FXTIP_BLACKDOT_S
 70
     0
 71
     0
 10
0.0
 20
0.0
 30
0.0
  3
FXTIP_BLACKDOT_S
  1

  0
LINE
  5
50
330
4D
100
AcDbEntity
  8
0
  6
CONTINUOUS
 62
     0
100
AcDbLine
 10
0.0
 20
0.0
 30
0.0
 11
-1.0
 21
0.0
 31
0.0
  0
LWPOLYLINE
  5
51
330
4D
100
AcDbEntity
  8
0
  6
CONTINUOUS
 62
     0
100
AcDbPolyline
 90
        2
 70
     1
 10
-0.25
 20
0.0
 40
0.5
 41
0.5
 42
1.0
 10
0.25
 20
0.0
 40
0.5
 41
0.5
 42
1.0
  0
CIRCLE
  5
52
330
4D
100
AcDbEntity
  8
0
  6
CONTINUOUS
 62
     0
100
AcDbCircle
 10
0.0
 20
0.0
 30
0.0
 40
0.5
  0
ENDBLK
  5
4F
330
4D
100
AcDbEntity
  8
0
100
AcDbBlockEnd
  0
BLOCK
  5
54
330
53
100
AcDbEntity
  8
0
100
AcDbBlockBegin
  2
FXTIP_BLACKDOT_E
 70
     0
 71
     0
 10
0.0
 20
0.0
 30
0.0
  3
FXTIP_BLACKDOT_E
  1

  0
LINE
  5
56
330
53
100
AcDbEntity
  8
0
  6
CONTINUOUS
 62
     0
100
AcDbLine
 10
0.0
 20
0.0
 30
0.0
 11
-1.0
 21
0.0
 31
0.0
  0
LWPOLYLINE
  5
57
330
53
100
AcDbEntity
  8
0
  6
CONTINUOUS
 62
     0
100
AcDbPolyline
 90
        2
 70
     1
 10
-0.25
 20
0.0
 40
0.5
 41
0.5
 42
1.0
 10
0.25
 20
0.0
 40
0.5
 41
0.5
 42
1.0
  0
CIRCLE
  5
58
330
53
100
AcDbEntity
  8
0
  6
CONTINUOUS
 62
     0
100
AcDbCircle
 10
0.0
 20
0.0
 30
0.0
 40
0.5
  0
ENDBLK
  5
55
330
53
100
AcDbEntity
  8
0
100
AcDbBlockEnd
  0
BLOCK
  5
5A
330
59
100
AcDbEntity
  8
0
100
AcDbBlockBegin
  2
FXTIP_TRIANGLE_S
 70
     0
 71
     0
 10
0.0
 20
0.0
 30
0.0
  3
FXTIP_TRIANGLE_S
  1

  0
LINE
  5
5C
330
59
100
AcDbEntity
  8
0
  6
CONTINUOUS
 62
     0
100
AcDbLine
 10
0.0
 20
0.0
 30
0.0
 11
-1.0
 21
0.0
 31
0.0
  0
LINE
  5
5D
330
59
100
AcDbEntity
  8
0
  6
CONTINUOUS
 62
     0
100
AcDbLine
 10
0.0
 20
0.0
 30
0.0
 11
-0.965926
 21
-0.258819
 31
0.0
  0
LINE
  5
5E
330
59
100
AcDbEntity
  8
0
  6
CONTINUOUS
 62
     0
100
AcDbLine
 10
0.0
 20
0.0
 30
0.0
 11
-0.965926
 21
0.258819
 31
0.0
  0
LINE
  5
5F
330
59
100
AcDbEntity
  8
0
  6
CONTINUOUS
 62
     0
100
AcDbLine
 10
-0.965926
 20
-0.258819
 30
0.0
 11
-0.965926
 21
0.258819
 31
0.0
  0
ENDBLK
  5
5B
330
59
100
AcDbEntity
  8
0
100
AcDbBlockEnd
  0
BLOCK
  5
61
330
60
100
AcDbEntity
  8
0
100
AcDbBlockBegin
  2
FXTIP_TRIANGLE_E
 70
     0
 71
     0
 10
0.0
 20
0.0
 30
0.0
  3
FXTIP_TRIANGLE_E
  1

  0
LINE
  5
63
330
60
100
AcDbEntity
  8
0
  6
CONTINUOUS
 62
     0
100
AcDbLine
 10
0.0
 20
0.0
 30
0.0
 11
-1.0
 21
0.0
 31
0.0
  0
LINE
  5
64
330
60
100
AcDbEntity
  8
0
  6
CONTINUOUS
 62
     0
100
AcDbLine
 10
0.0
 20
0.0
 30
0.0
 11
-0.965926
 21
0.258819
 31
0.0
  0
LINE
  5
65
330
60
100
AcDbEntity
  8
0
  6
CONTINUOUS
 62
     0
100
AcDbLine
 10
0.0
 20
0.0
 30
0.0
 11
-0.965926
 21
-0.258819
 31
0.0
  0
LINE
  5
66
330
60
100
AcDbEntity
  8
0
  6
CONTINUOUS
 62
     0
100
AcDbLine
 10
-0.965926
 20
0.258819
 30
0.0
 11
-0.965926
 21
-0.258819
 31
0.0
  0
ENDBLK
  5
62
330
60
100
AcDbEntity
  8
0
100
AcDbBlockEnd
  0
BLOCK
  5
68
330
67
100
AcDbEntity
  8
0
100
AcDbBlockBegin
  2
FXTIP_ARCHITECT_S
 70
     0
 71
     0
 10
0.0
 20
0.0
 30
0.0
  3
FXTIP_ARCHITECT_S
  1

  0
LINE
  5
6A
330
67
100
AcDbEntity
  8
0
  6
CONTINUOUS
 62
     0
100
AcDbLine
 10
0.0
 20
0.0
 30
0.0
 11
-1.0
 21
0.0
 31
0.0
  0
LINE
  5
6B
330
67
100
AcDbEntity
  8
0
  6
CONTINUOUS
 62
     0
100
AcDbLine
 10
0.0
 20
0.0
 30
0.0
 11
-0.707107
 21
-0.707107
 31
0.0
  0
LINE
  5
6C
330
67
100
AcDbEntity
  8
0
  6
CONTINUOUS
 62
     0
100
AcDbLine
 10
0.0
 20
0.0
 30
0.0
 11
0.707107
 21
0.707107
 31
0.0
  0
ENDBLK
  5
69
330
67
100
AcDbEntity
  8
0
100
AcDbBlockEnd
  0
BLOCK
  5
6E
330
6D
100
AcDbEntity
  8
0
100
AcDbBlockBegin
  2
FXTIP_ARCHITECT_E
 70
     0
 71
     0
 10
0.0
 20
0.0
 30
0.0
  3
FXTIP_ARCHITECT_E
  1

  0
LINE
  5
70
330
6D
100
AcDbEntity
  8
0
  6
CONTINUOUS
 62
     0
100
AcDbLine
 10
0.0
 20
0.0
 30
0.0
 11
-1.0
 21
0.0
 31
0.0
  0
LINE
  5
71
330
6D
100
AcDbEntity
  8
0
  6
CONTINUOUS
 62
     0
100
AcDbLine
 10
0.0
 20
0.0
 30
0.0
 11
0.707107
 21
0.707107
 31
0.0
  0
LINE
  5
72
330
6D
100
AcDbEntity
  8
0
  6
CONTINUOUS
 62
     0
100
AcDbLine
 10
0.0
 20
0.0
 30
0.0
 11
-0.707107
 21
-0.707107
 31
0.0
  0
ENDBLK
  5
6F
330
6D
100
AcDbEntity
  8
0
100
AcDbBlockEnd
  0
BLOCK
  5
74
330
73
100
AcDbEntity
  8
0
100
AcDbBlockBegin
  2
FXTIP_CIVIL_S
 70
     0
 71
     0
 10
0.0
 20
0.0
 30
0.0
  3
FXTIP_CIVIL_S
  1

  0
LINE
  5
76
330
73
100
AcDbEntity
  8
0
  6
CONTINUOUS
 62
     0
100
AcDbLine
 10
0.0
 20
0.0
 30
0.0
 11
-1.0
 21
0.0
 31
0.0
  0
LINE
  5
77
330
73
100
AcDbEntity
  8
0
  6
CONTINUOUS
 62
     0
100
AcDbLine
 10
0.0
 20
-0.0625
 30
0.0
 11
-1.0
 21
-0.0625
 31
0.0
  0
LINE
  5
78
330
73
100
AcDbEntity
  8
0
  6
CONTINUOUS
 62
     0
100
AcDbLine
 10
0.0
 20
-0.125
 30
0.0
 11
-1.0
 21
-0.125
 31
0.0
  0
ENDBLK
  5
75
330
73
100
AcDbEntity
  8
0
100
AcDbBlockEnd
  0
BLOCK
  5
7A
330
79
100
AcDbEntity
  8
0
100
AcDbBlockBegin
  2
FXTIP_CIVIL_E
 70
     0
 71
     0
 10
0.0
 20
0.0
 30
0.0
  3
FXTIP_CIVIL_E
  1

  0
LINE
  5
7C
330
79
100
AcDbEntity
  8
0
  6
CONTINUOUS
 62
     0
100
AcDbLine
 10
0.0
 20
0.0
 30
0.0
 11
-1.0
 21
0.0
 31
0.0
  0
LINE
  5
7D
330
79
100
AcDbEntity
  8
0
  6
CONTINUOUS
 62
     0
100
AcDbLine
 10
0.0
 20
0.0625
 30
0.0
 11
-1.0
 21
0.0625
 31
0.0
  0
LINE
  5
7E
330
79
100
AcDbEntity
  8
0
  6
CONTINUOUS
 62
     0
100
AcDbLine
 10
0.0
 20
0.125
 30
0.0
 11
-1.0
 21
0.125
 31
0.0
  0
ENDBLK
  5
7B
330
79
100
AcDbEntity
  8
0
100
AcDbBlockEnd
  0
BLOCK
  5
80
330
7F
100
AcDbEntity
  8
0
100
AcDbBlockBegin
  2
FXTIP_WHITEDOT_S
 70
     0
 71
     0
 10
0.0
 20
0.0
 30
0.0
  3
FXTIP_WHITEDOT_S
  1

  0
LINE
  5
82
330
7F
100
AcDbEntity
  8
0
  6
CONTINUOUS
 62
     0
100
AcDbLine
 10
0.0
 20
0.0
 30
0.0
 11
-1.0
 21
0.0
 31
0.0
  0
CIRCLE
  5
83
330
7F
100
AcDbEntity
  8
0
  6
CONTINUOUS
 62
     0
100
AcDbCircle
 10
0.0
 20
0.0
 30
0.0
 40
0.5
  0
ENDBLK
  5
81
330
7F
100
AcDbEntity
  8
0
100
AcDbBlockEnd
  0
BLOCK
  5
85
330
84
100
AcDbEntity
  8
0
100
AcDbBlockBegin
  2
FXTIP_WHITEDOT_E
 70
     0
 71
     0
 10
0.0
 20
0.0
 30
0.0
  3
FXTIP_WHITEDOT_E
  1

  0
LINE
  5
87
330
84
100
AcDbEntity
  8
0
  6
CONTINUOUS
 62
     0
100
AcDbLine
 10
0.0
 20
0.0
 30
0.0
 11
-1.0
 21
0.0
 31
0.0
  0
CIRCLE
  5
88
330
84
100
AcDbEntity
  8
0
  6
CONTINUOUS
 62
     0
100
AcDbCircle
 10
0.0
 20
0.0
 30
0.0
 40
0.5
  0
ENDBLK
  5
86
330
84
100
AcDbEntity
  8
0
100
AcDbBlockEnd
  0
BLOCK
  5
8A
330
89
100
AcDbEntity
  8
0
100
AcDbBlockBegin
  2
FXTIP_UPARROW_S
 70
     0
 71
     0
 10
0.0
 20
0.0
 30
0.0
  3
FXTIP_UPARROW_S
  1

  0
LINE
  5
8C
330
89
100
AcDbEntity
  8
0
  6
CONTINUOUS
 62
     0
100
AcDbLine
 10
0.0
 20
0.0
 30
0.0
 11
-1.0
 21
0.0
 31
0.0
  0
LINE
  5
8D
330
89
100
AcDbEntity
  8
0
  6
CONTINUOUS
 62
     0
100
AcDbLine
 10
0.0
 20
0.0
 30
0.0
 11
-0.965926
 21
-0.258819
 31
0.0
  0
ENDBLK
  5
8B
330
89
100
AcDbEntity
  8
0
100
AcDbBlockEnd
  0
BLOCK
  5
8F
330
8E
100
AcDbEntity
  8
0
100
AcDbBlockBegin
  2
FXTIP_UPARROW_E
 70
     0
 71
     0
 10
0.0
 20
0.0
 30
0.0
  3
FXTIP_UPARROW_E
  1

  0
LINE
  5
91
330
8E
100
AcDbEntity
  8
0
  6
CONTINUOUS
 62
     0
100
AcDbLine
 10
0.0
 20
0.0
 30
0.0
 11
-1.0
 21
0.0
 31
0.0
  0
LINE
  5
92
330
8E
100
AcDbEntity
  8
0
  6
CONTINUOUS
 62
     0
100
AcDbLine
 10
0.0
 20
0.0
 30
0.0
 11
-0.965926
 21
0.258819
 31
0.0
  0
ENDBLK
  5
90
330
8E
100
AcDbEntity
  8
0
100
AcDbBlockEnd
  0
BLOCK
  5
94
330
93
100
AcDbEntity
  8
0
100
AcDbBlockBegin
  2
FXTIP_DOWNARROW_S
 70
     0
 71
     0
 10
0.0
 20
0.0
 30
0.0
  3
FXTIP_DOWNARROW_S
  1

  0
LINE
  5
96
330
93
100
AcDbEntity
  8
0
  6
CONTINUOUS
 62
     0
100
AcDbLine
 10
0.0
 20
0.0
 30
0.0
 11
-1.0
 21
0.0
 31
0.0
  0
LINE
  5
97
330
93
100
AcDbEntity
  8
0
  6
CONTINUOUS
 62
     0
100
AcDbLine
 10
0.0
 20
0.0
 30
0.0
 11
-0.965926
 21
0.258819
 31
0.0
  0
ENDBLK
  5
95
330
93
100
AcDbEntity
  8
0
100
AcDbBlockEnd
  0
BLOCK
  5
99
330
98
100
AcDbEntity
  8
0
100
AcDbBlockBegin
  2
FXTIP_DOWNARROW_E
 70
     0
 71
     0
 10
0.0
 20
0.0
 30
0.0
  3
FXTIP_DOWNARROW_E
  1

  0
LINE
  5
9B
330
98
100
AcDbEntity
  8
0
  6
CONTINUOUS
 62
     0
100
AcDbLine
 10
0.0
 20
0.0
 30
0.0
 11
-1.0
 21
0.0
 31
0.0
  0
LINE
  5
9C
330
98
100
AcDbEntity
  8
0
  6
CONTINUOUS
 62
     0
100
AcDbLine
 10
0.0
 20
0.0
 30
0.0
 11
-0.965926
 21
-0.258819
 31
0.0
  0
ENDBLK
  5
9A
330
98
100
AcDbEntity
  8
0
100
AcDbBlockEnd
  0
BLOCK
  5
9E
330
9D
100
AcDbEntity
  8
0
100
AcDbBlockBegin
  2
FXTIP_BLACKTRIANGLE_S
 70
     0
 71
     0
 10
0.0
 20
0.0
 30
0.0
  3
FXTIP_BLACKTRIANGLE_S
  1

  0
LINE
  5
A0
330
9D
100
AcDbEntity
  8
0
  6
CONTINUOUS
 62
     0
100
AcDbLine
 10
0.0
 20
0.0
 30
0.0
 11
-1.0
 21
0.0
 31
0.0
  0
SOLID
  5
A1
330
9D
100
AcDbEntity
  8
0
  6
CONTINUOUS
 62
     0
100
AcDbTrace
 10
0.0
 20
0.0
 30
0.0
 11
-0.965926
 21
-0.258819
 31
0.0
 12
-0.965926
 22
0.258819
 32
0.0
 13
-0.965926
 23
0.258819
 33
0.0
  0
ENDBLK
  5
9F
330
9D
100
AcDbEntity
  8
0
100
AcDbBlockEnd
  0
BLOCK
  5
A3
330
A2
100
AcDbEntity
  8
0
100
AcDbBlockBegin
  2
FXTIP_BLACKTRIANGLE_E
 70
     0
 71
     0
 10
0.0
 20
0.0
 30
0.0
  3
FXTIP_BLACKTRIANGLE_E
  1

  0
LINE
  5
A5
330
A2
100
AcDbEntity
  8
0
  6
CONTINUOUS
 62
     0
100
AcDbLine
 10
0.0
 20
0.0
 30
0.0
 11
-1.0
 21
0.0
 31
0.0
  0
SOLID
  5
A6
330
A2
100
AcDbEntity
  8
0
  6
CONTINUOUS
 62
     0
100
AcDbTrace
 10
0.0
 20
0.0
 30
0.0
 11
-0.965926
 21
0.258819
 31
0.0
 12
-0.965926
 22
-0.258819
 32
0.0
 13
-0.965926
 23
-0.258819
 33
0.0
  0
ENDBLK
  5
A4
330
A2
100
AcDbEntity
  8
0
100
AcDbBlockEnd
  0
BLOCK
  5
10D
330
10C
100
AcDbEntity
  8
0
100
AcDbBlockBegin
  2
*D19
 70
     1
 71
     0
 10
0.0
 20
0.0
 30
0.0
  3
*D19
  1

  0
TEXT
  5
10F
330
10C
100
AcDbEntity
  8
GR1-1
  6
CONTINUOUS
 62
     7
100
AcDbText
 10
305.396362
 20
100.366737
 30
0.0
 40
4.0
  1
126
 50
90.0
 41
0.828947
  7
FX_VECTOR
 72
     5
 11
305.396362
 21
109.366737
 31
0.0
100
AcDbText
  0
LINE
  5
110
330
10C
100
AcDbEntity
  8
GR1-1
  6
CONTINUOUS
 62
     7
100
AcDbLine
 10
306.396357
 20
41.866741
 30
0.0
 11
306.396357
 21
167.866741
 31
0.0
  0
INSERT
  5
111
330
10C
100
AcDbEntity
  8
GR1-1
  6
CONTINUOUS
 62
     7
100
AcDbBlockReference
  2
FXTIP_ARROW_S
 10
306.396357
 20
41.866741
 30
0.0
 41
4.0
 42
4.0
 50
270.0
  0
INSERT
  5
112
330
10C
100
AcDbEntity
  8
GR1-1
  6
CONTINUOUS
 62
     7
100
AcDbBlockReference
  2
FXTIP_ARROW_E
 10
306.396357
 20
167.866741
 30
0.0
 41
4.0
 42
4.0
 50
90.0
  0
LINE
  5
113
330
10C
100
AcDbEntity
  8
GR1-1
  6
CONTINUOUS
 62
     7
100
AcDbLine
 10
232.752874
 20
41.866741
 30
0.0
 11
307.396357
 21
41.866741
 31
0.0
  0
LINE
  5
114
330
10C
100
AcDbEntity
  8
GR1-1
  6
CONTINUOUS
 62
     7
100
AcDbLine
 10
276.03193
 20
167.866741
 30
0.0
 11
307.396357
 21
167.866741
 31
0.0
  0
ENDBLK
  5
10E
330
10C
100
AcDbEntity
  8
0
100
AcDbBlockEnd
  0
BLOCK
  5
117
330
116
100
AcDbEntity
  8
0
100
AcDbBlockBegin
  2
*D20
 70
     1
 71
     0
 10
0.0
 20
0.0
 30
0.0
  3
*D20
  1

  0
TEXT
  5
119
330
116
100
AcDbEntity
  8
GR1-1
  6
CONTINUOUS
 62
     7
100
AcDbText
 10
295.396362
 20
184.866745
 30
0.0
 40
4.0
  1
40
 50
90.0
 41
0.851351
  7
FX_VECTOR
 72
     5
 11
295.396362
 21
190.866745
 31
0.0
100
AcDbText
  0
LINE
  5
11A
330
116
100
AcDbEntity
  8
GR1-1
  6
CONTINUOUS
 62
     7
100
AcDbLine
 10
296.396357
 20
167.866741
 30
0.0
 11
296.396357
 21
207.866741
 31
0.0
  0
INSERT
  5
11B
330
116
100
AcDbEntity
  8
GR1-1
  6
CONTINUOUS
 62
     7
100
AcDbBlockReference
  2
FXTIP_ARROW_S
 10
296.396357
 20
167.866741
 30
0.0
 41
4.0
 42
4.0
 50
270.0
  0
INSERT
  5
11C
330
116
100
AcDbEntity
  8
GR1-1
  6
CONTINUOUS
 62
     7
100
AcDbBlockReference
  2
FXTIP_ARROW_E
 10
296.396357
 20
207.866741
 30
0.0
 41
4.0
 42
4.0
 50
90.0
  0
LINE
  5
11D
330
116
100
AcDbEntity
  8
GR1-1
  6
CONTINUOUS
 62
     7
100
AcDbLine
 10
269.670374
 20
167.866741
 30
0.0
 11
297.396357
 21
167.866741
 31
0.0
  0
LINE
  5
11E
330
116
100
AcDbEntity
  8
GR1-1
  6
CONTINUOUS
 62
     7
100
AcDbLine
 10
269.670374
 20
207.866741
 30
0.0
 11
297.396357
 21
207.866741
 31
0.0
  0
ENDBLK
  5
118
330
116
100
AcDbEntity
  8
0
100
AcDbBlockEnd
  0
BLOCK
  5
121
330
120
100
AcDbEntity
  8
0
100
AcDbBlockBegin
  2
*D21
 70
     1
 71
     0
 10
0.0
 20
0.0
 30
0.0
  3
*D21
  1

  0
TEXT
  5
123
330
120
100
AcDbEntity
  8
GR1-1
  6
CONTINUOUS
 62
     7
100
AcDbText
 10
295.396362
 20
126.866745
 30
0.0
 40
4.0
  1
76
 50
90.0
 41
0.851351
  7
FX_VECTOR
 72
     5
 11
295.396362
 21
132.866745
 31
0.0
100
AcDbText
  0
LINE
  5
124
330
120
100
AcDbEntity
  8
GR1-1
  6
CONTINUOUS
 62
     7
100
AcDbLine
 10
296.396357
 20
91.866741
 30
0.0
 11
296.396357
 21
167.866741
 31
0.0
  0
INSERT
  5
125
330
120
100
AcDbEntity
  8
GR1-1
  6
CONTINUOUS
 62
     7
100
AcDbBlockReference
  2
FXTIP_ARROW_S
 10
296.396357
 20
91.866741
 30
0.0
 41
4.0
 42
4.0
 50
270.0
  0
INSERT
  5
126
330
120
100
AcDbEntity
  8
GR1-1
  6
CONTINUOUS
 62
     7
100
AcDbBlockReference
  2
FXTIP_ARROW_E
 10
296.396357
 20
167.866741
 30
0.0
 41
4.0
 42
4.0
 50
90.0
  0
LINE
  5
127
330
120
100
AcDbEntity
  8
GR1-1
  6
CONTINUOUS
 62
     7
100
AcDbLine
 10
285.850574
 20
91.866741
 30
0.0
 11
297.396357
 21
91.866741
 31
0.0
  0
LINE
  5
128
330
120
100
AcDbEntity
  8
GR1-1
  6
CONTINUOUS
 62
     7
100
AcDbLine
 10
285.850574
 20
167.866741
 30
0.0
 11
297.396357
 21
167.866741
 31
0.0
  0
ENDBLK
  5
122
330
120
100
AcDbEntity
  8
0
100
AcDbBlockEnd
  0
BLOCK
  5
12B
330
12A
100
AcDbEntity
  8
0
100
AcDbBlockBegin
  2
*D22
 70
     1
 71
     0
 10
0.0
 20
0.0
 30
0.0
  3
*D22
  1

  0
TEXT
  5
12D
330
12A
100
AcDbEntity
  8
GR1-1
  6
CONTINUOUS
 62
     7
100
AcDbText
 10
243.752869
 20
32.870056
 30
0.0
 40
4.0
  1
30
 41
0.851351
  7
FX_VECTOR
 72
     5
 11
249.752869
 21
32.870056
 31
0.0
100
AcDbText
  0
LINE
  5
12E
330
12A
100
AcDbEntity
  8
GR1-1
  6
CONTINUOUS
 62
     7
100
AcDbLine
 10
231.752874
 20
31.870058
 30
0.0
 11
261.752874
 21
31.870058
 31
0.0
  0
INSERT
  5
12F
330
12A
100
AcDbEntity
  8
GR1-1
  6
CONTINUOUS
 62
     7
100
AcDbBlockReference
  2
FXTIP_ARROW_S
 10
231.752874
 20
31.870058
 30
0.0
 41
4.0
 42
4.0
 50
180.0
  0
INSERT
  5
130
330
12A
100
AcDbEntity
  8
GR1-1
  6
CONTINUOUS
 62
     7
100
AcDbBlockReference
  2
FXTIP_ARROW_E
 10
261.752874
 20
31.870058
 30
0.0
 41
4.0
 42
4.0
 50
360.0
  0
LINE
  5
131
330
12A
100
AcDbEntity
  8
GR1-1
  6
CONTINUOUS
 62
     7
100
AcDbLine
 10
231.752874
 20
37.563995
 30
0.0
 11
231.752874
 21
30.870058
 31
0.0
  0
LINE
  5
132
330
12A
100
AcDbEntity
  8
GR1-1
  6
CONTINUOUS
 62
     7
100
AcDbLine
 10
261.752874
 20
112.199308
 30
0.0
 11
261.752874
 21
30.870058
 31
0.0
  0
ENDBLK
  5
12C
330
12A
100
AcDbEntity
  8
0
100
AcDbBlockEnd
  0
BLOCK
  5
135
330
134
100
AcDbEntity
  8
0
100
AcDbBlockBegin
  2
*D23
 70
     1
 71
     0
 10
0.0
 20
0.0
 30
0.0
  3
*D23
  1

  0
TEXT
  5
137
330
134
100
AcDbEntity
  8
GR1-1
  6
CONTINUOUS
 62
     7
100
AcDbText
 10
295.585571
 20
254.638885
 30
0.0
 40
4.0
  1
23
 50
90.0
 41
0.851351
  7
FX_VECTOR
 72
     5
 11
295.585571
 21
260.638885
 31
0.0
100
AcDbText
  0
LINE
  5
138
330
134
100
AcDbEntity
  8
GR1-1
  6
CONTINUOUS
 62
     7
100
AcDbLine
 10
296.585566
 20
246.138884
 30
0.0
 11
296.585566
 21
269.138884
 31
0.0
  0
INSERT
  5
139
330
134
100
AcDbEntity
  8
GR1-1
  6
CONTINUOUS
 62
     7
100
AcDbBlockReference
  2
FXTIP_ARROW_S
 10
296.585566
 20
246.138884
 30
0.0
 41
4.0
 42
4.0
 50
270.0
  0
INSERT
  5
13A
330
134
100
AcDbEntity
  8
GR1-1
  6
CONTINUOUS
 62
     7
100
AcDbBlockReference
  2
FXTIP_ARROW_E
 10
296.585566
 20
269.138884
 30
0.0
 41
4.0
 42
4.0
 50
90.0
  0
LINE
  5
13B
330
134
100
AcDbEntity
  8
GR1-1
  6
CONTINUOUS
 62
     7
100
AcDbLine
 10
269.392402
 20
246.138884
 30
0.0
 11
297.585566
 21
246.138884
 31
0.0
  0
LINE
  5
13C
330
134
100
AcDbEntity
  8
GR1-1
  6
CONTINUOUS
 62
     7
100
AcDbLine
 10
269.392402
 20
269.138884
 30
0.0
 11
297.585566
 21
269.138884
 31
0.0
  0
ENDBLK
  5
136
330
134
100
AcDbEntity
  8
0
100
AcDbBlockEnd
  0
BLOCK
  5
13F
330
13E
100
AcDbEntity
  8
0
100
AcDbBlockBegin
  2
*D24
 70
     1
 71
     0
 10
0.0
 20
0.0
 30
0.0
  3
*D24
  1

  0
TEXT
  5
141
330
13E
100
AcDbEntity
  8
GR1-1
  6
CONTINUOUS
 62
     7
100
AcDbText
 10
112.252876
 20
216.183655
 30
0.0
 40
4.0
  1
M16X2.0
 41
0.841603
  7
FX_VECTOR
 72
     5
 11
133.252876
 21
216.183655
 31
0.0
100
AcDbText
  0
LINE
  5
142
330
13E
100
AcDbEntity
  8
GR1-1
  6
CONTINUOUS
 62
     7
100
AcDbLine
 10
114.752874
 20
215.183651
 30
0.0
 11
130.752874
 21
215.183651
 31
0.0
  0
INSERT
  5
143
330
13E
100
AcDbEntity
  8
GR1-1
  6
CONTINUOUS
 62
     7
100
AcDbBlockReference
  2
FXTIP_ARROW_S
 10
114.752874
 20
215.183651
 30
0.0
 41
4.0
 42
4.0
 50
180.0
  0
INSERT
  5
144
330
13E
100
AcDbEntity
  8
GR1-1
  6
CONTINUOUS
 62
     7
100
AcDbBlockReference
  2
FXTIP_ARROW_E
 10
130.752874
 20
215.183651
 30
0.0
 41
4.0
 42
4.0
 50
360.0
  0
LINE
  5
145
330
13E
100
AcDbEntity
  8
GR1-1
  6
CONTINUOUS
 62
     7
100
AcDbLine
 10
114.752874
 20
207.866741
 30
0.0
 11
114.752874
 21
216.183651
 31
0.0
  0
LINE
  5
146
330
13E
100
AcDbEntity
  8
GR1-1
  6
CONTINUOUS
 62
     7
100
AcDbLine
 10
130.752874
 20
207.866741
 30
0.0
 11
130.752874
 21
216.183651
 31
0.0
  0
ENDBLK
  5
140
330
13E
100
AcDbEntity
  8
0
100
AcDbBlockEnd
  0
BLOCK
  5
191
330
190
100
AcDbEntity
  8
0
100
AcDbBlockBegin
  2
*D25
 70
     1
 71
     0
 10
0.0
 20
0.0
 30
0.0
  3
*D25
  1

  0
TEXT
  5
193
330
190
100
AcDbEntity
  8
LAYERGROUP-1
  6
CONTINUOUS
 62
     7
100
AcDbText
 10
177.266352
 20
236.012269
 30
0.0
 40
4.0
  1
76
 50
15.015094
 41
0.851351
  7
FX_VECTOR
 72
     5
 11
183.061498
 21
237.56671
 31
0.0
100
AcDbText
  0
LINE
  5
194
330
190
100
AcDbEntity
  8
LAYERGROUP-1
  6
CONTINUOUS
 62
     7
100
AcDbLine
 10
188.188577
 20
237.906617
 30
0.0
 11
261.752874
 21
257.638884
 31
0.0
  0
LINE
  5
195
330
190
100
AcDbEntity
  8
LAYERGROUP-1
  6
CONTINUOUS
 62
     7
100
AcDbLine
 10
188.188577
 20
237.906617
 30
0.0
 11
172.657418
 21
233.74067
 31
0.0
  0
INSERT
  5
196
330
190
100
AcDbEntity
  8
LAYERGROUP-1
  6
CONTINUOUS
 62
     7
100
AcDbBlockReference
  2
FXTIP_ARROW_S
 10
188.188577
 20
237.906617
 30
0.0
 41
4.0
 42
4.0
 50
15.015094
  0
ENDBLK
  5
192
330
190
100
AcDbEntity
  8
0
100
AcDbBlockEnd
  0
BLOCK
  5
1B7
330
1B6
100
AcDbEntity
  8
0
100
AcDbBlockBegin
  2
*D26
 70
     1
 71
     0
 10
0.0
 20
0.0
 30
0.0
  3
*D26
  1

  0
TEXT
  5
1B9
330
1B6
100
AcDbEntity
  8
LAYERGROUP-1
  6
CONTINUOUS
 62
     7
100
AcDbText
 10
89.950661
 20
85.866737
 30
0.0
 40
4.0
  1
%%c100
 50
90.0
 41
0.828947
  7
FX_VECTOR
 72
     5
 11
89.950661
 21
97.866737
 31
0.0
100
AcDbText
  0
LINE
  5
1BA
330
1B6
100
AcDbEntity
  8
LAYERGROUP-1
  6
CONTINUOUS
 62
     7
100
AcDbLine
 10
90.950658
 20
41.866741
 30
0.0
 11
90.950658
 21
141.866741
 31
0.0
  0
INSERT
  5
1BB
330
1B6
100
AcDbEntity
  8
LAYERGROUP-1
  6
CONTINUOUS
 62
     7
100
AcDbBlockReference
  2
FXTIP_ARROW_S
 10
90.950658
 20
41.866741
 30
0.0
 41
4.0
 42
4.0
 50
270.0
  0
INSERT
  5
1BC
330
1B6
100
AcDbEntity
  8
LAYERGROUP-1
  6
CONTINUOUS
 62
     7
100
AcDbBlockReference
  2
FXTIP_ARROW_E
 10
90.950658
 20
141.866741
 30
0.0
 41
4.0
 42
4.0
 50
90.0
  0
LINE
  5
1BD
330
1B6
100
AcDbEntity
  8
LAYERGROUP-1
  6
CONTINUOUS
 62
     7
100
AcDbLine
 10
121.752874
 20
41.866741
 30
0.0
 11
89.950658
 21
41.866741
 31
0.0
  0
LINE
  5
1BE
330
1B6
100
AcDbEntity
  8
LAYERGROUP-1
  6
CONTINUOUS
 62
     7
100
AcDbLine
 10
121.752874
 20
141.866741
 30
0.0
 11
89.950658
 21
141.866741
 31
0.0
  0
ENDBLK
  5
1B8
330
1B6
100
AcDbEntity
  8
0
100
AcDbBlockEnd
  0
BLOCK
  5
20A
330
209
100
AcDbEntity
  8
0
100
AcDbBlockBegin
  2
*D27
 70
     1
 71
     0
 10
0.0
 20
0.0
 30
0.0
  3
*D27
  1

  0
TEXT
  5
20C
330
209
100
AcDbEntity
  8
LAYERGROUP-1
  6
CONTINUOUS
 62
     7
100
AcDbText
 10
119.752876
 20
32.870056
 30
0.0
 40
4.0
  1
27
 41
0.851351
  7
FX_VECTOR
 72
     5
 11
125.752876
 21
32.870056
 31
0.0
100
AcDbText
  0
LINE
  5
20D
330
209
100
AcDbEntity
  8
LAYERGROUP-1
  6
CONTINUOUS
 62
     7
100
AcDbLine
 10
109.252874
 20
31.870058
 30
0.0
 11
136.252874
 21
31.870058
 31
0.0
  0
INSERT
  5
20E
330
209
100
AcDbEntity
  8
LAYERGROUP-1
  6
CONTINUOUS
 62
     7
100
AcDbBlockReference
  2
FXTIP_ARROW_S
 10
109.252874
 20
31.870058
 30
0.0
 41
4.0
 42
4.0
 50
180.0
  0
INSERT
  5
20F
330
209
100
AcDbEntity
  8
LAYERGROUP-1
  6
CONTINUOUS
 62
     7
100
AcDbBlockReference
  2
FXTIP_ARROW_E
 10
136.252874
 20
31.870058
 30
0.0
 41
4.0
 42
4.0
 50
360.0
  0
LINE
  5
210
330
209
100
AcDbEntity
  8
LAYERGROUP-1
  6
CONTINUOUS
 62
     7
100
AcDbLine
 10
109.252874
 20
43.543825
 30
0.0
 11
109.252874
 21
30.870058
 31
0.0
  0
LINE
  5
211
330
209
100
AcDbEntity
  8
LAYERGROUP-1
  6
CONTINUOUS
 62
     7
100
AcDbLine
 10
136.252874
 20
43.543825
 30
0.0
 11
136.252874
 21
30.870058
 31
0.0
  0
ENDBLK
  5
20B
330
209
100
AcDbEntity
  8
0
100
AcDbBlockEnd
  0
BLOCK
  5
214
330
213
100
AcDbEntity
  8
0
100
AcDbBlockBegin
  2
*D28
 70
     1
 71
     0
 10
0.0
 20
0.0
 30
0.0
  3
*D28
  1

  0
TEXT
  5
216
330
213
100
AcDbEntity
  8
LAYERGROUP-1
  6
CONTINUOUS
 62
     7
100
AcDbText
 10
119.752876
 20
25.278833
 30
0.0
 40
4.0
  1
32
 41
0.851351
  7
FX_VECTOR
 72
     5
 11
125.752876
 21
25.278833
 31
0.0
100
AcDbText
  0
LINE
  5
217
330
213
100
AcDbEntity
  8
LAYERGROUP-1
  6
CONTINUOUS
 62
     7
100
AcDbLine
 10
106.752874
 20
24.278835
 30
0.0
 11
138.752874
 21
24.278835
 31
0.0
  0
INSERT
  5
218
330
213
100
AcDbEntity
  8
LAYERGROUP-1
  6
CONTINUOUS
 62
     7
100
AcDbBlockReference
  2
FXTIP_ARROW_S
 10
106.752874
 20
24.278835
 30
0.0
 41
4.0
 42
4.0
 50
180.0
  0
INSERT
  5
219
330
213
100
AcDbEntity
  8
LAYERGROUP-1
  6
CONTINUOUS
 62
     7
100
AcDbBlockReference
  2
FXTIP_ARROW_E
 10
138.752874
 20
24.278835
 30
0.0
 41
4.0
 42
4.0
 50
360.0
  0
LINE
  5
21A
330
213
100
AcDbEntity
  8
LAYERGROUP-1
  6
CONTINUOUS
 62
     7
100
AcDbLine
 10
106.752874
 20
79.560741
 30
0.0
 11
106.752874
 21
23.278835
 31
0.0
  0
LINE
  5
21B
330
213
100
AcDbEntity
  8
LAYERGROUP-1
  6
CONTINUOUS
 62
     7
100
AcDbLine
 10
138.752874
 20
79.560741
 30
0.0
 11
138.752874
 21
23.278835
 31
0.0
  0
ENDBLK
  5
215
330
213
100
AcDbEntity
  8
0
100
AcDbBlockEnd
  0
BLOCK
  5
21D
330
21C
100
AcDbEntity
  8
0
100
AcDbBlockBegin
  2
BLKF031
 70
     0
 71
     0
 10
0.0
 20
0.0
 30
0.0
  3
BLKF031
  1

  0
LINE
  5
220
330
21C
100
AcDbEntity
  8
GR1-1
  6
CONTINUOUS
 62
     3
100
AcDbLine
 10
192.477939
 20
123.715953
 30
0.0
 11
216.967291
 21
110.141283
 31
0.0
  0
ARC
  5
221
330
21C
100
AcDbEntity
  8
GR1-1
  6
CONTINUOUS
 62
     3
100
AcDbCircle
 10
217.114062
 20
110.615076
 30
0.0
 40
0.4960057236987396
100
AcDbArc
 50
252.788152
 51
303.196314
  0
LINE
  5
222
330
21C
100
AcDbEntity
  8
GR1-1
  6
CONTINUOUS
 62
     3
100
AcDbLine
 10
216.967291
 20
110.141283
 30
0.0
 11
218.082353
 21
112.152909
 31
0.0
  0
LINE
  5
223
330
21C
100
AcDbEntity
  8
GR1-1
  6
CONTINUOUS
 62
     3
100
AcDbLine
 10
218.082353
 20
112.152909
 30
0.0
 11
193.593001
 21
125.727578
 31
0.0
  0
LINE
  5
224
330
21C
100
AcDbEntity
  8
GR1-1
  6
CONTINUOUS
 62
     3
100
AcDbLine
 10
193.593001
 20
125.727578
 30
0.0
 11
192.477939
 21
123.715953
 31
0.0
  0
ARC
  5
225
330
21C
100
AcDbEntity
  8
GR1-1
  6
CONTINUOUS
 62
     3
100
AcDbCircle
 10
205.508002
 20
117.498464
 30
0.0
 40
12.0
100
AcDbArc
 50
155.201451
 51
230.0
  0
LINE
  5
226
330
21C
100
AcDbEntity
  8
GR1-1
  6
CONTINUOUS
 62
     3
100
AcDbLine
 10
197.794551
 20
108.30593
 30
0.0
 11
201.004496
 21
105.612466
 31
0.0
  0
ARC
  5
227
330
21C
100
AcDbEntity
  8
GR1-1
  6
CONTINUOUS
 62
     3
100
AcDbCircle
 10
212.982041
 20
106.346238
 30
0.0
 40
12.0
100
AcDbArc
 50
183.50569
 51
260.0
  0
LINE
  5
228
330
21C
100
AcDbEntity
  8
GR1-1
  6
CONTINUOUS
 62
     3
100
AcDbLine
 10
210.898263
 20
94.528545
 30
0.0
 11
212.501944
 21
94.245773
 31
0.0
  0
ARC
  5
229
330
21C
100
AcDbEntity
  8
GR1-1
  6
CONTINUOUS
 62
     3
100
AcDbCircle
 10
212.328296
 20
93.260965
 30
0.0
 40
1.0
100
AcDbArc
 50
20.0
 51
80.0
  0
LINE
  5
22A
330
21C
100
AcDbEntity
  8
GR1-1
  6
CONTINUOUS
 62
     3
100
AcDbLine
 10
213.267989
 20
93.602985
 30
0.0
 11
216.723634
 21
84.108679
 31
0.0
  0
ARC
  5
22B
330
21C
100
AcDbEntity
  8
GR1-1
  6
CONTINUOUS
 62
     3
100
AcDbCircle
 10
219.072865
 20
84.963729
 30
0.0
 40
2.5
100
AcDbArc
 50
200.0
 51
260.0
  0
LINE
  5
22C
330
21C
100
AcDbEntity
  8
GR1-1
  6
CONTINUOUS
 62
     3
100
AcDbLine
 10
218.638745
 20
82.50171
 30
0.0
 11
233.579188
 21
79.867307
 31
0.0
  0
ARC
  5
22D
330
21C
100
AcDbEntity
  8
GR1-1
  6
CONTINUOUS
 62
     3
100
AcDbCircle
 10
233.145067
 20
77.405287
 30
0.0
 40
2.5
100
AcDbArc
 50
36.0
 51
80.0
  0
LINE
  5
22E
330
21C
100
AcDbEntity
  8
GR1-1
  6
CONTINUOUS
 62
     3
100
AcDbLine
 10
235.16761
 20
78.874751
 30
0.0
 11
237.901036
 21
75.112512
 31
0.0
  0
ARC
  5
22F
330
21C
100
AcDbEntity
  8
GR1-1
  6
CONTINUOUS
 62
     3
100
AcDbCircle
 10
247.60924
 20
82.165935
 30
0.0
 40
12.0
100
AcDbArc
 50
216.0
 51
298.441812
  0
LINE
  5
230
330
21C
100
AcDbEntity
  8
GR1-1
  6
CONTINUOUS
 62
     3
100
AcDbLine
 10
253.324432
 20
71.61432
 30
0.0
 11
258.0094
 21
70.092082
 31
0.0
  0
ARC
  5
231
330
21C
100
AcDbEntity
  8
GR1-1
  6
CONTINUOUS
 62
     3
100
AcDbCircle
 10
261.709115
 20
81.507515
 30
0.0
 40
12.0
100
AcDbArc
 50
252.042612
 51
311.926055
  0
LINE
  5
232
330
21C
100
AcDbEntity
  8
GR1-1
  6
CONTINUOUS
 62
     3
100
AcDbLine
 10
272.211119
 20
70.567956
 30
0.0
 11
273.658556
 21
72.355392
 31
0.0
  0
LINE
  5
233
330
21C
100
AcDbEntity
  8
GR1-1
  6
CONTINUOUS
 62
     3
100
AcDbLine
 10
273.658556
 20
72.355392
 30
0.0
 11
251.898469
 21
89.976363
 31
0.0
  0
LINE
  5
234
330
21C
100
AcDbEntity
  8
GR1-1
  6
CONTINUOUS
 62
     3
100
AcDbLine
 10
251.898469
 20
89.976363
 30
0.0
 11
250.451032
 21
88.188927
 31
0.0
  0
LINE
  5
235
330
21C
100
AcDbEntity
  8
GR1-1
  6
CONTINUOUS
 62
     3
100
AcDbLine
 10
250.451032
 20
88.188927
 30
0.0
 11
272.211119
 21
70.567956
 31
0.0
  0
ARC
  5
236
330
21C
100
AcDbEntity
  8
GR1-1
  6
CONTINUOUS
 62
     3
100
AcDbCircle
 10
252.460353
 20
89.239979
 30
0.0
 40
2.267615741879381
100
AcDbArc
 50
176.997038
 51
207.613524
  0
ARC
  5
237
330
21C
100
AcDbEntity
  8
GR1-1
  6
CONTINUOUS
 62
     3
100
AcDbCircle
 10
250.07191
 20
92.356213
 30
0.0
 40
3.0
100
AcDbArc
 50
231.0
 51
307.506601
  0
ARC
  5
238
330
21C
100
AcDbEntity
  8
GR1-1
  6
CONTINUOUS
 62
     3
100
AcDbCircle
 10
235.98232
 20
87.059269
 30
0.0
 40
12.0
100
AcDbArc
 50
20.852643
 51
89.756055
  0
LINE
  5
239
330
21C
100
AcDbEntity
  8
GR1-1
  6
CONTINUOUS
 62
     3
100
AcDbLine
 10
236.033411
 20
99.059161
 30
0.0
 11
230.002932
 21
104.682674
 31
0.0
  0
ARC
  5
23A
330
21C
100
AcDbEntity
  8
GR1-1
  6
CONTINUOUS
 62
     3
100
AcDbCircle
 10
227.274938
 20
101.757259
 30
0.0
 40
4.0
100
AcDbArc
 50
47.0
 51
79.740664
  0
LINE
  5
23B
330
21C
100
AcDbEntity
  8
GR1-1
  6
CONTINUOUS
 62
     3
100
AcDbLine
 10
227.987354
 20
105.693306
 30
0.0
 11
219.863567
 21
107.163693
 31
0.0
  0
ARC
  5
23C
330
21C
100
AcDbEntity
  8
GR1-1
  6
CONTINUOUS
 62
     3
100
AcDbCircle
 10
220.384511
 20
110.118116
 30
0.0
 40
3.0
100
AcDbArc
 50
151.0
 51
260.0
  0
ARC
  5
23D
330
21C
100
AcDbEntity
  8
GR1-1
  6
CONTINUOUS
 62
     3
100
AcDbCircle
 10
249.991045
 20
92.421697
 30
0.0
 40
3.0
100
AcDbArc
 50
200.946444
 51
231.0
  0
LINE
  5
23E
330
21C
100
AcDbEntity
  8
GR1-1
  6
CONTINUOUS
 62
     6
100
AcDbLine
 10
248.729868
 20
89.673132
 30
0.0
 11
245.328782
 21
70.384615
 31
0.0
  0
LINE
  5
23F
330
21C
100
AcDbEntity
  8
GR1-1
  6
CONTINUOUS
 62
     6
100
AcDbLine
 10
237.194959
 20
76.084345
 30
0.0
 11
241.048262
 21
97.937515
 31
0.0
  0
ARC
  5
240
330
21C
100
AcDbEntity
  8
GR1-1
  6
CONTINUOUS
 62
     6
100
AcDbCircle
 10
222.472717
 20
98.109754
 30
0.0
 40
2.4
100
AcDbArc
 50
-102.299906
 51
77.700094
  0
ARC
  5
241
330
21C
100
AcDbEntity
  8
GR1-1
  6
CONTINUOUS
 62
     6
100
AcDbCircle
 10
228.352312
 20
125.076222
 30
0.0
 40
30.0
100
AcDbArc
 50
211.40305
 51
257.700094
  0
ARC
  5
242
330
21C
100
AcDbEntity
  8
GR1-1
  6
CONTINUOUS
 62
     6
100
AcDbCircle
 10
204.795075
 20
110.695102
 30
0.0
 40
2.4
100
AcDbArc
 50
31.40305
 51
211.40305
  0
ARC
  5
243
330
21C
100
AcDbEntity
  8
GR1-1
  6
CONTINUOUS
 62
     6
100
AcDbCircle
 10
228.352312
 20
125.076222
 30
0.0
 40
25.2
100
AcDbArc
 50
211.40305
 51
257.700094
  0
ENDBLK
  5
21E
330
21C
100
AcDbEntity
  8
0
100
AcDbBlockEnd
  0
BLOCK
  5
27A
330
279
100
AcDbEntity
  8
0
100
AcDbBlockBegin
  2
BLKF032
 70
     0
 71
     0
 10
0.0
 20
0.0
 30
0.0
  3
BLKF032
  1

  0
LINE
  5
27D
330
279
100
AcDbEntity
  8
GR1-1
  6
CONTINUOUS
 62
     7
100
AcDbLine
 10
208.974552
 20
55.125992
 30
0.0
 11
208.719506
 21
55.050444
 31
0.0
  0
LINE
  5
27E
330
279
100
AcDbEntity
  8
GR1-1
  6
CONTINUOUS
 62
     7
100
AcDbLine
 10
209.139849
 20
55.036243
 30
0.0
 11
208.629757
 21
54.885147
 31
0.0
  0
LINE
  5
27F
330
279
100
AcDbEntity
  8
GR1-1
  6
CONTINUOUS
 62
     7
100
AcDbLine
 10
209.305146
 20
54.946495
 30
0.0
 11
208.540008
 21
54.71985
 31
0.0
  0
LINE
  5
280
330
279
100
AcDbEntity
  8
GR1-1
  6
CONTINUOUS
 62
     7
100
AcDbLine
 10
209.470443
 20
54.856746
 30
0.0
 11
208.450259
 21
54.554553
 31
0.0
  0
LINE
  5
281
330
279
100
AcDbEntity
  8
GR1-1
  6
CONTINUOUS
 62
     7
100
AcDbLine
 10
209.63574
 20
54.766997
 30
0.0
 11
208.755947
 21
54.50639
 31
0.0
  0
LINE
  5
282
330
279
100
AcDbEntity
  8
GR1-1
  6
CONTINUOUS
 62
     7
100
AcDbLine
 10
208.515222
 20
54.435084
 30
0.0
 11
208.36051
 21
54.389256
 31
0.0
  0
LINE
  5
283
330
279
100
AcDbEntity
  8
GR1-1
  6
CONTINUOUS
 62
     7
100
AcDbLine
 10
209.801038
 20
54.677248
 30
0.0
 11
208.921244
 21
54.416641
 31
0.0
  0
LINE
  5
284
330
279
100
AcDbEntity
  8
GR1-1
  6
CONTINUOUS
 62
     7
100
AcDbLine
 10
208.425473
 20
54.269787
 30
0.0
 11
208.270761
 21
54.223959
 31
0.0
  0
LINE
  5
285
330
279
100
AcDbEntity
  8
GR1-1
  6
CONTINUOUS
 62
     7
100
AcDbLine
 10
209.966335
 20
54.587499
 30
0.0
 11
209.086541
 21
54.326892
 31
0.0
  0
LINE
  5
286
330
279
100
AcDbEntity
  8
GR1-1
  6
CONTINUOUS
 62
     7
100
AcDbLine
 10
208.335724
 20
54.10449
 30
0.0
 11
208.181012
 21
54.058662
 31
0.0
  0
LINE
  5
287
330
279
100
AcDbEntity
  8
GR1-1
  6
CONTINUOUS
 62
     7
100
AcDbLine
 10
210.131632
 20
54.49775
 30
0.0
 11
209.147699
 21
54.206295
 31
0.0
  0
LINE
  5
288
330
279
100
AcDbEntity
  8
GR1-1
  6
CONTINUOUS
 62
     7
100
AcDbLine
 10
208.245975
 20
53.939193
 30
0.0
 11
208.091263
 21
53.893365
 31
0.0
  0
LINE
  5
289
330
279
100
AcDbEntity
  8
GR1-1
  6
CONTINUOUS
 62
     7
100
AcDbLine
 10
210.296929
 20
54.408001
 30
0.0
 11
209.05795
 21
54.040998
 31
0.0
  0
LINE
  5
28A
330
279
100
AcDbEntity
  8
GR1-1
  6
CONTINUOUS
 62
     7
100
AcDbLine
 10
208.156226
 20
53.773895
 30
0.0
 11
208.001514
 21
53.728068
 31
0.0
  0
LINE
  5
28B
330
279
100
AcDbEntity
  8
GR1-1
  6
CONTINUOUS
 62
     7
100
AcDbLine
 10
210.462226
 20
54.318252
 30
0.0
 11
208.968201
 21
53.875701
 31
0.0
  0
LINE
  5
28C
330
279
100
AcDbEntity
  8
GR1-1
  6
CONTINUOUS
 62
     7
100
AcDbLine
 10
208.066477
 20
53.608598
 30
0.0
 11
207.911765
 21
53.562771
 31
0.0
  0
LINE
  5
28D
330
279
100
AcDbEntity
  8
GR1-1
  6
CONTINUOUS
 62
     7
100
AcDbLine
 10
210.627523
 20
54.228503
 30
0.0
 11
208.952968
 21
53.732477
 31
0.0
  0
LINE
  5
28E
330
279
100
AcDbEntity
  8
GR1-1
  6
CONTINUOUS
 62
     7
100
AcDbLine
 10
207.976728
 20
53.443301
 30
0.0
 11
207.822016
 21
53.397474
 31
0.0
  0
LINE
  5
28F
330
279
100
AcDbEntity
  8
GR1-1
  6
CONTINUOUS
 62
     7
100
AcDbLine
 10
210.79282
 20
54.138754
 30
0.0
 11
210.537774
 21
54.063206
 31
0.0
  0
LINE
  5
290
330
279
100
AcDbEntity
  8
GR1-1
  6
CONTINUOUS
 62
     7
100
AcDbLine
 10
208.087648
 20
53.337445
 30
0.0
 11
207.732267
 21
53.232177
 31
0.0
  0
LINE
  5
291
330
279
100
AcDbEntity
  8
GR1-1
  6
CONTINUOUS
 62
     7
100
AcDbLine
 10
210.958117
 20
54.049005
 30
0.0
 11
210.575548
 21
53.935683
 31
0.0
  0
LINE
  5
292
330
279
100
AcDbEntity
  8
GR1-1
  6
CONTINUOUS
 62
     7
100
AcDbLine
 10
208.252945
 20
53.247696
 30
0.0
 11
207.642518
 21
53.06688
 31
0.0
  0
LINE
  5
293
330
279
100
AcDbEntity
  8
GR1-1
  6
CONTINUOUS
 62
     7
100
AcDbLine
 10
211.123414
 20
53.959256
 30
0.0
 11
210.613322
 21
53.80816
 31
0.0
  0
LINE
  5
294
330
279
100
AcDbEntity
  8
GR1-1
  6
CONTINUOUS
 62
     7
100
AcDbLine
 10
208.418242
 20
53.157947
 30
0.0
 11
208.147725
 21
53.077816
 31
0.0
  0
LINE
  5
295
330
279
100
AcDbEntity
  8
GR1-1
  6
CONTINUOUS
 62
     7
100
AcDbLine
 10
208.062861
 20
53.052679
 30
0.0
 11
207.552769
 21
52.901583
 31
0.0
  0
LINE
  5
296
330
279
100
AcDbEntity
  8
GR1-1
  6
CONTINUOUS
 62
     7
100
AcDbLine
 10
211.288711
 20
53.869507
 30
0.0
 11
210.651096
 21
53.680636
 31
0.0
  0
LINE
  5
297
330
279
100
AcDbEntity
  8
GR1-1
  6
CONTINUOUS
 62
     7
100
AcDbLine
 10
208.583539
 20
53.068198
 30
0.0
 11
208.313022
 21
52.988067
 31
0.0
  0
LINE
  5
298
330
279
100
AcDbEntity
  8
GR1-1
  6
CONTINUOUS
 62
     7
100
AcDbLine
 10
208.100635
 20
52.925156
 30
0.0
 11
207.46302
 21
52.736285
 31
0.0
  0
LINE
  5
299
330
279
100
AcDbEntity
  8
GR1-1
  6
CONTINUOUS
 62
     7
100
AcDbLine
 10
211.454008
 20
53.779758
 30
0.0
 11
210.68887
 21
53.553113
 31
0.0
  0
LINE
  5
29A
330
279
100
AcDbEntity
  8
GR1-1
  6
CONTINUOUS
 62
     7
100
AcDbLine
 10
208.748836
 20
52.978449
 30
0.0
 11
208.478319
 21
52.898318
 31
0.0
  0
LINE
  5
29B
330
279
100
AcDbEntity
  8
GR1-1
  6
CONTINUOUS
 62
     7
100
AcDbLine
 10
208.13841
 20
52.797633
 30
0.0
 11
207.373271
 21
52.570988
 31
0.0
  0
LINE
  5
29C
330
279
100
AcDbEntity
  8
GR1-1
  6
CONTINUOUS
 62
     7
100
AcDbLine
 10
211.619305
 20
53.690009
 30
0.0
 11
210.726644
 21
53.42559
 31
0.0
  0
LINE
  5
29D
330
279
100
AcDbEntity
  8
GR1-1
  6
CONTINUOUS
 62
     7
100
AcDbLine
 10
210.089029
 20
53.23672
 30
0.0
 11
209.366365
 21
53.022657
 31
0.0
  0
LINE
  5
29E
330
279
100
AcDbEntity
  8
GR1-1
  6
CONTINUOUS
 62
     7
100
AcDbLine
 10
208.914133
 20
52.8887
 30
0.0
 11
208.643616
 21
52.808569
 31
0.0
  0
LINE
  5
29F
330
279
100
AcDbEntity
  8
GR1-1
  6
CONTINUOUS
 62
     7
100
AcDbLine
 10
208.176184
 20
52.67011
 30
0.0
 11
207.283522
 21
52.405691
 31
0.0
  0
LINE
  5
2A0
330
279
100
AcDbEntity
  8
GR1-1
  6
CONTINUOUS
 62
     7
100
AcDbLine
 10
211.784602
 20
53.60026
 30
0.0
 11
210.764418
 21
53.298067
 31
0.0
  0
LINE
  5
2A1
330
279
100
AcDbEntity
  8
GR1-1
  6
CONTINUOUS
 62
     7
100
AcDbLine
 10
210.126803
 20
53.109197
 30
0.0
 11
209.530292
 21
52.932503
 31
0.0
  0
LINE
  5
2A2
330
279
100
AcDbEntity
  8
GR1-1
  6
CONTINUOUS
 62
     7
100
AcDbLine
 10
209.07943
 20
52.798951
 30
0.0
 11
208.808913
 21
52.71882
 31
0.0
  0
LINE
  5
2A3
330
279
100
AcDbEntity
  8
GR1-1
  6
CONTINUOUS
 62
     7
100
AcDbLine
 10
208.213958
 20
52.542587
 30
0.0
 11
207.193773
 21
52.240394
 31
0.0
  0
LINE
  5
2A4
330
279
100
AcDbEntity
  8
GR1-1
  6
CONTINUOUS
 62
     7
100
AcDbLine
 10
211.949899
 20
53.510511
 30
0.0
 11
210.802192
 21
53.170544
 31
0.0
  0
LINE
  5
2A5
330
279
100
AcDbEntity
  8
GR1-1
  6
CONTINUOUS
 62
     7
100
AcDbLine
 10
210.164577
 20
52.981674
 30
0.0
 11
209.695589
 21
52.842754
 31
0.0
  0
LINE
  5
2A6
330
279
100
AcDbEntity
  8
GR1-1
  6
CONTINUOUS
 62
     7
100
AcDbLine
 10
209.244728
 20
52.709202
 30
0.0
 11
208.889347
 21
52.603934
 31
0.0
  0
LINE
  5
2A7
330
279
100
AcDbEntity
  8
GR1-1
  6
CONTINUOUS
 62
     7
100
AcDbLine
 10
208.251732
 20
52.415064
 30
0.0
 11
207.104024
 21
52.075097
 31
0.0
  0
LINE
  5
2A8
330
279
100
AcDbEntity
  8
GR1-1
  6
CONTINUOUS
 62
     7
100
AcDbLine
 10
212.115196
 20
53.420762
 30
0.0
 11
210.839966
 21
53.043021
 31
0.0
  0
LINE
  5
2A9
330
279
100
AcDbEntity
  8
GR1-1
  6
CONTINUOUS
 62
     7
100
AcDbLine
 10
210.202351
 20
52.854151
 30
0.0
 11
209.719447
 21
52.711109
 31
0.0
  0
LINE
  5
2AA
330
279
100
AcDbEntity
  8
GR1-1
  6
CONTINUOUS
 62
     7
100
AcDbLine
 10
209.410025
 20
52.619453
 30
0.0
 11
208.927121
 21
52.476411
 31
0.0
  0
LINE
  5
2AB
330
279
100
AcDbEntity
  8
GR1-1
  6
CONTINUOUS
 62
     7
100
AcDbLine
 10
208.289506
 20
52.287541
 30
0.0
 11
207.014275
 21
51.9098
 31
0.0
  0
LINE
  5
2AC
330
279
100
AcDbEntity
  8
GR1-1
  6
CONTINUOUS
 62
     7
100
AcDbLine
 10
212.280494
 20
53.331013
 30
0.0
 11
210.87774
 21
52.915498
 31
0.0
  0
LINE
  5
2AD
330
279
100
AcDbEntity
  8
GR1-1
  6
CONTINUOUS
 62
     7
100
AcDbLine
 10
210.240125
 20
52.726628
 30
0.0
 11
209.629698
 21
52.545811
 31
0.0
  0
LINE
  5
2AE
330
279
100
AcDbEntity
  8
GR1-1
  6
CONTINUOUS
 62
     7
100
AcDbLine
 10
209.575322
 20
52.529704
 30
0.0
 11
208.964895
 21
52.348888
 31
0.0
  0
LINE
  5
2AF
330
279
100
AcDbEntity
  8
GR1-1
  6
CONTINUOUS
 62
     7
100
AcDbLine
 10
208.32728
 20
52.160018
 30
0.0
 11
206.924526
 21
51.744503
 31
0.0
  0
LINE
  5
2B0
330
279
100
AcDbEntity
  8
GR1-1
  6
CONTINUOUS
 62
     7
100
AcDbLine
 10
212.245121
 20
53.181823
 30
0.0
 11
210.915514
 21
52.787975
 31
0.0
  0
LINE
  5
2B1
330
279
100
AcDbEntity
  8
GR1-1
  6
CONTINUOUS
 62
     7
100
AcDbLine
 10
210.277899
 20
52.599105
 30
0.0
 11
209.002669
 21
52.221365
 31
0.0
  0
LINE
  5
2B2
330
279
100
AcDbEntity
  8
GR1-1
  6
CONTINUOUS
 62
     7
100
AcDbLine
 10
208.365054
 20
52.032495
 30
0.0
 11
207.035447
 21
51.638647
 31
0.0
  0
LINE
  5
2B3
330
279
100
AcDbEntity
  8
GR1-1
  6
CONTINUOUS
 62
     7
100
AcDbLine
 10
212.155372
 20
53.016526
 30
0.0
 11
210.953288
 21
52.660452
 31
0.0
  0
LINE
  5
2B4
330
279
100
AcDbEntity
  8
GR1-1
  6
CONTINUOUS
 62
     7
100
AcDbLine
 10
210.315673
 20
52.471582
 30
0.0
 11
209.040443
 21
52.093842
 31
0.0
  0
LINE
  5
2B5
330
279
100
AcDbEntity
  8
GR1-1
  6
CONTINUOUS
 62
     7
100
AcDbLine
 10
208.402828
 20
51.904971
 30
0.0
 11
207.200744
 21
51.548898
 31
0.0
  0
LINE
  5
2B6
330
279
100
AcDbEntity
  8
GR1-1
  6
CONTINUOUS
 62
     7
100
AcDbLine
 10
212.065623
 20
52.851229
 30
0.0
 11
210.991062
 21
52.532929
 31
0.0
  0
LINE
  5
2B7
330
279
100
AcDbEntity
  8
GR1-1
  6
CONTINUOUS
 62
     7
100
AcDbLine
 10
210.353447
 20
52.344059
 30
0.0
 11
209.078217
 21
51.966319
 31
0.0
  0
LINE
  5
2B8
330
279
100
AcDbEntity
  8
GR1-1
  6
CONTINUOUS
 62
     7
100
AcDbLine
 10
208.440602
 20
51.777448
 30
0.0
 11
207.366041
 21
51.459149
 31
0.0
  0
LINE
  5
2B9
330
279
100
AcDbEntity
  8
GR1-1
  6
CONTINUOUS
 62
     7
100
AcDbLine
 10
211.975874
 20
52.685932
 30
0.0
 11
211.028836
 21
52.405406
 31
0.0
  0
LINE
  5
2BA
330
279
100
AcDbEntity
  8
GR1-1
  6
CONTINUOUS
 62
     7
100
AcDbLine
 10
210.391221
 20
52.216536
 30
0.0
 11
209.115991
 21
51.838796
 31
0.0
  0
LINE
  5
2BB
330
279
100
AcDbEntity
  8
GR1-1
  6
CONTINUOUS
 62
     7
100
AcDbLine
 10
208.478376
 20
51.649925
 30
0.0
 11
207.531338
 21
51.3694
 31
0.0
  0
LINE
  5
2BC
330
279
100
AcDbEntity
  8
GR1-1
  6
CONTINUOUS
 62
     7
100
AcDbLine
 10
211.886125
 20
52.520635
 30
0.0
 11
211.06661
 21
52.277883
 31
0.0
  0
LINE
  5
2BD
330
279
100
AcDbEntity
  8
GR1-1
  6
CONTINUOUS
 62
     7
100
AcDbLine
 10
210.428995
 20
52.089013
 30
0.0
 11
209.153765
 21
51.711273
 31
0.0
  0
LINE
  5
2BE
330
279
100
AcDbEntity
  8
GR1-1
  6
CONTINUOUS
 62
     7
100
AcDbLine
 10
208.51615
 20
51.522402
 30
0.0
 11
207.696635
 21
51.279651
 31
0.0
  0
LINE
  5
2BF
330
279
100
AcDbEntity
  8
GR1-1
  6
CONTINUOUS
 62
     7
100
AcDbLine
 10
211.796376
 20
52.355338
 30
0.0
 11
211.104384
 21
52.15036
 31
0.0
  0
LINE
  5
2C0
330
279
100
AcDbEntity
  8
GR1-1
  6
CONTINUOUS
 62
     7
100
AcDbLine
 10
208.553924
 20
51.394879
 30
0.0
 11
207.861932
 21
51.189902
 31
0.0
  0
LINE
  5
2C1
330
279
100
AcDbEntity
  8
GR1-1
  6
CONTINUOUS
 62
     7
100
AcDbLine
 10
211.706627
 20
52.19004
 30
0.0
 11
211.142159
 21
52.022837
 31
0.0
  0
LINE
  5
2C2
330
279
100
AcDbEntity
  8
GR1-1
  6
CONTINUOUS
 62
     7
100
AcDbLine
 10
208.591698
 20
51.267356
 30
0.0
 11
208.027229
 21
51.100153
 31
0.0
  0
LINE
  5
2C3
330
279
100
AcDbEntity
  8
GR1-1
  6
CONTINUOUS
 62
     7
100
AcDbLine
 10
211.616878
 20
52.024743
 30
0.0
 11
211.179933
 21
51.895314
 31
0.0
  0
LINE
  5
2C4
330
279
100
AcDbEntity
  8
GR1-1
  6
CONTINUOUS
 62
     7
100
AcDbLine
 10
208.629472
 20
51.139833
 30
0.0
 11
208.192526
 21
51.010404
 31
0.0
  0
LINE
  5
2C5
330
279
100
AcDbEntity
  8
GR1-1
  6
CONTINUOUS
 62
     7
100
AcDbLine
 10
211.527129
 20
51.859446
 30
0.0
 11
211.217707
 21
51.767791
 31
0.0
  0
LINE
  5
2C6
330
279
100
AcDbEntity
  8
GR1-1
  6
CONTINUOUS
 62
     7
100
AcDbLine
 10
208.667246
 20
51.01231
 30
0.0
 11
208.357823
 21
50.920655
 31
0.0
  0
LINE
  5
2C7
330
279
100
AcDbEntity
  8
GR1-1
  6
CONTINUOUS
 62
     7
100
AcDbLine
 10
211.43738
 20
51.694149
 30
0.0
 11
211.255481
 21
51.640268
 31
0.0
  0
LINE
  5
2C8
330
279
100
AcDbEntity
  8
GR1-1
  6
CONTINUOUS
 62
     7
100
AcDbLine
 10
208.70502
 20
50.884787
 30
0.0
 11
208.52312
 21
50.830906
 31
0.0
  0
LINE
  5
2C9
330
279
100
AcDbEntity
  8
GR1-1
  6
CONTINUOUS
 62
     7
100
AcDbLine
 10
211.347631
 20
51.528852
 30
0.0
 11
208.688417
 21
50.741157
 31
0.0
  0
LINE
  5
2CA
330
279
100
AcDbEntity
  8
GR1-1
  6
CONTINUOUS
 62
     7
100
AcDbLine
 10
211.257882
 20
51.363555
 30
0.0
 11
208.853715
 21
50.651408
 31
0.0
  0
LINE
  5
2CB
330
279
100
AcDbEntity
  8
GR1-1
  6
CONTINUOUS
 62
     7
100
AcDbLine
 10
211.168133
 20
51.198258
 30
0.0
 11
209.019012
 21
50.561659
 31
0.0
  0
LINE
  5
2CC
330
279
100
AcDbEntity
  8
GR1-1
  6
CONTINUOUS
 62
     7
100
AcDbLine
 10
211.078384
 20
51.032961
 30
0.0
 11
209.184309
 21
50.47191
 31
0.0
  0
LINE
  5
2CD
330
279
100
AcDbEntity
  8
GR1-1
  6
CONTINUOUS
 62
     7
100
AcDbLine
 10
210.988635
 20
50.867664
 30
0.0
 11
209.349606
 21
50.382161
 31
0.0
  0
LINE
  5
2CE
330
279
100
AcDbEntity
  8
GR1-1
  6
CONTINUOUS
 62
     7
100
AcDbLine
 10
210.898886
 20
50.702367
 30
0.0
 11
209.514903
 21
50.292412
 31
0.0
  0
LINE
  5
2CF
330
279
100
AcDbEntity
  8
GR1-1
  6
CONTINUOUS
 62
     7
100
AcDbLine
 10
210.809137
 20
50.53707
 30
0.0
 11
209.6802
 21
50.202663
 31
0.0
  0
LINE
  5
2D0
330
279
100
AcDbEntity
  8
GR1-1
  6
CONTINUOUS
 62
     7
100
AcDbLine
 10
210.719388
 20
50.371773
 30
0.0
 11
209.845497
 21
50.112914
 31
0.0
  0
LINE
  5
2D1
330
279
100
AcDbEntity
  8
GR1-1
  6
CONTINUOUS
 62
     7
100
AcDbLine
 10
210.62964
 20
50.206476
 30
0.0
 11
210.010794
 21
50.023165
 31
0.0
  0
LINE
  5
2D2
330
279
100
AcDbEntity
  8
GR1-1
  6
CONTINUOUS
 62
     7
100
AcDbLine
 10
210.539891
 20
50.041179
 30
0.0
 11
210.176091
 21
49.933416
 31
0.0
  0
LINE
  5
2D3
330
279
100
AcDbEntity
  8
GR1-1
  6
CONTINUOUS
 62
     7
100
AcDbLine
 10
210.450142
 20
49.875882
 30
0.0
 11
210.341388
 21
49.843667
 31
0.0
  0
ENDBLK
  5
27B
330
279
100
AcDbEntity
  8
0
100
AcDbBlockEnd
  0
BLOCK
  5
333
330
332
100
AcDbEntity
  8
0
100
AcDbBlockBegin
  2
BLKF033
 70
     0
 71
     0
 10
0.0
 20
0.0
 30
0.0
  3
BLKF033
  1

  0
LINE
  5
336
330
332
100
AcDbEntity
  8
}}ﾊﾊGG血CCТ
  6
CONTINUOUS
 62
     7
100
AcDbLine
 10
10.0
 20
10.0
 30
0.0
 11
410.0
 21
10.0
 31
0.0
  0
LINE
  5
337
330
332
100
AcDbEntity
  8
}}ﾊﾊGG血CCТ
  6
CONTINUOUS
 62
     7
100
AcDbLine
 10
10.0
 20
10.0
 30
0.0
 11
10.0
 21
287.0
 31
0.0
  0
LINE
  5
338
330
332
100
AcDbEntity
  8
}}ﾊﾊGG血CCТ
  6
CONTINUOUS
 62
     7
100
AcDbLine
 10
10.0
 20
287.0
 30
0.0
 11
410.0
 21
287.0
 31
0.0
  0
LINE
  5
339
330
332
100
AcDbEntity
  8
}}ﾊﾊGG血CCТ
  6
CONTINUOUS
 62
     7
100
AcDbLine
 10
410.0
 20
287.0
 30
0.0
 11
410.0
 21
10.0
 31
0.0
  0
LINE
  5
33A
330
332
100
AcDbEntity
  8
}}ﾊﾊGG血CCТ
  6
CONTINUOUS
 62
     7
100
AcDbLine
 10
153.0
 20
10.0
 30
0.0
 11
153.0
 21
20.0
 31
0.0
  0
TEXT
  5
33B
330
332
100
AcDbEntity
  8
}}ﾊﾊGG血CCТ
  6
CONTINUOUS
 62
     7
100
AcDbText
 10
137.738815
 20
11.596879
 30
0.0
 40
6.648749
  1
品名
 41
1.083413
  7
FX_VECTOR
 72
     5
 11
149.058355
 21
11.596879
 31
0.0
100
AcDbText
  0
LINE
  5
33C
330
332
100
AcDbEntity
  8
}}ﾊﾊGG血CCТ
  6
CONTINUOUS
 62
     7
100
AcDbLine
 10
233.0
 20
20.0
 30
0.0
 11
233.0
 21
10.0
 31
0.0
  0
LINE
  5
33D
330
332
100
AcDbEntity
  8
}}ﾊﾊGG血CCТ
  6
CONTINUOUS
 62
     7
100
AcDbLine
 10
133.0
 20
20.0
 30
0.0
 11
410.0
 21
20.0
 31
0.0
  0
INSERT
  5
341
330
332
100
AcDbEntity
  8
0
100
AcDbBlockReference
  2
BLKF034
 10
0.0
 20
0.0
 30
0.0
  0
INSERT
  5
349
330
332
100
AcDbEntity
  8
0
100
AcDbBlockReference
  2
BLKF035
 10
0.0
 20
0.0
 30
0.0
  0
HATCH
  5
359
330
332
100
AcDbEntity
  8
GR1-1
  6
CONTINUOUS
 62
     7
100
AcDbHatch
 10
0.0
 20
0.0
 30
0.0
210
0.0
220
0.0
230
1.0
  2

 70
     0
 71
     1
 91
        2
 92
        0
 93
        4
 72
     1
 10
338.8018997861325
 20
17.91346152
 11
344.8018997861325
 21
17.91346152
 72
     1
 10
344.8018997861325
 20
17.91346152
 11
344.8018997861325
 21
11.91346152
 72
     1
 10
344.8018997861325
 20
11.91346152
 11
338.8018997861325
 21
11.91346152
 72
     1
 10
338.8018997861325
 20
11.91346152
 11
338.8018997861325
 21
17.91346152
 97
        0
 92
        0
 93
       15
 72
     1
 10
341.8018997861325
 20
17.76923076000002
 11
338.9461305461325
 21
14.91346152
 72
     1
 10
338.9461305461325
 20
14.91346152
 11
341.8018997861325
 21
12.05769228000001
 72
     1
 10
341.8018997861325
 20
12.05769228000001
 11
343.3595920661325
 21
13.61538462
 72
     1
 10
343.3595920661325
 20
13.61538462
 11
343.3595920661325
 21
12.98076924
 72
     1
 10
343.3595920661325
 20
12.98076924
 11
344.2249766861325
 21
12.98076924
 72
     1
 10
344.2249766861325
 20
12.98076924
 11
344.2249766861325
 21
15.00000000000001
 72
     1
 10
344.2249766861325
 20
15.00000000000001
 11
341.8018997861325
 21
15.00000000000001
 72
     1
 10
341.8018997861325
 20
15.00000000000001
 11
341.8018997861325
 21
14.13461538000001
 72
     1
 10
341.8018997861325
 20
14.13461538000001
 11
342.2461305461325
 21
14.13461538000001
 72
     1
 10
342.2461305461325
 20
14.13461538000001
 11
341.8018997861325
 21
13.69038462
 72
     1
 10
341.8018997861325
 20
13.69038462
 11
340.5788228861325
 21
14.91346152
 72
     1
 10
340.5788228861325
 20
14.91346152
 11
341.8018997861325
 21
16.13653842000003
 72
     1
 10
341.8018997861325
 20
16.13653842000003
 11
342.5922844061325
 21
15.3461538
 72
     1
 10
342.5922844061325
 20
15.3461538
 11
344.2249766861325
 21
15.3461538
 72
     1
 10
344.2249766861325
 20
15.3461538
 11
341.8018997861325
 21
17.76923076000002
 97
        0
 75
     0
 76
     0
 52
45.0
 41
0.05
 77
     0
 78
     1
 53
45.0
 43
0.0
 44
0.0
 45
-0.0353553390593274
 46
0.0353553390593274
 79
     0
 98
        0
  0
TEXT
  5
35A
330
332
100
AcDbEntity
  8
}}ﾊﾊGG血CCТ
  6
CONTINUOUS
 62
     7
100
AcDbText
 10
349.225769
 20
11.461285
 30
0.0
 40
6.0
  1
GOLD CASTER
 41
0.719626
  7
FX_VECTOR
 72
     5
 11
393.225769
 21
11.461285
 31
0.0
100
AcDbText
  0
LINE
  5
35B
330
332
100
AcDbEntity
  8
}}ﾊﾊGG血CCТ
  6
CONTINUOUS
 62
     7
100
AcDbLine
 10
253.0
 20
10.0
 30
0.0
 11
253.0
 21
20.0
 31
0.0
  0
TEXT
  5
35C
330
332
100
AcDbEntity
  8
}}ﾊﾊGG血CCТ
  6
CONTINUOUS
 62
     7
100
AcDbText
 10
237.738815
 20
11.596879
 30
0.0
 40
6.648749
  1
図番
 41
1.083413
  7
FX_VECTOR
 72
     5
 11
249.058355
 21
11.596879
 31
0.0
100
AcDbText
  0
LINE
  5
35D
330
332
100
AcDbEntity
  8
}}ﾊﾊGG血CCТ
  6
CONTINUOUS
 62
     7
100
AcDbLine
 10
333.0
 20
20.0
 30
0.0
 11
333.0
 21
10.0
 31
0.0
  0
LINE
  5
35E
330
332
100
AcDbEntity
  8
}}ﾊﾊGG血CCТ
  6
CONTINUOUS
 62
     7
100
AcDbLine
 10
133.0
 20
20.0
 30
0.0
 11
133.0
 21
10.0
 31
0.0
  0
ENDBLK
  5
334
330
332
100
AcDbEntity
  8
0
100
AcDbBlockEnd
  0
BLOCK
  5
33F
330
33E
100
AcDbEntity
  8
0
100
AcDbBlockBegin
  2
BLKF034
 70
     0
 71
     0
 10
0.0
 20
0.0
 30
0.0
  3
BLKF034
  1

  0
LINE
  5
342
330
33E
100
AcDbEntity
  8
0-1
  6
CONTINUOUS
 62
     7
100
AcDbLine
 10
344.8019
 20
17.913462
 30
0.0
 11
338.8019
 21
17.913462
 31
0.0
  0
LINE
  5
343
330
33E
100
AcDbEntity
  8
0-1
  6
CONTINUOUS
 62
     7
100
AcDbLine
 10
338.8019
 20
17.913462
 30
0.0
 11
338.8019
 21
11.913462
 31
0.0
  0
LINE
  5
344
330
33E
100
AcDbEntity
  8
0-1
  6
CONTINUOUS
 62
     7
100
AcDbLine
 10
338.8019
 20
11.913462
 30
0.0
 11
344.8019
 21
11.913462
 31
0.0
  0
LINE
  5
345
330
33E
100
AcDbEntity
  8
0-1
  6
CONTINUOUS
 62
     7
100
AcDbLine
 10
344.8019
 20
11.913462
 30
0.0
 11
344.8019
 21
17.913462
 31
0.0
  0
ENDBLK
  5
340
330
33E
100
AcDbEntity
  8
0
100
AcDbBlockEnd
  0
BLOCK
  5
347
330
346
100
AcDbEntity
  8
0
100
AcDbBlockBegin
  2
BLKF035
 70
     0
 71
     0
 10
0.0
 20
0.0
 30
0.0
  3
BLKF035
  1

  0
LINE
  5
34A
330
346
100
AcDbEntity
  8
0-1
  6
CONTINUOUS
 62
     7
100
AcDbLine
 10
344.224977
 20
15.346154
 30
0.0
 11
341.8019
 21
17.769231
 31
0.0
  0
LINE
  5
34B
330
346
100
AcDbEntity
  8
0-1
  6
CONTINUOUS
 62
     7
100
AcDbLine
 10
341.8019
 20
17.769231
 30
0.0
 11
338.946131
 21
14.913462
 31
0.0
  0
LINE
  5
34C
330
346
100
AcDbEntity
  8
0-1
  6
CONTINUOUS
 62
     7
100
AcDbLine
 10
338.946131
 20
14.913462
 30
0.0
 11
341.8019
 21
12.057692
 31
0.0
  0
LINE
  5
34D
330
346
100
AcDbEntity
  8
0-1
  6
CONTINUOUS
 62
     7
100
AcDbLine
 10
341.8019
 20
12.057692
 30
0.0
 11
343.359592
 21
13.615385
 31
0.0
  0
LINE
  5
34E
330
346
100
AcDbEntity
  8
0-1
  6
CONTINUOUS
 62
     7
100
AcDbLine
 10
343.359592
 20
13.615385
 30
0.0
 11
343.359592
 21
12.980769
 31
0.0
  0
LINE
  5
34F
330
346
100
AcDbEntity
  8
0-1
  6
CONTINUOUS
 62
     7
100
AcDbLine
 10
343.359592
 20
12.980769
 30
0.0
 11
344.224977
 21
12.980769
 31
0.0
  0
LINE
  5
350
330
346
100
AcDbEntity
  8
0-1
  6
CONTINUOUS
 62
     7
100
AcDbLine
 10
344.224977
 20
12.980769
 30
0.0
 11
344.224977
 21
15.0
 31
0.0
  0
LINE
  5
351
330
346
100
AcDbEntity
  8
0-1
  6
CONTINUOUS
 62
     7
100
AcDbLine
 10
344.224977
 20
15.0
 30
0.0
 11
341.8019
 21
15.0
 31
0.0
  0
LINE
  5
352
330
346
100
AcDbEntity
  8
0-1
  6
CONTINUOUS
 62
     7
100
AcDbLine
 10
341.8019
 20
15.0
 30
0.0
 11
341.8019
 21
14.134615
 31
0.0
  0
LINE
  5
353
330
346
100
AcDbEntity
  8
0-1
  6
CONTINUOUS
 62
     7
100
AcDbLine
 10
341.8019
 20
14.134615
 30
0.0
 11
342.246131
 21
14.134615
 31
0.0
  0
LINE
  5
354
330
346
100
AcDbEntity
  8
0-1
  6
CONTINUOUS
 62
     7
100
AcDbLine
 10
342.246131
 20
14.134615
 30
0.0
 11
341.8019
 21
13.690385
 31
0.0
  0
LINE
  5
355
330
346
100
AcDbEntity
  8
0-1
  6
CONTINUOUS
 62
     7
100
AcDbLine
 10
341.8019
 20
13.690385
 30
0.0
 11
340.578823
 21
14.913462
 31
0.0
  0
LINE
  5
356
330
346
100
AcDbEntity
  8
0-1
  6
CONTINUOUS
 62
     7
100
AcDbLine
 10
340.578823
 20
14.913462
 30
0.0
 11
341.8019
 21
16.136538
 31
0.0
  0
LINE
  5
357
330
346
100
AcDbEntity
  8
0-1
  6
CONTINUOUS
 62
     7
100
AcDbLine
 10
341.8019
 20
16.136538
 30
0.0
 11
342.592284
 21
15.346154
 31
0.0
  0
LINE
  5
358
330
346
100
AcDbEntity
  8
0-1
  6
CONTINUOUS
 62
     7
100
AcDbLine
 10
342.592284
 20
15.346154
 30
0.0
 11
344.224977
 21
15.346154
 31
0.0
  0
ENDBLK
  5
348
330
346
100
AcDbEntity
  8
0
100
AcDbBlockEnd
  0
ENDSEC
  0
SECTION
  2
ENTITIES
  0
TEXT
  5
A8
330
1F
100
AcDbEntity
  8
}}ﾊﾊGG血CCТ
  6
CONTINUOUS
 62
     7
100
AcDbText
 10
156.07991
 20
11.91107
 30
0.0
 40
6.0
  1
ＥＡ－１００　１６×４０　ＵＢ　Ｓ
 41
0.785479
  7
FX_VECTOR
 72
     5
 11
224.07991
 21
11.91107
 31
0.0
100
AcDbText
  0
ARC
  5
AA
330
1F
100
AcDbEntity
  8
GR1-1
  6
CONTINUOUS
 62
     3
100
AcDbCircle
 10
283.054302
 20
152.510741
 30
0.0
 40
3.5
100
AcDbArc
 50
1.637245
 51
90.0
  0
LINE
  5
AB
330
1F
100
AcDbEntity
  8
GR1-1
  6
CONTINUOUS
 62
     3
100
AcDbLine
 10
283.054302
 20
156.010741
 30
0.0
 11
240.451445
 21
156.010741
 31
0.0
  0
LINE
  5
AC
330
1F
100
AcDbEntity
  8
GR1-1
  6
CONTINUOUS
 62
     3
100
AcDbLine
 10
239.302874
 20
157.316741
 30
0.0
 11
284.302874
 21
157.316741
 31
0.0
  0
LINE
  5
AD
330
1F
100
AcDbEntity
  8
GR1-1
  6
CONTINUOUS
 62
     3
100
AcDbLine
 10
284.302874
 20
157.316741
 30
0.0
 11
284.302874
 21
160.816741
 31
0.0
  0
ARC
  5
AE
330
1F
100
AcDbEntity
  8
GR1-1
  6
CONTINUOUS
 62
     3
100
AcDbCircle
 10
279.404428
 20
157.351884
 30
0.0
 40
6.0
100
AcDbArc
 50
35.273224
 51
83.795686
  0
LINE
  5
AF
330
1F
100
AcDbEntity
  8
GR1-1
  6
CONTINUOUS
 62
     3
100
AcDbLine
 10
280.052874
 20
163.316741
 30
0.0
 11
243.552874
 21
163.316741
 31
0.0
  0
LINE
  5
B0
330
1F
100
AcDbEntity
  8
GR1-1
  6
CONTINUOUS
 62
     3
100
AcDbLine
 10
268.392402
 20
163.316741
 30
0.0
 11
268.392402
 21
167.866741
 31
0.0
  0
LINE
  5
B1
330
1F
100
AcDbEntity
  8
GR1-1
  6
CONTINUOUS
 62
     3
100
AcDbLine
 10
269.752874
 20
167.866741
 30
0.0
 11
269.752874
 21
206.866741
 31
0.0
  0
LINE
  5
B2
330
1F
100
AcDbEntity
  8
GR1-1
  6
CONTINUOUS
 62
     3
100
AcDbLine
 10
269.752874
 20
206.866741
 30
0.0
 11
268.752874
 21
207.866741
 31
0.0
  0
LINE
  5
B3
330
1F
100
AcDbEntity
  8
GR1-1
  6
CONTINUOUS
 62
     3
100
AcDbLine
 10
254.752874
 20
207.866741
 30
0.0
 11
253.752874
 21
206.866741
 31
0.0
  0
LINE
  5
B4
330
1F
100
AcDbEntity
  8
GR1-1
  6
CONTINUOUS
 62
     3
100
AcDbLine
 10
253.752874
 20
206.866741
 30
0.0
 11
253.752874
 21
167.866741
 31
0.0
  0
LINE
  5
B5
330
1F
100
AcDbEntity
  8
GR1-1
  6
CONTINUOUS
 62
     3
100
AcDbLine
 10
255.113345
 20
167.866741
 30
0.0
 11
255.113345
 21
163.316741
 31
0.0
  0
ARC
  5
B6
330
1F
100
AcDbEntity
  8
GR1-1
  6
CONTINUOUS
 62
     3
100
AcDbCircle
 10
244.201319
 20
157.351884
 30
0.0
 40
6.0
100
AcDbArc
 50
96.204314
 51
144.726776
  0
LINE
  5
B7
330
1F
100
AcDbEntity
  8
GR1-1
  6
CONTINUOUS
 62
     3
100
AcDbLine
 10
239.302874
 20
160.816741
 30
0.0
 11
239.302874
 21
157.316741
 31
0.0
  0
ARC
  5
B8
330
1F
100
AcDbEntity
  8
GR1-1
  6
CONTINUOUS
 62
     3
100
AcDbCircle
 10
240.451445
 20
152.510741
 30
0.0
 40
3.5
100
AcDbArc
 50
90.0
 51
175.049208
  0
LINE
  5
B9
330
1F
100
AcDbEntity
  8
GR1-1
  6
CONTINUOUS
 62
     3
100
AcDbLine
 10
248.473817
 20
163.316741
 30
0.0
 11
248.473817
 21
167.866741
 31
0.0
  0
LINE
  5
BA
330
1F
100
AcDbEntity
  8
GR1-1
  6
CONTINUOUS
 62
     3
100
AcDbLine
 10
248.473817
 20
167.866741
 30
0.0
 11
275.03193
 21
167.866741
 31
0.0
  0
LINE
  5
BB
330
1F
100
AcDbEntity
  8
GR1-1
  6
CONTINUOUS
 62
     3
100
AcDbLine
 10
275.03193
 20
167.866741
 30
0.0
 11
275.03193
 21
163.316741
 31
0.0
  0
ARC
  5
BC
330
1F
100
AcDbEntity
  8
GR1-1
  6
CONTINUOUS
 62
     3
100
AcDbCircle
 10
143.552874
 20
152.002511
 30
0.0
 40
4.0
100
AcDbArc
 50
0.0
 51
90.0
  0
LINE
  5
BD
330
1F
100
AcDbEntity
  8
GR1-1
  6
CONTINUOUS
 62
     3
100
AcDbLine
 10
143.552874
 20
156.002511
 30
0.0
 11
101.952874
 21
156.002511
 31
0.0
  0
ARC
  5
BE
330
1F
100
AcDbEntity
  8
GR1-1
  6
CONTINUOUS
 62
     3
100
AcDbCircle
 10
101.952874
 20
152.002511
 30
0.0
 40
4.0
100
AcDbArc
 50
90.0
 51
180.0
  0
LINE
  5
BF
330
1F
100
AcDbEntity
  8
GR1-1
  6
CONTINUOUS
 62
     3
100
AcDbLine
 10
100.202874
 20
157.308511
 30
0.0
 11
145.302874
 21
157.308511
 31
0.0
  0
LINE
  5
C0
330
1F
100
AcDbEntity
  8
GR1-1
  6
CONTINUOUS
 62
     3
100
AcDbLine
 10
145.302874
 20
157.308511
 30
0.0
 11
145.302874
 21
160.808511
 31
0.0
  0
ARC
  5
C1
330
1F
100
AcDbEntity
  8
GR1-1
  6
CONTINUOUS
 62
     3
100
AcDbCircle
 10
140.404428
 20
157.343654
 30
0.0
 40
6.0
100
AcDbArc
 50
35.273224
 51
83.795686
  0
LINE
  5
C2
330
1F
100
AcDbEntity
  8
GR1-1
  6
CONTINUOUS
 62
     3
100
AcDbLine
 10
141.052874
 20
163.308511
 30
0.0
 11
104.452874
 21
163.308511
 31
0.0
  0
ARC
  5
C3
330
1F
100
AcDbEntity
  8
GR1-1
  6
CONTINUOUS
 62
     3
100
AcDbCircle
 10
105.101319
 20
157.343654
 30
0.0
 40
6.0
100
AcDbArc
 50
96.204314
 51
144.726776
  0
LINE
  5
C4
330
1F
100
AcDbEntity
  8
GR1-1
  6
CONTINUOUS
 62
     3
100
AcDbLine
 10
100.202874
 20
160.808511
 30
0.0
 11
100.202874
 21
157.308511
 31
0.0
  0
LINE
  5
C5
330
1F
100
AcDbEntity
  8
GR1-1
  6
CONTINUOUS
 62
     3
100
AcDbLine
 10
111.252874
 20
163.308511
 30
0.0
 11
111.252874
 21
167.866741
 31
0.0
  0
LINE
  5
C6
330
1F
100
AcDbEntity
  8
GR1-1
  6
CONTINUOUS
 62
     3
100
AcDbLine
 10
111.252874
 20
167.866741
 30
0.0
 11
134.252874
 21
167.866741
 31
0.0
  0
LINE
  5
C7
330
1F
100
AcDbEntity
  8
GR1-1
  6
CONTINUOUS
 62
     3
100
AcDbLine
 10
134.252874
 20
167.866741
 30
0.0
 11
134.252874
 21
163.308511
 31
0.0
  0
LINE
  5
C8
330
1F
100
AcDbEntity
  8
GR1-1
  6
CONTINUOUS
 62
     3
100
AcDbLine
 10
130.752874
 20
167.866741
 30
0.0
 11
130.752874
 21
206.866741
 31
0.0
  0
LINE
  5
C9
330
1F
100
AcDbEntity
  8
GR1-1
  6
CONTINUOUS
 62
     3
100
AcDbLine
 10
130.752874
 20
206.866741
 30
0.0
 11
129.752874
 21
207.866741
 31
0.0
  0
LINE
  5
CA
330
1F
100
AcDbEntity
  8
GR1-1
  6
CONTINUOUS
 62
     3
100
AcDbLine
 10
129.752874
 20
207.866741
 30
0.0
 11
115.752874
 21
207.866741
 31
0.0
  0
LINE
  5
CB
330
1F
100
AcDbEntity
  8
GR1-1
  6
CONTINUOUS
 62
     3
100
AcDbLine
 10
115.752874
 20
207.866741
 30
0.0
 11
114.752874
 21
206.866741
 31
0.0
  0
LINE
  5
CC
330
1F
100
AcDbEntity
  8
GR1-1
  6
CONTINUOUS
 62
     3
100
AcDbLine
 10
114.752874
 20
206.866741
 30
0.0
 11
114.752874
 21
167.866741
 31
0.0
  0
LINE
  5
CD
330
1F
100
AcDbEntity
  8
GR1-1
  6
CONTINUOUS
 62
     3
100
AcDbLine
 10
122.752874
 20
167.858511
 30
0.0
 11
122.752874
 21
163.308511
 31
0.0
  0
LINE
  5
CE
330
1F
100
AcDbEntity
  8
GR1-1
  6
CONTINUOUS
 62
     3
100
AcDbLine
 10
255.113345
 20
269.138884
 30
0.0
 11
248.473817
 21
257.638884
 31
0.0
  0
LINE
  5
CF
330
1F
100
AcDbEntity
  8
GR1-1
  6
CONTINUOUS
 62
     3
100
AcDbLine
 10
248.473817
 20
257.638884
 30
0.0
 11
255.113345
 21
246.138884
 31
0.0
  0
LINE
  5
D0
330
1F
100
AcDbEntity
  8
GR1-1
  6
CONTINUOUS
 62
     3
100
AcDbLine
 10
255.113345
 20
246.138884
 30
0.0
 11
268.392402
 21
246.138884
 31
0.0
  0
LINE
  5
D1
330
1F
100
AcDbEntity
  8
GR1-1
  6
CONTINUOUS
 62
     3
100
AcDbLine
 10
268.392402
 20
246.138884
 30
0.0
 11
275.03193
 21
257.638884
 31
0.0
  0
LINE
  5
D2
330
1F
100
AcDbEntity
  8
GR1-1
  6
CONTINUOUS
 62
     3
100
AcDbLine
 10
275.03193
 20
257.638884
 30
0.0
 11
268.392402
 21
269.138884
 31
0.0
  0
LINE
  5
D3
330
1F
100
AcDbEntity
  8
GR1-1
  6
CONTINUOUS
 62
     3
100
AcDbLine
 10
268.392402
 20
269.138884
 30
0.0
 11
255.113345
 21
269.138884
 31
0.0
  0
CIRCLE
  5
D4
330
1F
100
AcDbEntity
  8
GR1-1
  6
CONTINUOUS
 62
     3
100
AcDbCircle
 10
261.752874
 20
257.638884
 30
0.0
 40
8.0
  0
CIRCLE
  5
D5
330
1F
100
AcDbEntity
  8
GR1-1
  6
CONTINUOUS
 62
     3
100
AcDbCircle
 10
261.752874
 20
257.638884
 30
0.0
 40
22.5
  0
LINE
  5
D6
330
1F
100
AcDbEntity
  8
GR1-1
  6
CENTER
 62
     6
100
AcDbLine
 10
122.752874
 20
39.659353
 30
0.0
 11
122.752874
 21
210.635975
 31
0.0
  0
LINE
  5
D7
330
1F
100
AcDbEntity
  8
GR1-1
  6
CONTINUOUS
 62
     6
100
AcDbLine
 10
129.670374
 20
207.866741
 30
0.0
 11
129.670374
 21
167.866741
 31
0.0
  0
LINE
  5
D8
330
1F
100
AcDbEntity
  8
GR1-1
  6
CONTINUOUS
 62
     6
100
AcDbLine
 10
115.835374
 20
167.866741
 30
0.0
 11
115.835374
 21
207.866741
 31
0.0
  0
LINE
  5
D9
330
1F
100
AcDbEntity
  8
GR1-1
  6
CONTINUOUS
 62
     6
100
AcDbLine
 10
114.752874
 20
206.866741
 30
0.0
 11
130.752874
 21
206.866741
 31
0.0
  0
LINE
  5
DA
330
1F
100
AcDbEntity
  8
GR1-1
  6
CONTINUOUS
 62
     6
100
AcDbLine
 10
145.302874
 20
160.808511
 30
0.0
 11
100.202874
 21
160.808511
 31
0.0
  0
ARC
  5
DB
330
1F
100
AcDbEntity
  8
GR1-1
  6
CONTINUOUS
 62
     6
100
AcDbCircle
 10
122.752874
 20
310.733761
 30
0.0
 40
158.0312500000001
100
AcDbArc
 50
263.550955
 51
276.449045
  0
LINE
  5
DC
330
1F
100
AcDbEntity
  8
GR1-1
  6
CENTER
 62
     6
100
AcDbLine
 10
154.452874
 20
91.866741
 30
0.0
 11
101.342048
 21
91.866741
 31
0.0
  0
LINE
  5
DD
330
1F
100
AcDbEntity
  8
GR1-1
  6
CENTER
 62
     6
100
AcDbLine
 10
178.148698
 20
91.866741
 30
0.0
 11
284.850574
 21
91.866741
 31
0.0
  0
LINE
  5
DE
330
1F
100
AcDbEntity
  8
GR1-1
  6
CENTER
 62
     6
100
AcDbLine
 10
261.752874
 20
113.199308
 30
0.0
 11
261.752874
 21
210.075452
 31
0.0
  0
LINE
  5
DF
330
1F
100
AcDbEntity
  8
GR1-1
  6
CONTINUOUS
 62
     6
100
AcDbLine
 10
268.670374
 20
207.866741
 30
0.0
 11
268.670374
 21
167.866741
 31
0.0
  0
LINE
  5
E0
330
1F
100
AcDbEntity
  8
GR1-1
  6
CONTINUOUS
 62
     6
100
AcDbLine
 10
239.302874
 20
160.816741
 30
0.0
 11
284.302874
 21
160.816741
 31
0.0
  0
LINE
  5
E1
330
1F
100
AcDbEntity
  8
GR1-1
  6
CONTINUOUS
 62
     6
100
AcDbLine
 10
254.835374
 20
167.866741
 30
0.0
 11
254.835374
 21
207.866741
 31
0.0
  0
LINE
  5
E2
330
1F
100
AcDbEntity
  8
GR1-1
  6
CONTINUOUS
 62
     6
100
AcDbLine
 10
253.752874
 20
206.866741
 30
0.0
 11
269.752874
 21
206.866741
 31
0.0
  0
LINE
  5
E3
330
1F
100
AcDbEntity
  8
GR1-1
  6
CENTER
 62
     6
100
AcDbLine
 10
261.752874
 20
229.077305
 30
0.0
 11
261.752874
 21
284.688263
 31
0.0
  0
ARC
  5
E4
330
1F
100
AcDbEntity
  8
GR1-1
  6
CONTINUOUS
 62
     6
100
AcDbCircle
 10
261.752874
 20
257.638884
 30
0.0
 40
12.5
100
AcDbArc
 50
66.926082
 51
113.073918
  0
ARC
  5
E5
330
1F
100
AcDbEntity
  8
GR1-1
  6
CONTINUOUS
 62
     6
100
AcDbCircle
 10
261.752874
 20
257.638884
 30
0.0
 40
12.5
100
AcDbArc
 50
126.926082
 51
173.073918
  0
ARC
  5
E6
330
1F
100
AcDbEntity
  8
GR1-1
  6
CONTINUOUS
 62
     6
100
AcDbCircle
 10
261.752874
 20
257.638884
 30
0.0
 40
12.5
100
AcDbArc
 50
186.926082
 51
233.073918
  0
ARC
  5
E7
330
1F
100
AcDbEntity
  8
GR1-1
  6
CONTINUOUS
 62
     6
100
AcDbCircle
 10
261.752874
 20
257.638884
 30
0.0
 40
12.5
100
AcDbArc
 50
246.926082
 51
293.073918
  0
ARC
  5
E8
330
1F
100
AcDbEntity
  8
GR1-1
  6
CONTINUOUS
 62
     6
100
AcDbCircle
 10
261.752874
 20
257.638884
 30
0.0
 40
12.5
100
AcDbArc
 50
306.926082
 51
353.073918
  0
ARC
  5
E9
330
1F
100
AcDbEntity
  8
GR1-1
  6
CONTINUOUS
 62
     6
100
AcDbCircle
 10
261.752874
 20
257.638884
 30
0.0
 40
12.5
100
AcDbArc
 50
6.926082
 51
53.073918
  0
CIRCLE
  5
EA
330
1F
100
AcDbEntity
  8
GR1-1
  6
CONTINUOUS
 62
     6
100
AcDbCircle
 10
261.752874
 20
257.638884
 30
0.0
 40
6.917500000000018
  0
CIRCLE
  5
EB
330
1F
100
AcDbEntity
  8
GR1-1
  6
CONTINUOUS
 62
     6
100
AcDbCircle
 10
261.752874
 20
257.638884
 30
0.0
 40
17.25
  0
CIRCLE
  5
EC
330
1F
100
AcDbEntity
  8
GR1-1
  6
CONTINUOUS
 62
     6
100
AcDbCircle
 10
261.752874
 20
257.638884
 30
0.0
 40
18.25
  0
LINE
  5
ED
330
1F
100
AcDbEntity
  8
GR1-1
  6
CENTER
 62
     6
100
AcDbLine
 10
290.739843
 20
257.638884
 30
0.0
 11
176.830273
 21
257.638884
 31
0.0
  0
LINE
  5
EE
330
1F
100
AcDbEntity
  8
GR1-1
  6
CENTER
 62
     6
100
AcDbLine
 10
231.752874
 20
103.895494
 30
0.0
 11
231.752874
 21
38.563995
 31
0.0
  0
ARC
  5
EF
330
1F
100
AcDbEntity
  8
LAYERGROUP-1
  6
CONTINUOUS
 62
     3
100
AcDbCircle
 10
267.232087
 20
157.588741
 30
0.0
 40
2.769432968211788
100
AcDbArc
 50
188.416511
 51
214.735704
  0
ARC
  5
F0
330
1F
100
AcDbEntity
  8
LAYERGROUP-1
  6
CONTINUOUS
 62
     3
100
AcDbCircle
 10
272.167018
 20
157.588741
 30
0.0
 40
2.769432968211788
100
AcDbArc
 50
325.264296
 51
354.363606
  0
ARC
  5
F1
330
1F
100
AcDbEntity
  8
LAYERGROUP-1
  6
CONTINUOUS
 62
     3
100
AcDbCircle
 10
276.08298
 20
157.588741
 30
0.0
 40
2.769432968211788
100
AcDbArc
 50
325.264296
 51
354.363606
  0
ARC
  5
F2
330
1F
100
AcDbEntity
  8
LAYERGROUP-1
  6
CONTINUOUS
 62
     3
100
AcDbCircle
 10
278.596499
 20
157.588741
 30
0.0
 40
2.769432968211788
100
AcDbArc
 50
325.264296
 51
354.363606
  0
ARC
  5
F3
330
1F
100
AcDbEntity
  8
LAYERGROUP-1
  6
CONTINUOUS
 62
     3
100
AcDbCircle
 10
279.461434
 20
157.588741
 30
0.0
 40
2.769432968211788
100
AcDbArc
 50
325.264296
 51
354.363606
  0
ARC
  5
F4
330
1F
100
AcDbEntity
  8
LAYERGROUP-1
  6
CONTINUOUS
 62
     3
100
AcDbCircle
 10
267.232087
 20
157.588741
 30
0.0
 40
2.769432968211788
100
AcDbArc
 50
325.264296
 51
354.363606
  0
ARC
  5
F5
330
1F
100
AcDbEntity
  8
LAYERGROUP-1
  6
CONTINUOUS
 62
     3
100
AcDbCircle
 10
261.752874
 20
157.588741
 30
0.0
 40
2.769432968211788
100
AcDbArc
 50
325.264296
 51
354.363606
  0
ARC
  5
F6
330
1F
100
AcDbEntity
  8
LAYERGROUP-1
  6
CONTINUOUS
 62
     3
100
AcDbCircle
 10
122.752874
 20
157.580511
 30
0.0
 40
2.769432968211788
100
AcDbArc
 50
325.264296
 51
354.363606
  0
ARC
  5
F7
330
1F
100
AcDbEntity
  8
LAYERGROUP-1
  6
CONTINUOUS
 62
     3
100
AcDbCircle
 10
128.232087
 20
157.580511
 30
0.0
 40
2.769432968211788
100
AcDbArc
 50
188.416511
 51
214.735704
  0
ARC
  5
F8
330
1F
100
AcDbEntity
  8
LAYERGROUP-1
  6
CONTINUOUS
 62
     3
100
AcDbCircle
 10
133.167018
 20
157.580511
 30
0.0
 40
2.769432968211788
100
AcDbArc
 50
325.264296
 51
354.363606
  0
ARC
  5
F9
330
1F
100
AcDbEntity
  8
LAYERGROUP-1
  6
CONTINUOUS
 62
     3
100
AcDbCircle
 10
137.08298
 20
157.580511
 30
0.0
 40
2.769432968211788
100
AcDbArc
 50
325.264296
 51
354.363606
  0
ARC
  5
FA
330
1F
100
AcDbEntity
  8
LAYERGROUP-1
  6
CONTINUOUS
 62
     3
100
AcDbCircle
 10
139.596499
 20
157.580511
 30
0.0
 40
2.769432968211788
100
AcDbArc
 50
325.264296
 51
354.363606
  0
ARC
  5
FB
330
1F
100
AcDbEntity
  8
LAYERGROUP-1
  6
CONTINUOUS
 62
     3
100
AcDbCircle
 10
140.461434
 20
157.580511
 30
0.0
 40
2.769432968211788
100
AcDbArc
 50
325.264296
 51
354.363606
  0
ARC
  5
FC
330
1F
100
AcDbEntity
  8
LAYERGROUP-1
  6
CONTINUOUS
 62
     3
100
AcDbCircle
 10
128.232087
 20
157.580511
 30
0.0
 40
2.769432968211788
100
AcDbArc
 50
325.264296
 51
354.363606
  0
ARC
  5
FD
330
1F
100
AcDbEntity
  8
LAYERGROUP-1
  6
CONTINUOUS
 62
     3
100
AcDbCircle
 10
122.752874
 20
157.580511
 30
0.0
 40
2.769432968211788
100
AcDbArc
 50
185.636394
 51
214.735704
  0
ARC
  5
FE
330
1F
100
AcDbEntity
  8
LAYERGROUP-1
  6
CONTINUOUS
 62
     3
100
AcDbCircle
 10
117.27366
 20
157.580511
 30
0.0
 40
2.769432968211788
100
AcDbArc
 50
325.264296
 51
351.583489
  0
ARC
  5
FF
330
1F
100
AcDbEntity
  8
LAYERGROUP-1
  6
CONTINUOUS
 62
     3
100
AcDbCircle
 10
112.338729
 20
157.580511
 30
0.0
 40
2.769432968211788
100
AcDbArc
 50
185.636394
 51
214.735704
  0
ARC
  5
100
330
1F
100
AcDbEntity
  8
LAYERGROUP-1
  6
CONTINUOUS
 62
     3
100
AcDbCircle
 10
108.422767
 20
157.580511
 30
0.0
 40
2.769432968211788
100
AcDbArc
 50
185.636394
 51
214.735704
  0
ARC
  5
101
330
1F
100
AcDbEntity
  8
LAYERGROUP-1
  6
CONTINUOUS
 62
     3
100
AcDbCircle
 10
105.909248
 20
157.580511
 30
0.0
 40
2.769432968211788
100
AcDbArc
 50
185.636394
 51
214.735704
  0
ARC
  5
102
330
1F
100
AcDbEntity
  8
LAYERGROUP-1
  6
CONTINUOUS
 62
     3
100
AcDbCircle
 10
105.044313
 20
157.580511
 30
0.0
 40
2.769432968211788
100
AcDbArc
 50
185.636394
 51
214.735704
  0
ARC
  5
103
330
1F
100
AcDbEntity
  8
LAYERGROUP-1
  6
CONTINUOUS
 62
     3
100
AcDbCircle
 10
117.27366
 20
157.580511
 30
0.0
 40
2.769432968211788
100
AcDbArc
 50
185.636394
 51
214.735704
  0
ARC
  5
104
330
1F
100
AcDbEntity
  8
LAYERGROUP-1
  6
CONTINUOUS
 62
     3
100
AcDbCircle
 10
256.27366
 20
157.588741
 30
0.0
 40
2.769432968211788
100
AcDbArc
 50
325.264296
 51
351.583489
  0
ARC
  5
105
330
1F
100
AcDbEntity
  8
LAYERGROUP-1
  6
CONTINUOUS
 62
     3
100
AcDbCircle
 10
251.338729
 20
157.588741
 30
0.0
 40
2.769432968211788
100
AcDbArc
 50
185.636394
 51
214.735704
  0
ARC
  5
106
330
1F
100
AcDbEntity
  8
LAYERGROUP-1
  6
CONTINUOUS
 62
     3
100
AcDbCircle
 10
247.422767
 20
157.588741
 30
0.0
 40
2.769432968211788
100
AcDbArc
 50
185.636394
 51
214.735704
  0
ARC
  5
107
330
1F
100
AcDbEntity
  8
LAYERGROUP-1
  6
CONTINUOUS
 62
     3
100
AcDbCircle
 10
244.909248
 20
157.588741
 30
0.0
 40
2.769432968211788
100
AcDbArc
 50
185.636394
 51
214.735704
  0
ARC
  5
108
330
1F
100
AcDbEntity
  8
LAYERGROUP-1
  6
CONTINUOUS
 62
     3
100
AcDbCircle
 10
244.044313
 20
157.588741
 30
0.0
 40
2.769432968211788
100
AcDbArc
 50
185.636394
 51
214.735704
  0
ARC
  5
109
330
1F
100
AcDbEntity
  8
LAYERGROUP-1
  6
CONTINUOUS
 62
     3
100
AcDbCircle
 10
256.27366
 20
157.588741
 30
0.0
 40
2.769432968211788
100
AcDbArc
 50
185.636394
 51
214.735704
  0
ARC
  5
10A
330
1F
100
AcDbEntity
  8
LAYERGROUP-1
  6
CONTINUOUS
 62
     3
100
AcDbCircle
 10
261.752874
 20
157.588741
 30
0.0
 40
2.769432968211788
100
AcDbArc
 50
185.636394
 51
214.735704
  0
DIMENSION
  5
10B
330
1F
100
AcDbEntity
  8
GR1-1
100
AcDbDimension
  2
*D19
 10
306.396357
 20
167.866741
 30
0.0
 11
305.396362
 21
104.866737
 31
0.0
 70
    32
  3
FXDIMINFO
100
AcDbAlignedDimension
 13
231.752874
 23
41.866741
 33
0.0
 14
275.03193
 24
167.866741
 34
0.0
 50
270.0
100
AcDbRotatedDimension
1001
ACAD
1000
DSTYLE
1002
{
1070
     7
1000
FXTIP_ARROW_E
1070
     6
1000
FXTIP_ARROW_S
1070
   173
1070
     1
1002
}
  0
DIMENSION
  5
115
330
1F
100
AcDbEntity
  8
GR1-1
100
AcDbDimension
  2
*D20
 10
296.396357
 20
207.866741
 30
0.0
 11
295.396362
 21
187.866745
 31
0.0
 70
    33
  3
FXDIMINFO
100
AcDbAlignedDimension
 13
268.670374
 23
167.866741
 33
0.0
 14
268.670374
 24
207.866741
 34
0.0
1001
ACAD
1000
DSTYLE
1002
{
1070
     7
1000
FXTIP_ARROW_E
1070
     6
1000
FXTIP_ARROW_S
1070
   173
1070
     1
1002
}
  0
DIMENSION
  5
11F
330
1F
100
AcDbEntity
  8
GR1-1
100
AcDbDimension
  2
*D21
 10
296.396357
 20
167.866741
 30
0.0
 11
295.396362
 21
129.866745
 31
0.0
 70
    33
  3
FXDIMINFO
100
AcDbAlignedDimension
 13
284.850574
 23
91.866741
 33
0.0
 14
284.850574
 24
167.866741
 34
0.0
1001
ACAD
1000
DSTYLE
1002
{
1070
     7
1000
FXTIP_ARROW_E
1070
     6
1000
FXTIP_ARROW_S
1070
   173
1070
     1
1002
}
  0
DIMENSION
  5
129
330
1F
100
AcDbEntity
  8
GR1-1
100
AcDbDimension
  2
*D22
 10
261.752874
 20
31.870058
 30
0.0
 11
246.752869
 21
32.870056
 31
0.0
 70
    32
  3
FXDIMINFO
100
AcDbAlignedDimension
 13
231.752874
 23
38.563995
 33
0.0
 14
261.752874
 24
113.199308
 34
0.0
 50
180.0
100
AcDbRotatedDimension
1001
ACAD
1000
DSTYLE
1002
{
1070
     7
1000
FXTIP_ARROW_E
1070
     6
1000
FXTIP_ARROW_S
1070
   173
1070
     1
1002
}
  0
DIMENSION
  5
133
330
1F
100
AcDbEntity
  8
GR1-1
100
AcDbDimension
  2
*D23
 10
296.585566
 20
269.138884
 30
0.0
 11
295.585571
 21
257.638885
 31
0.0
 70
    33
  3
FXDIMINFO
100
AcDbAlignedDimension
 13
268.392402
 23
246.138884
 33
0.0
 14
268.392402
 24
269.138884
 34
0.0
1001
ACAD
1000
DSTYLE
1002
{
1070
     7
1000
FXTIP_ARROW_E
1070
     6
1000
FXTIP_ARROW_S
1070
   173
1070
     1
1002
}
  0
DIMENSION
  5
13D
330
1F
100
AcDbEntity
  8
GR1-1
100
AcDbDimension
  2
*D24
 10
130.752874
 20
215.183651
 30
0.0
 11
122.752876
 21
216.183655
 31
0.0
 70
    33
  3
FXDIMINFO
100
AcDbAlignedDimension
 13
114.752874
 23
206.866741
 33
0.0
 14
130.752874
 24
206.866741
 34
0.0
1001
ACAD
1000
DSTYLE
1002
{
1070
     7
1000
FXTIP_ARROW_E
1070
     6
1000
FXTIP_ARROW_S
1070
   173
1070
     1
1002
}
  0
LINE
  5
147
330
1F
100
AcDbEntity
  8
GR1-1
  6
CONTINUOUS
 62
     3
100
AcDbLine
 10
267.384843
 20
212.038886
 30
0.0
 11
256.451032
 21
212.038886
 31
0.0
  0
LINE
  5
148
330
1F
100
AcDbEntity
  8
GR1-1
  6
CONTINUOUS
 62
     3
100
AcDbLine
 10
251.898469
 20
218.038886
 30
0.0
 11
251.898469
 21
232.038884
 31
0.0
  0
LINE
  5
149
330
1F
100
AcDbEntity
  8
GR1-1
  6
CONTINUOUS
 62
     3
100
AcDbLine
 10
249.365754
 20
232.038884
 30
0.0
 11
269.048706
 21
232.038884
 31
0.0
  0
LINE
  5
14A
330
1F
100
AcDbEntity
  8
GR1-1
  6
CONTINUOUS
 62
     3
100
AcDbLine
 10
250.451032
 20
229.738884
 30
0.0
 11
249.87969
 21
229.738884
 31
0.0
  0
LINE
  5
14B
330
1F
100
AcDbEntity
  8
GR1-1
  6
CONTINUOUS
 62
     3
100
AcDbLine
 10
250.451032
 20
229.738884
 30
0.0
 11
250.451032
 21
218.038886
 31
0.0
  0
ARC
  5
14C
330
1F
100
AcDbEntity
  8
GR1-1
  6
CONTINUOUS
 62
     3
100
AcDbCircle
 10
256.451032
 20
218.038886
 30
0.0
 40
6.0
100
AcDbArc
 50
180.0
 51
270.0
  0
ARC
  5
14D
330
1F
100
AcDbEntity
  8
GR1-1
  6
CONTINUOUS
 62
     3
100
AcDbCircle
 10
257.898469
 20
218.038886
 30
0.0
 40
6.0
100
AcDbArc
 50
180.0
 51
270.0
  0
ARC
  5
14E
330
1F
100
AcDbEntity
  8
GR1-1
  6
CONTINUOUS
 62
     3
100
AcDbCircle
 10
261.658556
 20
222.584484
 30
0.0
 40
12.0
100
AcDbArc
 50
-61.497924
 51
51.986593
  0
ARC
  5
14F
330
1F
100
AcDbEntity
  8
GR1-1
  6
CONTINUOUS
 62
     3
100
AcDbCircle
 10
249.365754
 20
234.038884
 30
0.0
 40
2.0
100
AcDbArc
 50
234.0
 51
270.0
  0
LINE
  5
150
330
1F
100
AcDbEntity
  8
GR1-1
  6
CONTINUOUS
 62
     3
100
AcDbLine
 10
248.190183
 20
232.42085
 30
0.0
 11
243.936929
 21
235.51102
 31
0.0
  0
ARC
  5
151
330
1F
100
AcDbEntity
  8
GR1-1
  6
CONTINUOUS
 62
     3
100
AcDbCircle
 10
239.234647
 20
229.038884
 30
0.0
 40
8.0
100
AcDbArc
 50
54.0
 51
90.0
  0
LINE
  5
152
330
1F
100
AcDbEntity
  8
GR1-1
  6
CONTINUOUS
 62
     3
100
AcDbLine
 10
239.098744
 20
234.738884
 30
0.0
 11
225.691793
 21
234.738884
 31
0.0
  0
LINE
  5
153
330
1F
100
AcDbEntity
  8
GR1-1
  6
CONTINUOUS
 62
     3
100
AcDbLine
 10
225.752874
 20
233.738884
 30
0.0
 11
225.752874
 21
230.738884
 31
0.0
  0
ARC
  5
154
330
1F
100
AcDbEntity
  8
GR1-1
  6
CONTINUOUS
 62
     3
100
AcDbCircle
 10
228.752874
 20
234.738884
 30
0.0
 40
4.999999999999318
100
AcDbArc
 50
233.130102
 51
306.869898
  0
LINE
  5
155
330
1F
100
AcDbEntity
  8
GR1-1
  6
CONTINUOUS
 62
     3
100
AcDbLine
 10
231.752874
 20
230.738884
 30
0.0
 11
231.752874
 21
233.738884
 31
0.0
  0
ARC
  5
156
330
1F
100
AcDbEntity
  8
GR1-1
  6
CONTINUOUS
 62
     3
100
AcDbCircle
 10
228.752874
 20
229.738884
 30
0.0
 40
4.999999999999915
100
AcDbArc
 50
53.130102
 51
126.869898
  0
LINE
  5
157
330
1F
100
AcDbEntity
  8
GR1-1
  6
CONTINUOUS
 62
     3
100
AcDbLine
 10
225.752874
 20
233.138884
 30
0.0
 11
225.383017
 21
233.138884
 31
0.0
  0
ARC
  5
158
330
1F
100
AcDbEntity
  8
GR1-1
  6
CONTINUOUS
 62
     3
100
AcDbCircle
 10
223.959743
 20
235.738884
 30
0.0
 40
2.0
100
AcDbArc
 50
270.0
 51
360.0
  0
LINE
  5
159
330
1F
100
AcDbEntity
  8
GR1-1
  6
CONTINUOUS
 62
     3
100
AcDbLine
 10
225.959743
 20
235.738884
 30
0.0
 11
225.959743
 21
237.838884
 31
0.0
  0
LINE
  5
15A
330
1F
100
AcDbEntity
  8
GR1-1
  6
CONTINUOUS
 62
     3
100
AcDbLine
 10
225.959743
 20
237.038884
 30
0.0
 11
241.684647
 21
237.038884
 31
0.0
  0
LINE
  5
15B
330
1F
100
AcDbEntity
  8
GR1-1
  6
CONTINUOUS
 62
     3
100
AcDbLine
 10
241.752874
 20
237.038884
 30
0.0
 11
241.752874
 21
239.338884
 31
0.0
  0
LINE
  5
15C
330
1F
100
AcDbEntity
  8
GR1-1
  6
CONTINUOUS
 62
     3
100
AcDbLine
 10
242.153129
 20
239.338884
 30
0.0
 11
218.752874
 21
239.338884
 31
0.0
  0
LINE
  5
15D
330
1F
100
AcDbEntity
  8
GR1-1
  6
CONTINUOUS
 62
     3
100
AcDbLine
 10
218.752874
 20
239.338884
 30
0.0
 11
218.752874
 21
237.038884
 31
0.0
  0
ARC
  5
15E
330
1F
100
AcDbEntity
  8
GR1-1
  6
CONTINUOUS
 62
     3
100
AcDbCircle
 10
220.082353
 20
235.038884
 30
0.0
 40
2.0
100
AcDbArc
 50
90.0
 51
180.0
  0
LINE
  5
15F
330
1F
100
AcDbEntity
  8
GR1-1
  6
CONTINUOUS
 62
     3
100
AcDbLine
 10
218.082353
 20
235.038884
 30
0.0
 11
218.082353
 21
223.038884
 31
0.0
  0
LINE
  5
160
330
1F
100
AcDbEntity
  8
GR1-1
  6
CONTINUOUS
 62
     3
100
AcDbLine
 10
212.082353
 20
217.038884
 30
0.0
 11
200.805718
 21
217.038884
 31
0.0
  0
ARC
  5
161
330
1F
100
AcDbEntity
  8
GR1-1
  6
CONTINUOUS
 62
     3
100
AcDbCircle
 10
212.082353
 20
223.038884
 30
0.0
 40
6.0
100
AcDbArc
 50
270.0
 51
360.0
  0
LINE
  5
162
330
1F
100
AcDbEntity
  8
GR1-1
  6
CONTINUOUS
 62
     3
100
AcDbLine
 10
227.752874
 20
226.438884
 30
0.0
 11
228.252874
 21
225.938884
 31
0.0
  0
LINE
  5
163
330
1F
100
AcDbEntity
  8
GR1-1
  6
CONTINUOUS
 62
     3
100
AcDbLine
 10
228.252874
 20
225.938884
 30
0.0
 11
235.252874
 21
225.938884
 31
0.0
  0
LINE
  5
164
330
1F
100
AcDbEntity
  8
GR1-1
  6
CONTINUOUS
 62
     3
100
AcDbLine
 10
235.252874
 20
225.938884
 30
0.0
 11
235.752874
 21
226.438884
 31
0.0
  0
LINE
  5
165
330
1F
100
AcDbEntity
  8
GR1-1
  6
CONTINUOUS
 62
     3
100
AcDbLine
 10
235.752874
 20
226.438884
 30
0.0
 11
235.752874
 21
228.238884
 31
0.0
  0
LINE
  5
166
330
1F
100
AcDbEntity
  8
GR1-1
  6
CONTINUOUS
 62
     3
100
AcDbLine
 10
236.502874
 20
228.238884
 30
0.0
 11
237.752874
 21
230.738884
 31
0.0
  0
LINE
  5
167
330
1F
100
AcDbEntity
  8
GR1-1
  6
CONTINUOUS
 62
     3
100
AcDbLine
 10
237.752874
 20
230.738884
 30
0.0
 11
237.752874
 21
233.738884
 31
0.0
  0
ARC
  5
168
330
1F
100
AcDbEntity
  8
GR1-1
  6
CONTINUOUS
 62
     3
100
AcDbCircle
 10
234.752874
 20
229.738884
 30
0.0
 40
4.999999999999915
100
AcDbArc
 50
53.130102
 51
126.869898
  0
ARC
  5
169
330
1F
100
AcDbEntity
  8
GR1-1
  6
CONTINUOUS
 62
     3
100
AcDbCircle
 10
234.752874
 20
234.738884
 30
0.0
 40
4.999999999999318
100
AcDbArc
 50
233.130102
 51
306.869898
  0
LINE
  5
16A
330
1F
100
AcDbEntity
  8
GR1-1
  6
CONTINUOUS
 62
     3
100
AcDbLine
 10
236.502874
 20
228.238884
 30
0.0
 11
227.002874
 21
228.238884
 31
0.0
  0
LINE
  5
16B
330
1F
100
AcDbEntity
  8
GR1-1
  6
CONTINUOUS
 62
     3
100
AcDbLine
 10
227.002874
 20
228.238884
 30
0.0
 11
225.752874
 21
230.738884
 31
0.0
  0
LINE
  5
16C
330
1F
100
AcDbEntity
  8
GR1-1
  6
CONTINUOUS
 62
     3
100
AcDbLine
 10
227.752874
 20
228.238884
 30
0.0
 11
227.752874
 21
226.438884
 31
0.0
  0
LINE
  5
16D
330
1F
100
AcDbEntity
  8
GR1-1
  6
CONTINUOUS
 62
     3
100
AcDbLine
 10
223.959743
 20
233.738884
 30
0.0
 11
222.915395
 21
233.738884
 31
0.0
  0
ARC
  5
16E
330
1F
100
AcDbEntity
  8
GR1-1
  6
CONTINUOUS
 62
     3
100
AcDbCircle
 10
225.383017
 20
235.138884
 30
0.0
 40
2.0
100
AcDbArc
 50
224.427004
 51
270.0
  0
LINE
  5
16F
330
1F
100
AcDbEntity
  8
GR1-1
  6
CONTINUOUS
 62
     3
100
AcDbLine
 10
221.303653
 20
234.738884
 30
0.0
 11
218.082353
 21
234.738884
 31
0.0
  0
LINE
  5
170
330
1F
100
AcDbEntity
  8
GR1-1
  6
CONTINUOUS
 62
     3
100
AcDbLine
 10
221.035704
 20
235.738884
 30
0.0
 11
221.035704
 21
239.338884
 31
0.0
  0
LINE
  5
171
330
1F
100
AcDbEntity
  8
GR1-1
  6
CONTINUOUS
 62
     3
100
AcDbLine
 10
194.614545
 20
237.038884
 30
0.0
 11
221.035704
 21
237.038884
 31
0.0
  0
ARC
  5
172
330
1F
100
AcDbEntity
  8
GR1-1
  6
CONTINUOUS
 62
     3
100
AcDbCircle
 10
223.035704
 20
235.738884
 30
0.0
 40
2.0
100
AcDbArc
 50
180.0
 51
270.0
  0
ARC
  5
173
330
1F
100
AcDbEntity
  8
GR1-1
  6
CONTINUOUS
 62
     3
100
AcDbCircle
 10
227.459743
 20
237.838884
 30
0.0
 40
1.5
100
AcDbArc
 50
90.0
 51
180.0
  0
LINE
  5
174
330
1F
100
AcDbEntity
  8
GR1-1
  6
CONTINUOUS
 62
     3
100
AcDbLine
 10
231.752874
 20
237.038884
 30
0.0
 11
231.752874
 21
239.338884
 31
0.0
  0
LINE
  5
175
330
1F
100
AcDbEntity
  8
GR1-1
  6
CONTINUOUS
 62
     3
100
AcDbLine
 10
242.625455
 20
233.592986
 30
0.0
 11
246.352978
 21
230.884782
 31
0.0
  0
ARC
  5
176
330
1F
100
AcDbEntity
  8
GR1-1
  6
CONTINUOUS
 62
     3
100
AcDbCircle
 10
249.87969
 20
235.738884
 30
0.0
 40
6.0
100
AcDbArc
 50
234.0
 51
270.0
  0
ARC
  5
177
330
1F
100
AcDbEntity
  8
GR1-1
  6
CONTINUOUS
 62
     3
100
AcDbCircle
 10
239.098744
 20
228.738884
 30
0.0
 40
6.0
100
AcDbArc
 50
54.0
 51
90.0
  0
ARC
  5
178
330
1F
100
AcDbEntity
  8
GR1-1
  6
CONTINUOUS
 62
     3
100
AcDbCircle
 10
261.752874
 20
257.638884
 30
0.0
 40
24.80000000000004
100
AcDbArc
 50
-126.694859
 51
126.694859
  0
LINE
  5
179
330
1F
100
AcDbEntity
  8
GR1-1
  6
CONTINUOUS
 62
     3
100
AcDbLine
 10
242.153129
 20
275.938884
 30
0.0
 11
220.402874
 21
275.938884
 31
0.0
  0
LINE
  5
17A
330
1F
100
AcDbEntity
  8
GR1-1
  6
CONTINUOUS
 62
     3
100
AcDbLine
 10
220.402874
 20
275.938884
 30
0.0
 11
220.402874
 21
273.638884
 31
0.0
  0
LINE
  5
17B
330
1F
100
AcDbEntity
  8
GR1-1
  6
CONTINUOUS
 62
     3
100
AcDbLine
 10
220.402874
 20
273.638884
 30
0.0
 11
222.919898
 21
273.638884
 31
0.0
  0
LINE
  5
17C
330
1F
100
AcDbEntity
  8
GR1-1
  6
CONTINUOUS
 62
     3
100
AcDbLine
 10
194.614545
 20
237.038884
 30
0.0
 11
194.249754
 21
234.738884
 31
0.0
  0
ARC
  5
17D
330
1F
100
AcDbEntity
  8
GR1-1
  6
CONTINUOUS
 62
     3
100
AcDbCircle
 10
204.477935
 20
228.463192
 30
0.0
 40
12.0
100
AcDbArc
 50
148.468025
 51
252.180573
  0
ARC
  5
17E
330
1F
100
AcDbEntity
  8
GR1-1
  6
CONTINUOUS
 62
     3
100
AcDbCircle
 10
205.592997
 20
228.463192
 30
0.0
 40
12.0
100
AcDbArc
 50
150.212745
 51
252.180573
  0
ARC
  5
17F
330
1F
100
AcDbEntity
  8
GR1-1
  6
CONTINUOUS
 62
     3
100
AcDbCircle
 10
193.442734
 20
235.418125
 30
0.0
 40
2.0
100
AcDbArc
 50
-29.787255
 51
54.133013
  0
ARC
  5
180
330
1F
100
AcDbEntity
  8
GR1-1
  6
CONTINUOUS
 62
     3
100
AcDbCircle
 10
261.752874
 20
257.638884
 30
0.0
 40
42.00000000000006
100
AcDbArc
 50
154.169246
 51
205.830754
  0
ARC
  5
181
330
1F
100
AcDbEntity
  8
GR1-1
  6
CONTINUOUS
 62
     3
100
AcDbCircle
 10
261.752874
 20
257.638884
 30
0.0
 40
24.80000000000004
100
AcDbArc
 50
140.574034
 51
219.425966
  0
ARC
  5
182
330
1F
100
AcDbEntity
  8
GR1-1
  6
CONTINUOUS
 62
     3
100
AcDbCircle
 10
235.752874
 20
276.502392
 30
0.0
 40
2.0
100
AcDbArc
 50
0.0
 51
75.522488
  0
LINE
  5
183
330
1F
100
AcDbEntity
  8
GR1-1
  6
CONTINUOUS
 62
     3
100
AcDbLine
 10
236.252874
 20
278.438884
 30
0.0
 11
227.252874
 21
278.438884
 31
0.0
  0
ARC
  5
184
330
1F
100
AcDbEntity
  8
GR1-1
  6
CONTINUOUS
 62
     3
100
AcDbCircle
 10
227.752874
 20
276.502392
 30
0.0
 40
2.0
100
AcDbArc
 50
104.477512
 51
180.0
  0
LINE
  5
185
330
1F
100
AcDbEntity
  8
GR1-1
  6
CONTINUOUS
 62
     3
100
AcDbLine
 10
225.752874
 20
276.502392
 30
0.0
 11
225.752874
 21
275.938884
 31
0.0
  0
LINE
  5
186
330
1F
100
AcDbEntity
  8
GR1-1
  6
CONTINUOUS
 62
     3
100
AcDbLine
 10
237.752874
 20
275.938884
 30
0.0
 11
237.752874
 21
276.502392
 31
0.0
  0
TEXT
  5
187
330
1F
100
AcDbEntity
  8
GR1-1
  6
CONTINUOUS
 62
     7
100
AcDbText
 10
259.271423
 20
225.021912
 30
0.0
 40
7.088436
  1
開
 50
270.0
 41
1.701963
  7
FX_VECTOR
 72
     5
 11
259.271423
 21
216.404588
 31
0.0
100
AcDbText
  0
TEXT
  5
188
330
1F
100
AcDbEntity
  8
GR1-1
  6
CONTINUOUS
 62
     7
100
AcDbText
 10
202.339188
 20
229.538879
 30
0.0
 40
7.46376
  1
止
 50
270.0
 41
1.614206
  7
FX_VECTOR
 72
     5
 11
202.339188
 21
220.933132
 31
0.0
100
AcDbText
  0
LINE
  5
189
330
1F
100
AcDbEntity
  8
GR1-1
  6
CONTINUOUS
 62
     6
100
AcDbLine
 10
229.143581
 20
237.038884
 30
0.0
 11
229.143581
 21
234.738884
 31
0.0
  0
LINE
  5
18A
330
1F
100
AcDbEntity
  8
GR1-1
  6
CONTINUOUS
 62
     6
100
AcDbLine
 10
228.429374
 20
228.238884
 30
0.0
 11
228.429374
 21
225.938884
 31
0.0
  0
LINE
  5
18B
330
1F
100
AcDbEntity
  8
GR1-1
  6
CONTINUOUS
 62
     6
100
AcDbLine
 10
227.752874
 20
226.438884
 30
0.0
 11
235.752874
 21
226.438884
 31
0.0
  0
LINE
  5
18C
330
1F
100
AcDbEntity
  8
GR1-1
  6
CONTINUOUS
 62
     6
100
AcDbLine
 10
235.076374
 20
225.938884
 30
0.0
 11
235.076374
 21
228.238884
 31
0.0
  0
LINE
  5
18D
330
1F
100
AcDbEntity
  8
GR1-1
  6
CONTINUOUS
 62
     6
100
AcDbLine
 10
236.033411
 20
234.738884
 30
0.0
 11
236.033411
 21
237.038884
 31
0.0
  0
ARC
  5
18E
330
1F
100
AcDbEntity
  8
LAYERGROUP-1
  6
CONTINUOUS
 62
     7
100
AcDbCircle
 10
261.752874
 20
257.638884
 30
0.0
 40
76.16474258841944
100
AcDbArc
 50
191.480836
 51
209.767999
  0
DIMENSION
  5
18F
330
1F
100
AcDbEntity
  8
LAYERGROUP-1
100
AcDbDimension
  2
*D25
 10
261.752874
 20
257.638884
 30
0.0
 11
180.163925
 21
236.78949
 31
0.0
 70
   164
  3
FXDIMINFO
100
AcDbRadialDimension
 15
188.188577
 25
237.906617
 35
0.0
 40
0.0
  0
LINE
  5
197
330
1F
100
AcDbEntity
  8
LAYERGROUP-1
  6
CENTER
 62
     6
100
AcDbLine
 10
231.752874
 20
279.563194
 30
0.0
 11
231.752874
 21
233.988884
 31
0.0
  0
LINE
  5
198
330
1F
100
AcDbEntity
  8
LAYERGROUP-1
  6
CENTER
 62
     6
100
AcDbLine
 10
231.752874
 20
230.738884
 30
0.0
 11
231.752874
 21
224.0872
 31
0.0
  0
ARC
  5
199
330
1F
100
AcDbEntity
  8
LAYERGROUP-1
  6
CONTINUOUS
 62
     3
100
AcDbCircle
 10
242.153129
 20
283.938884
 30
0.0
 40
8.0
100
AcDbArc
 50
270.0
 51
306.694859
  0
ARC
  5
19A
330
1F
100
AcDbEntity
  8
LAYERGROUP-1
  6
CONTINUOUS
 62
     3
100
AcDbCircle
 10
242.153129
 20
231.338884
 30
0.0
 40
8.0
100
AcDbArc
 50
53.305141
 51
90.0
  0
ARC
  5
19B
330
1F
100
AcDbEntity
  8
GR1-1
  6
CONTINUOUS
 62
     3
100
AcDbCircle
 10
281.752874
 20
257.638884
 30
0.0
 40
100.0
100
AcDbArc
 50
173.260989
 51
186.739011
  0
ARC
  5
19C
330
1F
100
AcDbEntity
  8
GR1-1
  6
CONTINUOUS
 62
     3
100
AcDbCircle
 10
184.429957
 20
269.138884
 30
0.0
 40
2.0
100
AcDbArc
 50
90.0
 51
173.260989
  0
ARC
  5
19D
330
1F
100
AcDbEntity
  8
GR1-1
  6
CONTINUOUS
 62
     3
100
AcDbCircle
 10
184.429957
 20
246.138884
 30
0.0
 40
2.0
100
AcDbArc
 50
186.739011
 51
270.0
  0
LINE
  5
19E
330
1F
100
AcDbEntity
  8
GR1-1
  6
CONTINUOUS
 62
     3
100
AcDbLine
 10
184.429957
 20
244.138884
 30
0.0
 11
221.981653
 21
244.138884
 31
0.0
  0
LINE
  5
19F
330
1F
100
AcDbEntity
  8
GR1-1
  6
CONTINUOUS
 62
     3
100
AcDbLine
 10
215.252874
 20
242.638884
 30
0.0
 11
222.522783
 21
242.638884
 31
0.0
  0
ARC
  5
1A0
330
1F
100
AcDbEntity
  8
GR1-1
  6
CONTINUOUS
 62
     3
100
AcDbCircle
 10
215.252874
 20
245.638884
 30
0.0
 40
3.0
100
AcDbArc
 50
210.0
 51
270.0
  0
LINE
  5
1A1
330
1F
100
AcDbEntity
  8
GR1-1
  6
CONTINUOUS
 62
     3
100
AcDbLine
 10
184.429957
 20
271.138884
 30
0.0
 11
221.981653
 21
271.138884
 31
0.0
  0
LINE
  5
1A2
330
1F
100
AcDbEntity
  8
GR1-1
  6
CONTINUOUS
 62
     3
100
AcDbLine
 10
215.252874
 20
272.638884
 30
0.0
 11
222.522783
 21
272.638884
 31
0.0
  0
ARC
  5
1A3
330
1F
100
AcDbEntity
  8
GR1-1
  6
CONTINUOUS
 62
     3
100
AcDbCircle
 10
215.252874
 20
269.638884
 30
0.0
 40
3.0
100
AcDbArc
 50
90.0
 51
150.0
  0
LINE
  5
1A4
330
1F
100
AcDbEntity
  8
GR1-1
  6
CONTINUOUS
 62
     3
100
AcDbLine
 10
220.402874
 20
239.338884
 30
0.0
 11
220.402874
 21
241.638884
 31
0.0
  0
LINE
  5
1A5
330
1F
100
AcDbEntity
  8
GR1-1
  6
CONTINUOUS
 62
     3
100
AcDbLine
 10
220.402874
 20
241.638884
 30
0.0
 11
222.919898
 21
241.638884
 31
0.0
  0
LINE
  5
1A6
330
1F
100
AcDbEntity
  8
GR1-1
  6
CONTINUOUS
 62
     3
100
AcDbLine
 10
147.552874
 20
152.210741
 30
0.0
 11
147.552874
 21
125.224164
 31
0.0
  0
LINE
  5
1A7
330
1F
100
AcDbEntity
  8
GR1-1
  6
CONTINUOUS
 62
     3
100
AcDbLine
 10
141.052874
 20
146.777917
 30
0.0
 11
141.052874
 21
80.560741
 31
0.0
  0
LINE
  5
1A8
330
1F
100
AcDbEntity
  8
GR1-1
  6
CONTINUOUS
 62
     3
100
AcDbLine
 10
141.052874
 20
80.560741
 30
0.0
 11
138.752874
 21
80.560741
 31
0.0
  0
LINE
  5
1A9
330
1F
100
AcDbEntity
  8
GR1-1
  6
CONTINUOUS
 62
     3
100
AcDbLine
 10
138.752874
 20
80.560741
 30
0.0
 11
138.752874
 21
147.012859
 31
0.0
  0
ARC
  5
1AA
330
1F
100
AcDbEntity
  8
GR1-1
  6
CONTINUOUS
 62
     3
100
AcDbCircle
 10
138.252874
 20
147.012859
 30
0.0
 40
0.5
100
AcDbArc
 50
0.0
 51
90.0
  0
LINE
  5
1AB
330
1F
100
AcDbEntity
  8
GR1-1
  6
CONTINUOUS
 62
     3
100
AcDbLine
 10
138.252874
 20
147.512859
 30
0.0
 11
107.252874
 21
147.512859
 31
0.0
  0
ARC
  5
1AC
330
1F
100
AcDbEntity
  8
GR1-1
  6
CONTINUOUS
 62
     3
100
AcDbCircle
 10
107.252874
 20
147.012859
 30
0.0
 40
0.5
100
AcDbArc
 50
90.0
 51
180.0
  0
LINE
  5
1AD
330
1F
100
AcDbEntity
  8
GR1-1
  6
CONTINUOUS
 62
     3
100
AcDbLine
 10
106.752874
 20
147.012859
 30
0.0
 11
106.752874
 21
80.560741
 31
0.0
  0
LINE
  5
1AE
330
1F
100
AcDbEntity
  8
GR1-1
  6
CONTINUOUS
 62
     3
100
AcDbLine
 10
106.752874
 20
80.560741
 30
0.0
 11
104.452874
 21
80.560741
 31
0.0
  0
LINE
  5
1AF
330
1F
100
AcDbEntity
  8
GR1-1
  6
CONTINUOUS
 62
     3
100
AcDbLine
 10
104.452874
 20
80.560741
 30
0.0
 11
104.452874
 21
146.777917
 31
0.0
  0
ARC
  5
1B0
330
1F
100
AcDbEntity
  8
GR1-1
  6
CONTINUOUS
 62
     3
100
AcDbCircle
 10
107.452874
 20
146.777917
 30
0.0
 40
3.0
100
AcDbArc
 50
90.0
 51
180.0
  0
LINE
  5
1B1
330
1F
100
AcDbEntity
  8
GR1-1
  6
CONTINUOUS
 62
     3
100
AcDbLine
 10
107.452874
 20
149.777917
 30
0.0
 11
138.052874
 21
149.777917
 31
0.0
  0
ARC
  5
1B2
330
1F
100
AcDbEntity
  8
GR1-1
  6
CONTINUOUS
 62
     3
100
AcDbCircle
 10
138.052874
 20
146.777917
 30
0.0
 40
3.0
100
AcDbArc
 50
0.0
 51
90.0
  0
LINE
  5
1B3
330
1F
100
AcDbEntity
  8
GR1-1
  6
CONTINUOUS
 62
     3
100
AcDbLine
 10
97.952874
 20
152.210741
 30
0.0
 11
97.952874
 21
128.521424
 31
0.0
  0
ARC
  5
1B4
330
1F
100
AcDbEntity
  8
GR1-1
  6
CONTINUOUS
 62
     3
100
AcDbCircle
 10
171.261342
 20
126.036804
 30
0.0
 40
73.3402116851108
100
AcDbArc
 50
178.058835
 51
202.611278
  0
DIMENSION
  5
1B5
330
1F
100
AcDbEntity
  8
LAYERGROUP-1
100
AcDbDimension
  2
*D26
 10
90.950658
 20
141.866741
 30
0.0
 11
89.950661
 21
91.866737
 31
0.0
 70
    33
  3
FXDIMINFO
100
AcDbAlignedDimension
 13
122.752874
 23
41.866741
 33
0.0
 14
122.752874
 24
141.866741
 34
0.0
1001
ACAD
1000
DSTYLE
1002
{
1070
     7
1000
FXTIP_ARROW_E
1070
     6
1000
FXTIP_ARROW_S
1070
   173
1070
     1
1002
}
  0
LINE
  5
1BF
330
1F
100
AcDbEntity
  8
GR1-1
  6
CONTINUOUS
 62
     3
100
AcDbLine
 10
168.352871
 20
85.976363
 30
0.0
 11
168.352871
 21
76.841668
 31
0.0
  0
ARC
  5
1C0
330
1F
100
AcDbEntity
  8
GR1-1
  6
CONTINUOUS
 62
     3
100
AcDbCircle
 10
164.352871
 20
84.188927
 30
0.0
 40
4.0
100
AcDbArc
 50
0.0
 51
90.0
  0
LINE
  5
1C1
330
1F
100
AcDbEntity
  8
GR1-1
  6
CONTINUOUS
 62
     3
100
AcDbLine
 10
150.652874
 20
69.50752
 30
0.0
 11
148.352874
 21
69.50752
 31
0.0
  0
LINE
  5
1C2
330
1F
100
AcDbEntity
  8
GR1-1
  6
CONTINUOUS
 62
     3
100
AcDbLine
 10
148.352874
 20
69.50752
 30
0.0
 11
148.352874
 21
70.384615
 31
0.0
  0
LINE
  5
1C3
330
1F
100
AcDbEntity
  8
GR1-1
  6
CONTINUOUS
 62
     3
100
AcDbLine
 10
148.352874
 20
70.384615
 30
0.0
 11
144.570866
 21
74.045443
 31
0.0
  0
LINE
  5
1C4
330
1F
100
AcDbEntity
  8
GR1-1
  6
CONTINUOUS
 62
     3
100
AcDbLine
 10
145.652874
 20
76.084345
 30
0.0
 11
145.652874
 21
77.883973
 31
0.0
  0
LINE
  5
1C5
330
1F
100
AcDbEntity
  8
GR1-1
  6
CONTINUOUS
 62
     3
100
AcDbLine
 10
147.252874
 20
77.883973
 30
0.0
 11
144.052874
 21
77.883973
 31
0.0
  0
LINE
  5
1C6
330
1F
100
AcDbEntity
  8
GR1-1
  6
CONTINUOUS
 62
     3
100
AcDbLine
 10
143.352874
 20
77.966782
 30
0.0
 11
143.352874
 21
76.91954
 31
0.0
  0
ARC
  5
1C7
330
1F
100
AcDbEntity
  8
GR1-1
  6
CONTINUOUS
 62
     3
100
AcDbCircle
 10
147.352874
 20
76.91954
 30
0.0
 40
4.0
100
AcDbArc
 50
180.0
 51
225.932769
  0
LINE
  5
1C8
330
1F
100
AcDbEntity
  8
GR1-1
  6
CONTINUOUS
 62
     3
100
AcDbLine
 10
145.652874
 20
76.084345
 30
0.0
 11
149.431507
 21
72.435361
 31
0.0
  0
ARC
  5
1C9
330
1F
100
AcDbEntity
  8
GR1-1
  6
CONTINUOUS
 62
     3
100
AcDbCircle
 10
157.807274
 20
82.567955
 30
0.0
 40
12.0
100
AcDbArc
 50
233.401775
 51
331.497924
  0
ARC
  5
1CA
330
1F
100
AcDbEntity
  8
GR1-1
  6
CONTINUOUS
 62
     3
100
AcDbCircle
 10
164.352871
 20
85.976363
 30
0.0
 40
4.0
100
AcDbArc
 50
0.0
 51
90.0
  0
LINE
  5
1CB
330
1F
100
AcDbEntity
  8
GR1-1
  6
CONTINUOUS
 62
     3
100
AcDbLine
 10
146.152874
 20
96.211214
 30
0.0
 11
146.152874
 21
112.595102
 31
0.0
  0
ARC
  5
1CC
330
1F
100
AcDbEntity
  8
GR1-1
  6
CONTINUOUS
 62
     3
100
AcDbCircle
 10
145.652874
 20
112.595102
 30
0.0
 40
0.5
100
AcDbArc
 50
0.0
 51
90.0
  0
LINE
  5
1CD
330
1F
100
AcDbEntity
  8
GR1-1
  6
CONTINUOUS
 62
     3
100
AcDbLine
 10
146.152874
 20
110.141283
 30
0.0
 11
160.352874
 21
110.141283
 31
0.0
  0
ARC
  5
1CE
330
1F
100
AcDbEntity
  8
GR1-1
  6
CONTINUOUS
 62
     3
100
AcDbCircle
 10
160.352874
 20
113.141283
 30
0.0
 40
3.0
100
AcDbArc
 50
270.0
 51
360.0
  0
LINE
  5
1CF
330
1F
100
AcDbEntity
  8
GR1-1
  6
CONTINUOUS
 62
     3
100
AcDbLine
 10
163.352874
 20
113.141283
 30
0.0
 11
163.352874
 21
122.333911
 31
0.0
  0
ARC
  5
1D0
330
1F
100
AcDbEntity
  8
GR1-1
  6
CONTINUOUS
 62
     3
100
AcDbCircle
 10
152.161733
 20
105.787528
 30
0.0
 40
19.97559558830291
100
AcDbArc
 50
55.927558
 51
110.010286
  0
ARC
  5
1D1
330
1F
100
AcDbEntity
  8
GR1-1
  6
CONTINUOUS
 62
     3
100
AcDbCircle
 10
146.352874
 20
121.738327
 30
0.0
 40
3.0
100
AcDbArc
 50
110.010286
 51
180.0
  0
LINE
  5
1D2
330
1F
100
AcDbEntity
  8
GR1-1
  6
CONTINUOUS
 62
     3
100
AcDbLine
 10
145.652874
 20
122.180538
 30
0.0
 11
145.652874
 21
81.305759
 31
0.0
  0
LINE
  5
1D3
330
1F
100
AcDbEntity
  8
GR1-1
  6
CONTINUOUS
 62
     3
100
AcDbLine
 10
146.752874
 20
81.305759
 30
0.0
 11
143.352874
 21
81.305759
 31
0.0
  0
LINE
  5
1D4
330
1F
100
AcDbEntity
  8
GR1-1
  6
CONTINUOUS
 62
     3
100
AcDbLine
 10
143.352874
 20
81.305759
 30
0.0
 11
143.352874
 21
129.297022
 31
0.0
  0
ARC
  5
1D5
330
1F
100
AcDbEntity
  8
GR1-1
  6
CONTINUOUS
 62
     3
100
AcDbCircle
 10
139.352874
 20
129.297022
 30
0.0
 40
4.0
100
AcDbArc
 50
0.0
 51
44.900907
  0
ARC
  5
1D6
330
1F
100
AcDbEntity
  8
GR1-1
  6
CONTINUOUS
 62
     3
100
AcDbCircle
 10
134.752874
 20
140.792152
 30
0.0
 40
4.0
100
AcDbArc
 50
0.0
 51
90.0
  0
LINE
  5
1D7
330
1F
100
AcDbEntity
  8
GR1-1
  6
CONTINUOUS
 62
     3
100
AcDbLine
 10
134.752874
 20
144.792152
 30
0.0
 11
114.752874
 21
144.792152
 31
0.0
  0
ARC
  5
1D8
330
1F
100
AcDbEntity
  8
GR1-1
  6
CONTINUOUS
 62
     3
100
AcDbCircle
 10
114.752874
 20
143.868646
 30
0.0
 40
1.0
100
AcDbArc
 50
180.0
 51
270.0
  0
LINE
  5
1D9
330
1F
100
AcDbEntity
  8
GR1-1
  6
CONTINUOUS
 62
     3
100
AcDbLine
 10
114.752874
 20
142.868646
 30
0.0
 11
135.452874
 21
142.868646
 31
0.0
  0
LINE
  5
1DA
330
1F
100
AcDbEntity
  8
GR1-1
  6
CONTINUOUS
 62
     3
100
AcDbLine
 10
136.452874
 20
141.868646
 30
0.0
 11
136.452874
 21
135.94027
 31
0.0
  0
ARC
  5
1DB
330
1F
100
AcDbEntity
  8
GR1-1
  6
CONTINUOUS
 62
     3
100
AcDbCircle
 10
140.452874
 20
135.94027
 30
0.0
 40
4.0
100
AcDbArc
 50
180.0
 51
229.0
  0
LINE
  5
1DC
330
1F
100
AcDbEntity
  8
GR1-1
  6
CONTINUOUS
 62
     3
100
AcDbLine
 10
137.828637
 20
132.921432
 30
0.0
 11
138.752874
 21
132.118005
 31
0.0
  0
ARC
  5
1DD
330
1F
100
AcDbEntity
  8
GR1-1
  6
CONTINUOUS
 62
     3
100
AcDbCircle
 10
144.052874
 20
80.883973
 30
0.0
 40
3.0
100
AcDbArc
 50
180.0
 51
270.0
  0
LINE
  5
1DE
330
1F
100
AcDbEntity
  8
GR1-1
  6
CONTINUOUS
 62
     3
100
AcDbLine
 10
144.052874
 20
79.273158
 30
0.0
 11
147.252874
 21
79.273158
 31
0.0
  0
LINE
  5
1DF
330
1F
100
AcDbEntity
  8
GR1-1
  6
CONTINUOUS
 62
     3
100
AcDbLine
 10
147.252874
 20
77.883973
 30
0.0
 11
147.252874
 21
80.805759
 31
0.0
  0
ARC
  5
1E0
330
1F
100
AcDbEntity
  8
GR1-1
  6
CONTINUOUS
 62
     3
100
AcDbCircle
 10
146.752874
 20
80.805759
 30
0.0
 40
0.5
100
AcDbArc
 50
0.0
 51
90.0
  0
ARC
  5
1E1
330
1F
100
AcDbEntity
  8
GR1-1
  6
CONTINUOUS
 62
     3
100
AcDbCircle
 10
144.052874
 20
82.273158
 30
0.0
 40
3.0
100
AcDbArc
 50
180.0
 51
270.0
  0
ARC
  5
1E2
330
1F
100
AcDbEntity
  8
GR1-1
  6
CONTINUOUS
 62
     3
100
AcDbCircle
 10
146.652874
 20
69.558001
 30
0.0
 40
4.0
100
AcDbArc
 50
0.0
 51
46.0
  0
LINE
  5
1E3
330
1F
100
AcDbEntity
  8
GR1-1
  6
CONTINUOUS
 62
     3
100
AcDbLine
 10
146.152874
 20
106.291858
 30
0.0
 11
146.752874
 21
106.291858
 31
0.0
  0
LINE
  5
1E4
330
1F
100
AcDbEntity
  8
GR1-1
  6
CONTINUOUS
 62
     3
100
AcDbLine
 10
146.752874
 20
106.291858
 30
0.0
 11
146.752874
 21
109.354733
 31
0.0
  0
LINE
  5
1E5
330
1F
100
AcDbEntity
  8
GR1-1
  6
CONTINUOUS
 62
     3
100
AcDbLine
 10
146.752874
 20
109.354733
 30
0.0
 11
146.152874
 21
109.354733
 31
0.0
  0
LINE
  5
1E6
330
1F
100
AcDbEntity
  8
GR1-1
  6
CONTINUOUS
 62
     3
100
AcDbLine
 10
146.152874
 20
107.160099
 30
0.0
 11
146.752874
 21
107.160099
 31
0.0
  0
ARC
  5
1E7
330
1F
100
AcDbEntity
  8
GR1-1
  6
CONTINUOUS
 62
     3
100
AcDbCircle
 10
144.552874
 20
105.854733
 30
0.0
 40
3.5
100
AcDbArc
 50
110.051043
 51
180.0
  0
ARC
  5
1E8
330
1F
100
AcDbEntity
  8
GR1-1
  6
CONTINUOUS
 62
     3
100
AcDbCircle
 10
146.152874
 20
122.180538
 30
0.0
 40
0.5
100
AcDbArc
 50
109.319944
 51
180.0
  0
ARC
  5
1E9
330
1F
100
AcDbEntity
  8
GR1-1
  6
CONTINUOUS
 62
     3
100
AcDbCircle
 10
152.379899
 20
104.418766
 30
0.0
 40
19.32169991392831
100
AcDbArc
 50
55.395432
 51
109.319944
  0
ARC
  5
1EA
330
1F
100
AcDbEntity
  8
GR1-1
  6
CONTINUOUS
 62
     3
100
AcDbCircle
 10
129.579644
 20
135.17333
 30
0.0
 40
8.32389803990519
100
AcDbArc
 50
34.338195
 51
67.590779
  0
ARC
  5
1EB
330
1F
100
AcDbEntity
  8
GR1-1
  6
CONTINUOUS
 62
     3
100
AcDbCircle
 10
135.452874
 20
141.868646
 30
0.0
 40
1.0
100
AcDbArc
 50
0.0
 51
90.0
  0
ARC
  5
1EC
330
1F
100
AcDbEntity
  8
GR1-1
  6
CONTINUOUS
 62
     3
100
AcDbCircle
 10
127.868655
 20
128.697317
 30
0.0
 40
17.90515533768449
100
AcDbArc
 50
59.244697
 51
80.730228
  0
LINE
  5
1ED
330
1F
100
AcDbEntity
  8
GR1-1
  6
CONTINUOUS
 62
     3
100
AcDbLine
 10
130.752874
 20
146.368646
 30
0.0
 11
113.752874
 21
146.368646
 31
0.0
  0
LINE
  5
1EE
330
1F
100
AcDbEntity
  8
GR1-1
  6
CONTINUOUS
 62
     3
100
AcDbLine
 10
113.752874
 20
146.368646
 30
0.0
 11
113.752874
 21
143.868646
 31
0.0
  0
ARC
  5
1EF
330
1F
100
AcDbEntity
  8
GR1-1
  6
CONTINUOUS
 62
     3
100
AcDbCircle
 10
114.752874
 20
145.792152
 30
0.0
 40
1.0
100
AcDbArc
 50
180.0
 51
270.0
  0
LINE
  5
1F0
330
1F
100
AcDbEntity
  8
GR1-1
  6
CONTINUOUS
 62
     6
100
AcDbLine
 10
145.652874
 20
94.145203
 30
0.0
 11
143.352874
 21
94.145203
 31
0.0
  0
LINE
  5
1F1
330
1F
100
AcDbEntity
  8
GR1-1
  6
CONTINUOUS
 62
     6
100
AcDbLine
 10
143.352874
 20
105.612466
 30
0.0
 11
145.652874
 21
105.612466
 31
0.0
  0
LINE
  5
1F2
330
1F
100
AcDbEntity
  8
GR1-1
  6
CONTINUOUS
 62
     3
100
AcDbLine
 10
164.352871
 20
89.976363
 30
0.0
 11
154.452874
 21
89.976363
 31
0.0
  0
LINE
  5
1F3
330
1F
100
AcDbEntity
  8
GR1-1
  6
CONTINUOUS
 62
     3
100
AcDbLine
 10
150.652874
 20
85.775835
 30
0.0
 11
150.652874
 21
69.50752
 31
0.0
  0
LINE
  5
1F4
330
1F
100
AcDbEntity
  8
GR1-1
  6
CONTINUOUS
 62
     3
100
AcDbLine
 10
164.352871
 20
88.188927
 30
0.0
 11
154.27506
 21
88.188927
 31
0.0
  0
ARC
  5
1F5
330
1F
100
AcDbEntity
  8
GR1-1
  6
CONTINUOUS
 62
     3
100
AcDbCircle
 10
145.652874
 20
96.211214
 30
0.0
 40
0.5
100
AcDbArc
 50
270.0
 51
360.0
  0
ARC
  5
1F6
330
1F
100
AcDbEntity
  8
GR1-1
  6
CONTINUOUS
 62
     3
100
AcDbCircle
 10
122.752874
 20
41.866741
 30
0.0
 40
100.0
100
AcDbArc
 50
83.260989
 51
96.739011
  0
ARC
  5
1F7
330
1F
100
AcDbEntity
  8
GR1-1
  6
CONTINUOUS
 62
     3
100
AcDbCircle
 10
111.252874
 20
139.189657
 30
0.0
 40
2.0
100
AcDbArc
 50
96.739011
 51
180.0
  0
ARC
  5
1F8
330
1F
100
AcDbEntity
  8
GR1-1
  6
CONTINUOUS
 62
     3
100
AcDbCircle
 10
134.252874
 20
139.189657
 30
0.0
 40
2.0
100
AcDbArc
 50
0.0
 51
83.260989
  0
LINE
  5
1F9
330
1F
100
AcDbEntity
  8
GR1-1
  6
CONTINUOUS
 62
     3
100
AcDbLine
 10
136.252874
 20
139.189657
 30
0.0
 11
136.252874
 21
44.543825
 31
0.0
  0
LINE
  5
1FA
330
1F
100
AcDbEntity
  8
GR1-1
  6
CONTINUOUS
 62
     3
100
AcDbLine
 10
137.752874
 20
108.366741
 30
0.0
 11
137.752874
 21
75.366741
 31
0.0
  0
LINE
  5
1FB
330
1F
100
AcDbEntity
  8
GR1-1
  6
CONTINUOUS
 62
     3
100
AcDbLine
 10
137.752874
 20
99.366741
 30
0.0
 11
138.752874
 21
99.366741
 31
0.0
  0
ARC
  5
1FC
330
1F
100
AcDbEntity
  8
GR1-1
  6
CONTINUOUS
 62
     3
100
AcDbCircle
 10
134.752874
 20
108.366741
 30
0.0
 40
3.0
100
AcDbArc
 50
0.0
 51
60.0
  0
LINE
  5
1FD
330
1F
100
AcDbEntity
  8
GR1-1
  6
CONTINUOUS
 62
     3
100
AcDbLine
 10
109.252874
 20
139.189657
 30
0.0
 11
109.252874
 21
44.543825
 31
0.0
  0
LINE
  5
1FE
330
1F
100
AcDbEntity
  8
GR1-1
  6
CONTINUOUS
 62
     3
100
AcDbLine
 10
107.752874
 20
108.366741
 30
0.0
 11
107.752874
 21
75.366741
 31
0.0
  0
LINE
  5
1FF
330
1F
100
AcDbEntity
  8
GR1-1
  6
CONTINUOUS
 62
     3
100
AcDbLine
 10
107.752874
 20
99.366741
 30
0.0
 11
106.752874
 21
99.366741
 31
0.0
  0
ARC
  5
200
330
1F
100
AcDbEntity
  8
GR1-1
  6
CONTINUOUS
 62
     3
100
AcDbCircle
 10
110.752874
 20
108.366741
 30
0.0
 40
3.0
100
AcDbArc
 50
120.0
 51
180.0
  0
ARC
  5
201
330
1F
100
AcDbEntity
  8
GR1-1
  6
CONTINUOUS
 62
     3
100
AcDbCircle
 10
122.752874
 20
141.866741
 30
0.0
 40
100.0
100
AcDbArc
 50
263.260989
 51
276.739011
  0
ARC
  5
202
330
1F
100
AcDbEntity
  8
GR1-1
  6
CONTINUOUS
 62
     3
100
AcDbCircle
 10
111.252874
 20
44.543825
 30
0.0
 40
2.0
100
AcDbArc
 50
180.0
 51
263.260989
  0
ARC
  5
203
330
1F
100
AcDbEntity
  8
GR1-1
  6
CONTINUOUS
 62
     3
100
AcDbCircle
 10
134.252874
 20
44.543825
 30
0.0
 40
2.0
100
AcDbArc
 50
276.739011
 51
360.0
  0
LINE
  5
204
330
1F
100
AcDbEntity
  8
GR1-1
  6
CONTINUOUS
 62
     3
100
AcDbLine
 10
137.752874
 20
84.366741
 30
0.0
 11
138.752874
 21
84.366741
 31
0.0
  0
ARC
  5
205
330
1F
100
AcDbEntity
  8
GR1-1
  6
CONTINUOUS
 62
     3
100
AcDbCircle
 10
134.752874
 20
75.366741
 30
0.0
 40
3.0
100
AcDbArc
 50
300.0
 51
360.0
  0
LINE
  5
206
330
1F
100
AcDbEntity
  8
GR1-1
  6
CONTINUOUS
 62
     3
100
AcDbLine
 10
107.752874
 20
84.366741
 30
0.0
 11
106.752874
 21
84.366741
 31
0.0
  0
ARC
  5
207
330
1F
100
AcDbEntity
  8
GR1-1
  6
CONTINUOUS
 62
     3
100
AcDbCircle
 10
110.752874
 20
75.366741
 30
0.0
 40
3.0
100
AcDbArc
 50
180.0
 51
240.0
  0
DIMENSION
  5
208
330
1F
100
AcDbEntity
  8
LAYERGROUP-1
100
AcDbDimension
  2
*D27
 10
136.252874
 20
31.870058
 30
0.0
 11
122.752876
 21
32.870056
 31
0.0
 70
    33
  3
FXDIMINFO
100
AcDbAlignedDimension
 13
109.252874
 23
44.543825
 33
0.0
 14
136.252874
 24
44.543825
 34
0.0
1001
ACAD
1000
DSTYLE
1002
{
1070
     7
1000
FXTIP_ARROW_E
1070
     6
1000
FXTIP_ARROW_S
1070
   173
1070
     1
1002
}
  0
DIMENSION
  5
212
330
1F
100
AcDbEntity
  8
LAYERGROUP-1
100
AcDbDimension
  2
*D28
 10
138.752874
 20
24.278835
 30
0.0
 11
122.752876
 21
25.278833
 31
0.0
 70
    33
  3
FXDIMINFO
100
AcDbAlignedDimension
 13
106.752874
 23
80.560741
 33
0.0
 14
138.752874
 24
80.560741
 34
0.0
1001
ACAD
1000
DSTYLE
1002
{
1070
     7
1000
FXTIP_ARROW_E
1070
     6
1000
FXTIP_ARROW_S
1070
   173
1070
     1
1002
}
  0
INSERT
  5
21F
330
1F
100
AcDbEntity
  8
0
100
AcDbBlockReference
  2
BLKF031
 10
0.0
 20
0.0
 30
0.0
  0
LINE
  5
244
330
1F
100
AcDbEntity
  8
GR1-1
  6
CONTINUOUS
 62
     3
100
AcDbLine
 10
272.9345
 20
143.596512
 30
0.0
 11
245.584677
 21
94.256126
 31
0.0
  0
LINE
  5
245
330
1F
100
AcDbEntity
  8
GR1-1
  6
CONTINUOUS
 62
     3
100
AcDbLine
 10
241.752874
 20
97.58071
 30
0.0
 11
241.752874
 21
136.866741
 31
0.0
  0
LINE
  5
246
330
1F
100
AcDbEntity
  8
GR1-1
  6
CONTINUOUS
 62
     3
100
AcDbLine
 10
242.052874
 20
136.866741
 30
0.0
 11
231.452874
 21
136.866741
 31
0.0
  0
LINE
  5
247
330
1F
100
AcDbEntity
  8
GR1-1
  6
CONTINUOUS
 62
     3
100
AcDbLine
 10
231.452874
 20
136.866741
 30
0.0
 11
231.452874
 21
121.866741
 31
0.0
  0
LINE
  5
248
330
1F
100
AcDbEntity
  8
GR1-1
  6
CONTINUOUS
 62
     3
100
AcDbLine
 10
231.452874
 20
121.866741
 30
0.0
 11
231.752874
 21
121.866741
 31
0.0
  0
LINE
  5
249
330
1F
100
AcDbEntity
  8
GR1-1
  6
CONTINUOUS
 62
     3
100
AcDbLine
 10
241.752874
 20
121.866741
 30
0.0
 11
242.052874
 21
121.866741
 31
0.0
  0
LINE
  5
24A
330
1F
100
AcDbEntity
  8
GR1-1
  6
CONTINUOUS
 62
     3
100
AcDbLine
 10
242.052874
 20
121.866741
 30
0.0
 11
242.052874
 21
136.866741
 31
0.0
  0
LINE
  5
24B
330
1F
100
AcDbEntity
  8
GR1-1
  6
CONTINUOUS
 62
     3
100
AcDbLine
 10
243.083955
 20
153.691816
 30
0.0
 11
219.752874
 21
149.577917
 31
0.0
  0
LINE
  5
24C
330
1F
100
AcDbEntity
  8
GR1-1
  6
CONTINUOUS
 62
     3
100
AcDbLine
 10
219.752874
 20
149.577917
 30
0.0
 11
220.152264
 21
147.312859
 31
0.0
  0
LINE
  5
24D
330
1F
100
AcDbEntity
  8
GR1-1
  6
CONTINUOUS
 62
     3
100
AcDbLine
 10
220.152264
 20
147.312859
 30
0.0
 11
222.363677
 21
147.702791
 31
0.0
  0
LINE
  5
24E
330
1F
100
AcDbEntity
  8
GR1-1
  6
CONTINUOUS
 62
     3
100
AcDbLine
 10
286.552874
 20
152.610741
 30
0.0
 11
286.552874
 21
147.010741
 31
0.0
  0
LINE
  5
24F
330
1F
100
AcDbEntity
  8
GR1-1
  6
CONTINUOUS
 62
     3
100
AcDbLine
 10
286.552874
 20
147.010741
 30
0.0
 11
284.252874
 21
147.010741
 31
0.0
  0
ARC
  5
250
330
1F
100
AcDbEntity
  8
GR1-1
  6
CONTINUOUS
 62
     3
100
AcDbCircle
 10
285.324622
 20
103.861178
 30
0.0
 40
43.1628713378084
100
AcDbArc
 50
91.42282
 51
102.126685
  0
ARC
  5
251
330
1F
100
AcDbEntity
  8
GR1-1
  6
CONTINUOUS
 62
     3
100
AcDbCircle
 10
277.307598
 20
141.172464
 30
0.0
 40
5.0
100
AcDbArc
 50
102.126685
 51
151.0
  0
LINE
  5
252
330
1F
100
AcDbEntity
  8
GR1-1
  6
CONTINUOUS
 62
     3
100
AcDbLine
 10
222.445739
 20
150.052742
 30
0.0
 11
220.941209
 21
106.968642
 31
0.0
  0
ARC
  5
253
330
1F
100
AcDbEntity
  8
GR1-1
  6
CONTINUOUS
 62
     3
100
AcDbCircle
 10
220.017675
 20
107.145343
 30
0.0
 40
1.0
100
AcDbArc
 50
349.202619
 51
350.0
  0
LINE
  5
254
330
1F
100
AcDbEntity
  8
GR1-1
  6
CONTINUOUS
 62
     3
100
AcDbLine
 10
221.002483
 20
106.971694
 30
0.0
 11
221.035704
 21
107.160099
 31
0.0
  0
LINE
  5
255
330
1F
100
AcDbEntity
  8
GR1-1
  6
CONTINUOUS
 62
     3
100
AcDbLine
 10
221.035704
 20
107.160099
 30
0.0
 11
225.959819
 21
106.292294
 31
0.0
  0
ARC
  5
256
330
1F
100
AcDbEntity
  8
GR1-1
  6
CONTINUOUS
 62
     3
100
AcDbCircle
 10
226.944627
 20
106.118646
 30
0.0
 40
1.0
100
AcDbArc
 50
170.0
 51
183.204167
  0
LINE
  5
257
330
1F
100
AcDbEntity
  8
GR1-1
  6
CONTINUOUS
 62
     3
100
AcDbLine
 10
225.959743
 20
106.291858
 30
0.0
 11
225.959743
 21
108.627339
 31
0.0
  0
LINE
  5
258
330
1F
100
AcDbEntity
  8
GR1-1
  6
CONTINUOUS
 62
     3
100
AcDbLine
 10
225.959743
 20
108.627339
 30
0.0
 11
221.834485
 21
109.354733
 31
0.0
  0
LINE
  5
259
330
1F
100
AcDbEntity
  8
GR1-1
  6
CONTINUOUS
 62
     3
100
AcDbLine
 10
221.834485
 20
109.354733
 30
0.0
 11
221.035704
 21
107.160099
 31
0.0
  0
ARC
  5
25A
330
1F
100
AcDbEntity
  8
GR1-1
  6
CONTINUOUS
 62
     3
100
AcDbCircle
 10
229.252874
 20
107.618646
 30
0.0
 40
2.5
100
AcDbArc
 50
274.132369
 51
360.0
  0
LINE
  5
25B
330
1F
100
AcDbEntity
  8
GR1-1
  6
CONTINUOUS
 62
     3
100
AcDbLine
 10
231.752874
 20
107.618646
 30
0.0
 11
231.752874
 21
136.866741
 31
0.0
  0
LINE
  5
25C
330
1F
100
AcDbEntity
  8
GR1-1
  6
CONTINUOUS
 62
     3
100
AcDbLine
 10
225.752874
 20
95.330843
 30
0.0
 11
231.752874
 21
98.794945
 31
0.0
  0
LINE
  5
25D
330
1F
100
AcDbEntity
  8
GR1-1
  6
CONTINUOUS
 62
     3
100
AcDbLine
 10
231.752874
 20
98.794945
 30
0.0
 11
237.752874
 21
95.330843
 31
0.0
  0
LINE
  5
25E
330
1F
100
AcDbEntity
  8
GR1-1
  6
CONTINUOUS
 62
     3
100
AcDbLine
 10
237.752874
 20
95.330843
 30
0.0
 11
237.752874
 21
88.40264
 31
0.0
  0
LINE
  5
25F
330
1F
100
AcDbEntity
  8
GR1-1
  6
CONTINUOUS
 62
     3
100
AcDbLine
 10
237.752874
 20
88.40264
 30
0.0
 11
231.752874
 21
84.938538
 31
0.0
  0
LINE
  5
260
330
1F
100
AcDbEntity
  8
GR1-1
  6
CONTINUOUS
 62
     3
100
AcDbLine
 10
231.752874
 20
84.938538
 30
0.0
 11
225.752874
 21
88.40264
 31
0.0
  0
LINE
  5
261
330
1F
100
AcDbEntity
  8
GR1-1
  6
CONTINUOUS
 62
     3
100
AcDbLine
 10
225.752874
 20
88.40264
 30
0.0
 11
225.752874
 21
95.330843
 31
0.0
  0
CIRCLE
  5
262
330
1F
100
AcDbEntity
  8
GR1-1
  6
CONTINUOUS
 62
     3
100
AcDbCircle
 10
231.752874
 20
91.866741
 30
0.0
 40
3.3235
  0
LINE
  5
263
330
1F
100
AcDbEntity
  8
GR1-1
  6
CONTINUOUS
 62
     3
100
AcDbLine
 10
231.422942
 20
80.247511
 30
0.0
 11
231.006186
 21
77.883973
 31
0.0
  0
LINE
  5
264
330
1F
100
AcDbEntity
  8
GR1-1
  6
CONTINUOUS
 62
     3
100
AcDbLine
 10
231.006186
 20
77.883973
 30
0.0
 11
223.127724
 21
79.273158
 31
0.0
  0
LINE
  5
265
330
1F
100
AcDbEntity
  8
GR1-1
  6
CONTINUOUS
 62
     3
100
AcDbLine
 10
223.127724
 20
79.273158
 30
0.0
 11
223.486127
 21
81.305759
 31
0.0
  0
ARC
  5
266
330
1F
100
AcDbEntity
  8
GR1-1
  6
CONTINUOUS
 62
     3
100
AcDbCircle
 10
222.501319
 20
81.479408
 30
0.0
 40
1.0
100
AcDbArc
 50
-10.0
 51
9.635934
  0
LINE
  5
267
330
1F
100
AcDbEntity
  8
GR1-1
  6
CONTINUOUS
 62
     3
100
AcDbLine
 10
223.499287
 20
81.543123
 30
0.0
 11
231.405577
 21
80.14903
 31
0.0
  0
LINE
  5
268
330
1F
100
AcDbEntity
  8
GR1-1
  6
CONTINUOUS
 62
     6
100
AcDbLine
 10
244.74589
 20
147.010741
 30
0.0
 11
244.74589
 21
96.010741
 31
0.0
  0
LINE
  5
269
330
1F
100
AcDbEntity
  8
GR1-1
  6
CONTINUOUS
 62
     6
100
AcDbLine
 10
237.452874
 20
92.616741
 30
0.0
 11
236.061296
 21
93.866741
 31
0.0
  0
LINE
  5
26A
330
1F
100
AcDbEntity
  8
GR1-1
  6
CONTINUOUS
 62
     6
100
AcDbLine
 10
237.452874
 20
92.616741
 30
0.0
 11
237.452874
 21
91.116741
 31
0.0
  0
LINE
  5
26B
330
1F
100
AcDbEntity
  8
GR1-1
  6
CONTINUOUS
 62
     6
100
AcDbLine
 10
237.452874
 20
91.116741
 30
0.0
 11
236.061296
 21
89.866741
 31
0.0
  0
CIRCLE
  5
26C
330
1F
100
AcDbEntity
  8
GR1-1
  6
CONTINUOUS
 62
     6
100
AcDbCircle
 10
231.752874
 20
91.866741
 30
0.0
 40
4.0
  0
CIRCLE
  5
26D
330
1F
100
AcDbEntity
  8
GR1-1
  6
CONTINUOUS
 62
     6
100
AcDbCircle
 10
231.752874
 20
91.866741
 30
0.0
 40
4.75
  0
LINE
  5
26E
330
1F
100
AcDbEntity
  8
GR1-1
  6
CONTINUOUS
 62
     6
100
AcDbLine
 10
231.330713
 20
96.597944
 30
0.0
 11
229.552393
 21
97.178086
 31
0.0
  0
LINE
  5
26F
330
1F
100
AcDbEntity
  8
GR1-1
  6
CONTINUOUS
 62
     6
100
AcDbLine
 10
229.552393
 20
97.178086
 30
0.0
 11
228.253355
 21
96.428086
 31
0.0
  0
LINE
  5
270
330
1F
100
AcDbEntity
  8
GR1-1
  6
CONTINUOUS
 62
     6
100
AcDbLine
 10
228.253355
 20
96.428086
 30
0.0
 11
227.866612
 21
94.597944
 31
0.0
  0
LINE
  5
271
330
1F
100
AcDbEntity
  8
GR1-1
  6
CONTINUOUS
 62
     6
100
AcDbLine
 10
227.866612
 20
89.135538
 30
0.0
 11
228.253355
 21
87.305397
 31
0.0
  0
LINE
  5
272
330
1F
100
AcDbEntity
  8
GR1-1
  6
CONTINUOUS
 62
     6
100
AcDbLine
 10
228.253355
 20
87.305397
 30
0.0
 11
229.552393
 21
86.555397
 31
0.0
  0
LINE
  5
273
330
1F
100
AcDbEntity
  8
GR1-1
  6
CONTINUOUS
 62
     6
100
AcDbLine
 10
229.552393
 20
86.555397
 30
0.0
 11
231.330713
 21
87.135538
 31
0.0
  0
LINE
  5
274
330
1F
100
AcDbEntity
  8
GR1-1
  6
CONTINUOUS
 62
     6
100
AcDbLine
 10
241.752874
 20
130.118646
 30
0.0
 11
231.752874
 21
130.118646
 31
0.0
  0
LINE
  5
275
330
1F
100
AcDbEntity
  8
GR1-1
  6
CONTINUOUS
 62
     6
100
AcDbLine
 10
231.752874
 20
135.118646
 30
0.0
 11
241.752874
 21
135.118646
 31
0.0
  0
ARC
  5
276
330
1F
100
AcDbEntity
  8
GR1-1
  6
CONTINUOUS
 62
     3
100
AcDbCircle
 10
231.752874
 20
91.866741
 30
0.0
 40
50.0
100
AcDbArc
 50
-219.154414
 51
48.476256
  0
ARC
  5
277
330
1F
100
AcDbEntity
  8
GR1-1
  6
CONTINUOUS
 62
     6
100
AcDbCircle
 10
231.752874
 20
91.866741
 30
0.0
 40
42.99999999999997
100
AcDbArc
 50
150.438025
 51
332.957408
  0
ARC
  5
278
330
1F
100
AcDbEntity
  8
GR1-1
  6
CONTINUOUS
 62
     6
100
AcDbCircle
 10
231.752874
 20
91.866741
 30
0.0
 40
36.49999999999997
100
AcDbArc
 50
154.655659
 51
322.318366
  0
INSERT
  5
27C
330
1F
100
AcDbEntity
  8
0
100
AcDbBlockReference
  2
BLKF032
 10
0.0
 20
0.0
 30
0.0
  0
TEXT
  5
2D4
330
1F
100
AcDbEntity
  8
GR1-1
  6
CONTINUOUS
 62
     7
100
AcDbText
 10
196.25676
 20
67.955734
 30
0.0
 40
4.911578
  1
D
 50
121.0
 41
1.163999
  7
FX_VECTOR
 72
     5
 11
193.732895
 21
72.156151
 31
0.0
100
AcDbText
  0
LINE
  5
2D5
330
1F
100
AcDbEntity
  8
GR1-1
  6
CONTINUOUS
 62
     7
100
AcDbLine
 10
212.315735
 20
53.311878
 30
0.0
 11
208.809255
 21
55.215741
 31
0.0
  0
LINE
  5
2D6
330
1F
100
AcDbEntity
  8
GR1-1
  6
CONTINUOUS
 62
     7
100
AcDbLine
 10
206.905392
 20
51.709261
 30
0.0
 11
210.411872
 21
49.805398
 31
0.0
  0
LINE
  5
2D7
330
1F
100
AcDbEntity
  8
GR1-1
  6
CONTINUOUS
 62
     7
100
AcDbLine
 10
210.411872
 20
49.805398
 30
0.0
 11
212.315735
 21
53.311878
 31
0.0
  0
LINE
  5
2D8
330
1F
100
AcDbEntity
  8
GR1-1
  6
CONTINUOUS
 62
     7
100
AcDbLine
 10
210.508053
 20
54.16354
 30
0.0
 11
209.013251
 21
53.72076
 31
0.0
  0
LINE
  5
2D9
330
1F
100
AcDbEntity
  8
GR1-1
  6
CONTINUOUS
 62
     7
100
AcDbLine
 10
208.935922
 20
53.816252
 30
0.0
 11
209.184345
 21
54.273789
 31
0.0
  0
LINE
  5
2DA
330
1F
100
AcDbEntity
  8
GR1-1
  6
CONTINUOUS
 62
     7
100
AcDbLine
 10
209.184345
 20
54.273789
 30
0.0
 11
208.599931
 21
54.591099
 31
0.0
  0
LINE
  5
2DB
330
1F
100
AcDbEntity
  8
GR1-1
  6
CONTINUOUS
 62
     7
100
AcDbLine
 10
208.599931
 20
54.591099
 30
0.0
 11
207.957593
 21
53.408059
 31
0.0
  0
LINE
  5
2DC
330
1F
100
AcDbEntity
  8
GR1-1
  6
CONTINUOUS
 62
     7
100
AcDbLine
 10
207.957593
 20
53.408059
 30
0.0
 11
209.610564
 21
52.51057
 31
0.0
  0
LINE
  5
2DD
330
1F
100
AcDbEntity
  8
GR1-1
  6
CONTINUOUS
 62
     7
100
AcDbLine
 10
209.610564
 20
52.51057
 30
0.0
 11
209.769219
 21
52.802776
 31
0.0
  0
LINE
  5
2DE
330
1F
100
AcDbEntity
  8
GR1-1
  6
CONTINUOUS
 62
     7
100
AcDbLine
 10
209.769219
 20
52.802776
 30
0.0
 11
209.37603
 21
53.01626
 31
0.0
  0
LINE
  5
2DF
330
1F
100
AcDbEntity
  8
GR1-1
  6
CONTINUOUS
 62
     7
100
AcDbLine
 10
209.388874
 20
53.138463
 30
0.0
 11
210.059308
 21
53.337055
 31
0.0
  0
LINE
  5
2E0
330
1F
100
AcDbEntity
  8
GR1-1
  6
CONTINUOUS
 62
     7
100
AcDbLine
 10
210.059308
 20
53.337055
 30
0.0
 11
210.437049
 21
52.061825
 31
0.0
  0
LINE
  5
2E1
330
1F
100
AcDbEntity
  8
GR1-1
  6
CONTINUOUS
 62
     7
100
AcDbLine
 10
210.437049
 20
52.061825
 30
0.0
 11
209.161819
 21
51.684084
 31
0.0
  0
LINE
  5
2E2
330
1F
100
AcDbEntity
  8
GR1-1
  6
CONTINUOUS
 62
     7
100
AcDbLine
 10
209.161819
 20
51.684084
 30
0.0
 11
208.864209
 21
52.688797
 31
0.0
  0
LINE
  5
2E3
330
1F
100
AcDbEntity
  8
GR1-1
  6
CONTINUOUS
 62
     7
100
AcDbLine
 10
208.864209
 20
52.688797
 30
0.0
 11
208.037724
 21
53.137542
 31
0.0
  0
LINE
  5
2E4
330
1F
100
AcDbEntity
  8
GR1-1
  6
CONTINUOUS
 62
     7
100
AcDbLine
 10
208.037724
 20
53.137542
 30
0.0
 11
208.713074
 21
50.857599
 31
0.0
  0
LINE
  5
2E5
330
1F
100
AcDbEntity
  8
GR1-1
  6
CONTINUOUS
 62
     7
100
AcDbLine
 10
208.713074
 20
50.857599
 30
0.0
 11
211.263534
 21
51.61308
 31
0.0
  0
LINE
  5
2E6
330
1F
100
AcDbEntity
  8
GR1-1
  6
CONTINUOUS
 62
     7
100
AcDbLine
 10
211.263534
 20
51.61308
 30
0.0
 11
210.508053
 21
54.16354
 31
0.0
  0
ARC
  5
2E7
330
1F
100
AcDbEntity
  8
GR1-1
  6
CONTINUOUS
 62
     7
100
AcDbCircle
 10
209.407761
 20
53.074702
 30
0.0
 40
0.0665
100
AcDbArc
 50
106.5
 51
241.5
  0
ARC
  5
2E8
330
1F
100
AcDbEntity
  8
GR1-1
  6
CONTINUOUS
 62
     7
100
AcDbCircle
 10
208.994364
 20
53.784521
 30
0.0
 40
0.0665
100
AcDbArc
 50
151.5
 51
286.5
  0
TEXT
  5
2E9
330
1F
100
AcDbEntity
  8
GR1-1
  6
CONTINUOUS
 62
     7
100
AcDbText
 10
199.599747
 20
63.670124
 30
0.0
 40
4.911578
  1
L
 50
128.5
 41
1.309499
  7
FX_VECTOR
 72
     5
 11
196.549209
 21
67.505175
 31
0.0
100
AcDbText
  0
TEXT
  5
2EA
330
1F
100
AcDbEntity
  8
GR1-1
  6
CONTINUOUS
 62
     7
100
AcDbText
 10
202.659348
 20
60.578922
 30
0.0
 40
4.911578
  1
O
 50
134.5
 41
1.102736
  7
FX_VECTOR
 72
     5
 11
199.224649
 21
64.074096
 31
0.0
100
AcDbText
  0
TEXT
  5
2EB
330
1F
100
AcDbEntity
  8
GR1-1
  6
CONTINUOUS
 62
     7
100
AcDbText
 10
206.318466
 20
57.611172
 30
0.0
 40
4.911578
  1
G
 50
141.0
 41
1.163999
  7
FX_VECTOR
 72
     5
 11
202.510182
 21
60.69506
 31
0.0
100
AcDbText
  0
TEXT
  5
2EC
330
1F
100
AcDbEntity
  8
GR1-1
  6
CONTINUOUS
 62
     7
100
AcDbText
 10
192.72258
 20
74.277916
 30
0.0
 40
4.911578
  1
C
 50
111.0
 41
1.163999
  7
FX_VECTOR
 72
     5
 11
190.966453
 21
78.852783
 31
0.0
100
AcDbText
  0
TEXT
  5
2ED
330
1F
100
AcDbEntity
  8
GR1-1
  6
CONTINUOUS
 62
     7
100
AcDbText
 10
190.928848
 20
79.023575
 30
0.0
 40
4.911578
  1
A
 50
104.0
 41
1.232469
  7
FX_VECTOR
 72
     5
 11
189.743347
 21
83.77836
 31
0.0
100
AcDbText
  0
TEXT
  5
2EE
330
1F
100
AcDbEntity
  8
GR1-1
  6
CONTINUOUS
 62
     7
100
AcDbText
 10
189.664078
 20
84.309601
 30
0.0
 40
4.911578
  1
S
 50
96.5
 41
1.232469
  7
FX_VECTOR
 72
     5
 11
189.109343
 21
89.178447
 31
0.0
100
AcDbText
  0
TEXT
  5
2EF
330
1F
100
AcDbEntity
  8
GR1-1
  6
CONTINUOUS
 62
     7
100
AcDbText
 10
189.134354
 20
88.991096
 30
0.0
 40
4.911578
  1
T
 50
90.0
 41
1.396799
  7
FX_VECTOR
 72
     5
 11
189.134354
 21
93.891443
 31
0.0
100
AcDbText
  0
TEXT
  5
2F0
330
1F
100
AcDbEntity
  8
GR1-1
  6
CONTINUOUS
 62
     7
100
AcDbText
 10
189.102646
 20
92.978134
 30
0.0
 40
4.911578
  1
E
 50
84.5
 41
1.232469
  7
FX_VECTOR
 72
     5
 11
189.572323
 21
97.85592
 31
0.0
100
AcDbText
  0
TEXT
  5
2F1
330
1F
100
AcDbEntity
  8
GR1-1
  6
CONTINUOUS
 62
     7
100
AcDbText
 10
189.674942
 20
98.38311
 30
0.0
 40
4.911578
  1
R
 50
77.0
 41
1.163999
  7
FX_VECTOR
 72
     5
 11
190.77728
 21
103.157861
 31
0.0
100
AcDbText
  0
TEXT
  5
2F2
330
1F
100
AcDbEntity
  8
GR1-1
  6
CONTINUOUS
 62
     7
100
AcDbText
 10
270.541321
 20
110.322853
 30
0.0
 40
4.641409
  1
X
 50
292.0
 41
1.220603
  7
FX_VECTOR
 72
     5
 11
272.259346
 21
106.070592
 31
0.0
100
AcDbText
  0
TEXT
  5
2F3
330
1F
100
AcDbEntity
  8
GR1-1
  6
CONTINUOUS
 62
     7
100
AcDbText
 10
272.325439
 20
105.882957
 30
0.0
 40
4.641409
  1
2
 50
285.0
 41
1.220603
  7
FX_VECTOR
 72
     5
 11
273.512438
 21
101.453018
 31
0.0
100
AcDbText
  0
TEXT
  5
2F4
330
1F
100
AcDbEntity
  8
GR1-1
  6
CONTINUOUS
 62
     7
100
AcDbText
 10
268.22937
 20
114.512215
 30
0.0
 40
4.641409
  1
0
 50
299.0
 41
1.220603
  7
FX_VECTOR
 72
     5
 11
270.452809
 21
110.501024
 31
0.0
100
AcDbText
  0
TEXT
  5
2F5
330
1F
100
AcDbEntity
  8
GR1-1
  6
CONTINUOUS
 62
     7
100
AcDbText
 10
265.424133
 20
118.388573
 30
0.0
 40
4.641409
  1
0
 50
306.0
 41
1.220603
  7
FX_VECTOR
 72
     5
 11
268.119841
 21
114.67825
 31
0.0
100
AcDbText
  0
TEXT
  5
2F6
330
1F
100
AcDbEntity
  8
GR1-1
  6
CONTINUOUS
 62
     7
100
AcDbText
 10
262.167389
 20
121.894142
 30
0.0
 40
4.641409
  1
1
 50
313.0
 41
1.886387
  7
FX_VECTOR
 72
     5
 11
265.295177
 21
118.54
 31
0.0
100
AcDbText
  0
TEXT
  5
2F7
330
1F
100
AcDbEntity
  8
GR1-1
  6
CONTINUOUS
 62
     7
100
AcDbText
 10
273.555237
 20
101.258781
 30
0.0
 40
4.641409
  1
7
 50
278.0
 41
1.220603
  7
FX_VECTOR
 72
     5
 11
274.193514
 21
96.717203
 31
0.0
100
AcDbText
  0
ARC
  5
2F8
330
1F
100
AcDbEntity
  8
GR1-1
  6
CONTINUOUS
 62
     6
100
AcDbCircle
 10
231.752874
 20
91.866741
 30
0.0
 40
47.32291610920831
100
AcDbArc
 50
-216.681596
 51
47.755251
  0
ARC
  5
2F9
330
1F
100
AcDbEntity
  8
GR1-1
  6
CONTINUOUS
 62
     3
100
AcDbCircle
 10
231.752874
 20
91.866741
 30
0.0
 40
19.49999999999997
100
AcDbArc
 50
172.939534
 51
291.912631
  0
ARC
  5
2FA
330
1F
100
AcDbEntity
  8
GR1-1
  6
CONTINUOUS
 62
     3
100
AcDbCircle
 10
231.752874
 20
91.866741
 30
0.0
 40
19.49999999999997
100
AcDbArc
 50
-6.84401
 51
27.219641
  0
ARC
  5
2FB
330
1F
100
AcDbEntity
  8
GR1-1
  6
CONTINUOUS
 62
     3
100
AcDbCircle
 10
231.752874
 20
91.866741
 30
0.0
 40
50.0
100
AcDbArc
 50
101.107697
 51
138.155745
  0
ARC
  5
2FC
330
1F
100
AcDbEntity
  8
GR1-1
  6
CONTINUOUS
 62
     6
100
AcDbCircle
 10
231.752874
 20
91.866741
 30
0.0
 40
47.32291610920831
100
AcDbArc
 50
101.863602
 51
137.415606
  0
ARC
  5
2FD
330
1F
100
AcDbEntity
  8
GR1-1
  6
CONTINUOUS
 62
     6
100
AcDbCircle
 10
231.752874
 20
91.866741
 30
0.0
 40
42.99999999999997
100
AcDbArc
 50
103.289731
 51
136.019501
  0
ARC
  5
2FE
330
1F
100
AcDbEntity
  8
GR1-1
  6
CONTINUOUS
 62
     6
100
AcDbCircle
 10
231.752874
 20
91.866741
 30
0.0
 40
36.49999999999997
100
AcDbArc
 50
106.099038
 51
133.270544
  0
ARC
  5
2FF
330
1F
100
AcDbEntity
  8
GR1-1
  6
CONTINUOUS
 62
     6
100
AcDbCircle
 10
231.752874
 20
91.866741
 30
0.0
 40
36.49999999999997
100
AcDbArc
 50
-21.115806
 51
43.719685
  0
ARC
  5
300
330
1F
100
AcDbEntity
  8
GR1-1
  6
CONTINUOUS
 62
     6
100
AcDbCircle
 10
231.752874
 20
91.866741
 30
0.0
 40
42.99999999999997
100
AcDbArc
 50
-23.890007
 51
46.395557
  0
TEXT
  5
301
330
1F
100
AcDbEntity
  8
LAYERGROUP-1
  6
CONTINUOUS
 62
     7
100
AcDbText
 10
255.630768
 20
12.01286
 30
0.0
 40
6.0
  1
E30CA4FAA-C02
 41
0.710938
  7
FX_VECTOR
 72
     5
 11
307.630768
 21
12.01286
 31
0.0
100
AcDbText
  0
LINE
  5
303
330
1F
100
AcDbEntity
  8
0-1
  6
CONTINUOUS
 62
     6
100
AcDbLine
 10
239.052874
 20
144.365234
 30
0.0
 11
234.452874
 21
144.365234
 31
0.0
  0
LINE
  5
304
330
1F
100
AcDbEntity
  8
0-1
  6
CONTINUOUS
 62
     6
100
AcDbLine
 10
242.052874
 20
136.866741
 30
0.0
 11
242.052874
 21
141.365234
 31
0.0
  0
LINE
  5
305
330
1F
100
AcDbEntity
  8
0-1
  6
CONTINUOUS
 62
     6
100
AcDbLine
 10
231.452874
 20
136.866741
 30
0.0
 11
231.452874
 21
141.365234
 31
0.0
  0
LINE
  5
306
330
1F
100
AcDbEntity
  8
LAYERGROUP-1
  6
CONTINUOUS
 62
     6
100
AcDbLine
 10
242.052874
 20
130.666741
 30
0.0
 11
243.752874
 21
132.444014
 31
0.0
  0
LINE
  5
307
330
1F
100
AcDbEntity
  8
LAYERGROUP-1
  6
CONTINUOUS
 62
     6
100
AcDbLine
 10
229.752874
 20
132.444014
 30
0.0
 11
231.452874
 21
130.666741
 31
0.0
  0
ARC
  5
308
330
1F
100
AcDbEntity
  8
LAYERGROUP-1
  6
CONTINUOUS
 62
     6
100
AcDbCircle
 10
239.052874
 20
141.365234
 30
0.0
 40
3.0
100
AcDbArc
 50
0.0
 51
90.0
  0
ARC
  5
309
330
1F
100
AcDbEntity
  8
LAYERGROUP-1
  6
CONTINUOUS
 62
     6
100
AcDbCircle
 10
234.452874
 20
141.365234
 30
0.0
 40
3.0
100
AcDbArc
 50
90.0
 51
180.0
  0
LINE
  5
30A
330
1F
100
AcDbEntity
  8
0-1
  6
CONTINUOUS
 62
     6
100
AcDbLine
 10
243.752874
 20
146.165234
 30
0.0
 11
229.752874
 21
146.165234
 31
0.0
  0
LINE
  5
30B
330
1F
100
AcDbEntity
  8
0-1
  6
CONTINUOUS
 62
     6
100
AcDbLine
 10
243.752874
 20
132.444014
 30
0.0
 11
243.752874
 21
146.165234
 31
0.0
  0
LINE
  5
30C
330
1F
100
AcDbEntity
  8
0-1
  6
CONTINUOUS
 62
     6
100
AcDbLine
 10
229.752874
 20
132.444014
 30
0.0
 11
229.752874
 21
146.165234
 31
0.0
  0
LINE
  5
30D
330
1F
100
AcDbEntity
  8
LAYERGROUP-1
  6
CONTINUOUS
 62
     3
100
AcDbLine
 10
141.052874
 20
146.366741
 30
0.0
 11
143.315447
 21
144.365234
 31
0.0
  0
LINE
  5
30E
330
1F
100
AcDbEntity
  8
LAYERGROUP-1
  6
CONTINUOUS
 62
     3
100
AcDbLine
 10
143.652874
 20
143.616237
 30
0.0
 11
143.652874
 21
133.86851
 31
0.0
  0
LINE
  5
30F
330
1F
100
AcDbEntity
  8
LAYERGROUP-1
  6
CONTINUOUS
 62
     3
100
AcDbLine
 10
143.315447
 20
133.119513
 30
0.0
 11
141.052874
 21
131.118005
 31
0.0
  0
ARC
  5
310
330
1F
100
AcDbEntity
  8
LAYERGROUP-1
  6
CONTINUOUS
 62
     3
100
AcDbCircle
 10
142.652874
 20
143.616237
 30
0.0
 40
1.0
100
AcDbArc
 50
0.0
 51
48.503532
  0
ARC
  5
311
330
1F
100
AcDbEntity
  8
LAYERGROUP-1
  6
CONTINUOUS
 62
     3
100
AcDbCircle
 10
142.652874
 20
133.86851
 30
0.0
 40
1.0
100
AcDbArc
 50
311.496468
 51
360.0
  0
LINE
  5
312
330
1F
100
AcDbEntity
  8
GR1-1
  6
CONTINUOUS
 62
     3
100
AcDbLine
 10
152.152874
 20
96.616741
 30
0.0
 11
149.985801
 21
98.553969
 31
0.0
  0
LINE
  5
313
330
1F
100
AcDbEntity
  8
GR1-1
  6
CONTINUOUS
 62
     3
100
AcDbLine
 10
149.652874
 20
98.794945
 30
0.0
 11
146.652874
 21
98.794945
 31
0.0
  0
ARC
  5
314
330
1F
100
AcDbEntity
  8
GR1-1
  6
CONTINUOUS
 62
     3
100
AcDbCircle
 10
152.152874
 20
91.866741
 30
0.0
 40
6.499999999999918
100
AcDbArc
 50
147.795772
 51
212.204228
  0
LINE
  5
315
330
1F
100
AcDbEntity
  8
GR1-1
  6
CONTINUOUS
 62
     3
100
AcDbLine
 10
146.652874
 20
95.330843
 30
0.0
 11
149.652874
 21
95.330843
 31
0.0
  0
ARC
  5
316
330
1F
100
AcDbEntity
  8
GR1-1
  6
CONTINUOUS
 62
     3
100
AcDbCircle
 10
144.152874
 20
91.866741
 30
0.0
 40
6.499999999999918
100
AcDbArc
 50
-32.204228
 51
32.204228
  0
ARC
  5
317
330
1F
100
AcDbEntity
  8
GR1-1
  6
CONTINUOUS
 62
     3
100
AcDbCircle
 10
148.652874
 20
86.670589
 30
0.0
 40
1.999999999999807
100
AcDbArc
 50
-60.0
 51
60.0
  0
LINE
  5
318
330
1F
100
AcDbEntity
  8
GR1-1
  6
CONTINUOUS
 62
     3
100
AcDbLine
 10
149.652874
 20
84.938538
 30
0.0
 11
146.652874
 21
84.938538
 31
0.0
  0
ARC
  5
319
330
1F
100
AcDbEntity
  8
GR1-1
  6
CONTINUOUS
 62
     3
100
AcDbCircle
 10
147.652874
 20
86.670589
 30
0.0
 40
1.999999999999807
100
AcDbArc
 50
120.0
 51
240.0
  0
LINE
  5
31A
330
1F
100
AcDbEntity
  8
GR1-1
  6
CONTINUOUS
 62
     3
100
AcDbLine
 10
146.652874
 20
88.40264
 30
0.0
 11
149.652874
 21
88.40264
 31
0.0
  0
LINE
  5
31B
330
1F
100
AcDbEntity
  8
GR1-1
  6
CONTINUOUS
 62
     3
100
AcDbLine
 10
152.152874
 20
87.116741
 30
0.0
 11
149.985801
 21
85.179514
 31
0.0
  0
LINE
  5
31C
330
1F
100
AcDbEntity
  8
GR1-1
  6
CONTINUOUS
 62
     3
100
AcDbLine
 10
152.152874
 20
87.116741
 30
0.0
 11
152.152874
 21
96.616741
 31
0.0
  0
ARC
  5
31D
330
1F
100
AcDbEntity
  8
GR1-1
  6
CONTINUOUS
 62
     3
100
AcDbCircle
 10
148.652874
 20
97.062894
 30
0.0
 40
1.999999999999807
100
AcDbArc
 50
-60.0
 51
60.0
  0
ARC
  5
31E
330
1F
100
AcDbEntity
  8
GR1-1
  6
CONTINUOUS
 62
     3
100
AcDbCircle
 10
147.652874
 20
97.062894
 30
0.0
 40
1.999999999999807
100
AcDbArc
 50
120.0
 51
138.590378
  0
LINE
  5
31F
330
1F
100
AcDbEntity
  8
GR1-1
  6
CONTINUOUS
 62
     6
100
AcDbLine
 10
150.609459
 20
91.116741
 30
0.0
 11
152.152874
 21
89.866741
 31
0.0
  0
LINE
  5
320
330
1F
100
AcDbEntity
  8
GR1-1
  6
CONTINUOUS
 62
     7
100
AcDbLine
 10
150.609459
 20
91.116741
 30
0.0
 11
150.652874
 21
91.866741
 31
0.0
  0
LINE
  5
321
330
1F
100
AcDbEntity
  8
GR1-1
  6
CONTINUOUS
 62
     7
100
AcDbLine
 10
150.652874
 20
91.866741
 30
0.0
 11
150.609459
 21
92.616741
 31
0.0
  0
LINE
  5
322
330
1F
100
AcDbEntity
  8
GR1-1
  6
CONTINUOUS
 62
     6
100
AcDbLine
 10
150.609459
 20
92.616741
 30
0.0
 11
152.152874
 21
93.866741
 31
0.0
  0
ARC
  5
323
330
1F
100
AcDbEntity
  8
GR1-1
  6
CONTINUOUS
 62
     3
100
AcDbCircle
 10
147.652874
 20
97.062894
 30
0.0
 40
1.999999999999807
100
AcDbArc
 50
215.976339
 51
240.0
  0
LINE
  5
324
330
1F
100
AcDbEntity
  8
GR1-1
  6
CONTINUOUS
 62
     3
100
AcDbLine
 10
152.152874
 20
95.866741
 30
0.0
 11
153.952874
 21
95.866741
 31
0.0
  0
LINE
  5
325
330
1F
100
AcDbEntity
  8
GR1-1
  6
CONTINUOUS
 62
     3
100
AcDbLine
 10
153.952874
 20
95.866741
 30
0.0
 11
154.452874
 21
95.366741
 31
0.0
  0
LINE
  5
326
330
1F
100
AcDbEntity
  8
GR1-1
  6
CONTINUOUS
 62
     3
100
AcDbLine
 10
154.452874
 20
95.366741
 30
0.0
 11
154.452874
 21
88.366741
 31
0.0
  0
LINE
  5
327
330
1F
100
AcDbEntity
  8
GR1-1
  6
CONTINUOUS
 62
     3
100
AcDbLine
 10
154.452874
 20
88.366741
 30
0.0
 11
153.952874
 21
87.866741
 31
0.0
  0
LINE
  5
328
330
1F
100
AcDbEntity
  8
GR1-1
  6
CONTINUOUS
 62
     3
100
AcDbLine
 10
153.952874
 20
87.866741
 30
0.0
 11
152.152874
 21
87.866741
 31
0.0
  0
LINE
  5
329
330
1F
100
AcDbEntity
  8
GR1-1
  6
CONTINUOUS
 62
     6
100
AcDbLine
 10
152.152874
 20
88.543241
 30
0.0
 11
154.452874
 21
88.543241
 31
0.0
  0
LINE
  5
32A
330
1F
100
AcDbEntity
  8
LAYERGROUP-1
  6
CONTINUOUS
 62
     6
100
AcDbLine
 10
153.952874
 20
95.866741
 30
0.0
 11
153.952874
 21
87.866741
 31
0.0
  0
LINE
  5
32B
330
1F
100
AcDbEntity
  8
GR1-1
  6
CONTINUOUS
 62
     6
100
AcDbLine
 10
152.152874
 20
95.190241
 30
0.0
 11
154.452874
 21
95.190241
 31
0.0
  0
ARC
  5
32C
330
1F
100
AcDbEntity
  8
GR1-1
  6
CONTINUOUS
 62
     3
100
AcDbCircle
 10
103.889365
 20
95.866741
 30
0.0
 40
2.0
100
AcDbArc
 50
90.0
 51
165.522488
  0
LINE
  5
32D
330
1F
100
AcDbEntity
  8
GR1-1
  6
CONTINUOUS
 62
     3
100
AcDbLine
 10
101.952874
 20
96.366741
 30
0.0
 11
101.952874
 21
87.366741
 31
0.0
  0
ARC
  5
32E
330
1F
100
AcDbEntity
  8
GR1-1
  6
CONTINUOUS
 62
     3
100
AcDbCircle
 10
103.889365
 20
87.866741
 30
0.0
 40
2.0
100
AcDbArc
 50
194.477512
 51
270.0
  0
LINE
  5
32F
330
1F
100
AcDbEntity
  8
GR1-1
  6
CONTINUOUS
 62
     3
100
AcDbLine
 10
103.889365
 20
85.866741
 30
0.0
 11
104.452874
 21
85.866741
 31
0.0
  0
LINE
  5
330
330
1F
100
AcDbEntity
  8
GR1-1
  6
CONTINUOUS
 62
     3
100
AcDbLine
 10
104.452874
 20
97.866741
 30
0.0
 11
103.889365
 21
97.866741
 31
0.0
  0
LINE
  5
331
330
1F
100
AcDbEntity
  8
LAYERGROUP-1
  6
CONTINUOUS
 62
     3
100
AcDbLine
 10
268.752874
 20
207.866741
 30
0.0
 11
254.752874
 21
207.866741
 31
0.0
  0
INSERT
  5
335
330
1F
100
AcDbEntity
  8
0
100
AcDbBlockReference
  2
BLKF033
 10
0.0
 20
0.0
 30
0.0
  0
ENDSEC
  0
SECTION
  2
OBJECTS
  0
DICTIONARY
  5
C
330
0
100
AcDbDictionary
  3
ACAD_GROUP
350
D
  3
ACAD_LAYOUT
350
1A
  3
ACAD_MLINESTYLE
350
17
  3
ACAD_PLOTSETTINGS
350
19
  3
ACDBHEADERROUNDTRIPXREC
350
35F
  0
DICTIONARY
  5
D
102
{ACAD_REACTORS
330
C
102
}
330
C
100
AcDbDictionary
  0
DICTIONARY
  5
1A
102
{ACAD_REACTORS
330
C
102
}
330
C
100
AcDbDictionary
  0
DICTIONARY
  5
17
102
{ACAD_REACTORS
330
C
102
}
330
C
100
AcDbDictionary
  3
STANDARD
350
18
  0
DICTIONARY
  5
19
102
{ACAD_REACTORS
330
C
102
}
330
C
100
AcDbDictionary
  0
DICTIONARY
  5
35F
102
{ACAD_REACTORS
330
C
102
}
330
C
100
AcDbDictionary
  3
CEPSNTYPE
350
368
  3
DIMSTYLEDATA
350
37E
  3
FINGERPRINTGUID
350
369
  3
HYPERLINKBASE
350
362
  3
INSUNITS
350
367
  3
LAYOUTDICT
350
364
  3
LWETCUNION
350
366
  3
PLOTSETDICT
350
365
  3
PSVPSCALE
350
36B
  3
PUCSBASE
350
36E
  3
PUCSORGBACK
350
374
  3
PUCSORGBOTTOM
350
370
  3
PUCSORGFRONT
350
373
  3
PUCSORGLEFT
350
371
  3
PUCSORGRIGHT
350
372
  3
PUCSORGTOP
350
36F
  3
PUCSORTHOREF
350
36C
  3
PUCSORTHOVIEW
350
36D
  3
STYLESHEET
350
363
  3
TSTACKALIGN
350
360
  3
TSTACKSIZE
350
361
  3
UCSBASE
350
377
  3
UCSORGBACK
350
37D
  3
UCSORGBOTTOM
350
379
  3
UCSORGFRONT
350
37C
  3
UCSORGLEFT
350
37A
  3
UCSORGRIGHT
350
37B
  3
UCSORGTOP
350
378
  3
UCSORTHOREF
350
375
  3
UCSORTHOVIEW
350
376
  3
VERSIONGUID
350
36A
  0
MLINESTYLE
  5
18
102
{ACAD_REACTORS
330
17
102
}
330
17
100
AcDbMlineStyle
  2
Standard
 70
     0
  3

 62
   256
 51
90.0
 52
90.0
 71
     2
 49
0.5
 62
   256
  6
BYLAYER
 49
-0.5
 62
   256
  6
BYLAYER
  0
XRECORD
  5
368
102
{ACAD_REACTORS
330
35F
102
}
330
35F
100
AcDbXrecord
 90
        0
  0
XRECORD
  5
37E
102
{ACAD_REACTORS
330
35F
102
}
330
35F
100
AcDbXrecord
1000
DSTYLE
1002
{
1070
   179
 70
     2
1070
   171
 70
     3
1070
   143
 40
0.03937
1070
   274
 70
     3
1070
    41
 40
4.0
1070
   343
340
41
1070
   344
340
47
1070
   141
 40
2.5
1070
   176
 70
     7
1070
   177
 70
     7
1070
   178
 70
     7
1070
   271
 70
     2
1070
    46
 40
6.0
1070
    43
 40
10.0
1070
    44
 40
1.0
1070
    42
 40
1.0
1070
   147
 40
1.0
1070
   341
340
41
1070
   173
 70
     1
1070
    77
 70
     1
1070
   272
 70
     2
1070
    73
 70
     0
1070
   172
 70
     1
1070
    74
 70
     0
1070
   283
 70
     0
1070
   340
340
3F
1070
   140
 40
4.0
1070
   284
 70
     8
1070
    78
 70
     8
1002
}
  0
XRECORD
  5
369
102
{ACAD_REACTORS
330
35F
102
}
330
35F
100
AcDbXrecord
  1
{BC5704A9-FEC0-4EEA-BD16-28E8D1C1D1B9}
  0
XRECORD
  5
362
102
{ACAD_REACTORS
330
35F
102
}
330
35F
100
AcDbXrecord
  1

  0
XRECORD
  5
367
102
{ACAD_REACTORS
330
35F
102
}
330
35F
100
AcDbXrecord
 90
        1
  0
XRECORD
  5
364
102
{ACAD_REACTORS
330
35F
102
}
330
35F
100
AcDbXrecord
340
1A
  0
XRECORD
  5
366
102
{ACAD_REACTORS
330
35F
102
}
330
35F
100
AcDbXrecord
 90
    10781
  0
XRECORD
  5
365
102
{ACAD_REACTORS
330
35F
102
}
330
35F
100
AcDbXrecord
340
19
  0
XRECORD
  5
36B
102
{ACAD_REACTORS
330
35F
102
}
330
35F
100
AcDbXrecord
 40
0.0
  0
XRECORD
  5
36E
102
{ACAD_REACTORS
330
35F
102
}
330
35F
100
AcDbXrecord
340
0
  0
XRECORD
  5
374
102
{ACAD_REACTORS
330
35F
102
}
330
35F
100
AcDbXrecord
 10
0.0
 20
0.0
 30
0.0
  0
XRECORD
  5
370
102
{ACAD_REACTORS
330
35F
102
}
330
35F
100
AcDbXrecord
 10
0.0
 20
0.0
 30
0.0
  0
XRECORD
  5
373
102
{ACAD_REACTORS
330
35F
102
}
330
35F
100
AcDbXrecord
 10
0.0
 20
0.0
 30
0.0
  0
XRECORD
  5
371
102
{ACAD_REACTORS
330
35F
102
}
330
35F
100
AcDbXrecord
 10
0.0
 20
0.0
 30
0.0
  0
XRECORD
  5
372
102
{ACAD_REACTORS
330
35F
102
}
330
35F
100
AcDbXrecord
 10
0.0
 20
0.0
 30
0.0
  0
XRECORD
  5
36F
102
{ACAD_REACTORS
330
35F
102
}
330
35F
100
AcDbXrecord
 10
0.0
 20
0.0
 30
0.0
  0
XRECORD
  5
36C
102
{ACAD_REACTORS
330
35F
102
}
330
35F
100
AcDbXrecord
340
0
  0
XRECORD
  5
36D
102
{ACAD_REACTORS
330
35F
102
}
330
35F
100
AcDbXrecord
 70
     0
  0
XRECORD
  5
363
102
{ACAD_REACTORS
330
35F
102
}
330
35F
100
AcDbXrecord
  1

  0
XRECORD
  5
360
102
{ACAD_REACTORS
330
35F
102
}
330
35F
100
AcDbXrecord
 90
        1
  0
XRECORD
  5
361
102
{ACAD_REACTORS
330
35F
102
}
330
35F
100
AcDbXrecord
 90
       70
  0
XRECORD
  5
377
102
{ACAD_REACTORS
330
35F
102
}
330
35F
100
AcDbXrecord
340
0
  0
XRECORD
  5
37D
102
{ACAD_REACTORS
330
35F
102
}
330
35F
100
AcDbXrecord
 10
0.0
 20
0.0
 30
0.0
  0
XRECORD
  5
379
102
{ACAD_REACTORS
330
35F
102
}
330
35F
100
AcDbXrecord
 10
0.0
 20
0.0
 30
0.0
  0
XRECORD
  5
37C
102
{ACAD_REACTORS
330
35F
102
}
330
35F
100
AcDbXrecord
 10
0.0
 20
0.0
 30
0.0
  0
XRECORD
  5
37A
102
{ACAD_REACTORS
330
35F
102
}
330
35F
100
AcDbXrecord
 10
0.0
 20
0.0
 30
0.0
  0
XRECORD
  5
37B
102
{ACAD_REACTORS
330
35F
102
}
330
35F
100
AcDbXrecord
 10
0.0
 20
0.0
 30
0.0
  0
XRECORD
  5
378
102
{ACAD_REACTORS
330
35F
102
}
330
35F
100
AcDbXrecord
 10
0.0
 20
0.0
 30
0.0
  0
XRECORD
  5
375
102
{ACAD_REACTORS
330
35F
102
}
330
35F
100
AcDbXrecord
340
0
  0
XRECORD
  5
376
102
{ACAD_REACTORS
330
35F
102
}
330
35F
100
AcDbXrecord
 70
     0
  0
XRECORD
  5
36A
102
{ACAD_REACTORS
330
35F
102
}
330
35F
100
AcDbXrecord
  1
{FAEB1C32-E019-11D5-929B-00C0DF256EC4}
  0
ENDSEC
  0
EOF
