  0
SECTION
  2
HEADER
  9
$ACADVER
  1
AC1014
  9
$ACADMAINTVER
 70
     9
  9
$DWGCODEPAGE
  3
ANSI_932
  9
$INSBASE
 10
0.0
 20
0.0
 30
0.0
  9
$EXTMIN
 10
0.0
 20
0.0
 30
0.0
  9
$EXTMAX
 10
297.0
 20
210.0
 30
0.0
  9
$LIMMIN
 10
0.0
 20
0.0
  9
$LIMMAX
 10
297.0
 20
210.0
  9
$ORTHOMODE
 70
     0
  9
$REGENMODE
 70
     1
  9
$FILLMODE
 70
     1
  9
$QTEXTMODE
 70
     0
  9
$MIRRTEXT
 70
     1
  9
$DRAGMODE
 70
     2
  9
$LTSCALE
 40
1.0
  9
$OSMODE
 70
    37
  9
$ATTMODE
 70
     1
  9
$TEXTSIZE
 40
0.2
  9
$TRACEWID
 40
0.05
  9
$TEXTSTYLE
  7
STYLE1
  9
$CLAYER
  8
0
  9
$CELTYPE
  6
BYLAYER
  9
$CECOLOR
 62
   256
  9
$CELTSCALE
 40
1.0
  9
$DELOBJ
 70
     1
  9
$DISPSILH
 70
     0
  9
$DIMSCALE
 40
1.0
  9
$DIMASZ
 40
4.0
  9
$DIMEXO
 40
1.0
  9
$DIMDLI
 40
10.0
  9
$DIMRND
 40
0.0
  9
$DIMDLE
 40
6.0
  9
$DIMEXE
 40
1.0
  9
$DIMTP
 40
0.0
  9
$DIMTM
 40
0.0
  9
$DIMTXT
 40
4.0
  9
$DIMCEN
 40
2.5
  9
$DIMTSZ
 40
0.0
  9
$DIMTOL
 70
     0
  9
$DIMLIM
 70
     0
  9
$DIMTIH
 70
     0
  9
$DIMTOH
 70
     0
  9
$DIMSE1
 70
     0
  9
$DIMSE2
 70
     0
  9
$DIMTAD
 70
     1
  9
$DIMZIN
 70
     8
  9
$DIMBLK
  1

  9
$DIMASO
 70
     1
  9
$DIMSHO
 70
     1
  9
$DIMPOST
  1

  9
$DIMAPOST
  1

  9
$DIMALT
 70
     0
  9
$DIMALTD
 70
     3
  9
$DIMALTF
 40
0.03937
  9
$DIMLFAC
 40
1.0
  9
$DIMTOFL
 70
     1
  9
$DIMTVP
 40
0.0
  9
$DIMTIX
 70
     0
  9
$DIMSOXD
 70
     0
  9
$DIMSAH
 70
     1
  9
$DIMBLK1
  1
FXTIP_ARROW_S
  9
$DIMBLK2
  1
FXTIP_ARROW_E
  9
$DIMSTYLE
  2
FXDIMINFO
  9
$DIMCLRD
 70
     7
  9
$DIMCLRE
 70
     7
  9
$DIMCLRT
 70
     7
  9
$DIMTFAC
 40
1.0
  9
$DIMGAP
 40
1.0
  9
$DIMJUST
 70
     0
  9
$DIMSD1
 70
     0
  9
$DIMSD2
 70
     0
  9
$DIMTOLJ
 70
     0
  9
$DIMTZIN
 70
     8
  9
$DIMALTZ
 70
     0
  9
$DIMALTTZ
 70
     0
  9
$DIMFIT
 70
     3
  9
$DIMUPT
 70
     0
  9
$DIMUNIT
 70
     2
  9
$DIMDEC
 70
     2
  9
$DIMTDEC
 70
     2
  9
$DIMALTU
 70
     2
  9
$DIMALTTD
 70
     3
  9
$DIMTXSTY
  7
STYLE1
  9
$DIMAUNIT
 70
     0
  9
$LUNITS
 70
     2
  9
$LUPREC
 70
     4
  9
$SKETCHINC
 40
0.1
  9
$FILLETRAD
 40
0.5
  9
$AUNITS
 70
     0
  9
$AUPREC
 70
     0
  9
$MENU
  1
.
  9
$ELEVATION
 40
0.0
  9
$PELEVATION
 40
0.0
  9
$THICKNESS
 40
0.0
  9
$LIMCHECK
 70
     0
  9
$CHAMFERA
 40
0.5
  9
$CHAMFERB
 40
0.5
  9
$CHAMFERC
 40
1.0
  9
$CHAMFERD
 40
0.0
  9
$SKPOLY
 70
     0
  9
$TDCREATE
 40
2455301.476088739
  9
$TDUPDATE
 40
2455301.47608875
  9
$TDINDWG
 40
0.0000000116
  9
$TDUSRTIMER
 40
0.0000000116
  9
$USRTIMER
 70
     1
  9
$ANGBASE
 50
0.0
  9
$ANGDIR
 70
     0
  9
$PDMODE
 70
     0
  9
$PDSIZE
 40
0.0
  9
$PLINEWID
 40
0.0
  9
$COORDS
 70
     1
  9
$SPLFRAME
 70
     0
  9
$SPLINETYPE
 70
     6
  9
$SPLINESEGS
 70
     8
  9
$ATTDIA
 70
     0
  9
$ATTREQ
 70
     1
  9
$HANDLING
 70
     1
  9
$HANDSEED
  5
3BF
  9
$SURFTAB1
 70
     6
  9
$SURFTAB2
 70
     6
  9
$SURFTYPE
 70
     6
  9
$SURFU
 70
     6
  9
$SURFV
 70
     6
  9
$UCSNAME
  2

  9
$UCSORG
 10
0.0
 20
0.0
 30
0.0
  9
$UCSXDIR
 10
1.0
 20
0.0
 30
0.0
  9
$UCSYDIR
 10
0.0
 20
1.0
 30
0.0
  9
$PUCSNAME
  2

  9
$PUCSORG
 10
0.0
 20
0.0
 30
0.0
  9
$PUCSXDIR
 10
1.0
 20
0.0
 30
0.0
  9
$PUCSYDIR
 10
0.0
 20
1.0
 30
0.0
  9
$USERI1
 70
     0
  9
$USERI2
 70
     0
  9
$USERI3
 70
     0
  9
$USERI4
 70
     0
  9
$USERI5
 70
     0
  9
$USERR1
 40
0.0
  9
$USERR2
 40
0.0
  9
$USERR3
 40
0.0
  9
$USERR4
 40
0.0
  9
$USERR5
 40
0.0
  9
$WORLDVIEW
 70
     1
  9
$SHADEDGE
 70
     3
  9
$SHADEDIF
 70
    70
  9
$TILEMODE
 70
     1
  9
$MAXACTVP
 70
    64
  9
$PINSBASE
 10
0.0
 20
0.0
 30
0.0
  9
$PLIMCHECK
 70
     0
  9
$PEXTMIN
 10
1.000000E+20
 20
1.000000E+20
 30
1.000000E+20
  9
$PEXTMAX
 10
-1.000000E+20
 20
-1.000000E+20
 30
-1.000000E+20
  9
$PLIMMIN
 10
0.0
 20
0.0
  9
$PLIMMAX
 10
12.0
 20
9.0
  9
$UNITMODE
 70
     0
  9
$VISRETAIN
 70
     1
  9
$PLINEGEN
 70
     0
  9
$PSLTSCALE
 70
     1
  9
$TREEDEPTH
 70
  3020
  9
$PICKSTYLE
 70
     1
  9
$CMLSTYLE
  2
STANDARD
  9
$CMLJUST
 70
     0
  9
$CMLSCALE
 40
1.0
  9
$PROXYGRAPHICS
 70
     1
  9
$MEASUREMENT
 70
     0
  0
ENDSEC
  0
SECTION
  2
CLASSES
  0
CLASS
  1
ACDBDICTIONARYWDFLT
  2
AcDbDictionaryWithDefault
  3
ObjectDBX Classes
 90
        0
280
     0
281
     0
  0
CLASS
  1
XRECORD
  2
AcDbXrecord
  3
AutoCAD 2000
 90
        0
280
     0
281
     0
  0
CLASS
  1
LWPOLYLINE
  2
AcDbPolyline
  3
AutoCAD 2000
 90
        0
280
     0
281
     1
  0
CLASS
  1
HATCH
  2
AcDbHatch
  3
AutoCAD 2000
 90
        0
280
     0
281
     1
  0
CLASS
  1
ACDBPLACEHOLDER
  2
AcDbPlaceHolder
  3
ObjectDBX Classes
 90
        0
280
     0
281
     0
  0
CLASS
  1
LAYOUT
  2
AcDbLayout
  3
ObjectDBX Classes
 90
        0
280
     0
281
     0
  0
ENDSEC
  0
SECTION
  2
TABLES
  0
TABLE
  2
VPORT
  5
8
330
0
100
AcDbSymbolTable
 70
     1
  0
VPORT
  5
29
330
8
100
AcDbSymbolTableRecord
100
AcDbViewportTableRecord
  2
*ACTIVE
 70
     0
 10
0.0
 20
0.0
 11
1.0
 21
1.0
 12
148.5
 22
105.0
 13
0.0
 23
0.0
 14
0.5
 24
0.5
 15
0.5
 25
0.5
 16
0.0
 26
0.0
 36
1.0
 17
0.0
 27
0.0
 37
0.0
 40
210.0
 41
1.414286
 42
50.0
 43
0.0
 44
0.0
 50
0.0
 51
0.0
 71
     0
 72
   100
 73
     1
 74
     3
 75
     0
 76
     0
 77
     0
 78
     0
  0
ENDTAB
  0
TABLE
  2
LTYPE
  5
5
330
0
100
AcDbSymbolTable
 70
     4
  0
LTYPE
  5
14
330
5
100
AcDbSymbolTableRecord
100
AcDbLinetypeTableRecord
  2
BYBLOCK
 70
     0
  3

 72
    65
 73
     0
 40
0.0
  0
LTYPE
  5
15
330
5
100
AcDbSymbolTableRecord
100
AcDbLinetypeTableRecord
  2
BYLAYER
 70
     0
  3

 72
    65
 73
     0
 40
0.0
  0
LTYPE
  5
16
330
5
100
AcDbSymbolTableRecord
100
AcDbLinetypeTableRecord
  2
CONTINUOUS
 70
     0
  3
--------------------
 72
    65
 73
     0
 40
0.0
  0
LTYPE
  5
2A
330
5
100
AcDbSymbolTableRecord
100
AcDbLinetypeTableRecord
  2
CENTER
 70
     0
  3
Center ____ _ ____ _ ____ _ ____ _ ____ _ ____
 72
    65
 73
     4
 40
13.0
 49
10.0
 74
     0
 49
-1.0
 74
     0
 49
1.0
 74
     0
 49
-1.0
 74
     0
  0
ENDTAB
  0
TABLE
  2
LAYER
  5
2
330
0
100
AcDbSymbolTable
 70
    20
  0
LAYER
  5
10
330
2
100
AcDbSymbolTableRecord
100
AcDbLayerTableRecord
  2
0
 70
     0
 62
     7
  6
CONTINUOUS
  0
LAYER
  5
2D
330
2
100
AcDbSymbolTableRecord
100
AcDbLayerTableRecord
  2
LAYERGROUP-1
 70
     0
 62
     3
  6
CONTINUOUS
  0
LAYER
  5
3D
330
2
100
AcDbSymbolTableRecord
100
AcDbLayerTableRecord
  2
}}ﾊﾊGG血CCТ
 70
     0
 62
     3
  6
CONTINUOUS
  0
LAYER
  5
A9
330
2
100
AcDbSymbolTableRecord
100
AcDbLayerTableRecord
  2
GR1-1
 70
     0
 62
     7
  6
CONTINUOUS
  0
LAYER
  5
381
330
2
100
AcDbSymbolTableRecord
100
AcDbLayerTableRecord
  2
0-1
 70
     0
 62
     7
  6
CONTINUOUS
  0
ENDTAB
  0
TABLE
  2
STYLE
  5
3
330
0
100
AcDbSymbolTable
 70
     4
  0
STYLE
  5
11
330
3
100
AcDbSymbolTableRecord
100
AcDbTextStyleTableRecord
  2
STANDARD
 70
     0
 40
0.0
 41
1.0
 50
0.0
 71
     0
 42
0.2
  3
txt
  4

  0
STYLE
  5
3F
330
3
100
AcDbSymbolTableRecord
100
AcDbTextStyleTableRecord
  2
STYLE1
 70
     0
 40
0.0
 41
1.0
 50
0.0
 71
     0
 42
0.2
  3
MONOTXT.SHX
  4
extfont.shx
  0
STYLE
  5
40
330
3
100
AcDbSymbolTableRecord
100
AcDbTextStyleTableRecord
  2
FX_VECTOR
 70
     0
 40
0.0
 41
1.0
 50
0.0
 71
     0
 42
0.2
  3
MONOTXT.SHX
  4
BIGFONT.SHX
  0
ENDTAB
  0
TABLE
  2
VIEW
  5
6
330
0
100
AcDbSymbolTable
 70
     0
  0
ENDTAB
  0
TABLE
  2
UCS
  5
7
330
0
100
AcDbSymbolTable
 70
     0
  0
ENDTAB
  0
TABLE
  2
APPID
  5
9
330
0
100
AcDbSymbolTable
 70
     1
  0
APPID
  5
12
330
9
100
AcDbSymbolTableRecord
100
AcDbRegAppTableRecord
  2
ACAD
 70
     0
  0
ENDTAB
  0
TABLE
  2
DIMSTYLE
  5
A
330
0
100
AcDbSymbolTable
 70
     2
  0
DIMSTYLE
105
27
330
A
100
AcDbSymbolTableRecord
100
AcDbDimStyleTableRecord
  2
STANDARD
 70
     0
  3

  4

  5

  6

  7

 40
1.0
 41
0.18
 42
0.0625
 43
0.38
 44
0.18
 45
0.0
 46
0.0
 47
0.0
 48
0.0
140
0.18
141
0.09
142
0.0
143
25.4
144
1.0
145
0.0
146
1.0
147
0.09
 71
     0
 72
     0
 73
     1
 74
     1
 75
     0
 76
     0
 77
     0
 78
     0
170
     0
171
     2
172
     0
173
     0
174
     0
175
     0
176
     0
177
     0
178
     0
270
     2
271
     4
272
     4
273
     2
274
     2
340
11
275
     0
280
     0
281
     0
282
     0
283
     1
284
     0
285
     0
286
     0
287
     3
288
     0
  0
DIMSTYLE
105
A7
102
{ACAD_REACTORS
330
15C
330
166
330
170
330
2E7
102
}
330
A
100
AcDbSymbolTableRecord
100
AcDbDimStyleTableRecord
  2
FXDIMINFO
 70
     0
  3

  4

  5

  6
FXTIP_ARROW_S
  7
FXTIP_ARROW_E
 40
1.0
 41
4.0
 42
1.0
 43
10.0
 44
1.0
 45
0.0
 46
6.0
 47
0.0
 48
0.0
140
4.0
141
2.5
142
0.0
143
0.03937
144
1.0
145
0.0
146
1.0
147
1.0
 71
     0
 72
     0
 73
     0
 74
     0
 75
     0
 76
     0
 77
     1
 78
     8
170
     0
171
     3
172
     1
173
     1
174
     0
175
     0
176
     7
177
     7
178
     7
179
     2
270
     2
271
     2
272
     2
273
     2
274
     3
340
3F
275
     0
280
     0
281
     0
282
     0
283
     0
284
     8
285
     0
286
     0
287
     3
288
     0
  0
ENDTAB
  0
TABLE
  2
BLOCK_RECORD
  5
1
330
0
100
AcDbSymbolTable
 70
    43
  0
BLOCK_RECORD
  5
1F
330
1
100
AcDbSymbolTableRecord
100
AcDbBlockTableRecord
  2
*MODEL_SPACE
  0
BLOCK_RECORD
  5
1B
330
1
100
AcDbSymbolTableRecord
100
AcDbBlockTableRecord
  2
*PAPER_SPACE
  0
BLOCK_RECORD
  5
41
330
1
100
AcDbSymbolTableRecord
100
AcDbBlockTableRecord
  2
FXTIP_ARROW_S
  0
BLOCK_RECORD
  5
47
330
1
100
AcDbSymbolTableRecord
100
AcDbBlockTableRecord
  2
FXTIP_ARROW_E
  0
BLOCK_RECORD
  5
4D
330
1
100
AcDbSymbolTableRecord
100
AcDbBlockTableRecord
  2
FXTIP_BLACKDOT_S
  0
BLOCK_RECORD
  5
53
330
1
100
AcDbSymbolTableRecord
100
AcDbBlockTableRecord
  2
FXTIP_BLACKDOT_E
  0
BLOCK_RECORD
  5
59
330
1
100
AcDbSymbolTableRecord
100
AcDbBlockTableRecord
  2
FXTIP_TRIANGLE_S
  0
BLOCK_RECORD
  5
60
330
1
100
AcDbSymbolTableRecord
100
AcDbBlockTableRecord
  2
FXTIP_TRIANGLE_E
  0
BLOCK_RECORD
  5
67
330
1
100
AcDbSymbolTableRecord
100
AcDbBlockTableRecord
  2
FXTIP_ARCHITECT_S
  0
BLOCK_RECORD
  5
6D
330
1
100
AcDbSymbolTableRecord
100
AcDbBlockTableRecord
  2
FXTIP_ARCHITECT_E
  0
BLOCK_RECORD
  5
73
330
1
100
AcDbSymbolTableRecord
100
AcDbBlockTableRecord
  2
FXTIP_CIVIL_S
  0
BLOCK_RECORD
  5
79
330
1
100
AcDbSymbolTableRecord
100
AcDbBlockTableRecord
  2
FXTIP_CIVIL_E
  0
BLOCK_RECORD
  5
7F
330
1
100
AcDbSymbolTableRecord
100
AcDbBlockTableRecord
  2
FXTIP_WHITEDOT_S
  0
BLOCK_RECORD
  5
84
330
1
100
AcDbSymbolTableRecord
100
AcDbBlockTableRecord
  2
FXTIP_WHITEDOT_E
  0
BLOCK_RECORD
  5
89
330
1
100
AcDbSymbolTableRecord
100
AcDbBlockTableRecord
  2
FXTIP_UPARROW_S
  0
BLOCK_RECORD
  5
8E
330
1
100
AcDbSymbolTableRecord
100
AcDbBlockTableRecord
  2
FXTIP_UPARROW_E
  0
BLOCK_RECORD
  5
93
330
1
100
AcDbSymbolTableRecord
100
AcDbBlockTableRecord
  2
FXTIP_DOWNARROW_S
  0
BLOCK_RECORD
  5
98
330
1
100
AcDbSymbolTableRecord
100
AcDbBlockTableRecord
  2
FXTIP_DOWNARROW_E
  0
BLOCK_RECORD
  5
9D
330
1
100
AcDbSymbolTableRecord
100
AcDbBlockTableRecord
  2
FXTIP_BLACKTRIANGLE_S
  0
BLOCK_RECORD
  5
A2
330
1
100
AcDbSymbolTableRecord
100
AcDbBlockTableRecord
  2
FXTIP_BLACKTRIANGLE_E
  0
BLOCK_RECORD
  5
B6
330
1
100
AcDbSymbolTableRecord
100
AcDbBlockTableRecord
  2
BLKF021
  0
BLOCK_RECORD
  5
C5
330
1
100
AcDbSymbolTableRecord
100
AcDbBlockTableRecord
  2
BLKF022
  0
BLOCK_RECORD
  5
D7
330
1
100
AcDbSymbolTableRecord
100
AcDbBlockTableRecord
  2
BLKF023
  0
BLOCK_RECORD
  5
DF
330
1
100
AcDbSymbolTableRecord
100
AcDbBlockTableRecord
  2
BLKF024
  0
BLOCK_RECORD
  5
15D
330
1
100
AcDbSymbolTableRecord
100
AcDbBlockTableRecord
  2
*D23
  0
BLOCK_RECORD
  5
167
330
1
100
AcDbSymbolTableRecord
100
AcDbBlockTableRecord
  2
*D24
  0
BLOCK_RECORD
  5
171
330
1
100
AcDbSymbolTableRecord
100
AcDbBlockTableRecord
  2
*D25
  0
BLOCK_RECORD
  5
17F
330
1
100
AcDbSymbolTableRecord
100
AcDbBlockTableRecord
  2
BLKF028
  0
BLOCK_RECORD
  5
18E
330
1
100
AcDbSymbolTableRecord
100
AcDbBlockTableRecord
  2
BLKF029
  0
BLOCK_RECORD
  5
1A0
330
1
100
AcDbSymbolTableRecord
100
AcDbBlockTableRecord
  2
BLKF030
  0
BLOCK_RECORD
  5
1A8
330
1
100
AcDbSymbolTableRecord
100
AcDbBlockTableRecord
  2
BLKF031
  0
BLOCK_RECORD
  5
1F8
330
1
100
AcDbSymbolTableRecord
100
AcDbBlockTableRecord
  2
BLKF032
  0
BLOCK_RECORD
  5
207
330
1
100
AcDbSymbolTableRecord
100
AcDbBlockTableRecord
  2
BLKF033
  0
BLOCK_RECORD
  5
219
330
1
100
AcDbSymbolTableRecord
100
AcDbBlockTableRecord
  2
BLKF034
  0
BLOCK_RECORD
  5
221
330
1
100
AcDbSymbolTableRecord
100
AcDbBlockTableRecord
  2
BLKF035
  0
BLOCK_RECORD
  5
27A
330
1
100
AcDbSymbolTableRecord
100
AcDbBlockTableRecord
  2
BLKF036
  0
BLOCK_RECORD
  5
289
330
1
100
AcDbSymbolTableRecord
100
AcDbBlockTableRecord
  2
BLKF037
  0
BLOCK_RECORD
  5
29B
330
1
100
AcDbSymbolTableRecord
100
AcDbBlockTableRecord
  2
BLKF038
  0
BLOCK_RECORD
  5
2A3
330
1
100
AcDbSymbolTableRecord
100
AcDbBlockTableRecord
  2
BLKF039
  0
BLOCK_RECORD
  5
2E8
330
1
100
AcDbSymbolTableRecord
100
AcDbBlockTableRecord
  2
*D38
  0
BLOCK_RECORD
  5
2F2
330
1
100
AcDbSymbolTableRecord
100
AcDbBlockTableRecord
  2
BLKF041
  0
BLOCK_RECORD
  5
371
330
1
100
AcDbSymbolTableRecord
100
AcDbBlockTableRecord
  2
BLKF042
  0
BLOCK_RECORD
  5
37D
330
1
100
AcDbSymbolTableRecord
100
AcDbBlockTableRecord
  2
BLKF043
  0
BLOCK_RECORD
  5
386
330
1
100
AcDbSymbolTableRecord
100
AcDbBlockTableRecord
  2
BLKF044
  0
ENDTAB
  0
ENDSEC
  0
SECTION
  2
BLOCKS
  0
BLOCK
  5
20
330
1F
100
AcDbEntity
  8
0
100
AcDbBlockBegin
  2
*MODEL_SPACE
 70
     0
 71
     0
 10
0.0
 20
0.0
 30
0.0
  3
*MODEL_SPACE
  1

  0
ENDBLK
  5
21
330
1F
100
AcDbEntity
  8
0
100
AcDbBlockEnd
  0
BLOCK
  5
1C
330
1B
100
AcDbEntity
 67
     1
  8
0
100
AcDbBlockBegin
  2
*PAPER_SPACE
 70
     0
 71
     0
 10
0.0
 20
0.0
 30
0.0
  3
*PAPER_SPACE
  1

  0
ENDBLK
  5
1D
330
1B
100
AcDbEntity
 67
     1
  8
0
100
AcDbBlockEnd
  0
BLOCK
  5
42
330
41
100
AcDbEntity
  8
0
100
AcDbBlockBegin
  2
FXTIP_ARROW_S
 70
     0
 71
     0
 10
0.0
 20
0.0
 30
0.0
  3
FXTIP_ARROW_S
  1

  0
LINE
  5
44
330
41
100
AcDbEntity
  8
0
  6
CONTINUOUS
 62
     0
100
AcDbLine
 10
0.0
 20
0.0
 30
0.0
 11
-1.0
 21
0.0
 31
0.0
  0
LINE
  5
45
330
41
100
AcDbEntity
  8
0
  6
CONTINUOUS
 62
     0
100
AcDbLine
 10
0.0
 20
0.0
 30
0.0
 11
-0.965926
 21
-0.258819
 31
0.0
  0
LINE
  5
46
330
41
100
AcDbEntity
  8
0
  6
CONTINUOUS
 62
     0
100
AcDbLine
 10
0.0
 20
0.0
 30
0.0
 11
-0.965926
 21
0.258819
 31
0.0
  0
ENDBLK
  5
43
330
41
100
AcDbEntity
  8
0
100
AcDbBlockEnd
  0
BLOCK
  5
48
330
47
100
AcDbEntity
  8
0
100
AcDbBlockBegin
  2
FXTIP_ARROW_E
 70
     0
 71
     0
 10
0.0
 20
0.0
 30
0.0
  3
FXTIP_ARROW_E
  1

  0
LINE
  5
4A
330
47
100
AcDbEntity
  8
0
  6
CONTINUOUS
 62
     0
100
AcDbLine
 10
0.0
 20
0.0
 30
0.0
 11
-1.0
 21
0.0
 31
0.0
  0
LINE
  5
4B
330
47
100
AcDbEntity
  8
0
  6
CONTINUOUS
 62
     0
100
AcDbLine
 10
0.0
 20
0.0
 30
0.0
 11
-0.965926
 21
0.258819
 31
0.0
  0
LINE
  5
4C
330
47
100
AcDbEntity
  8
0
  6
CONTINUOUS
 62
     0
100
AcDbLine
 10
0.0
 20
0.0
 30
0.0
 11
-0.965926
 21
-0.258819
 31
0.0
  0
ENDBLK
  5
49
330
47
100
AcDbEntity
  8
0
100
AcDbBlockEnd
  0
BLOCK
  5
4E
330
4D
100
AcDbEntity
  8
0
100
AcDbBlockBegin
  2
FXTIP_BLACKDOT_S
 70
     0
 71
     0
 10
0.0
 20
0.0
 30
0.0
  3
FXTIP_BLACKDOT_S
  1

  0
LINE
  5
50
330
4D
100
AcDbEntity
  8
0
  6
CONTINUOUS
 62
     0
100
AcDbLine
 10
0.0
 20
0.0
 30
0.0
 11
-1.0
 21
0.0
 31
0.0
  0
LWPOLYLINE
  5
51
330
4D
100
AcDbEntity
  8
0
  6
CONTINUOUS
 62
     0
100
AcDbPolyline
 90
        2
 70
     1
 10
-0.25
 20
0.0
 40
0.5
 41
0.5
 42
1.0
 10
0.25
 20
0.0
 40
0.5
 41
0.5
 42
1.0
  0
CIRCLE
  5
52
330
4D
100
AcDbEntity
  8
0
  6
CONTINUOUS
 62
     0
100
AcDbCircle
 10
0.0
 20
0.0
 30
0.0
 40
0.5
  0
ENDBLK
  5
4F
330
4D
100
AcDbEntity
  8
0
100
AcDbBlockEnd
  0
BLOCK
  5
54
330
53
100
AcDbEntity
  8
0
100
AcDbBlockBegin
  2
FXTIP_BLACKDOT_E
 70
     0
 71
     0
 10
0.0
 20
0.0
 30
0.0
  3
FXTIP_BLACKDOT_E
  1

  0
LINE
  5
56
330
53
100
AcDbEntity
  8
0
  6
CONTINUOUS
 62
     0
100
AcDbLine
 10
0.0
 20
0.0
 30
0.0
 11
-1.0
 21
0.0
 31
0.0
  0
LWPOLYLINE
  5
57
330
53
100
AcDbEntity
  8
0
  6
CONTINUOUS
 62
     0
100
AcDbPolyline
 90
        2
 70
     1
 10
-0.25
 20
0.0
 40
0.5
 41
0.5
 42
1.0
 10
0.25
 20
0.0
 40
0.5
 41
0.5
 42
1.0
  0
CIRCLE
  5
58
330
53
100
AcDbEntity
  8
0
  6
CONTINUOUS
 62
     0
100
AcDbCircle
 10
0.0
 20
0.0
 30
0.0
 40
0.5
  0
ENDBLK
  5
55
330
53
100
AcDbEntity
  8
0
100
AcDbBlockEnd
  0
BLOCK
  5
5A
330
59
100
AcDbEntity
  8
0
100
AcDbBlockBegin
  2
FXTIP_TRIANGLE_S
 70
     0
 71
     0
 10
0.0
 20
0.0
 30
0.0
  3
FXTIP_TRIANGLE_S
  1

  0
LINE
  5
5C
330
59
100
AcDbEntity
  8
0
  6
CONTINUOUS
 62
     0
100
AcDbLine
 10
0.0
 20
0.0
 30
0.0
 11
-1.0
 21
0.0
 31
0.0
  0
LINE
  5
5D
330
59
100
AcDbEntity
  8
0
  6
CONTINUOUS
 62
     0
100
AcDbLine
 10
0.0
 20
0.0
 30
0.0
 11
-0.965926
 21
-0.258819
 31
0.0
  0
LINE
  5
5E
330
59
100
AcDbEntity
  8
0
  6
CONTINUOUS
 62
     0
100
AcDbLine
 10
0.0
 20
0.0
 30
0.0
 11
-0.965926
 21
0.258819
 31
0.0
  0
LINE
  5
5F
330
59
100
AcDbEntity
  8
0
  6
CONTINUOUS
 62
     0
100
AcDbLine
 10
-0.965926
 20
-0.258819
 30
0.0
 11
-0.965926
 21
0.258819
 31
0.0
  0
ENDBLK
  5
5B
330
59
100
AcDbEntity
  8
0
100
AcDbBlockEnd
  0
BLOCK
  5
61
330
60
100
AcDbEntity
  8
0
100
AcDbBlockBegin
  2
FXTIP_TRIANGLE_E
 70
     0
 71
     0
 10
0.0
 20
0.0
 30
0.0
  3
FXTIP_TRIANGLE_E
  1

  0
LINE
  5
63
330
60
100
AcDbEntity
  8
0
  6
CONTINUOUS
 62
     0
100
AcDbLine
 10
0.0
 20
0.0
 30
0.0
 11
-1.0
 21
0.0
 31
0.0
  0
LINE
  5
64
330
60
100
AcDbEntity
  8
0
  6
CONTINUOUS
 62
     0
100
AcDbLine
 10
0.0
 20
0.0
 30
0.0
 11
-0.965926
 21
0.258819
 31
0.0
  0
LINE
  5
65
330
60
100
AcDbEntity
  8
0
  6
CONTINUOUS
 62
     0
100
AcDbLine
 10
0.0
 20
0.0
 30
0.0
 11
-0.965926
 21
-0.258819
 31
0.0
  0
LINE
  5
66
330
60
100
AcDbEntity
  8
0
  6
CONTINUOUS
 62
     0
100
AcDbLine
 10
-0.965926
 20
0.258819
 30
0.0
 11
-0.965926
 21
-0.258819
 31
0.0
  0
ENDBLK
  5
62
330
60
100
AcDbEntity
  8
0
100
AcDbBlockEnd
  0
BLOCK
  5
68
330
67
100
AcDbEntity
  8
0
100
AcDbBlockBegin
  2
FXTIP_ARCHITECT_S
 70
     0
 71
     0
 10
0.0
 20
0.0
 30
0.0
  3
FXTIP_ARCHITECT_S
  1

  0
LINE
  5
6A
330
67
100
AcDbEntity
  8
0
  6
CONTINUOUS
 62
     0
100
AcDbLine
 10
0.0
 20
0.0
 30
0.0
 11
-1.0
 21
0.0
 31
0.0
  0
LINE
  5
6B
330
67
100
AcDbEntity
  8
0
  6
CONTINUOUS
 62
     0
100
AcDbLine
 10
0.0
 20
0.0
 30
0.0
 11
-0.707107
 21
-0.707107
 31
0.0
  0
LINE
  5
6C
330
67
100
AcDbEntity
  8
0
  6
CONTINUOUS
 62
     0
100
AcDbLine
 10
0.0
 20
0.0
 30
0.0
 11
0.707107
 21
0.707107
 31
0.0
  0
ENDBLK
  5
69
330
67
100
AcDbEntity
  8
0
100
AcDbBlockEnd
  0
BLOCK
  5
6E
330
6D
100
AcDbEntity
  8
0
100
AcDbBlockBegin
  2
FXTIP_ARCHITECT_E
 70
     0
 71
     0
 10
0.0
 20
0.0
 30
0.0
  3
FXTIP_ARCHITECT_E
  1

  0
LINE
  5
70
330
6D
100
AcDbEntity
  8
0
  6
CONTINUOUS
 62
     0
100
AcDbLine
 10
0.0
 20
0.0
 30
0.0
 11
-1.0
 21
0.0
 31
0.0
  0
LINE
  5
71
330
6D
100
AcDbEntity
  8
0
  6
CONTINUOUS
 62
     0
100
AcDbLine
 10
0.0
 20
0.0
 30
0.0
 11
0.707107
 21
0.707107
 31
0.0
  0
LINE
  5
72
330
6D
100
AcDbEntity
  8
0
  6
CONTINUOUS
 62
     0
100
AcDbLine
 10
0.0
 20
0.0
 30
0.0
 11
-0.707107
 21
-0.707107
 31
0.0
  0
ENDBLK
  5
6F
330
6D
100
AcDbEntity
  8
0
100
AcDbBlockEnd
  0
BLOCK
  5
74
330
73
100
AcDbEntity
  8
0
100
AcDbBlockBegin
  2
FXTIP_CIVIL_S
 70
     0
 71
     0
 10
0.0
 20
0.0
 30
0.0
  3
FXTIP_CIVIL_S
  1

  0
LINE
  5
76
330
73
100
AcDbEntity
  8
0
  6
CONTINUOUS
 62
     0
100
AcDbLine
 10
0.0
 20
0.0
 30
0.0
 11
-1.0
 21
0.0
 31
0.0
  0
LINE
  5
77
330
73
100
AcDbEntity
  8
0
  6
CONTINUOUS
 62
     0
100
AcDbLine
 10
0.0
 20
-0.0625
 30
0.0
 11
-1.0
 21
-0.0625
 31
0.0
  0
LINE
  5
78
330
73
100
AcDbEntity
  8
0
  6
CONTINUOUS
 62
     0
100
AcDbLine
 10
0.0
 20
-0.125
 30
0.0
 11
-1.0
 21
-0.125
 31
0.0
  0
ENDBLK
  5
75
330
73
100
AcDbEntity
  8
0
100
AcDbBlockEnd
  0
BLOCK
  5
7A
330
79
100
AcDbEntity
  8
0
100
AcDbBlockBegin
  2
FXTIP_CIVIL_E
 70
     0
 71
     0
 10
0.0
 20
0.0
 30
0.0
  3
FXTIP_CIVIL_E
  1

  0
LINE
  5
7C
330
79
100
AcDbEntity
  8
0
  6
CONTINUOUS
 62
     0
100
AcDbLine
 10
0.0
 20
0.0
 30
0.0
 11
-1.0
 21
0.0
 31
0.0
  0
LINE
  5
7D
330
79
100
AcDbEntity
  8
0
  6
CONTINUOUS
 62
     0
100
AcDbLine
 10
0.0
 20
0.0625
 30
0.0
 11
-1.0
 21
0.0625
 31
0.0
  0
LINE
  5
7E
330
79
100
AcDbEntity
  8
0
  6
CONTINUOUS
 62
     0
100
AcDbLine
 10
0.0
 20
0.125
 30
0.0
 11
-1.0
 21
0.125
 31
0.0
  0
ENDBLK
  5
7B
330
79
100
AcDbEntity
  8
0
100
AcDbBlockEnd
  0
BLOCK
  5
80
330
7F
100
AcDbEntity
  8
0
100
AcDbBlockBegin
  2
FXTIP_WHITEDOT_S
 70
     0
 71
     0
 10
0.0
 20
0.0
 30
0.0
  3
FXTIP_WHITEDOT_S
  1

  0
LINE
  5
82
330
7F
100
AcDbEntity
  8
0
  6
CONTINUOUS
 62
     0
100
AcDbLine
 10
0.0
 20
0.0
 30
0.0
 11
-1.0
 21
0.0
 31
0.0
  0
CIRCLE
  5
83
330
7F
100
AcDbEntity
  8
0
  6
CONTINUOUS
 62
     0
100
AcDbCircle
 10
0.0
 20
0.0
 30
0.0
 40
0.5
  0
ENDBLK
  5
81
330
7F
100
AcDbEntity
  8
0
100
AcDbBlockEnd
  0
BLOCK
  5
85
330
84
100
AcDbEntity
  8
0
100
AcDbBlockBegin
  2
FXTIP_WHITEDOT_E
 70
     0
 71
     0
 10
0.0
 20
0.0
 30
0.0
  3
FXTIP_WHITEDOT_E
  1

  0
LINE
  5
87
330
84
100
AcDbEntity
  8
0
  6
CONTINUOUS
 62
     0
100
AcDbLine
 10
0.0
 20
0.0
 30
0.0
 11
-1.0
 21
0.0
 31
0.0
  0
CIRCLE
  5
88
330
84
100
AcDbEntity
  8
0
  6
CONTINUOUS
 62
     0
100
AcDbCircle
 10
0.0
 20
0.0
 30
0.0
 40
0.5
  0
ENDBLK
  5
86
330
84
100
AcDbEntity
  8
0
100
AcDbBlockEnd
  0
BLOCK
  5
8A
330
89
100
AcDbEntity
  8
0
100
AcDbBlockBegin
  2
FXTIP_UPARROW_S
 70
     0
 71
     0
 10
0.0
 20
0.0
 30
0.0
  3
FXTIP_UPARROW_S
  1

  0
LINE
  5
8C
330
89
100
AcDbEntity
  8
0
  6
CONTINUOUS
 62
     0
100
AcDbLine
 10
0.0
 20
0.0
 30
0.0
 11
-1.0
 21
0.0
 31
0.0
  0
LINE
  5
8D
330
89
100
AcDbEntity
  8
0
  6
CONTINUOUS
 62
     0
100
AcDbLine
 10
0.0
 20
0.0
 30
0.0
 11
-0.965926
 21
-0.258819
 31
0.0
  0
ENDBLK
  5
8B
330
89
100
AcDbEntity
  8
0
100
AcDbBlockEnd
  0
BLOCK
  5
8F
330
8E
100
AcDbEntity
  8
0
100
AcDbBlockBegin
  2
FXTIP_UPARROW_E
 70
     0
 71
     0
 10
0.0
 20
0.0
 30
0.0
  3
FXTIP_UPARROW_E
  1

  0
LINE
  5
91
330
8E
100
AcDbEntity
  8
0
  6
CONTINUOUS
 62
     0
100
AcDbLine
 10
0.0
 20
0.0
 30
0.0
 11
-1.0
 21
0.0
 31
0.0
  0
LINE
  5
92
330
8E
100
AcDbEntity
  8
0
  6
CONTINUOUS
 62
     0
100
AcDbLine
 10
0.0
 20
0.0
 30
0.0
 11
-0.965926
 21
0.258819
 31
0.0
  0
ENDBLK
  5
90
330
8E
100
AcDbEntity
  8
0
100
AcDbBlockEnd
  0
BLOCK
  5
94
330
93
100
AcDbEntity
  8
0
100
AcDbBlockBegin
  2
FXTIP_DOWNARROW_S
 70
     0
 71
     0
 10
0.0
 20
0.0
 30
0.0
  3
FXTIP_DOWNARROW_S
  1

  0
LINE
  5
96
330
93
100
AcDbEntity
  8
0
  6
CONTINUOUS
 62
     0
100
AcDbLine
 10
0.0
 20
0.0
 30
0.0
 11
-1.0
 21
0.0
 31
0.0
  0
LINE
  5
97
330
93
100
AcDbEntity
  8
0
  6
CONTINUOUS
 62
     0
100
AcDbLine
 10
0.0
 20
0.0
 30
0.0
 11
-0.965926
 21
0.258819
 31
0.0
  0
ENDBLK
  5
95
330
93
100
AcDbEntity
  8
0
100
AcDbBlockEnd
  0
BLOCK
  5
99
330
98
100
AcDbEntity
  8
0
100
AcDbBlockBegin
  2
FXTIP_DOWNARROW_E
 70
     0
 71
     0
 10
0.0
 20
0.0
 30
0.0
  3
FXTIP_DOWNARROW_E
  1

  0
LINE
  5
9B
330
98
100
AcDbEntity
  8
0
  6
CONTINUOUS
 62
     0
100
AcDbLine
 10
0.0
 20
0.0
 30
0.0
 11
-1.0
 21
0.0
 31
0.0
  0
LINE
  5
9C
330
98
100
AcDbEntity
  8
0
  6
CONTINUOUS
 62
     0
100
AcDbLine
 10
0.0
 20
0.0
 30
0.0
 11
-0.965926
 21
-0.258819
 31
0.0
  0
ENDBLK
  5
9A
330
98
100
AcDbEntity
  8
0
100
AcDbBlockEnd
  0
BLOCK
  5
9E
330
9D
100
AcDbEntity
  8
0
100
AcDbBlockBegin
  2
FXTIP_BLACKTRIANGLE_S
 70
     0
 71
     0
 10
0.0
 20
0.0
 30
0.0
  3
FXTIP_BLACKTRIANGLE_S
  1

  0
LINE
  5
A0
330
9D
100
AcDbEntity
  8
0
  6
CONTINUOUS
 62
     0
100
AcDbLine
 10
0.0
 20
0.0
 30
0.0
 11
-1.0
 21
0.0
 31
0.0
  0
SOLID
  5
A1
330
9D
100
AcDbEntity
  8
0
  6
CONTINUOUS
 62
     0
100
AcDbTrace
 10
0.0
 20
0.0
 30
0.0
 11
-0.965926
 21
-0.258819
 31
0.0
 12
-0.965926
 22
0.258819
 32
0.0
 13
-0.965926
 23
0.258819
 33
0.0
  0
ENDBLK
  5
9F
330
9D
100
AcDbEntity
  8
0
100
AcDbBlockEnd
  0
BLOCK
  5
A3
330
A2
100
AcDbEntity
  8
0
100
AcDbBlockBegin
  2
FXTIP_BLACKTRIANGLE_E
 70
     0
 71
     0
 10
0.0
 20
0.0
 30
0.0
  3
FXTIP_BLACKTRIANGLE_E
  1

  0
LINE
  5
A5
330
A2
100
AcDbEntity
  8
0
  6
CONTINUOUS
 62
     0
100
AcDbLine
 10
0.0
 20
0.0
 30
0.0
 11
-1.0
 21
0.0
 31
0.0
  0
SOLID
  5
A6
330
A2
100
AcDbEntity
  8
0
  6
CONTINUOUS
 62
     0
100
AcDbTrace
 10
0.0
 20
0.0
 30
0.0
 11
-0.965926
 21
0.258819
 31
0.0
 12
-0.965926
 22
-0.258819
 32
0.0
 13
-0.965926
 23
-0.258819
 33
0.0
  0
ENDBLK
  5
A4
330
A2
100
AcDbEntity
  8
0
100
AcDbBlockEnd
  0
BLOCK
  5
B7
330
B6
100
AcDbEntity
  8
0
100
AcDbBlockBegin
  2
BLKF021
 70
     0
 71
     0
 10
0.0
 20
0.0
 30
0.0
  3
BLKF021
  1

  0
LINE
  5
BA
330
B6
100
AcDbEntity
  8
GR1-1
  6
CONTINUOUS
 62
     6
100
AcDbLine
 10
98.01414
 20
106.806687
 30
0.0
 11
96.599927
 21
105.392473
 31
0.0
  0
LINE
  5
BB
330
B6
100
AcDbEntity
  8
GR1-1
  6
CONTINUOUS
 62
     6
100
AcDbLine
 10
99.428354
 20
106.806687
 30
0.0
 11
97.728354
 21
105.106687
 31
0.0
  0
LINE
  5
BC
330
B6
100
AcDbEntity
  8
GR1-1
  6
CONTINUOUS
 62
     6
100
AcDbLine
 10
100.842568
 20
106.806687
 30
0.0
 11
98.199927
 21
104.164046
 31
0.0
  0
LINE
  5
BD
330
B6
100
AcDbEntity
  8
GR1-1
  6
CONTINUOUS
 62
     6
100
AcDbLine
 10
102.256781
 20
106.806687
 30
0.0
 11
98.256781
 21
102.806687
 31
0.0
  0
LINE
  5
BE
330
B6
100
AcDbEntity
  8
GR1-1
  6
CONTINUOUS
 62
     6
100
AcDbLine
 10
103.670995
 20
106.806687
 30
0.0
 11
99.670995
 21
102.806687
 31
0.0
  0
LINE
  5
BF
330
B6
100
AcDbEntity
  8
GR1-1
  6
CONTINUOUS
 62
     6
100
AcDbLine
 10
105.085208
 20
106.806687
 30
0.0
 11
102.052376
 21
103.773855
 31
0.0
  0
LINE
  5
C0
330
B6
100
AcDbEntity
  8
GR1-1
  6
CONTINUOUS
 62
     6
100
AcDbLine
 10
106.499422
 20
106.806687
 30
0.0
 11
103.446973
 21
103.754239
 31
0.0
  0
LINE
  5
C1
330
B6
100
AcDbEntity
  8
GR1-1
  6
CONTINUOUS
 62
     6
100
AcDbLine
 10
107.913635
 20
106.806687
 30
0.0
 11
104.338643
 21
103.231694
 31
0.0
  0
LINE
  5
C2
330
B6
100
AcDbEntity
  8
GR1-1
  6
CONTINUOUS
 62
     6
100
AcDbLine
 10
108.713888
 20
106.192726
 30
0.0
 11
106.827849
 21
104.306687
 31
0.0
  0
LINE
  5
C3
330
B6
100
AcDbEntity
  8
GR1-1
  6
CONTINUOUS
 62
     6
100
AcDbLine
 10
105.599927
 20
103.078765
 30
0.0
 11
105.327849
 21
102.806687
 31
0.0
  0
LINE
  5
C4
330
B6
100
AcDbEntity
  8
GR1-1
  6
CONTINUOUS
 62
     6
100
AcDbLine
 10
109.099927
 20
105.164551
 30
0.0
 11
108.242062
 21
104.306687
 31
0.0
  0
ENDBLK
  5
B8
330
B6
100
AcDbEntity
  8
0
100
AcDbBlockEnd
  0
BLOCK
  5
C6
330
C5
100
AcDbEntity
  8
0
100
AcDbBlockBegin
  2
BLKF022
 70
     0
 71
     0
 10
0.0
 20
0.0
 30
0.0
  3
BLKF022
  1

  0
LINE
  5
C9
330
C5
100
AcDbEntity
  8
GR1-1
  6
CONTINUOUS
 62
     6
100
AcDbLine
 10
98.006456
 20
97.921553
 30
0.0
 11
98.914793
 21
97.013216
 31
0.0
  0
LINE
  5
CA
330
C5
100
AcDbEntity
  8
GR1-1
  6
CONTINUOUS
 62
     6
100
AcDbLine
 10
97.799927
 20
99.542296
 30
0.0
 11
98.52663
 21
98.815593
 31
0.0
  0
LINE
  5
CB
330
C5
100
AcDbEntity
  8
GR1-1
  6
CONTINUOUS
 62
     6
100
AcDbLine
 10
99.808833
 20
97.53339
 30
0.0
 11
100.535536
 21
96.806687
 31
0.0
  0
LINE
  5
CC
330
C5
100
AcDbEntity
  8
GR1-1
  6
CONTINUOUS
 62
     6
100
AcDbLine
 10
101.249749
 20
97.506687
 30
0.0
 11
101.949749
 21
96.806687
 31
0.0
  0
LINE
  5
CD
330
C5
100
AcDbEntity
  8
GR1-1
  6
CONTINUOUS
 62
     6
100
AcDbLine
 10
102.663963
 20
97.506687
 30
0.0
 11
103.363963
 21
96.806687
 31
0.0
  0
LINE
  5
CE
330
C5
100
AcDbEntity
  8
GR1-1
  6
CONTINUOUS
 62
     6
100
AcDbLine
 10
104.078176
 20
97.506687
 30
0.0
 11
104.778176
 21
96.806687
 31
0.0
  0
LINE
  5
CF
330
C5
100
AcDbEntity
  8
GR1-1
  6
CONTINUOUS
 62
     6
100
AcDbLine
 10
105.699927
 20
95.884936
 30
0.0
 11
106.248956
 21
95.335907
 31
0.0
  0
LINE
  5
D0
330
C5
100
AcDbEntity
  8
GR1-1
  6
CONTINUOUS
 62
     6
100
AcDbLine
 10
105.497125
 20
97.501952
 30
0.0
 11
106.395192
 21
96.603885
 31
0.0
  0
LINE
  5
D1
330
C5
100
AcDbEntity
  8
GR1-1
  6
CONTINUOUS
 62
     6
100
AcDbLine
 10
106.399927
 20
96.59915
 30
0.0
 11
107.099927
 21
95.89915
 31
0.0
  0
LINE
  5
D2
330
C5
100
AcDbEntity
  8
GR1-1
  6
CONTINUOUS
 62
     6
100
AcDbLine
 10
106.399927
 20
98.013363
 30
0.0
 11
107.099927
 21
97.313363
 31
0.0
  0
LINE
  5
D3
330
C5
100
AcDbEntity
  8
GR1-1
  6
CONTINUOUS
 62
     6
100
AcDbLine
 10
106.399927
 20
99.427577
 30
0.0
 11
107.099927
 21
98.727577
 31
0.0
  0
LINE
  5
D4
330
C5
100
AcDbEntity
  8
GR1-1
  6
CONTINUOUS
 62
     6
100
AcDbLine
 10
106.399927
 20
100.841791
 30
0.0
 11
107.099927
 21
100.141791
 31
0.0
  0
LINE
  5
D5
330
C5
100
AcDbEntity
  8
GR1-1
  6
CONTINUOUS
 62
     6
100
AcDbLine
 10
106.399927
 20
102.256004
 30
0.0
 11
107.099927
 21
101.556004
 31
0.0
  0
LINE
  5
D6
330
C5
100
AcDbEntity
  8
GR1-1
  6
CONTINUOUS
 62
     6
100
AcDbLine
 10
106.399927
 20
103.670218
 30
0.0
 11
107.099927
 21
102.970218
 31
0.0
  0
ENDBLK
  5
C7
330
C5
100
AcDbEntity
  8
0
100
AcDbBlockEnd
  0
BLOCK
  5
D8
330
D7
100
AcDbEntity
  8
0
100
AcDbBlockBegin
  2
BLKF023
 70
     0
 71
     0
 10
0.0
 20
0.0
 30
0.0
  3
BLKF023
  1

  0
LINE
  5
DB
330
D7
100
AcDbEntity
  8
GR1-1
  6
CONTINUOUS
 62
     6
100
AcDbLine
 10
105.399927
 20
98.920901
 30
0.0
 11
106.399927
 21
97.920901
 31
0.0
  0
LINE
  5
DC
330
D7
100
AcDbEntity
  8
GR1-1
  6
CONTINUOUS
 62
     6
100
AcDbLine
 10
105.399927
 20
100.335114
 30
0.0
 11
106.399927
 21
99.335114
 31
0.0
  0
LINE
  5
DD
330
D7
100
AcDbEntity
  8
GR1-1
  6
CONTINUOUS
 62
     6
100
AcDbLine
 10
105.399927
 20
101.749328
 30
0.0
 11
106.399927
 21
100.749328
 31
0.0
  0
LINE
  5
DE
330
D7
100
AcDbEntity
  8
GR1-1
  6
CONTINUOUS
 62
     6
100
AcDbLine
 10
106.256781
 20
102.306687
 30
0.0
 11
106.399927
 21
102.163541
 31
0.0
  0
ENDBLK
  5
D9
330
D7
100
AcDbEntity
  8
0
100
AcDbBlockEnd
  0
BLOCK
  5
E0
330
DF
100
AcDbEntity
  8
0
100
AcDbBlockBegin
  2
BLKF024
 70
     0
 71
     0
 10
0.0
 20
0.0
 30
0.0
  3
BLKF024
  1

  0
LINE
  5
E3
330
DF
100
AcDbEntity
  8
GR1-1
  6
CONTINUOUS
 62
     6
100
AcDbLine
 10
98.512237
 20
98.90859
 30
0.0
 11
99.90183
 21
97.518998
 31
0.0
  0
LINE
  5
E4
330
DF
100
AcDbEntity
  8
GR1-1
  6
CONTINUOUS
 62
     6
100
AcDbLine
 10
98.499927
 20
100.335114
 30
0.0
 11
101.328354
 21
97.506687
 31
0.0
  0
LINE
  5
E5
330
DF
100
AcDbEntity
  8
GR1-1
  6
CONTINUOUS
 62
     6
100
AcDbLine
 10
98.499927
 20
101.749328
 30
0.0
 11
100.099927
 21
100.149328
 31
0.0
  0
LINE
  5
E6
330
DF
100
AcDbEntity
  8
GR1-1
  6
CONTINUOUS
 62
     6
100
AcDbLine
 10
101.142568
 20
99.106687
 30
0.0
 11
102.742568
 21
97.506687
 31
0.0
  0
LINE
  5
E7
330
DF
100
AcDbEntity
  8
GR1-1
  6
CONTINUOUS
 62
     6
100
AcDbLine
 10
99.606781
 20
102.056687
 30
0.0
 11
100.099927
 21
101.563541
 31
0.0
  0
LINE
  5
E8
330
DF
100
AcDbEntity
  8
GR1-1
  6
CONTINUOUS
 62
     6
100
AcDbLine
 10
102.556781
 20
99.106687
 30
0.0
 11
104.156781
 21
97.506687
 31
0.0
  0
LINE
  5
E9
330
DF
100
AcDbEntity
  8
GR1-1
  6
CONTINUOUS
 62
     6
100
AcDbLine
 10
103.970995
 20
99.106687
 30
0.0
 11
105.399927
 21
97.677755
 31
0.0
  0
LINE
  5
EA
330
DF
100
AcDbEntity
  8
GR1-1
  6
CONTINUOUS
 62
     6
100
AcDbLine
 10
105.385208
 20
99.106687
 30
0.0
 11
105.399927
 21
99.091968
 31
0.0
  0
ENDBLK
  5
E1
330
DF
100
AcDbEntity
  8
0
100
AcDbBlockEnd
  0
BLOCK
  5
15E
330
15D
100
AcDbEntity
  8
0
100
AcDbBlockBegin
  2
*D23
 70
     1
 71
     0
 10
0.0
 20
0.0
 30
0.0
  3
*D23
  1

  0
TEXT
  5
160
330
15D
100
AcDbEntity
  8
GR1-1
  6
CONTINUOUS
 62
     7
100
AcDbText
 10
129.495834
 20
107.306694
 30
0.0
 40
4.0
  1
%%c75
 50
90.0
 41
0.84375
  7
FX_VECTOR
 72
     5
 11
129.495834
 21
116.306694
 31
0.0
100
AcDbText
  0
LINE
  5
161
330
15D
100
AcDbEntity
  8
GR1-1
  6
CONTINUOUS
 62
     7
100
AcDbLine
 10
130.495821
 20
74.306687
 30
0.0
 11
130.495821
 21
149.306687
 31
0.0
  0
INSERT
  5
162
330
15D
100
AcDbEntity
  8
GR1-1
  6
CONTINUOUS
 62
     7
100
AcDbBlockReference
  2
FXTIP_ARROW_S
 10
130.495821
 20
74.306687
 30
0.0
 41
4.0
 42
4.0
 50
270.0
  0
INSERT
  5
163
330
15D
100
AcDbEntity
  8
GR1-1
  6
CONTINUOUS
 62
     7
100
AcDbBlockReference
  2
FXTIP_ARROW_E
 10
130.495821
 20
149.306687
 30
0.0
 41
4.0
 42
4.0
 50
90.0
  0
LINE
  5
164
330
15D
100
AcDbEntity
  8
GR1-1
  6
CONTINUOUS
 62
     7
100
AcDbLine
 10
102.537749
 20
74.306687
 30
0.0
 11
131.495821
 21
74.306687
 31
0.0
  0
LINE
  5
165
330
15D
100
AcDbEntity
  8
GR1-1
  6
CONTINUOUS
 62
     7
100
AcDbLine
 10
102.537749
 20
149.306687
 30
0.0
 11
131.495821
 21
149.306687
 31
0.0
  0
ENDBLK
  5
15F
330
15D
100
AcDbEntity
  8
0
100
AcDbBlockEnd
  0
BLOCK
  5
168
330
167
100
AcDbEntity
  8
0
100
AcDbBlockBegin
  2
*D24
 70
     1
 71
     0
 10
0.0
 20
0.0
 30
0.0
  3
*D24
  1

  0
TEXT
  5
16A
330
167
100
AcDbEntity
  8
GR1-1
  6
CONTINUOUS
 62
     7
100
AcDbText
 10
88.59993
 20
57.306686
 30
0.0
 40
4.0
  1
35
 41
0.851351
  7
FX_VECTOR
 72
     5
 11
94.59993
 21
57.306686
 31
0.0
100
AcDbText
  0
LINE
  5
16B
330
167
100
AcDbEntity
  8
GR1-1
  6
CONTINUOUS
 62
     7
100
AcDbLine
 10
74.099927
 20
56.306687
 30
0.0
 11
109.099927
 21
56.306687
 31
0.0
  0
INSERT
  5
16C
330
167
100
AcDbEntity
  8
GR1-1
  6
CONTINUOUS
 62
     7
100
AcDbBlockReference
  2
FXTIP_ARROW_S
 10
74.099927
 20
56.306687
 30
0.0
 41
4.0
 42
4.0
 50
180.0
  0
INSERT
  5
16D
330
167
100
AcDbEntity
  8
GR1-1
  6
CONTINUOUS
 62
     7
100
AcDbBlockReference
  2
FXTIP_ARROW_E
 10
109.099927
 20
56.306687
 30
0.0
 41
4.0
 42
4.0
 50
360.0
  0
LINE
  5
16E
330
167
100
AcDbEntity
  8
GR1-1
  6
CONTINUOUS
 62
     7
100
AcDbLine
 10
74.099927
 20
103.606687
 30
0.0
 11
74.099927
 21
55.306687
 31
0.0
  0
LINE
  5
16F
330
167
100
AcDbEntity
  8
GR1-1
  6
CONTINUOUS
 62
     7
100
AcDbLine
 10
109.099927
 20
103.606687
 30
0.0
 11
109.099927
 21
55.306687
 31
0.0
  0
ENDBLK
  5
169
330
167
100
AcDbEntity
  8
0
100
AcDbBlockEnd
  0
BLOCK
  5
172
330
171
100
AcDbEntity
  8
0
100
AcDbBlockBegin
  2
*D25
 70
     1
 71
     0
 10
0.0
 20
0.0
 30
0.0
  3
*D25
  1

  0
TEXT
  5
174
330
171
100
AcDbEntity
  8
GR1-1
  6
CONTINUOUS
 62
     7
100
AcDbText
 10
88.59993
 20
65.306694
 30
0.0
 40
4.0
  1
32
 41
0.851351
  7
FX_VECTOR
 72
     5
 11
94.59993
 21
65.306694
 31
0.0
100
AcDbText
  0
LINE
  5
175
330
171
100
AcDbEntity
  8
GR1-1
  6
CONTINUOUS
 62
     7
100
AcDbLine
 10
75.599927
 20
64.306687
 30
0.0
 11
107.599927
 21
64.306687
 31
0.0
  0
INSERT
  5
176
330
171
100
AcDbEntity
  8
GR1-1
  6
CONTINUOUS
 62
     7
100
AcDbBlockReference
  2
FXTIP_ARROW_S
 10
75.599927
 20
64.306687
 30
0.0
 41
4.0
 42
4.0
 50
180.0
  0
INSERT
  5
177
330
171
100
AcDbEntity
  8
GR1-1
  6
CONTINUOUS
 62
     7
100
AcDbBlockReference
  2
FXTIP_ARROW_E
 10
107.599927
 20
64.306687
 30
0.0
 41
4.0
 42
4.0
 50
360.0
  0
LINE
  5
178
330
171
100
AcDbEntity
  8
GR1-1
  6
CONTINUOUS
 62
     7
100
AcDbLine
 10
75.599927
 20
81.806687
 30
0.0
 11
75.599927
 21
63.306687
 31
0.0
  0
LINE
  5
179
330
171
100
AcDbEntity
  8
GR1-1
  6
CONTINUOUS
 62
     7
100
AcDbLine
 10
107.599927
 20
81.806687
 30
0.0
 11
107.599927
 21
63.306687
 31
0.0
  0
ENDBLK
  5
173
330
171
100
AcDbEntity
  8
0
100
AcDbBlockEnd
  0
BLOCK
  5
180
330
17F
100
AcDbEntity
  8
0
100
AcDbBlockBegin
  2
BLKF028
 70
     0
 71
     0
 10
0.0
 20
0.0
 30
0.0
  3
BLKF028
  1

  0
LINE
  5
183
330
17F
100
AcDbEntity
  8
GR1-1
  6
CONTINUOUS
 62
     6
100
AcDbLine
 10
85.185713
 20
106.806687
 30
0.0
 11
86.599927
 21
105.392473
 31
0.0
  0
LINE
  5
184
330
17F
100
AcDbEntity
  8
GR1-1
  6
CONTINUOUS
 62
     6
100
AcDbLine
 10
83.7715
 20
106.806687
 30
0.0
 11
85.4715
 21
105.106687
 31
0.0
  0
LINE
  5
185
330
17F
100
AcDbEntity
  8
GR1-1
  6
CONTINUOUS
 62
     6
100
AcDbLine
 10
82.357286
 20
106.806687
 30
0.0
 11
84.999927
 21
104.164046
 31
0.0
  0
LINE
  5
186
330
17F
100
AcDbEntity
  8
GR1-1
  6
CONTINUOUS
 62
     6
100
AcDbLine
 10
80.943073
 20
106.806687
 30
0.0
 11
84.943073
 21
102.806687
 31
0.0
  0
LINE
  5
187
330
17F
100
AcDbEntity
  8
GR1-1
  6
CONTINUOUS
 62
     6
100
AcDbLine
 10
79.528859
 20
106.806687
 30
0.0
 11
83.528859
 21
102.806687
 31
0.0
  0
LINE
  5
188
330
17F
100
AcDbEntity
  8
GR1-1
  6
CONTINUOUS
 62
     6
100
AcDbLine
 10
78.114645
 20
106.806687
 30
0.0
 11
81.147477
 21
103.773855
 31
0.0
  0
LINE
  5
189
330
17F
100
AcDbEntity
  8
GR1-1
  6
CONTINUOUS
 62
     6
100
AcDbLine
 10
76.700432
 20
106.806687
 30
0.0
 11
79.75288
 21
103.754239
 31
0.0
  0
LINE
  5
18A
330
17F
100
AcDbEntity
  8
GR1-1
  6
CONTINUOUS
 62
     6
100
AcDbLine
 10
75.286218
 20
106.806687
 30
0.0
 11
78.861211
 21
103.231694
 31
0.0
  0
LINE
  5
18B
330
17F
100
AcDbEntity
  8
GR1-1
  6
CONTINUOUS
 62
     6
100
AcDbLine
 10
74.485966
 20
106.192726
 30
0.0
 11
76.372005
 21
104.306687
 31
0.0
  0
LINE
  5
18C
330
17F
100
AcDbEntity
  8
GR1-1
  6
CONTINUOUS
 62
     6
100
AcDbLine
 10
77.599927
 20
103.078765
 30
0.0
 11
77.872005
 21
102.806687
 31
0.0
  0
LINE
  5
18D
330
17F
100
AcDbEntity
  8
GR1-1
  6
CONTINUOUS
 62
     6
100
AcDbLine
 10
74.099927
 20
105.164551
 30
0.0
 11
74.957791
 21
104.306687
 31
0.0
  0
ENDBLK
  5
181
330
17F
100
AcDbEntity
  8
0
100
AcDbBlockEnd
  0
BLOCK
  5
18F
330
18E
100
AcDbEntity
  8
0
100
AcDbBlockBegin
  2
BLKF029
 70
     0
 71
     0
 10
0.0
 20
0.0
 30
0.0
  3
BLKF029
  1

  0
LINE
  5
192
330
18E
100
AcDbEntity
  8
GR1-1
  6
CONTINUOUS
 62
     6
100
AcDbLine
 10
85.193398
 20
97.921553
 30
0.0
 11
84.285061
 21
97.013216
 31
0.0
  0
LINE
  5
193
330
18E
100
AcDbEntity
  8
GR1-1
  6
CONTINUOUS
 62
     6
100
AcDbLine
 10
85.399927
 20
99.542296
 30
0.0
 11
84.673224
 21
98.815593
 31
0.0
  0
LINE
  5
194
330
18E
100
AcDbEntity
  8
GR1-1
  6
CONTINUOUS
 62
     6
100
AcDbLine
 10
83.391021
 20
97.53339
 30
0.0
 11
82.664318
 21
96.806687
 31
0.0
  0
LINE
  5
195
330
18E
100
AcDbEntity
  8
GR1-1
  6
CONTINUOUS
 62
     6
100
AcDbLine
 10
81.950105
 20
97.506687
 30
0.0
 11
81.250105
 21
96.806687
 31
0.0
  0
LINE
  5
196
330
18E
100
AcDbEntity
  8
GR1-1
  6
CONTINUOUS
 62
     6
100
AcDbLine
 10
80.535891
 20
97.506687
 30
0.0
 11
79.835891
 21
96.806687
 31
0.0
  0
LINE
  5
197
330
18E
100
AcDbEntity
  8
GR1-1
  6
CONTINUOUS
 62
     6
100
AcDbLine
 10
79.121677
 20
97.506687
 30
0.0
 11
78.421677
 21
96.806687
 31
0.0
  0
LINE
  5
198
330
18E
100
AcDbEntity
  8
GR1-1
  6
CONTINUOUS
 62
     6
100
AcDbLine
 10
77.499927
 20
95.884936
 30
0.0
 11
76.950898
 21
95.335907
 31
0.0
  0
LINE
  5
199
330
18E
100
AcDbEntity
  8
GR1-1
  6
CONTINUOUS
 62
     6
100
AcDbLine
 10
77.702729
 20
97.501952
 30
0.0
 11
76.804662
 21
96.603885
 31
0.0
  0
LINE
  5
19A
330
18E
100
AcDbEntity
  8
GR1-1
  6
CONTINUOUS
 62
     6
100
AcDbLine
 10
76.799927
 20
96.59915
 30
0.0
 11
76.099927
 21
95.89915
 31
0.0
  0
LINE
  5
19B
330
18E
100
AcDbEntity
  8
GR1-1
  6
CONTINUOUS
 62
     6
100
AcDbLine
 10
76.799927
 20
98.013363
 30
0.0
 11
76.099927
 21
97.313363
 31
0.0
  0
LINE
  5
19C
330
18E
100
AcDbEntity
  8
GR1-1
  6
CONTINUOUS
 62
     6
100
AcDbLine
 10
76.799927
 20
99.427577
 30
0.0
 11
76.099927
 21
98.727577
 31
0.0
  0
LINE
  5
19D
330
18E
100
AcDbEntity
  8
GR1-1
  6
CONTINUOUS
 62
     6
100
AcDbLine
 10
76.799927
 20
100.841791
 30
0.0
 11
76.099927
 21
100.141791
 31
0.0
  0
LINE
  5
19E
330
18E
100
AcDbEntity
  8
GR1-1
  6
CONTINUOUS
 62
     6
100
AcDbLine
 10
76.799927
 20
102.256004
 30
0.0
 11
76.099927
 21
101.556004
 31
0.0
  0
LINE
  5
19F
330
18E
100
AcDbEntity
  8
GR1-1
  6
CONTINUOUS
 62
     6
100
AcDbLine
 10
76.799927
 20
103.670218
 30
0.0
 11
76.099927
 21
102.970218
 31
0.0
  0
ENDBLK
  5
190
330
18E
100
AcDbEntity
  8
0
100
AcDbBlockEnd
  0
BLOCK
  5
1A1
330
1A0
100
AcDbEntity
  8
0
100
AcDbBlockBegin
  2
BLKF030
 70
     0
 71
     0
 10
0.0
 20
0.0
 30
0.0
  3
BLKF030
  1

  0
LINE
  5
1A4
330
1A0
100
AcDbEntity
  8
GR1-1
  6
CONTINUOUS
 62
     6
100
AcDbLine
 10
77.799927
 20
98.920901
 30
0.0
 11
76.799927
 21
97.920901
 31
0.0
  0
LINE
  5
1A5
330
1A0
100
AcDbEntity
  8
GR1-1
  6
CONTINUOUS
 62
     6
100
AcDbLine
 10
77.799927
 20
100.335114
 30
0.0
 11
76.799927
 21
99.335114
 31
0.0
  0
LINE
  5
1A6
330
1A0
100
AcDbEntity
  8
GR1-1
  6
CONTINUOUS
 62
     6
100
AcDbLine
 10
77.799927
 20
101.749328
 30
0.0
 11
76.799927
 21
100.749328
 31
0.0
  0
LINE
  5
1A7
330
1A0
100
AcDbEntity
  8
GR1-1
  6
CONTINUOUS
 62
     6
100
AcDbLine
 10
76.943073
 20
102.306687
 30
0.0
 11
76.799927
 21
102.163541
 31
0.0
  0
ENDBLK
  5
1A2
330
1A0
100
AcDbEntity
  8
0
100
AcDbBlockEnd
  0
BLOCK
  5
1A9
330
1A8
100
AcDbEntity
  8
0
100
AcDbBlockBegin
  2
BLKF031
 70
     0
 71
     0
 10
0.0
 20
0.0
 30
0.0
  3
BLKF031
  1

  0
LINE
  5
1AC
330
1A8
100
AcDbEntity
  8
GR1-1
  6
CONTINUOUS
 62
     6
100
AcDbLine
 10
84.687616
 20
98.90859
 30
0.0
 11
83.298024
 21
97.518998
 31
0.0
  0
LINE
  5
1AD
330
1A8
100
AcDbEntity
  8
GR1-1
  6
CONTINUOUS
 62
     6
100
AcDbLine
 10
84.699927
 20
100.335114
 30
0.0
 11
81.8715
 21
97.506687
 31
0.0
  0
LINE
  5
1AE
330
1A8
100
AcDbEntity
  8
GR1-1
  6
CONTINUOUS
 62
     6
100
AcDbLine
 10
84.699927
 20
101.749328
 30
0.0
 11
83.099927
 21
100.149328
 31
0.0
  0
LINE
  5
1AF
330
1A8
100
AcDbEntity
  8
GR1-1
  6
CONTINUOUS
 62
     6
100
AcDbLine
 10
82.057286
 20
99.106687
 30
0.0
 11
80.457286
 21
97.506687
 31
0.0
  0
LINE
  5
1B0
330
1A8
100
AcDbEntity
  8
GR1-1
  6
CONTINUOUS
 62
     6
100
AcDbLine
 10
83.593073
 20
102.056687
 30
0.0
 11
83.099927
 21
101.563541
 31
0.0
  0
LINE
  5
1B1
330
1A8
100
AcDbEntity
  8
GR1-1
  6
CONTINUOUS
 62
     6
100
AcDbLine
 10
80.643073
 20
99.106687
 30
0.0
 11
79.043073
 21
97.506687
 31
0.0
  0
LINE
  5
1B2
330
1A8
100
AcDbEntity
  8
GR1-1
  6
CONTINUOUS
 62
     6
100
AcDbLine
 10
79.228859
 20
99.106687
 30
0.0
 11
77.799927
 21
97.677755
 31
0.0
  0
LINE
  5
1B3
330
1A8
100
AcDbEntity
  8
GR1-1
  6
CONTINUOUS
 62
     6
100
AcDbLine
 10
77.814645
 20
99.106687
 30
0.0
 11
77.799927
 21
99.091968
 31
0.0
  0
ENDBLK
  5
1AA
330
1A8
100
AcDbEntity
  8
0
100
AcDbBlockEnd
  0
BLOCK
  5
1F9
330
1F8
100
AcDbEntity
  8
0
100
AcDbBlockBegin
  2
BLKF032
 70
     0
 71
     0
 10
0.0
 20
0.0
 30
0.0
  3
BLKF032
  1

  0
LINE
  5
1FC
330
1F8
100
AcDbEntity
  8
GR1-1
  6
CONTINUOUS
 62
     6
100
AcDbLine
 10
98.01414
 20
116.806687
 30
0.0
 11
96.599927
 21
118.220901
 31
0.0
  0
LINE
  5
1FD
330
1F8
100
AcDbEntity
  8
GR1-1
  6
CONTINUOUS
 62
     6
100
AcDbLine
 10
99.428354
 20
116.806687
 30
0.0
 11
97.728354
 21
118.506687
 31
0.0
  0
LINE
  5
1FE
330
1F8
100
AcDbEntity
  8
GR1-1
  6
CONTINUOUS
 62
     6
100
AcDbLine
 10
100.842568
 20
116.806687
 30
0.0
 11
98.199927
 21
119.449328
 31
0.0
  0
LINE
  5
1FF
330
1F8
100
AcDbEntity
  8
GR1-1
  6
CONTINUOUS
 62
     6
100
AcDbLine
 10
102.256781
 20
116.806687
 30
0.0
 11
98.256781
 21
120.806687
 31
0.0
  0
LINE
  5
200
330
1F8
100
AcDbEntity
  8
GR1-1
  6
CONTINUOUS
 62
     6
100
AcDbLine
 10
103.670995
 20
116.806687
 30
0.0
 11
99.670995
 21
120.806687
 31
0.0
  0
LINE
  5
201
330
1F8
100
AcDbEntity
  8
GR1-1
  6
CONTINUOUS
 62
     6
100
AcDbLine
 10
105.085208
 20
116.806687
 30
0.0
 11
102.052376
 21
119.839519
 31
0.0
  0
LINE
  5
202
330
1F8
100
AcDbEntity
  8
GR1-1
  6
CONTINUOUS
 62
     6
100
AcDbLine
 10
106.499422
 20
116.806687
 30
0.0
 11
103.446973
 21
119.859135
 31
0.0
  0
LINE
  5
203
330
1F8
100
AcDbEntity
  8
GR1-1
  6
CONTINUOUS
 62
     6
100
AcDbLine
 10
107.913635
 20
116.806687
 30
0.0
 11
104.338643
 21
120.38168
 31
0.0
  0
LINE
  5
204
330
1F8
100
AcDbEntity
  8
GR1-1
  6
CONTINUOUS
 62
     6
100
AcDbLine
 10
108.713888
 20
117.420648
 30
0.0
 11
106.827849
 21
119.306687
 31
0.0
  0
LINE
  5
205
330
1F8
100
AcDbEntity
  8
GR1-1
  6
CONTINUOUS
 62
     6
100
AcDbLine
 10
105.599927
 20
120.534609
 30
0.0
 11
105.327849
 21
120.806687
 31
0.0
  0
LINE
  5
206
330
1F8
100
AcDbEntity
  8
GR1-1
  6
CONTINUOUS
 62
     6
100
AcDbLine
 10
109.099927
 20
118.448823
 30
0.0
 11
108.242062
 21
119.306687
 31
0.0
  0
ENDBLK
  5
1FA
330
1F8
100
AcDbEntity
  8
0
100
AcDbBlockEnd
  0
BLOCK
  5
208
330
207
100
AcDbEntity
  8
0
100
AcDbBlockBegin
  2
BLKF033
 70
     0
 71
     0
 10
0.0
 20
0.0
 30
0.0
  3
BLKF033
  1

  0
LINE
  5
20B
330
207
100
AcDbEntity
  8
GR1-1
  6
CONTINUOUS
 62
     6
100
AcDbLine
 10
98.006456
 20
125.691821
 30
0.0
 11
98.914793
 21
126.600158
 31
0.0
  0
LINE
  5
20C
330
207
100
AcDbEntity
  8
GR1-1
  6
CONTINUOUS
 62
     6
100
AcDbLine
 10
97.799927
 20
124.071078
 30
0.0
 11
98.52663
 21
124.797781
 31
0.0
  0
LINE
  5
20D
330
207
100
AcDbEntity
  8
GR1-1
  6
CONTINUOUS
 62
     6
100
AcDbLine
 10
99.808833
 20
126.079984
 30
0.0
 11
100.535536
 21
126.806687
 31
0.0
  0
LINE
  5
20E
330
207
100
AcDbEntity
  8
GR1-1
  6
CONTINUOUS
 62
     6
100
AcDbLine
 10
101.249749
 20
126.106687
 30
0.0
 11
101.949749
 21
126.806687
 31
0.0
  0
LINE
  5
20F
330
207
100
AcDbEntity
  8
GR1-1
  6
CONTINUOUS
 62
     6
100
AcDbLine
 10
102.663963
 20
126.106687
 30
0.0
 11
103.363963
 21
126.806687
 31
0.0
  0
LINE
  5
210
330
207
100
AcDbEntity
  8
GR1-1
  6
CONTINUOUS
 62
     6
100
AcDbLine
 10
104.078176
 20
126.106687
 30
0.0
 11
104.778176
 21
126.806687
 31
0.0
  0
LINE
  5
211
330
207
100
AcDbEntity
  8
GR1-1
  6
CONTINUOUS
 62
     6
100
AcDbLine
 10
105.699927
 20
127.728438
 30
0.0
 11
106.248956
 21
128.277467
 31
0.0
  0
LINE
  5
212
330
207
100
AcDbEntity
  8
GR1-1
  6
CONTINUOUS
 62
     6
100
AcDbLine
 10
105.497125
 20
126.111422
 30
0.0
 11
106.395192
 21
127.009489
 31
0.0
  0
LINE
  5
213
330
207
100
AcDbEntity
  8
GR1-1
  6
CONTINUOUS
 62
     6
100
AcDbLine
 10
106.399927
 20
127.014224
 30
0.0
 11
107.099927
 21
127.714224
 31
0.0
  0
LINE
  5
214
330
207
100
AcDbEntity
  8
GR1-1
  6
CONTINUOUS
 62
     6
100
AcDbLine
 10
106.399927
 20
125.60001
 30
0.0
 11
107.099927
 21
126.30001
 31
0.0
  0
LINE
  5
215
330
207
100
AcDbEntity
  8
GR1-1
  6
CONTINUOUS
 62
     6
100
AcDbLine
 10
106.399927
 20
124.185797
 30
0.0
 11
107.099927
 21
124.885797
 31
0.0
  0
LINE
  5
216
330
207
100
AcDbEntity
  8
GR1-1
  6
CONTINUOUS
 62
     6
100
AcDbLine
 10
106.399927
 20
122.771583
 30
0.0
 11
107.099927
 21
123.471583
 31
0.0
  0
LINE
  5
217
330
207
100
AcDbEntity
  8
GR1-1
  6
CONTINUOUS
 62
     6
100
AcDbLine
 10
106.399927
 20
121.35737
 30
0.0
 11
107.099927
 21
122.05737
 31
0.0
  0
LINE
  5
218
330
207
100
AcDbEntity
  8
GR1-1
  6
CONTINUOUS
 62
     6
100
AcDbLine
 10
106.399927
 20
119.943156
 30
0.0
 11
107.099927
 21
120.643156
 31
0.0
  0
ENDBLK
  5
209
330
207
100
AcDbEntity
  8
0
100
AcDbBlockEnd
  0
BLOCK
  5
21A
330
219
100
AcDbEntity
  8
0
100
AcDbBlockBegin
  2
BLKF034
 70
     0
 71
     0
 10
0.0
 20
0.0
 30
0.0
  3
BLKF034
  1

  0
LINE
  5
21D
330
219
100
AcDbEntity
  8
GR1-1
  6
CONTINUOUS
 62
     6
100
AcDbLine
 10
105.399927
 20
124.692473
 30
0.0
 11
106.399927
 21
125.692473
 31
0.0
  0
LINE
  5
21E
330
219
100
AcDbEntity
  8
GR1-1
  6
CONTINUOUS
 62
     6
100
AcDbLine
 10
105.399927
 20
123.27826
 30
0.0
 11
106.399927
 21
124.27826
 31
0.0
  0
LINE
  5
21F
330
219
100
AcDbEntity
  8
GR1-1
  6
CONTINUOUS
 62
     6
100
AcDbLine
 10
105.399927
 20
121.864046
 30
0.0
 11
106.399927
 21
122.864046
 31
0.0
  0
LINE
  5
220
330
219
100
AcDbEntity
  8
GR1-1
  6
CONTINUOUS
 62
     6
100
AcDbLine
 10
106.256781
 20
121.306687
 30
0.0
 11
106.399927
 21
121.449833
 31
0.0
  0
ENDBLK
  5
21B
330
219
100
AcDbEntity
  8
0
100
AcDbBlockEnd
  0
BLOCK
  5
222
330
221
100
AcDbEntity
  8
0
100
AcDbBlockBegin
  2
BLKF035
 70
     0
 71
     0
 10
0.0
 20
0.0
 30
0.0
  3
BLKF035
  1

  0
LINE
  5
225
330
221
100
AcDbEntity
  8
GR1-1
  6
CONTINUOUS
 62
     6
100
AcDbLine
 10
98.512237
 20
124.704784
 30
0.0
 11
99.90183
 21
126.094376
 31
0.0
  0
LINE
  5
226
330
221
100
AcDbEntity
  8
GR1-1
  6
CONTINUOUS
 62
     6
100
AcDbLine
 10
98.499927
 20
123.27826
 30
0.0
 11
101.328354
 21
126.106687
 31
0.0
  0
LINE
  5
227
330
221
100
AcDbEntity
  8
GR1-1
  6
CONTINUOUS
 62
     6
100
AcDbLine
 10
98.499927
 20
121.864046
 30
0.0
 11
100.099927
 21
123.464046
 31
0.0
  0
LINE
  5
228
330
221
100
AcDbEntity
  8
GR1-1
  6
CONTINUOUS
 62
     6
100
AcDbLine
 10
101.142568
 20
124.506687
 30
0.0
 11
102.742568
 21
126.106687
 31
0.0
  0
LINE
  5
229
330
221
100
AcDbEntity
  8
GR1-1
  6
CONTINUOUS
 62
     6
100
AcDbLine
 10
99.606781
 20
121.556687
 30
0.0
 11
100.099927
 21
122.049833
 31
0.0
  0
LINE
  5
22A
330
221
100
AcDbEntity
  8
GR1-1
  6
CONTINUOUS
 62
     6
100
AcDbLine
 10
102.556781
 20
124.506687
 30
0.0
 11
104.156781
 21
126.106687
 31
0.0
  0
LINE
  5
22B
330
221
100
AcDbEntity
  8
GR1-1
  6
CONTINUOUS
 62
     6
100
AcDbLine
 10
103.970995
 20
124.506687
 30
0.0
 11
105.399927
 21
125.935619
 31
0.0
  0
LINE
  5
22C
330
221
100
AcDbEntity
  8
GR1-1
  6
CONTINUOUS
 62
     6
100
AcDbLine
 10
105.385208
 20
124.506687
 30
0.0
 11
105.399927
 21
124.521406
 31
0.0
  0
ENDBLK
  5
223
330
221
100
AcDbEntity
  8
0
100
AcDbBlockEnd
  0
BLOCK
  5
27B
330
27A
100
AcDbEntity
  8
0
100
AcDbBlockBegin
  2
BLKF036
 70
     0
 71
     0
 10
0.0
 20
0.0
 30
0.0
  3
BLKF036
  1

  0
LINE
  5
27E
330
27A
100
AcDbEntity
  8
GR1-1
  6
CONTINUOUS
 62
     6
100
AcDbLine
 10
85.185713
 20
116.806687
 30
0.0
 11
86.599927
 21
118.220901
 31
0.0
  0
LINE
  5
27F
330
27A
100
AcDbEntity
  8
GR1-1
  6
CONTINUOUS
 62
     6
100
AcDbLine
 10
83.7715
 20
116.806687
 30
0.0
 11
85.4715
 21
118.506687
 31
0.0
  0
LINE
  5
280
330
27A
100
AcDbEntity
  8
GR1-1
  6
CONTINUOUS
 62
     6
100
AcDbLine
 10
82.357286
 20
116.806687
 30
0.0
 11
84.999927
 21
119.449328
 31
0.0
  0
LINE
  5
281
330
27A
100
AcDbEntity
  8
GR1-1
  6
CONTINUOUS
 62
     6
100
AcDbLine
 10
80.943073
 20
116.806687
 30
0.0
 11
84.943073
 21
120.806687
 31
0.0
  0
LINE
  5
282
330
27A
100
AcDbEntity
  8
GR1-1
  6
CONTINUOUS
 62
     6
100
AcDbLine
 10
79.528859
 20
116.806687
 30
0.0
 11
83.528859
 21
120.806687
 31
0.0
  0
LINE
  5
283
330
27A
100
AcDbEntity
  8
GR1-1
  6
CONTINUOUS
 62
     6
100
AcDbLine
 10
78.114645
 20
116.806687
 30
0.0
 11
81.147477
 21
119.839519
 31
0.0
  0
LINE
  5
284
330
27A
100
AcDbEntity
  8
GR1-1
  6
CONTINUOUS
 62
     6
100
AcDbLine
 10
76.700432
 20
116.806687
 30
0.0
 11
79.75288
 21
119.859135
 31
0.0
  0
LINE
  5
285
330
27A
100
AcDbEntity
  8
GR1-1
  6
CONTINUOUS
 62
     6
100
AcDbLine
 10
75.286218
 20
116.806687
 30
0.0
 11
78.861211
 21
120.38168
 31
0.0
  0
LINE
  5
286
330
27A
100
AcDbEntity
  8
GR1-1
  6
CONTINUOUS
 62
     6
100
AcDbLine
 10
74.485966
 20
117.420648
 30
0.0
 11
76.372005
 21
119.306687
 31
0.0
  0
LINE
  5
287
330
27A
100
AcDbEntity
  8
GR1-1
  6
CONTINUOUS
 62
     6
100
AcDbLine
 10
77.599927
 20
120.534609
 30
0.0
 11
77.872005
 21
120.806687
 31
0.0
  0
LINE
  5
288
330
27A
100
AcDbEntity
  8
GR1-1
  6
CONTINUOUS
 62
     6
100
AcDbLine
 10
74.099927
 20
118.448823
 30
0.0
 11
74.957791
 21
119.306687
 31
0.0
  0
ENDBLK
  5
27C
330
27A
100
AcDbEntity
  8
0
100
AcDbBlockEnd
  0
BLOCK
  5
28A
330
289
100
AcDbEntity
  8
0
100
AcDbBlockBegin
  2
BLKF037
 70
     0
 71
     0
 10
0.0
 20
0.0
 30
0.0
  3
BLKF037
  1

  0
LINE
  5
28D
330
289
100
AcDbEntity
  8
GR1-1
  6
CONTINUOUS
 62
     6
100
AcDbLine
 10
85.193398
 20
125.691821
 30
0.0
 11
84.285061
 21
126.600158
 31
0.0
  0
LINE
  5
28E
330
289
100
AcDbEntity
  8
GR1-1
  6
CONTINUOUS
 62
     6
100
AcDbLine
 10
85.399927
 20
124.071078
 30
0.0
 11
84.673224
 21
124.797781
 31
0.0
  0
LINE
  5
28F
330
289
100
AcDbEntity
  8
GR1-1
  6
CONTINUOUS
 62
     6
100
AcDbLine
 10
83.391021
 20
126.079984
 30
0.0
 11
82.664318
 21
126.806687
 31
0.0
  0
LINE
  5
290
330
289
100
AcDbEntity
  8
GR1-1
  6
CONTINUOUS
 62
     6
100
AcDbLine
 10
81.950105
 20
126.106687
 30
0.0
 11
81.250105
 21
126.806687
 31
0.0
  0
LINE
  5
291
330
289
100
AcDbEntity
  8
GR1-1
  6
CONTINUOUS
 62
     6
100
AcDbLine
 10
80.535891
 20
126.106687
 30
0.0
 11
79.835891
 21
126.806687
 31
0.0
  0
LINE
  5
292
330
289
100
AcDbEntity
  8
GR1-1
  6
CONTINUOUS
 62
     6
100
AcDbLine
 10
79.121677
 20
126.106687
 30
0.0
 11
78.421677
 21
126.806687
 31
0.0
  0
LINE
  5
293
330
289
100
AcDbEntity
  8
GR1-1
  6
CONTINUOUS
 62
     6
100
AcDbLine
 10
77.499927
 20
127.728438
 30
0.0
 11
76.950898
 21
128.277467
 31
0.0
  0
LINE
  5
294
330
289
100
AcDbEntity
  8
GR1-1
  6
CONTINUOUS
 62
     6
100
AcDbLine
 10
77.702729
 20
126.111422
 30
0.0
 11
76.804662
 21
127.009489
 31
0.0
  0
LINE
  5
295
330
289
100
AcDbEntity
  8
GR1-1
  6
CONTINUOUS
 62
     6
100
AcDbLine
 10
76.799927
 20
127.014224
 30
0.0
 11
76.099927
 21
127.714224
 31
0.0
  0
LINE
  5
296
330
289
100
AcDbEntity
  8
GR1-1
  6
CONTINUOUS
 62
     6
100
AcDbLine
 10
76.799927
 20
125.60001
 30
0.0
 11
76.099927
 21
126.30001
 31
0.0
  0
LINE
  5
297
330
289
100
AcDbEntity
  8
GR1-1
  6
CONTINUOUS
 62
     6
100
AcDbLine
 10
76.799927
 20
124.185797
 30
0.0
 11
76.099927
 21
124.885797
 31
0.0
  0
LINE
  5
298
330
289
100
AcDbEntity
  8
GR1-1
  6
CONTINUOUS
 62
     6
100
AcDbLine
 10
76.799927
 20
122.771583
 30
0.0
 11
76.099927
 21
123.471583
 31
0.0
  0
LINE
  5
299
330
289
100
AcDbEntity
  8
GR1-1
  6
CONTINUOUS
 62
     6
100
AcDbLine
 10
76.799927
 20
121.35737
 30
0.0
 11
76.099927
 21
122.05737
 31
0.0
  0
LINE
  5
29A
330
289
100
AcDbEntity
  8
GR1-1
  6
CONTINUOUS
 62
     6
100
AcDbLine
 10
76.799927
 20
119.943156
 30
0.0
 11
76.099927
 21
120.643156
 31
0.0
  0
ENDBLK
  5
28B
330
289
100
AcDbEntity
  8
0
100
AcDbBlockEnd
  0
BLOCK
  5
29C
330
29B
100
AcDbEntity
  8
0
100
AcDbBlockBegin
  2
BLKF038
 70
     0
 71
     0
 10
0.0
 20
0.0
 30
0.0
  3
BLKF038
  1

  0
LINE
  5
29F
330
29B
100
AcDbEntity
  8
GR1-1
  6
CONTINUOUS
 62
     6
100
AcDbLine
 10
77.799927
 20
124.692473
 30
0.0
 11
76.799927
 21
125.692473
 31
0.0
  0
LINE
  5
2A0
330
29B
100
AcDbEntity
  8
GR1-1
  6
CONTINUOUS
 62
     6
100
AcDbLine
 10
77.799927
 20
123.27826
 30
0.0
 11
76.799927
 21
124.27826
 31
0.0
  0
LINE
  5
2A1
330
29B
100
AcDbEntity
  8
GR1-1
  6
CONTINUOUS
 62
     6
100
AcDbLine
 10
77.799927
 20
121.864046
 30
0.0
 11
76.799927
 21
122.864046
 31
0.0
  0
LINE
  5
2A2
330
29B
100
AcDbEntity
  8
GR1-1
  6
CONTINUOUS
 62
     6
100
AcDbLine
 10
76.943073
 20
121.306687
 30
0.0
 11
76.799927
 21
121.449833
 31
0.0
  0
ENDBLK
  5
29D
330
29B
100
AcDbEntity
  8
0
100
AcDbBlockEnd
  0
BLOCK
  5
2A4
330
2A3
100
AcDbEntity
  8
0
100
AcDbBlockBegin
  2
BLKF039
 70
     0
 71
     0
 10
0.0
 20
0.0
 30
0.0
  3
BLKF039
  1

  0
LINE
  5
2A7
330
2A3
100
AcDbEntity
  8
GR1-1
  6
CONTINUOUS
 62
     6
100
AcDbLine
 10
84.687616
 20
124.704784
 30
0.0
 11
83.298024
 21
126.094376
 31
0.0
  0
LINE
  5
2A8
330
2A3
100
AcDbEntity
  8
GR1-1
  6
CONTINUOUS
 62
     6
100
AcDbLine
 10
84.699927
 20
123.27826
 30
0.0
 11
81.8715
 21
126.106687
 31
0.0
  0
LINE
  5
2A9
330
2A3
100
AcDbEntity
  8
GR1-1
  6
CONTINUOUS
 62
     6
100
AcDbLine
 10
84.699927
 20
121.864046
 30
0.0
 11
83.099927
 21
123.464046
 31
0.0
  0
LINE
  5
2AA
330
2A3
100
AcDbEntity
  8
GR1-1
  6
CONTINUOUS
 62
     6
100
AcDbLine
 10
82.057286
 20
124.506687
 30
0.0
 11
80.457286
 21
126.106687
 31
0.0
  0
LINE
  5
2AB
330
2A3
100
AcDbEntity
  8
GR1-1
  6
CONTINUOUS
 62
     6
100
AcDbLine
 10
83.593073
 20
121.556687
 30
0.0
 11
83.099927
 21
122.049833
 31
0.0
  0
LINE
  5
2AC
330
2A3
100
AcDbEntity
  8
GR1-1
  6
CONTINUOUS
 62
     6
100
AcDbLine
 10
80.643073
 20
124.506687
 30
0.0
 11
79.043073
 21
126.106687
 31
0.0
  0
LINE
  5
2AD
330
2A3
100
AcDbEntity
  8
GR1-1
  6
CONTINUOUS
 62
     6
100
AcDbLine
 10
79.228859
 20
124.506687
 30
0.0
 11
77.799927
 21
125.935619
 31
0.0
  0
LINE
  5
2AE
330
2A3
100
AcDbEntity
  8
GR1-1
  6
CONTINUOUS
 62
     6
100
AcDbLine
 10
77.814645
 20
124.506687
 30
0.0
 11
77.799927
 21
124.521406
 31
0.0
  0
ENDBLK
  5
2A5
330
2A3
100
AcDbEntity
  8
0
100
AcDbBlockEnd
  0
BLOCK
  5
2E9
330
2E8
100
AcDbEntity
  8
0
100
AcDbBlockBegin
  2
*D38
 70
     1
 71
     0
 10
0.0
 20
0.0
 30
0.0
  3
*D38
  1

  0
TEXT
  5
2EB
330
2E8
100
AcDbEntity
  8
}}ﾊﾊGG血CCТ
  6
CONTINUOUS
 62
     7
100
AcDbText
 10
119.360931
 20
107.306694
 30
0.0
 40
4.0
  1
%%c10
 50
90.0
 41
0.84375
  7
FX_VECTOR
 72
     5
 11
119.360931
 21
116.306694
 31
0.0
100
AcDbText
  0
LINE
  5
2EC
330
2E8
100
AcDbEntity
  8
}}ﾊﾊGG血CCТ
  6
CONTINUOUS
 62
     7
100
AcDbLine
 10
120.36093
 20
106.806687
 30
0.0
 11
120.36093
 21
116.806687
 31
0.0
  0
INSERT
  5
2ED
330
2E8
100
AcDbEntity
  8
}}ﾊﾊGG血CCТ
  6
CONTINUOUS
 62
     7
100
AcDbBlockReference
  2
FXTIP_ARROW_S
 10
120.36093
 20
106.806687
 30
0.0
 41
4.0
 42
4.0
 50
270.0
  0
INSERT
  5
2EE
330
2E8
100
AcDbEntity
  8
}}ﾊﾊGG血CCТ
  6
CONTINUOUS
 62
     7
100
AcDbBlockReference
  2
FXTIP_ARROW_E
 10
120.36093
 20
116.806687
 30
0.0
 41
4.0
 42
4.0
 50
90.0
  0
LINE
  5
2EF
330
2E8
100
AcDbEntity
  8
}}ﾊﾊGG血CCТ
  6
CONTINUOUS
 62
     7
100
AcDbLine
 10
109.099927
 20
106.806687
 30
0.0
 11
121.36093
 21
106.806687
 31
0.0
  0
LINE
  5
2F0
330
2E8
100
AcDbEntity
  8
}}ﾊﾊGG血CCТ
  6
CONTINUOUS
 62
     7
100
AcDbLine
 10
109.099927
 20
116.806687
 30
0.0
 11
121.36093
 21
116.806687
 31
0.0
  0
ENDBLK
  5
2EA
330
2E8
100
AcDbEntity
  8
0
100
AcDbBlockEnd
  0
BLOCK
  5
2F3
330
2F2
100
AcDbEntity
  8
0
100
AcDbBlockBegin
  2
BLKF041
 70
     0
 71
     0
 10
0.0
 20
0.0
 30
0.0
  3
BLKF041
  1

  0
LINE
  5
2F6
330
2F2
100
AcDbEntity
  8
GR1-1
  6
CONTINUOUS
 62
     7
100
AcDbLine
 10
188.594769
 20
133.227439
 30
0.0
 11
188.580806
 21
133.493874
 31
0.0
  0
LINE
  5
2F7
330
2F2
100
AcDbEntity
  8
GR1-1
  6
CONTINUOUS
 62
     7
100
AcDbLine
 10
188.468534
 20
133.08724
 30
0.0
 11
188.440607
 21
133.620109
 31
0.0
  0
LINE
  5
2F8
330
2F2
100
AcDbEntity
  8
GR1-1
  6
CONTINUOUS
 62
     7
100
AcDbLine
 10
188.342298
 20
132.947042
 30
0.0
 11
188.300409
 21
133.746345
 31
0.0
  0
LINE
  5
2F9
330
2F2
100
AcDbEntity
  8
GR1-1
  6
CONTINUOUS
 62
     7
100
AcDbLine
 10
188.216063
 20
132.806843
 30
0.0
 11
188.16021
 21
133.87258
 31
0.0
  0
LINE
  5
2FA
330
2F2
100
AcDbEntity
  8
GR1-1
  6
CONTINUOUS
 62
     7
100
AcDbLine
 10
188.089827
 20
132.666644
 30
0.0
 11
188.04166
 21
133.585722
 31
0.0
  0
LINE
  5
2FB
330
2F2
100
AcDbEntity
  8
GR1-1
  6
CONTINUOUS
 62
     7
100
AcDbLine
 10
188.028481
 20
133.837196
 30
0.0
 11
188.020011
 21
133.998816
 31
0.0
  0
LINE
  5
2FC
330
2F2
100
AcDbEntity
  8
GR1-1
  6
CONTINUOUS
 62
     7
100
AcDbLine
 10
187.963592
 20
132.526445
 30
0.0
 11
187.915425
 21
133.445523
 31
0.0
  0
LINE
  5
2FD
330
2F2
100
AcDbEntity
  8
GR1-1
  6
CONTINUOUS
 62
     7
100
AcDbLine
 10
187.888282
 20
133.963432
 30
0.0
 11
187.879812
 21
134.125051
 31
0.0
  0
LINE
  5
2FE
330
2F2
100
AcDbEntity
  8
GR1-1
  6
CONTINUOUS
 62
     7
100
AcDbLine
 10
187.837356
 20
132.386246
 30
0.0
 11
187.789189
 21
133.305324
 31
0.0
  0
LINE
  5
2FF
330
2F2
100
AcDbEntity
  8
GR1-1
  6
CONTINUOUS
 62
     7
100
AcDbLine
 10
187.748084
 20
134.089667
 30
0.0
 11
187.739613
 21
134.251287
 31
0.0
  0
LINE
  5
300
330
2F2
100
AcDbEntity
  8
GR1-1
  6
CONTINUOUS
 62
     7
100
AcDbLine
 10
187.71112
 20
132.246048
 30
0.0
 11
187.657252
 21
133.273915
 31
0.0
  0
LINE
  5
301
330
2F2
100
AcDbEntity
  8
GR1-1
  6
CONTINUOUS
 62
     7
100
AcDbLine
 10
187.607885
 20
134.215903
 30
0.0
 11
187.599415
 21
134.377522
 31
0.0
  0
LINE
  5
302
330
2F2
100
AcDbEntity
  8
GR1-1
  6
CONTINUOUS
 62
     7
100
AcDbLine
 10
187.584885
 20
132.105849
 30
0.0
 11
187.517053
 21
133.400151
 31
0.0
  0
LINE
  5
303
330
2F2
100
AcDbEntity
  8
GR1-1
  6
CONTINUOUS
 62
     7
100
AcDbLine
 10
187.467686
 20
134.342138
 30
0.0
 11
187.459216
 21
134.503758
 31
0.0
  0
LINE
  5
304
330
2F2
100
AcDbEntity
  8
GR1-1
  6
CONTINUOUS
 62
     7
100
AcDbLine
 10
187.458649
 20
131.96565
 30
0.0
 11
187.376855
 21
133.526386
 31
0.0
  0
LINE
  5
305
330
2F2
100
AcDbEntity
  8
GR1-1
  6
CONTINUOUS
 62
     7
100
AcDbLine
 10
187.327487
 20
134.468374
 30
0.0
 11
187.319017
 21
134.629994
 31
0.0
  0
LINE
  5
306
330
2F2
100
AcDbEntity
  8
GR1-1
  6
CONTINUOUS
 62
     7
100
AcDbLine
 10
187.332414
 20
131.825451
 30
0.0
 11
187.240735
 21
133.574779
 31
0.0
  0
LINE
  5
307
330
2F2
100
AcDbEntity
  8
GR1-1
  6
CONTINUOUS
 62
     7
100
AcDbLine
 10
187.187288
 20
134.59461
 30
0.0
 11
187.178818
 21
134.756229
 31
0.0
  0
LINE
  5
308
330
2F2
100
AcDbEntity
  8
GR1-1
  6
CONTINUOUS
 62
     7
100
AcDbLine
 10
187.206178
 20
131.685252
 30
0.0
 11
187.192215
 21
131.951687
 31
0.0
  0
LINE
  5
309
330
2F2
100
AcDbEntity
  8
GR1-1
  6
CONTINUOUS
 62
     7
100
AcDbLine
 10
187.058076
 20
134.511216
 30
0.0
 11
187.038619
 21
134.882465
 31
0.0
  0
LINE
  5
30A
330
2F2
100
AcDbEntity
  8
GR1-1
  6
CONTINUOUS
 62
     7
100
AcDbLine
 10
187.079943
 20
131.545054
 30
0.0
 11
187.058998
 21
131.944705
 31
0.0
  0
LINE
  5
30B
330
2F2
100
AcDbEntity
  8
GR1-1
  6
CONTINUOUS
 62
     7
100
AcDbLine
 10
186.93184
 20
134.371017
 30
0.0
 11
186.898421
 21
135.0087
 31
0.0
  0
LINE
  5
30C
330
2F2
100
AcDbEntity
  8
GR1-1
  6
CONTINUOUS
 62
     7
100
AcDbLine
 10
186.953707
 20
131.404855
 30
0.0
 11
186.925781
 21
131.937724
 31
0.0
  0
LINE
  5
30D
330
2F2
100
AcDbEntity
  8
GR1-1
  6
CONTINUOUS
 62
     7
100
AcDbLine
 10
186.805605
 20
134.230818
 30
0.0
 11
186.790794
 21
134.513414
 31
0.0
  0
LINE
  5
30E
330
2F2
100
AcDbEntity
  8
GR1-1
  6
CONTINUOUS
 62
     7
100
AcDbLine
 10
186.786148
 20
134.602067
 30
0.0
 11
186.758222
 21
135.134936
 31
0.0
  0
LINE
  5
30F
330
2F2
100
AcDbEntity
  8
GR1-1
  6
CONTINUOUS
 62
     7
100
AcDbLine
 10
186.827472
 20
131.264656
 30
0.0
 11
186.792563
 21
131.930742
 31
0.0
  0
LINE
  5
310
330
2F2
100
AcDbEntity
  8
GR1-1
  6
CONTINUOUS
 62
     7
100
AcDbLine
 10
186.679369
 20
134.090619
 30
0.0
 11
186.664559
 21
134.373215
 31
0.0
  0
LINE
  5
311
330
2F2
100
AcDbEntity
  8
GR1-1
  6
CONTINUOUS
 62
     7
100
AcDbLine
 10
186.652931
 20
134.595085
 30
0.0
 11
186.618023
 21
135.261171
 31
0.0
  0
LINE
  5
312
330
2F2
100
AcDbEntity
  8
GR1-1
  6
CONTINUOUS
 62
     7
100
AcDbLine
 10
186.701236
 20
131.124457
 30
0.0
 11
186.659346
 21
131.92376
 31
0.0
  0
LINE
  5
313
330
2F2
100
AcDbEntity
  8
GR1-1
  6
CONTINUOUS
 62
     7
100
AcDbLine
 10
186.553134
 20
133.95042
 30
0.0
 11
186.538323
 21
134.233017
 31
0.0
  0
LINE
  5
314
330
2F2
100
AcDbEntity
  8
GR1-1
  6
CONTINUOUS
 62
     7
100
AcDbLine
 10
186.519714
 20
134.588104
 30
0.0
 11
186.477824
 21
135.387407
 31
0.0
  0
LINE
  5
315
330
2F2
100
AcDbEntity
  8
GR1-1
  6
CONTINUOUS
 62
     7
100
AcDbLine
 10
186.575
 20
130.984258
 30
0.0
 11
186.526129
 21
131.916779
 31
0.0
  0
LINE
  5
316
330
2F2
100
AcDbEntity
  8
GR1-1
  6
CONTINUOUS
 62
     7
100
AcDbLine
 10
186.491221
 20
132.582865
 30
0.0
 11
186.451657
 21
133.337797
 31
0.0
  0
LINE
  5
317
330
2F2
100
AcDbEntity
  8
GR1-1
  6
CONTINUOUS
 62
     7
100
AcDbLine
 10
186.426898
 20
133.810222
 30
0.0
 11
186.412088
 21
134.092818
 31
0.0
  0
LINE
  5
318
330
2F2
100
AcDbEntity
  8
GR1-1
  6
CONTINUOUS
 62
     7
100
AcDbLine
 10
186.386497
 20
134.581122
 30
0.0
 11
186.337625
 21
135.513643
 31
0.0
  0
LINE
  5
319
330
2F2
100
AcDbEntity
  8
GR1-1
  6
CONTINUOUS
 62
     7
100
AcDbLine
 10
186.448765
 20
130.84406
 30
0.0
 11
186.392912
 21
131.909797
 31
0.0
  0
LINE
  5
31A
330
2F2
100
AcDbEntity
  8
GR1-1
  6
CONTINUOUS
 62
     7
100
AcDbLine
 10
186.358004
 20
132.575883
 30
0.0
 11
186.325346
 21
133.199029
 31
0.0
  0
LINE
  5
31B
330
2F2
100
AcDbEntity
  8
GR1-1
  6
CONTINUOUS
 62
     7
100
AcDbLine
 10
186.300662
 20
133.670023
 30
0.0
 11
186.285852
 21
133.952619
 31
0.0
  0
LINE
  5
31C
330
2F2
100
AcDbEntity
  8
GR1-1
  6
CONTINUOUS
 62
     7
100
AcDbLine
 10
186.25328
 20
134.574141
 30
0.0
 11
186.197427
 21
135.639878
 31
0.0
  0
LINE
  5
31D
330
2F2
100
AcDbEntity
  8
GR1-1
  6
CONTINUOUS
 62
     7
100
AcDbLine
 10
186.322529
 20
130.703861
 30
0.0
 11
186.259695
 21
131.902815
 31
0.0
  0
LINE
  5
31E
330
2F2
100
AcDbEntity
  8
GR1-1
  6
CONTINUOUS
 62
     7
100
AcDbLine
 10
186.224787
 20
132.568901
 30
0.0
 11
186.199111
 21
133.05883
 31
0.0
  0
LINE
  5
31F
330
2F2
100
AcDbEntity
  8
GR1-1
  6
CONTINUOUS
 62
     7
100
AcDbLine
 10
186.174427
 20
133.529824
 30
0.0
 11
186.15497
 21
133.901073
 31
0.0
  0
LINE
  5
320
330
2F2
100
AcDbEntity
  8
GR1-1
  6
CONTINUOUS
 62
     7
100
AcDbLine
 10
186.120062
 20
134.567159
 30
0.0
 11
186.057228
 21
135.766114
 31
0.0
  0
LINE
  5
321
330
2F2
100
AcDbEntity
  8
GR1-1
  6
CONTINUOUS
 62
     7
100
AcDbLine
 10
186.196294
 20
130.563662
 30
0.0
 11
186.126478
 21
131.895834
 31
0.0
  0
LINE
  5
322
330
2F2
100
AcDbEntity
  8
GR1-1
  6
CONTINUOUS
 62
     7
100
AcDbLine
 10
186.091569
 20
132.56192
 30
0.0
 11
186.065132
 21
133.066386
 31
0.0
  0
LINE
  5
323
330
2F2
100
AcDbEntity
  8
GR1-1
  6
CONTINUOUS
 62
     7
100
AcDbLine
 10
186.048191
 20
133.389625
 30
0.0
 11
186.021753
 21
133.894092
 31
0.0
  0
LINE
  5
324
330
2F2
100
AcDbEntity
  8
GR1-1
  6
CONTINUOUS
 62
     7
100
AcDbLine
 10
185.986845
 20
134.560177
 30
0.0
 11
185.917029
 21
135.892349
 31
0.0
  0
LINE
  5
325
330
2F2
100
AcDbEntity
  8
GR1-1
  6
CONTINUOUS
 62
     7
100
AcDbLine
 10
186.070058
 20
130.423463
 30
0.0
 11
185.99326
 21
131.888852
 31
0.0
  0
LINE
  5
326
330
2F2
100
AcDbEntity
  8
GR1-1
  6
CONTINUOUS
 62
     7
100
AcDbLine
 10
185.958352
 20
132.554938
 30
0.0
 11
185.924933
 21
133.192622
 31
0.0
  0
LINE
  5
327
330
2F2
100
AcDbEntity
  8
GR1-1
  6
CONTINUOUS
 62
     7
100
AcDbLine
 10
185.921956
 20
133.249426
 30
0.0
 11
185.888536
 21
133.88711
 31
0.0
  0
LINE
  5
328
330
2F2
100
AcDbEntity
  8
GR1-1
  6
CONTINUOUS
 62
     7
100
AcDbLine
 10
185.853628
 20
134.553196
 30
0.0
 11
185.77683
 21
136.018585
 31
0.0
  0
LINE
  5
329
330
2F2
100
AcDbEntity
  8
GR1-1
  6
CONTINUOUS
 62
     7
100
AcDbLine
 10
185.932836
 20
130.492894
 30
0.0
 11
185.860043
 21
131.881871
 31
0.0
  0
LINE
  5
32A
330
2F2
100
AcDbEntity
  8
GR1-1
  6
CONTINUOUS
 62
     7
100
AcDbLine
 10
185.825135
 20
132.547956
 30
0.0
 11
185.755319
 21
133.880128
 31
0.0
  0
LINE
  5
32B
330
2F2
100
AcDbEntity
  8
GR1-1
  6
CONTINUOUS
 62
     7
100
AcDbLine
 10
185.720411
 20
134.546214
 30
0.0
 11
185.647618
 21
135.935191
 31
0.0
  0
LINE
  5
32C
330
2F2
100
AcDbEntity
  8
GR1-1
  6
CONTINUOUS
 62
     7
100
AcDbLine
 10
185.792638
 20
130.61913
 30
0.0
 11
185.726826
 21
131.874889
 31
0.0
  0
LINE
  5
32D
330
2F2
100
AcDbEntity
  8
GR1-1
  6
CONTINUOUS
 62
     7
100
AcDbLine
 10
185.691918
 20
132.540975
 30
0.0
 11
185.622102
 21
133.873147
 31
0.0
  0
LINE
  5
32E
330
2F2
100
AcDbEntity
  8
GR1-1
  6
CONTINUOUS
 62
     7
100
AcDbLine
 10
185.587194
 20
134.539233
 30
0.0
 11
185.521382
 21
135.794992
 31
0.0
  0
LINE
  5
32F
330
2F2
100
AcDbEntity
  8
GR1-1
  6
CONTINUOUS
 62
     7
100
AcDbLine
 10
185.652439
 20
130.745365
 30
0.0
 11
185.593609
 21
131.867907
 31
0.0
  0
LINE
  5
330
330
2F2
100
AcDbEntity
  8
GR1-1
  6
CONTINUOUS
 62
     7
100
AcDbLine
 10
185.558701
 20
132.533993
 30
0.0
 11
185.488885
 21
133.866165
 31
0.0
  0
LINE
  5
331
330
2F2
100
AcDbEntity
  8
GR1-1
  6
CONTINUOUS
 62
     7
100
AcDbLine
 10
185.453976
 20
134.532251
 30
0.0
 11
185.395147
 21
135.654793
 31
0.0
  0
LINE
  5
332
330
2F2
100
AcDbEntity
  8
GR1-1
  6
CONTINUOUS
 62
     7
100
AcDbLine
 10
185.51224
 20
130.871601
 30
0.0
 11
185.460392
 21
131.860926
 31
0.0
  0
LINE
  5
333
330
2F2
100
AcDbEntity
  8
GR1-1
  6
CONTINUOUS
 62
     7
100
AcDbLine
 10
185.425484
 20
132.527012
 30
0.0
 11
185.355667
 21
133.859183
 31
0.0
  0
LINE
  5
334
330
2F2
100
AcDbEntity
  8
GR1-1
  6
CONTINUOUS
 62
     7
100
AcDbLine
 10
185.320759
 20
134.525269
 30
0.0
 11
185.268911
 21
135.514594
 31
0.0
  0
LINE
  5
335
330
2F2
100
AcDbEntity
  8
GR1-1
  6
CONTINUOUS
 62
     7
100
AcDbLine
 10
185.372041
 20
130.997836
 30
0.0
 11
185.327174
 21
131.853944
 31
0.0
  0
LINE
  5
336
330
2F2
100
AcDbEntity
  8
GR1-1
  6
CONTINUOUS
 62
     7
100
AcDbLine
 10
185.292266
 20
132.52003
 30
0.0
 11
185.22245
 21
133.852202
 31
0.0
  0
LINE
  5
337
330
2F2
100
AcDbEntity
  8
GR1-1
  6
CONTINUOUS
 62
     7
100
AcDbLine
 10
185.187542
 20
134.518288
 30
0.0
 11
185.142675
 21
135.374396
 31
0.0
  0
LINE
  5
338
330
2F2
100
AcDbEntity
  8
GR1-1
  6
CONTINUOUS
 62
     7
100
AcDbLine
 10
185.231842
 20
131.124072
 30
0.0
 11
185.193957
 21
131.846962
 31
0.0
  0
LINE
  5
339
330
2F2
100
AcDbEntity
  8
GR1-1
  6
CONTINUOUS
 62
     7
100
AcDbLine
 10
185.054325
 20
134.511306
 30
0.0
 11
185.01644
 21
135.234197
 31
0.0
  0
LINE
  5
33A
330
2F2
100
AcDbEntity
  8
GR1-1
  6
CONTINUOUS
 62
     7
100
AcDbLine
 10
185.091644
 20
131.250307
 30
0.0
 11
185.06074
 21
131.839981
 31
0.0
  0
LINE
  5
33B
330
2F2
100
AcDbEntity
  8
GR1-1
  6
CONTINUOUS
 62
     7
100
AcDbLine
 10
184.921108
 20
134.504324
 30
0.0
 11
184.890204
 21
135.093998
 31
0.0
  0
LINE
  5
33C
330
2F2
100
AcDbEntity
  8
GR1-1
  6
CONTINUOUS
 62
     7
100
AcDbLine
 10
184.951445
 20
131.376543
 30
0.0
 11
184.927523
 21
131.832999
 31
0.0
  0
LINE
  5
33D
330
2F2
100
AcDbEntity
  8
GR1-1
  6
CONTINUOUS
 62
     7
100
AcDbLine
 10
184.787891
 20
134.497343
 30
0.0
 11
184.763969
 21
134.953799
 31
0.0
  0
LINE
  5
33E
330
2F2
100
AcDbEntity
  8
GR1-1
  6
CONTINUOUS
 62
     7
100
AcDbLine
 10
184.811246
 20
131.502779
 30
0.0
 11
184.794306
 21
131.826018
 31
0.0
  0
LINE
  5
33F
330
2F2
100
AcDbEntity
  8
GR1-1
  6
CONTINUOUS
 62
     7
100
AcDbLine
 10
184.654673
 20
134.490361
 30
0.0
 11
184.637733
 21
134.8136
 31
0.0
  0
LINE
  5
340
330
2F2
100
AcDbEntity
  8
GR1-1
  6
CONTINUOUS
 62
     7
100
AcDbLine
 10
184.671047
 20
131.629014
 30
0.0
 11
184.661089
 21
131.819036
 31
0.0
  0
LINE
  5
341
330
2F2
100
AcDbEntity
  8
GR1-1
  6
CONTINUOUS
 62
     7
100
AcDbLine
 10
184.521456
 20
134.48338
 30
0.0
 11
184.511498
 21
134.673402
 31
0.0
  0
LINE
  5
342
330
2F2
100
AcDbEntity
  8
GR1-1
  6
CONTINUOUS
 62
     7
100
AcDbLine
 10
184.530848
 20
131.75525
 30
0.0
 11
184.385262
 21
134.533203
 31
0.0
  0
LINE
  5
343
330
2F2
100
AcDbEntity
  8
GR1-1
  6
CONTINUOUS
 62
     7
100
AcDbLine
 10
184.39065
 20
131.881485
 30
0.0
 11
184.259026
 21
134.393004
 31
0.0
  0
LINE
  5
344
330
2F2
100
AcDbEntity
  8
GR1-1
  6
CONTINUOUS
 62
     7
100
AcDbLine
 10
184.250451
 20
132.007721
 30
0.0
 11
184.132791
 21
134.252805
 31
0.0
  0
LINE
  5
345
330
2F2
100
AcDbEntity
  8
GR1-1
  6
CONTINUOUS
 62
     7
100
AcDbLine
 10
184.110252
 20
132.133956
 30
0.0
 11
184.006555
 21
134.112606
 31
0.0
  0
LINE
  5
346
330
2F2
100
AcDbEntity
  8
GR1-1
  6
CONTINUOUS
 62
     7
100
AcDbLine
 10
183.970053
 20
132.260192
 30
0.0
 11
183.88032
 21
133.972408
 31
0.0
  0
LINE
  5
347
330
2F2
100
AcDbEntity
  8
GR1-1
  6
CONTINUOUS
 62
     7
100
AcDbLine
 10
183.829854
 20
132.386428
 30
0.0
 11
183.754084
 21
133.832209
 31
0.0
  0
LINE
  5
348
330
2F2
100
AcDbEntity
  8
GR1-1
  6
CONTINUOUS
 62
     7
100
AcDbLine
 10
183.689656
 20
132.512663
 30
0.0
 11
183.627849
 21
133.69201
 31
0.0
  0
LINE
  5
349
330
2F2
100
AcDbEntity
  8
GR1-1
  6
CONTINUOUS
 62
     7
100
AcDbLine
 10
183.549457
 20
132.638899
 30
0.0
 11
183.501613
 21
133.551811
 31
0.0
  0
LINE
  5
34A
330
2F2
100
AcDbEntity
  8
GR1-1
  6
CONTINUOUS
 62
     7
100
AcDbLine
 10
183.409258
 20
132.765134
 30
0.0
 11
183.375378
 21
133.411612
 31
0.0
  0
LINE
  5
34B
330
2F2
100
AcDbEntity
  8
GR1-1
  6
CONTINUOUS
 62
     7
100
AcDbLine
 10
183.269059
 20
132.89137
 30
0.0
 11
183.249142
 21
133.271414
 31
0.0
  0
LINE
  5
34C
330
2F2
100
AcDbEntity
  8
GR1-1
  6
CONTINUOUS
 62
     7
100
AcDbLine
 10
183.12886
 20
133.017605
 30
0.0
 11
183.122906
 21
133.131215
 31
0.0
  0
ENDBLK
  5
2F4
330
2F2
100
AcDbEntity
  8
0
100
AcDbBlockEnd
  0
BLOCK
  5
372
330
371
100
AcDbEntity
  8
0
100
AcDbBlockBegin
  2
BLKF042
 70
     0
 71
     0
 10
0.0
 20
0.0
 30
0.0
  3
BLKF042
  1

  0
LINE
  5
375
330
371
100
AcDbEntity
  8
}}ﾊﾊGG血CCТ
  6
CONTINUOUS
 62
     7
100
AcDbLine
 10
10.0
 20
10.0
 30
0.0
 11
287.0
 21
10.0
 31
0.0
  0
LINE
  5
376
330
371
100
AcDbEntity
  8
}}ﾊﾊGG血CCТ
  6
CONTINUOUS
 62
     7
100
AcDbLine
 10
10.0
 20
10.0
 30
0.0
 11
10.0
 21
200.0
 31
0.0
  0
LINE
  5
377
330
371
100
AcDbEntity
  8
}}ﾊﾊGG血CCТ
  6
CONTINUOUS
 62
     7
100
AcDbLine
 10
10.0
 20
200.0
 30
0.0
 11
287.0
 21
200.0
 31
0.0
  0
LINE
  5
378
330
371
100
AcDbEntity
  8
}}ﾊﾊGG血CCТ
  6
CONTINUOUS
 62
     7
100
AcDbLine
 10
287.0
 20
200.0
 30
0.0
 11
287.0
 21
10.0
 31
0.0
  0
LINE
  5
379
330
371
100
AcDbEntity
  8
}}ﾊﾊGG血CCТ
  6
CONTINUOUS
 62
     7
100
AcDbLine
 10
30.0
 20
10.0
 30
0.0
 11
30.0
 21
20.0
 31
0.0
  0
TEXT
  5
37A
330
371
100
AcDbEntity
  8
}}ﾊﾊGG血CCТ
  6
CONTINUOUS
 62
     7
100
AcDbText
 10
14.738815
 20
11.596879
 30
0.0
 40
6.648749
  1
品名
 41
1.083413
  7
FX_VECTOR
 72
     5
 11
26.058355
 21
11.596879
 31
0.0
100
AcDbText
  0
LINE
  5
37B
330
371
100
AcDbEntity
  8
}}ﾊﾊGG血CCТ
  6
CONTINUOUS
 62
     7
100
AcDbLine
 10
110.0
 20
20.0
 30
0.0
 11
110.0
 21
10.0
 31
0.0
  0
LINE
  5
37C
330
371
100
AcDbEntity
  8
}}ﾊﾊGG血CCТ
  6
CONTINUOUS
 62
     7
100
AcDbLine
 10
10.0
 20
20.0
 30
0.0
 11
287.0
 21
20.0
 31
0.0
  0
INSERT
  5
380
330
371
100
AcDbEntity
  8
0
100
AcDbBlockReference
  2
BLKF043
 10
0.0
 20
0.0
 30
0.0
  0
INSERT
  5
389
330
371
100
AcDbEntity
  8
0
100
AcDbBlockReference
  2
BLKF044
 10
0.0
 20
0.0
 30
0.0
  0
HATCH
  5
399
330
371
100
AcDbEntity
  8
GR1-1
  6
CONTINUOUS
 62
     7
100
AcDbHatch
 10
0.0
 20
0.0
 30
0.0
210
0.0
220
0.0
230
1.0
  2

 70
     0
 71
     1
 91
        2
 92
        0
 93
        4
 72
     1
 10
215.8018997861325
 20
17.91346152
 11
221.8018997861325
 21
17.91346152
 72
     1
 10
221.8018997861325
 20
17.91346152
 11
221.8018997861325
 21
11.91346152
 72
     1
 10
221.8018997861325
 20
11.91346152
 11
215.8018997861325
 21
11.91346152
 72
     1
 10
215.8018997861325
 20
11.91346152
 11
215.8018997861325
 21
17.91346152
 97
        0
 92
        0
 93
       15
 72
     1
 10
218.8018997861325
 20
17.76923076000002
 11
215.9461305461325
 21
14.91346152
 72
     1
 10
215.9461305461325
 20
14.91346152
 11
218.8018997861325
 21
12.05769228000001
 72
     1
 10
218.8018997861325
 20
12.05769228000001
 11
220.3595920661325
 21
13.61538462
 72
     1
 10
220.3595920661325
 20
13.61538462
 11
220.3595920661325
 21
12.98076924
 72
     1
 10
220.3595920661325
 20
12.98076924
 11
221.2249766861325
 21
12.98076924
 72
     1
 10
221.2249766861325
 20
12.98076924
 11
221.2249766861325
 21
15.00000000000001
 72
     1
 10
221.2249766861325
 20
15.00000000000001
 11
218.8018997861325
 21
15.00000000000001
 72
     1
 10
218.8018997861325
 20
15.00000000000001
 11
218.8018997861325
 21
14.13461538000001
 72
     1
 10
218.8018997861325
 20
14.13461538000001
 11
219.2461305461325
 21
14.13461538000001
 72
     1
 10
219.2461305461325
 20
14.13461538000001
 11
218.8018997861325
 21
13.69038462
 72
     1
 10
218.8018997861325
 20
13.69038462
 11
217.5788228861325
 21
14.91346152
 72
     1
 10
217.5788228861325
 20
14.91346152
 11
218.8018997861325
 21
16.13653842000003
 72
     1
 10
218.8018997861325
 20
16.13653842000003
 11
219.5922844061325
 21
15.3461538
 72
     1
 10
219.5922844061325
 20
15.3461538
 11
221.2249766861325
 21
15.3461538
 72
     1
 10
221.2249766861325
 20
15.3461538
 11
218.8018997861325
 21
17.76923076000002
 97
        0
 75
     0
 76
     0
 52
45.0
 41
0.05
 77
     0
 78
     1
 53
45.0
 43
0.0
 44
0.0
 45
-0.0353553390593274
 46
0.0353553390593274
 79
     0
 98
        0
  0
TEXT
  5
39A
330
371
100
AcDbEntity
  8
}}ﾊﾊGG血CCТ
  6
CONTINUOUS
 62
     7
100
AcDbText
 10
226.225754
 20
11.461285
 30
0.0
 40
6.0
  1
GOLD CASTER
 41
0.719626
  7
FX_VECTOR
 72
     5
 11
270.225754
 21
11.461285
 31
0.0
100
AcDbText
  0
LINE
  5
39B
330
371
100
AcDbEntity
  8
}}ﾊﾊGG血CCТ
  6
CONTINUOUS
 62
     7
100
AcDbLine
 10
130.0
 20
10.0
 30
0.0
 11
130.0
 21
20.0
 31
0.0
  0
TEXT
  5
39C
330
371
100
AcDbEntity
  8
}}ﾊﾊGG血CCТ
  6
CONTINUOUS
 62
     7
100
AcDbText
 10
114.738815
 20
11.596879
 30
0.0
 40
6.648749
  1
図番
 41
1.083413
  7
FX_VECTOR
 72
     5
 11
126.058355
 21
11.596879
 31
0.0
100
AcDbText
  0
LINE
  5
39D
330
371
100
AcDbEntity
  8
}}ﾊﾊGG血CCТ
  6
CONTINUOUS
 62
     7
100
AcDbLine
 10
210.0
 20
20.0
 30
0.0
 11
210.0
 21
10.0
 31
0.0
  0
ENDBLK
  5
373
330
371
100
AcDbEntity
  8
0
100
AcDbBlockEnd
  0
BLOCK
  5
37E
330
37D
100
AcDbEntity
  8
0
100
AcDbBlockBegin
  2
BLKF043
 70
     0
 71
     0
 10
0.0
 20
0.0
 30
0.0
  3
BLKF043
  1

  0
LINE
  5
382
330
37D
100
AcDbEntity
  8
0-1
  6
CONTINUOUS
 62
     7
100
AcDbLine
 10
221.8019
 20
17.913462
 30
0.0
 11
215.8019
 21
17.913462
 31
0.0
  0
LINE
  5
383
330
37D
100
AcDbEntity
  8
0-1
  6
CONTINUOUS
 62
     7
100
AcDbLine
 10
215.8019
 20
17.913462
 30
0.0
 11
215.8019
 21
11.913462
 31
0.0
  0
LINE
  5
384
330
37D
100
AcDbEntity
  8
0-1
  6
CONTINUOUS
 62
     7
100
AcDbLine
 10
215.8019
 20
11.913462
 30
0.0
 11
221.8019
 21
11.913462
 31
0.0
  0
LINE
  5
385
330
37D
100
AcDbEntity
  8
0-1
  6
CONTINUOUS
 62
     7
100
AcDbLine
 10
221.8019
 20
11.913462
 30
0.0
 11
221.8019
 21
17.913462
 31
0.0
  0
ENDBLK
  5
37F
330
37D
100
AcDbEntity
  8
0
100
AcDbBlockEnd
  0
BLOCK
  5
387
330
386
100
AcDbEntity
  8
0
100
AcDbBlockBegin
  2
BLKF044
 70
     0
 71
     0
 10
0.0
 20
0.0
 30
0.0
  3
BLKF044
  1

  0
LINE
  5
38A
330
386
100
AcDbEntity
  8
0-1
  6
CONTINUOUS
 62
     7
100
AcDbLine
 10
221.224977
 20
15.346154
 30
0.0
 11
218.8019
 21
17.769231
 31
0.0
  0
LINE
  5
38B
330
386
100
AcDbEntity
  8
0-1
  6
CONTINUOUS
 62
     7
100
AcDbLine
 10
218.8019
 20
17.769231
 30
0.0
 11
215.946131
 21
14.913462
 31
0.0
  0
LINE
  5
38C
330
386
100
AcDbEntity
  8
0-1
  6
CONTINUOUS
 62
     7
100
AcDbLine
 10
215.946131
 20
14.913462
 30
0.0
 11
218.8019
 21
12.057692
 31
0.0
  0
LINE
  5
38D
330
386
100
AcDbEntity
  8
0-1
  6
CONTINUOUS
 62
     7
100
AcDbLine
 10
218.8019
 20
12.057692
 30
0.0
 11
220.359592
 21
13.615385
 31
0.0
  0
LINE
  5
38E
330
386
100
AcDbEntity
  8
0-1
  6
CONTINUOUS
 62
     7
100
AcDbLine
 10
220.359592
 20
13.615385
 30
0.0
 11
220.359592
 21
12.980769
 31
0.0
  0
LINE
  5
38F
330
386
100
AcDbEntity
  8
0-1
  6
CONTINUOUS
 62
     7
100
AcDbLine
 10
220.359592
 20
12.980769
 30
0.0
 11
221.224977
 21
12.980769
 31
0.0
  0
LINE
  5
390
330
386
100
AcDbEntity
  8
0-1
  6
CONTINUOUS
 62
     7
100
AcDbLine
 10
221.224977
 20
12.980769
 30
0.0
 11
221.224977
 21
15.0
 31
0.0
  0
LINE
  5
391
330
386
100
AcDbEntity
  8
0-1
  6
CONTINUOUS
 62
     7
100
AcDbLine
 10
221.224977
 20
15.0
 30
0.0
 11
218.8019
 21
15.0
 31
0.0
  0
LINE
  5
392
330
386
100
AcDbEntity
  8
0-1
  6
CONTINUOUS
 62
     7
100
AcDbLine
 10
218.8019
 20
15.0
 30
0.0
 11
218.8019
 21
14.134615
 31
0.0
  0
LINE
  5
393
330
386
100
AcDbEntity
  8
0-1
  6
CONTINUOUS
 62
     7
100
AcDbLine
 10
218.8019
 20
14.134615
 30
0.0
 11
219.246131
 21
14.134615
 31
0.0
  0
LINE
  5
394
330
386
100
AcDbEntity
  8
0-1
  6
CONTINUOUS
 62
     7
100
AcDbLine
 10
219.246131
 20
14.134615
 30
0.0
 11
218.8019
 21
13.690385
 31
0.0
  0
LINE
  5
395
330
386
100
AcDbEntity
  8
0-1
  6
CONTINUOUS
 62
     7
100
AcDbLine
 10
218.8019
 20
13.690385
 30
0.0
 11
217.578823
 21
14.913462
 31
0.0
  0
LINE
  5
396
330
386
100
AcDbEntity
  8
0-1
  6
CONTINUOUS
 62
     7
100
AcDbLine
 10
217.578823
 20
14.913462
 30
0.0
 11
218.8019
 21
16.136538
 31
0.0
  0
LINE
  5
397
330
386
100
AcDbEntity
  8
0-1
  6
CONTINUOUS
 62
     7
100
AcDbLine
 10
218.8019
 20
16.136538
 30
0.0
 11
219.592284
 21
15.346154
 31
0.0
  0
LINE
  5
398
330
386
100
AcDbEntity
  8
0-1
  6
CONTINUOUS
 62
     7
100
AcDbLine
 10
219.592284
 20
15.346154
 30
0.0
 11
221.224977
 21
15.346154
 31
0.0
  0
ENDBLK
  5
388
330
386
100
AcDbEntity
  8
0
100
AcDbBlockEnd
  0
ENDSEC
  0
SECTION
  2
ENTITIES
  0
TEXT
  5
A8
330
1F
100
AcDbEntity
  8
}}ﾊﾊGG血CCТ
  6
CONTINUOUS
 62
     7
100
AcDbText
 10
32.705303
 20
12.0
 30
0.0
 40
6.0
  1
Ｗ－　７５　ＵＢ
 41
0.794326
  7
FX_VECTOR
 72
     5
 11
64.705303
 21
12.0
 31
0.0
100
AcDbText
  0
LINE
  5
AA
330
1F
100
AcDbEntity
  8
GR1-1
  6
CENTER
 62
     6
100
AcDbLine
 10
91.599927
 20
71.080008
 30
0.0
 11
91.599927
 21
150.862283
 31
0.0
  0
LINE
  5
AB
330
1F
100
AcDbEntity
  8
GR1-1
  6
CENTER
 62
     6
100
AcDbLine
 10
71.288826
 20
111.806687
 30
0.0
 11
111.738453
 21
111.806687
 31
0.0
  0
LINE
  5
AC
330
1F
100
AcDbEntity
  8
GR1-1
  6
CENTER
 62
     6
100
AcDbLine
 10
168.94974
 20
111.806687
 30
0.0
 11
252.065412
 21
111.806687
 31
0.0
  0
LINE
  5
AD
330
1F
100
AcDbEntity
  8
GR1-1
  6
CENTER
 62
     6
100
AcDbLine
 10
209.676419
 20
69.971799
 30
0.0
 11
209.676419
 21
152.533366
 31
0.0
  0
LINE
  5
AE
330
1F
100
AcDbEntity
  8
GR1-1
  6
CONTINUOUS
 62
     3
100
AcDbLine
 10
92.999927
 20
82.506687
 30
0.0
 11
92.999927
 21
80.906687
 31
0.0
  0
LINE
  5
AF
330
1F
100
AcDbEntity
  8
GR1-1
  6
CONTINUOUS
 62
     3
100
AcDbLine
 10
90.199927
 20
80.806687
 30
0.0
 11
92.999927
 21
80.806687
 31
0.0
  0
LINE
  5
B0
330
1F
100
AcDbEntity
  8
GR1-1
  6
CONTINUOUS
 62
     3
100
AcDbLine
 10
91.499927
 20
79.406687
 30
0.0
 11
90.599927
 21
79.406687
 31
0.0
  0
ARC
  5
B1
330
1F
100
AcDbEntity
  8
GR1-1
  6
CONTINUOUS
 62
     3
100
AcDbCircle
 10
91.499927
 20
80.906687
 30
0.0
 40
1.5
100
AcDbArc
 50
270.0
 51
360.0
  0
ARC
  5
B2
330
1F
100
AcDbEntity
  8
GR1-1
  6
CONTINUOUS
 62
     3
100
AcDbCircle
 10
90.617539
 20
80.806687
 30
0.0
 40
1.4
100
AcDbArc
 50
192.994617
 51
270.0
  0
ARC
  5
B3
330
1F
100
AcDbEntity
  8
GR1-1
  6
CONTINUOUS
 62
     3
100
AcDbCircle
 10
93.299927
 20
82.506687
 30
0.0
 40
0.3
100
AcDbArc
 50
90.0
 51
180.0
  0
LINE
  5
B4
330
1F
100
AcDbEntity
  8
GR1-1
  6
CONTINUOUS
 62
     3
100
AcDbLine
 10
89.899927
 20
82.106687
 30
0.0
 11
90.199927
 21
80.806687
 31
0.0
  0
LINE
  5
B5
330
1F
100
AcDbEntity
  8
GR1-1
  6
CONTINUOUS
 62
     3
100
AcDbLine
 10
89.899927
 20
82.106687
 30
0.0
 11
88.932276
 21
81.883383
 31
0.0
  0
INSERT
  5
B9
330
1F
100
AcDbEntity
  8
0
100
AcDbBlockReference
  2
BLKF021
 10
0.0
 20
0.0
 30
0.0
  0
INSERT
  5
C8
330
1F
100
AcDbEntity
  8
0
100
AcDbBlockReference
  2
BLKF022
 10
0.0
 20
0.0
 30
0.0
  0
INSERT
  5
DA
330
1F
100
AcDbEntity
  8
0
100
AcDbBlockReference
  2
BLKF023
 10
0.0
 20
0.0
 30
0.0
  0
INSERT
  5
E2
330
1F
100
AcDbEntity
  8
0
100
AcDbBlockReference
  2
BLKF024
 10
0.0
 20
0.0
 30
0.0
  0
LINE
  5
EB
330
1F
100
AcDbEntity
  8
GR1-1
  6
CONTINUOUS
 62
     3
100
AcDbLine
 10
108.099927
 20
106.806687
 30
0.0
 11
97.299927
 21
106.806687
 31
0.0
  0
LINE
  5
EC
330
1F
100
AcDbEntity
  8
GR1-1
  6
CONTINUOUS
 62
     3
100
AcDbLine
 10
97.299927
 20
106.806687
 30
0.0
 11
96.599927
 21
106.106687
 31
0.0
  0
LINE
  5
ED
330
1F
100
AcDbEntity
  8
GR1-1
  6
CONTINUOUS
 62
     3
100
AcDbLine
 10
96.599927
 20
105.106687
 30
0.0
 11
96.599927
 21
118.506687
 31
0.0
  0
LINE
  5
EE
330
1F
100
AcDbEntity
  8
GR1-1
  6
CONTINUOUS
 62
     3
100
AcDbLine
 10
96.599927
 20
105.106687
 30
0.0
 11
98.199927
 21
105.106687
 31
0.0
  0
LINE
  5
EF
330
1F
100
AcDbEntity
  8
GR1-1
  6
CONTINUOUS
 62
     3
100
AcDbLine
 10
98.199927
 20
105.106687
 30
0.0
 11
98.199927
 21
102.806687
 31
0.0
  0
LINE
  5
F0
330
1F
100
AcDbEntity
  8
GR1-1
  6
CONTINUOUS
 62
     3
100
AcDbLine
 10
98.199927
 20
102.806687
 30
0.0
 11
100.735384
 21
102.806687
 31
0.0
  0
LINE
  5
F1
330
1F
100
AcDbEntity
  8
GR1-1
  6
CONTINUOUS
 62
     3
100
AcDbLine
 10
100.099927
 20
102.056687
 30
0.0
 11
98.499927
 21
102.056687
 31
0.0
  0
LINE
  5
F2
330
1F
100
AcDbEntity
  8
GR1-1
  6
CONTINUOUS
 62
     3
100
AcDbLine
 10
98.499927
 20
102.056687
 30
0.0
 11
98.499927
 21
99.106687
 31
0.0
  0
ARC
  5
F3
330
1F
100
AcDbEntity
  8
GR1-1
  6
CONTINUOUS
 62
     3
100
AcDbCircle
 10
100.099927
 20
99.106687
 30
0.0
 40
1.6
100
AcDbArc
 50
180.0
 51
270.0
  0
LINE
  5
F4
330
1F
100
AcDbEntity
  8
GR1-1
  6
CONTINUOUS
 62
     3
100
AcDbLine
 10
100.099927
 20
97.506687
 30
0.0
 11
106.399927
 21
97.506687
 31
0.0
  0
ARC
  5
F5
330
1F
100
AcDbEntity
  8
GR1-1
  6
CONTINUOUS
 62
     3
100
AcDbCircle
 10
105.399927
 20
96.506687
 30
0.0
 40
1.0
100
AcDbArc
 50
0.0
 51
90.0
  0
LINE
  5
F6
330
1F
100
AcDbEntity
  8
GR1-1
  6
CONTINUOUS
 62
     3
100
AcDbLine
 10
105.399927
 20
97.506687
 30
0.0
 11
105.399927
 21
102.306687
 31
0.0
  0
LINE
  5
F7
330
1F
100
AcDbEntity
  8
GR1-1
  6
CONTINUOUS
 62
     3
100
AcDbLine
 10
105.399927
 20
102.306687
 30
0.0
 11
106.399927
 21
102.306687
 31
0.0
  0
LINE
  5
F8
330
1F
100
AcDbEntity
  8
GR1-1
  6
CONTINUOUS
 62
     3
100
AcDbLine
 10
105.599927
 20
102.806687
 30
0.0
 11
105.599927
 21
104.306687
 31
0.0
  0
LINE
  5
F9
330
1F
100
AcDbEntity
  8
GR1-1
  6
CONTINUOUS
 62
     3
100
AcDbLine
 10
105.599927
 20
104.306687
 30
0.0
 11
108.799927
 21
104.306687
 31
0.0
  0
LINE
  5
FA
330
1F
100
AcDbEntity
  8
GR1-1
  6
CONTINUOUS
 62
     3
100
AcDbLine
 10
108.799927
 20
104.306687
 30
0.0
 11
109.099927
 21
104.606687
 31
0.0
  0
LINE
  5
FB
330
1F
100
AcDbEntity
  8
GR1-1
  6
CONTINUOUS
 62
     3
100
AcDbLine
 10
109.099927
 20
104.606687
 30
0.0
 11
109.099927
 21
119.006687
 31
0.0
  0
LINE
  5
FC
330
1F
100
AcDbEntity
  8
GR1-1
  6
CONTINUOUS
 62
     3
100
AcDbLine
 10
109.099927
 20
105.806687
 30
0.0
 11
108.099927
 21
106.806687
 31
0.0
  0
LINE
  5
FD
330
1F
100
AcDbEntity
  8
GR1-1
  6
CONTINUOUS
 62
     3
100
AcDbLine
 10
107.099927
 20
103.806687
 30
0.0
 11
106.399927
 21
103.806687
 31
0.0
  0
LINE
  5
FE
330
1F
100
AcDbEntity
  8
GR1-1
  6
CONTINUOUS
 62
     3
100
AcDbLine
 10
106.399927
 20
103.806687
 30
0.0
 11
106.399927
 21
96.006687
 31
0.0
  0
ARC
  5
FF
330
1F
100
AcDbEntity
  8
GR1-1
  6
CONTINUOUS
 62
     3
100
AcDbCircle
 10
106.501774
 20
96.19934
 30
0.0
 40
0.8996846452552031
100
AcDbArc
 50
206.96877
 51
311.670585
  0
LINE
  5
100
330
1F
100
AcDbEntity
  8
GR1-1
  6
CONTINUOUS
 62
     3
100
AcDbLine
 10
107.099927
 20
95.527294
 30
0.0
 11
107.099927
 21
103.806687
 31
0.0
  0
LINE
  5
101
330
1F
100
AcDbEntity
  8
GR1-1
  6
CONTINUOUS
 62
     3
100
AcDbLine
 10
105.599927
 20
102.806687
 30
0.0
 11
104.699927
 21
102.806687
 31
0.0
  0
CIRCLE
  5
102
330
1F
100
AcDbEntity
  8
GR1-1
  6
CONTINUOUS
 62
     3
100
AcDbCircle
 10
102.717655
 20
101.487687
 30
0.0
 40
2.380999999999958
  0
LINE
  5
103
330
1F
100
AcDbEntity
  8
GR1-1
  6
CONTINUOUS
 62
     3
100
AcDbLine
 10
105.399927
 20
99.106687
 30
0.0
 11
100.099927
 21
99.106687
 31
0.0
  0
LINE
  5
104
330
1F
100
AcDbEntity
  8
GR1-1
  6
CONTINUOUS
 62
     3
100
AcDbLine
 10
100.099927
 20
99.106687
 30
0.0
 11
100.099927
 21
102.056687
 31
0.0
  0
LINE
  5
105
330
1F
100
AcDbEntity
  8
GR1-1
  6
CONTINUOUS
 62
     3
100
AcDbLine
 10
98.499927
 20
99.906687
 30
0.0
 11
97.799927
 21
99.906687
 31
0.0
  0
LINE
  5
106
330
1F
100
AcDbEntity
  8
GR1-1
  6
CONTINUOUS
 62
     3
100
AcDbLine
 10
97.799927
 20
99.906687
 30
0.0
 11
97.799927
 21
98.806687
 31
0.0
  0
ARC
  5
107
330
1F
100
AcDbEntity
  8
GR1-1
  6
CONTINUOUS
 62
     3
100
AcDbCircle
 10
99.799927
 20
98.806687
 30
0.0
 40
2.0
100
AcDbArc
 50
180.0
 51
270.0
  0
LINE
  5
108
330
1F
100
AcDbEntity
  8
GR1-1
  6
CONTINUOUS
 62
     3
100
AcDbLine
 10
99.799927
 20
96.806687
 30
0.0
 11
105.399927
 21
96.806687
 31
0.0
  0
LINE
  5
109
330
1F
100
AcDbEntity
  8
GR1-1
  6
CONTINUOUS
 62
     3
100
AcDbLine
 10
105.699927
 20
95.791328
 30
0.0
 11
105.699927
 21
96.506687
 31
0.0
  0
ARC
  5
10A
330
1F
100
AcDbEntity
  8
GR1-1
  6
CONTINUOUS
 62
     3
100
AcDbCircle
 10
105.399927
 20
96.506687
 30
0.0
 40
0.3
100
AcDbArc
 50
0.0
 51
90.0
  0
LINE
  5
10B
330
1F
100
AcDbEntity
  8
GR1-1
  6
CONTINUOUS
 62
     3
100
AcDbLine
 10
97.299927
 20
116.806687
 30
0.0
 11
97.299927
 21
106.806687
 31
0.0
  0
LINE
  5
10C
330
1F
100
AcDbEntity
  8
GR1-1
  6
CONTINUOUS
 62
     6
100
AcDbLine
 10
97.799927
 20
105.106687
 30
0.0
 11
97.799927
 21
99.906687
 31
0.0
  0
LINE
  5
10D
330
1F
100
AcDbEntity
  8
GR1-1
  6
CONTINUOUS
 62
     6
100
AcDbLine
 10
98.499927
 20
102.056687
 30
0.0
 11
98.499927
 21
102.806687
 31
0.0
  0
LINE
  5
10E
330
1F
100
AcDbEntity
  8
GR1-1
  6
CONTINUOUS
 62
     6
100
AcDbLine
 10
101.217655
 20
101.487687
 30
0.0
 11
104.217655
 21
101.487687
 31
0.0
  0
LINE
  5
10F
330
1F
100
AcDbEntity
  8
GR1-1
  6
CONTINUOUS
 62
     6
100
AcDbLine
 10
102.717655
 20
102.987687
 30
0.0
 11
102.717655
 21
99.987687
 31
0.0
  0
LINE
  5
110
330
1F
100
AcDbEntity
  8
GR1-1
  6
CONTINUOUS
 62
     6
100
AcDbLine
 10
106.399927
 20
103.806687
 30
0.0
 11
106.399927
 21
104.306687
 31
0.0
  0
LINE
  5
111
330
1F
100
AcDbEntity
  8
GR1-1
  6
CONTINUOUS
 62
     6
100
AcDbLine
 10
107.099927
 20
104.306687
 30
0.0
 11
107.099927
 21
103.806687
 31
0.0
  0
LINE
  5
112
330
1F
100
AcDbEntity
  8
GR1-1
  6
CONTINUOUS
 62
     3
100
AcDbLine
 10
108.099927
 20
116.806687
 30
0.0
 11
108.099927
 21
106.806687
 31
0.0
  0
ARC
  5
113
330
1F
100
AcDbEntity
  8
GR1-1
  6
CONTINUOUS
 62
     3
100
AcDbCircle
 10
77.499927
 20
84.706687
 30
0.0
 40
0.5
100
AcDbArc
 50
180.0
 51
270.0
  0
LINE
  5
114
330
1F
100
AcDbEntity
  8
GR1-1
  6
CONTINUOUS
 62
     3
100
AcDbLine
 10
77.499927
 20
82.806687
 30
0.0
 11
89.899927
 21
82.806687
 31
0.0
  0
LINE
  5
115
330
1F
100
AcDbEntity
  8
GR1-1
  6
CONTINUOUS
 62
     3
100
AcDbLine
 10
77.499927
 20
84.206687
 30
0.0
 11
90.099927
 21
84.206687
 31
0.0
  0
LINE
  5
116
330
1F
100
AcDbEntity
  8
GR1-1
  6
CONTINUOUS
 62
     3
100
AcDbLine
 10
90.199927
 20
82.506687
 30
0.0
 11
90.199927
 21
80.906687
 31
0.0
  0
ARC
  5
117
330
1F
100
AcDbEntity
  8
GR1-1
  6
CONTINUOUS
 62
     7
100
AcDbCircle
 10
105.699927
 20
84.706687
 30
0.0
 40
0.5
100
AcDbArc
 50
270.0
 51
360.0
  0
ARC
  5
118
330
1F
100
AcDbEntity
  8
GR1-1
  6
CONTINUOUS
 62
     3
100
AcDbCircle
 10
105.699927
 20
84.706687
 30
0.0
 40
1.9
100
AcDbArc
 50
-90.0
 51
0.0
  0
LINE
  5
119
330
1F
100
AcDbEntity
  8
GR1-1
  6
CONTINUOUS
 62
     3
100
AcDbLine
 10
105.699927
 20
82.806687
 30
0.0
 11
93.299927
 21
82.806687
 31
0.0
  0
ARC
  5
11A
330
1F
100
AcDbEntity
  8
GR1-1
  6
CONTINUOUS
 62
     3
100
AcDbCircle
 10
77.499927
 20
84.706687
 30
0.0
 40
1.9
100
AcDbArc
 50
180.0
 51
270.0
  0
ARC
  5
11B
330
1F
100
AcDbEntity
  8
GR1-1
  6
CONTINUOUS
 62
     3
100
AcDbCircle
 10
90.099927
 20
82.706687
 30
0.0
 40
1.5
100
AcDbArc
 50
0.0
 51
90.0
  0
ARC
  5
11C
330
1F
100
AcDbEntity
  8
GR1-1
  6
CONTINUOUS
 62
     3
100
AcDbCircle
 10
89.899927
 20
82.506687
 30
0.0
 40
0.3
100
AcDbArc
 50
0.0
 51
90.0
  0
LINE
  5
11D
330
1F
100
AcDbEntity
  8
GR1-1
  6
CONTINUOUS
 62
     3
100
AcDbLine
 10
99.099927
 20
96.906687
 30
0.0
 11
104.699927
 21
96.906687
 31
0.0
  0
LINE
  5
11E
330
1F
100
AcDbEntity
  8
GR1-1
  6
CONTINUOUS
 62
     3
100
AcDbLine
 10
99.099927
 20
95.506687
 30
0.0
 11
104.699927
 21
95.506687
 31
0.0
  0
LINE
  5
11F
330
1F
100
AcDbEntity
  8
GR1-1
  6
CONTINUOUS
 62
     3
100
AcDbLine
 10
106.599927
 20
95.006687
 30
0.0
 11
106.599927
 21
93.619914
 31
0.0
  0
LINE
  5
120
330
1F
100
AcDbEntity
  8
GR1-1
  6
CONTINUOUS
 62
     3
100
AcDbLine
 10
105.199927
 20
95.006687
 30
0.0
 11
105.199927
 21
93.515505
 31
0.0
  0
ARC
  5
121
330
1F
100
AcDbEntity
  8
GR1-1
  6
CONTINUOUS
 62
     3
100
AcDbCircle
 10
104.699927
 20
95.006687
 30
0.0
 40
0.5
100
AcDbArc
 50
0.0
 51
90.0
  0
ARC
  5
122
330
1F
100
AcDbEntity
  8
GR1-1
  6
CONTINUOUS
 62
     3
100
AcDbCircle
 10
104.699927
 20
95.006687
 30
0.0
 40
1.9
100
AcDbArc
 50
0.0
 51
90.0
  0
ARC
  5
123
330
1F
100
AcDbEntity
  8
GR1-1
  6
CONTINUOUS
 62
     3
100
AcDbCircle
 10
105.699927
 20
84.706687
 30
0.0
 40
0.5
100
AcDbArc
 50
270.0
 51
360.0
  0
LINE
  5
124
330
1F
100
AcDbEntity
  8
GR1-1
  6
CONTINUOUS
 62
     3
100
AcDbLine
 10
105.699927
 20
84.206687
 30
0.0
 11
93.099927
 21
84.206687
 31
0.0
  0
ARC
  5
125
330
1F
100
AcDbEntity
  8
GR1-1
  6
CONTINUOUS
 62
     3
100
AcDbCircle
 10
107.599927
 20
90.306687
 30
0.0
 40
2.0
100
AcDbArc
 50
156.410176
 51
217.088438
  0
ARC
  5
126
330
1F
100
AcDbEntity
  8
GR1-1
  6
CONTINUOUS
 62
     3
100
AcDbCircle
 10
93.099927
 20
82.706687
 30
0.0
 40
1.5
100
AcDbArc
 50
90.0
 51
180.0
  0
ARC
  5
127
330
1F
100
AcDbEntity
  8
GR1-1
  6
CONTINUOUS
 62
     3
100
AcDbCircle
 10
107.599927
 20
90.306687
 30
0.0
 40
3.4
100
AcDbArc
 50
156.410176
 51
214.058297
  0
LINE
  5
128
330
1F
100
AcDbEntity
  8
GR1-1
  6
CONTINUOUS
 62
     3
100
AcDbLine
 10
105.116361
 20
93.115319
 30
0.0
 11
104.484052
 21
91.66732
 31
0.0
  0
LINE
  5
129
330
1F
100
AcDbEntity
  8
GR1-1
  6
CONTINUOUS
 62
     3
100
AcDbLine
 10
106.357585
 20
92.459374
 30
0.0
 11
105.767059
 21
91.10706
 31
0.0
  0
ARC
  5
12A
330
1F
100
AcDbEntity
  8
GR1-1
  6
CONTINUOUS
 62
     3
100
AcDbCircle
 10
104.199927
 20
93.515505
 30
0.0
 40
1.0
100
AcDbArc
 50
336.410176
 51
360.0
  0
LINE
  5
12B
330
1F
100
AcDbEntity
  8
GR1-1
  6
CONTINUOUS
 62
     3
100
AcDbLine
 10
106.028395
 20
86.560436
 30
0.0
 11
104.783135
 21
88.402564
 31
0.0
  0
LINE
  5
12C
330
1F
100
AcDbEntity
  8
GR1-1
  6
CONTINUOUS
 62
     3
100
AcDbLine
 10
107.102485
 20
87.471361
 30
0.0
 11
105.942991
 21
89.186615
 31
0.0
  0
ARC
  5
12D
330
1F
100
AcDbEntity
  8
GR1-1
  6
CONTINUOUS
 62
     3
100
AcDbCircle
 10
105.199927
 20
86.0004
 30
0.0
 40
1.0
100
AcDbArc
 50
0.0
 51
34.058297
  0
ARC
  5
12E
330
1F
100
AcDbEntity
  8
GR1-1
  6
CONTINUOUS
 62
     3
100
AcDbCircle
 10
104.699927
 20
85.847256
 30
0.0
 40
2.9
100
AcDbArc
 50
0.0
 51
34.058297
  0
ARC
  5
12F
330
1F
100
AcDbEntity
  8
GR1-1
  6
CONTINUOUS
 62
     3
100
AcDbCircle
 10
103.699927
 20
93.619914
 30
0.0
 40
2.9
100
AcDbArc
 50
-23.589824
 51
0.0
  0
LINE
  5
130
330
1F
100
AcDbEntity
  8
GR1-1
  6
CONTINUOUS
 62
     3
100
AcDbLine
 10
75.599927
 20
82.806687
 30
0.0
 11
75.599927
 21
104.306687
 31
0.0
  0
LINE
  5
131
330
1F
100
AcDbEntity
  8
GR1-1
  6
CONTINUOUS
 62
     3
100
AcDbLine
 10
107.599927
 20
82.806687
 30
0.0
 11
107.599927
 21
104.306687
 31
0.0
  0
LINE
  5
132
330
1F
100
AcDbEntity
  8
GR1-1
  6
CONTINUOUS
 62
     3
100
AcDbLine
 10
106.199927
 20
86.0004
 30
0.0
 11
106.199927
 21
84.706687
 31
0.0
  0
CIRCLE
  5
133
330
1F
100
AcDbEntity
  8
GR1-1
  6
CONTINUOUS
 62
     3
100
AcDbCircle
 10
209.676419
 20
111.806687
 30
0.0
 40
29.0
  0
TEXT
  5
134
330
1F
100
AcDbEntity
  8
GR1-1
  6
CONTINUOUS
 62
     7
100
AcDbText
 10
212.79863
 20
93.965424
 30
0.0
 40
3.615784
  1
7
 50
185.0
 41
1.137064
  7
STYLE1
 72
     5
 11
209.483035
 21
93.675347
 31
0.0
100
AcDbText
  0
TEXT
  5
135
330
1F
100
AcDbEntity
  8
GR1-1
  6
CONTINUOUS
 62
     7
100
AcDbText
 10
209.653091
 20
93.694321
 30
0.0
 40
3.615784
  1
5
 50
175.0
 41
1.137064
  7
STYLE1
 72
     5
 11
206.337497
 21
93.984398
 31
0.0
100
AcDbText
  0
TEXT
  5
136
330
1F
100
AcDbEntity
  8
GR1-1
  6
CONTINUOUS
 62
     7
100
AcDbText
 10
200.600037
 20
96.132584
 30
0.0
 40
3.615784
  1
2
 50
145.0
 41
1.137064
  7
STYLE1
 72
     5
 11
197.873686
 21
98.041595
 31
0.0
100
AcDbText
  0
TEXT
  5
137
330
1F
100
AcDbEntity
  8
GR1-1
  6
CONTINUOUS
 62
     7
100
AcDbText
 10
206.50827
 20
93.973526
 30
0.0
 40
3.615784
  1
X
 50
165.0
 41
1.137064
  7
STYLE1
 72
     5
 11
203.293418
 21
94.834943
 31
0.0
100
AcDbText
  0
TEXT
  5
138
330
1F
100
AcDbEntity
  8
GR1-1
  6
CONTINUOUS
 62
     7
100
AcDbText
 10
203.459717
 20
94.794586
 30
0.0
 40
3.615784
  1
3
 50
155.0
 41
1.137064
  7
STYLE1
 72
     5
 11
200.443289
 21
96.201169
 31
0.0
100
AcDbText
  0
LINE
  5
139
330
1F
100
AcDbEntity
  8
LAYERGROUP-1
  6
CONTINUOUS
 62
     7
100
AcDbLine
 10
218.442367
 20
93.008051
 30
0.0
 11
218.87406
 21
94.194117
 31
0.0
  0
LINE
  5
13A
330
1F
100
AcDbEntity
  8
LAYERGROUP-1
  6
CONTINUOUS
 62
     7
100
AcDbLine
 10
218.87406
 20
94.194117
 30
0.0
 11
217.687994
 21
94.62581
 31
0.0
  0
LINE
  5
13B
330
1F
100
AcDbEntity
  8
LAYERGROUP-1
  6
CONTINUOUS
 62
     7
100
AcDbLine
 10
217.687994
 20
94.62581
 30
0.0
 11
217.394443
 21
93.819285
 31
0.0
  0
LINE
  5
13C
330
1F
100
AcDbEntity
  8
LAYERGROUP-1
  6
CONTINUOUS
 62
     7
100
AcDbLine
 10
218.442367
 20
93.008051
 30
0.0
 11
217.493514
 21
93.353405
 31
0.0
  0
LINE
  5
13D
330
1F
100
AcDbEntity
  8
LAYERGROUP-1
  6
CONTINUOUS
 62
     7
100
AcDbLine
 10
218.271672
 20
93.374108
 30
0.0
 11
218.508003
 21
94.023422
 31
0.0
  0
LINE
  5
13E
330
1F
100
AcDbEntity
  8
LAYERGROUP-1
  6
CONTINUOUS
 62
     7
100
AcDbLine
 10
218.508003
 20
94.023422
 30
0.0
 11
217.858689
 21
94.259753
 31
0.0
  0
LINE
  5
13F
330
1F
100
AcDbEntity
  8
LAYERGROUP-1
  6
CONTINUOUS
 62
     7
100
AcDbLine
 10
217.858689
 20
94.259753
 30
0.0
 11
217.708697
 21
93.847652
 31
0.0
  0
LINE
  5
140
330
1F
100
AcDbEntity
  8
LAYERGROUP-1
  6
CONTINUOUS
 62
     7
100
AcDbLine
 10
218.271672
 20
93.374108
 30
0.0
 11
217.859571
 21
93.5241
 31
0.0
  0
LINE
  5
141
330
1F
100
AcDbEntity
  8
LAYERGROUP-1
  6
CONTINUOUS
 62
     7
100
AcDbLine
 10
218.065181
 20
93.816931
 30
0.0
 11
217.989743
 21
93.978706
 31
0.0
  0
LINE
  5
142
330
1F
100
AcDbEntity
  8
LAYERGROUP-1
  6
CONTINUOUS
 62
     7
100
AcDbLine
 10
217.989743
 20
93.978706
 30
0.0
 11
217.708697
 21
93.847652
 31
0.0
  0
LINE
  5
143
330
1F
100
AcDbEntity
  8
LAYERGROUP-1
  6
CONTINUOUS
 62
     7
100
AcDbLine
 10
218.065181
 20
93.816931
 30
0.0
 11
217.256301
 21
93.439744
 31
0.0
  0
LINE
  5
144
330
1F
100
AcDbEntity
  8
LAYERGROUP-1
  6
CONTINUOUS
 62
     7
100
AcDbLine
 10
217.256301
 20
93.439744
 30
0.0
 11
216.954551
 21
94.086847
 31
0.0
  0
LINE
  5
145
330
1F
100
AcDbEntity
  8
LAYERGROUP-1
  6
CONTINUOUS
 62
     7
100
AcDbLine
 10
216.954551
 20
94.086847
 30
0.0
 11
217.213393
 21
94.207547
 31
0.0
  0
LINE
  5
146
330
1F
100
AcDbEntity
  8
LAYERGROUP-1
  6
CONTINUOUS
 62
     7
100
AcDbLine
 10
217.213393
 20
94.207547
 30
0.0
 11
217.394443
 21
93.819285
 31
0.0
  0
LINE
  5
147
330
1F
100
AcDbEntity
  8
LAYERGROUP-1
  6
CONTINUOUS
 62
     7
100
AcDbLine
 10
217.859571
 20
93.5241
 30
0.0
 11
217.493514
 21
93.353405
 31
0.0
  0
LINE
  5
148
330
1F
100
AcDbEntity
  8
LAYERGROUP-1
  6
CONTINUOUS
 62
     7
100
AcDbLine
 10
219.48846
 20
93.298899
 30
0.0
 11
218.583212
 21
95.24021
 31
0.0
  0
LINE
  5
149
330
1F
100
AcDbEntity
  8
LAYERGROUP-1
  6
CONTINUOUS
 62
     7
100
AcDbLine
 10
218.583212
 20
95.24021
 30
0.0
 11
216.641901
 21
94.334962
 31
0.0
  0
LINE
  5
14A
330
1F
100
AcDbEntity
  8
LAYERGROUP-1
  6
CONTINUOUS
 62
     7
100
AcDbLine
 10
216.641901
 20
94.334962
 30
0.0
 11
217.547149
 21
92.393651
 31
0.0
  0
LINE
  5
14B
330
1F
100
AcDbEntity
  8
LAYERGROUP-1
  6
CONTINUOUS
 62
     7
100
AcDbLine
 10
217.547149
 20
92.393651
 30
0.0
 11
219.48846
 21
93.298899
 31
0.0
  0
LINE
  5
14C
330
1F
100
AcDbEntity
  8
LAYERGROUP-1
  6
CONTINUOUS
 62
     7
100
AcDbLine
 10
219.725674
 20
93.21256
 30
0.0
 11
218.669551
 21
95.477424
 31
0.0
  0
LINE
  5
14D
330
1F
100
AcDbEntity
  8
LAYERGROUP-1
  6
CONTINUOUS
 62
     7
100
AcDbLine
 10
218.669551
 20
95.477424
 30
0.0
 11
216.404687
 21
94.421301
 31
0.0
  0
LINE
  5
14E
330
1F
100
AcDbEntity
  8
LAYERGROUP-1
  6
CONTINUOUS
 62
     7
100
AcDbLine
 10
216.404687
 20
94.421301
 30
0.0
 11
217.460811
 21
92.156437
 31
0.0
  0
LINE
  5
14F
330
1F
100
AcDbEntity
  8
LAYERGROUP-1
  6
CONTINUOUS
 62
     7
100
AcDbLine
 10
217.460811
 20
92.156437
 30
0.0
 11
219.725674
 21
93.21256
 31
0.0
  0
CIRCLE
  5
150
330
1F
100
AcDbEntity
  8
GR1-1
  6
CONTINUOUS
 62
     6
100
AcDbCircle
 10
209.676419
 20
111.806687
 30
0.0
 40
21.5
  0
CIRCLE
  5
151
330
1F
100
AcDbEntity
  8
GR1-1
  6
CONTINUOUS
 62
     6
100
AcDbCircle
 10
209.676419
 20
111.806687
 30
0.0
 40
18.79235
  0
CIRCLE
  5
152
330
1F
100
AcDbEntity
  8
GR1-1
  6
CONTINUOUS
 62
     6
100
AcDbCircle
 10
209.676419
 20
111.806687
 30
0.0
 40
25.0712
  0
LINE
  5
153
330
1F
100
AcDbEntity
  8
GR1-1
  6
CONTINUOUS
 62
     3
100
AcDbLine
 10
81.662105
 20
74.306687
 30
0.0
 11
101.537749
 21
74.306687
 31
0.0
  0
LINE
  5
154
330
1F
100
AcDbEntity
  8
GR1-1
  6
CONTINUOUS
 62
     3
100
AcDbLine
 10
75.599927
 20
82.806687
 30
0.0
 11
79.930054
 21
75.306687
 31
0.0
  0
LINE
  5
155
330
1F
100
AcDbEntity
  8
GR1-1
  6
CONTINUOUS
 62
     3
100
AcDbLine
 10
107.599927
 20
82.806687
 30
0.0
 11
103.2698
 21
75.306687
 31
0.0
  0
ARC
  5
156
330
1F
100
AcDbEntity
  8
GR1-1
  6
CONTINUOUS
 62
     3
100
AcDbCircle
 10
101.537749
 20
76.306687
 30
0.0
 40
2.0
100
AcDbArc
 50
270.0
 51
330.0
  0
ARC
  5
157
330
1F
100
AcDbEntity
  8
GR1-1
  6
CONTINUOUS
 62
     3
100
AcDbCircle
 10
81.662105
 20
76.306687
 30
0.0
 40
2.0
100
AcDbArc
 50
210.0
 51
270.0
  0
LINE
  5
158
330
1F
100
AcDbEntity
  8
GR1-1
  6
CONTINUOUS
 62
     3
100
AcDbLine
 10
91.599927
 20
82.706687
 30
0.0
 11
91.599927
 21
80.806687
 31
0.0
  0
CIRCLE
  5
159
330
1F
100
AcDbEntity
  8
GR1-1
  6
CONTINUOUS
 62
     3
100
AcDbCircle
 10
209.676419
 20
111.806687
 30
0.0
 40
37.49999999999997
  0
LINE
  5
15A
330
1F
100
AcDbEntity
  8
GR1-1
  6
CONTINUOUS
 62
     3
100
AcDbLine
 10
99.099927
 20
96.906687
 30
0.0
 11
99.099927
 21
95.506687
 31
0.0
  0
LINE
  5
15B
330
1F
100
AcDbEntity
  8
GR1-1
  6
CONTINUOUS
 62
     3
100
AcDbLine
 10
88.932276
 20
81.883383
 30
0.0
 11
89.253391
 21
80.491884
 31
0.0
  0
DIMENSION
  5
15C
330
1F
100
AcDbEntity
  8
GR1-1
100
AcDbDimension
  2
*D23
 10
130.495821
 20
149.306687
 30
0.0
 11
129.495834
 21
111.806694
 31
0.0
 70
    33
  3
FXDIMINFO
100
AcDbAlignedDimension
 13
101.537749
 23
74.306687
 33
0.0
 14
101.537749
 24
149.306687
 34
0.0
1001
ACAD
1000
DSTYLE
1002
{
1070
     7
1000
FXTIP_ARROW_E
1070
     6
1000
FXTIP_ARROW_S
1070
   173
1070
     1
1002
}
  0
DIMENSION
  5
166
330
1F
100
AcDbEntity
  8
GR1-1
100
AcDbDimension
  2
*D24
 10
109.099927
 20
56.306687
 30
0.0
 11
91.59993
 21
57.306686
 31
0.0
 70
    33
  3
FXDIMINFO
100
AcDbAlignedDimension
 13
74.099927
 23
104.606687
 33
0.0
 14
109.099927
 24
104.606687
 34
0.0
1001
ACAD
1000
DSTYLE
1002
{
1070
     7
1000
FXTIP_ARROW_E
1070
     6
1000
FXTIP_ARROW_S
1070
   173
1070
     1
1002
}
  0
DIMENSION
  5
170
330
1F
100
AcDbEntity
  8
GR1-1
100
AcDbDimension
  2
*D25
 10
107.599927
 20
64.306687
 30
0.0
 11
91.59993
 21
65.306694
 31
0.0
 70
    33
  3
FXDIMINFO
100
AcDbAlignedDimension
 13
75.599927
 23
82.806687
 33
0.0
 14
107.599927
 24
82.806687
 34
0.0
1001
ACAD
1000
DSTYLE
1002
{
1070
     7
1000
FXTIP_ARROW_E
1070
     6
1000
FXTIP_ARROW_S
1070
   173
1070
     1
1002
}
  0
CIRCLE
  5
17A
330
1F
100
AcDbEntity
  8
GR1-1
  6
CONTINUOUS
 62
     3
100
AcDbCircle
 10
209.676419
 20
111.806687
 30
0.0
 40
4.999999999999972
  0
CIRCLE
  5
17B
330
1F
100
AcDbEntity
  8
GR1-1
  6
CONTINUOUS
 62
     3
100
AcDbCircle
 10
209.676419
 20
111.806687
 30
0.0
 40
7.5
  0
CIRCLE
  5
17C
330
1F
100
AcDbEntity
  8
GR1-1
  6
CONTINUOUS
 62
     3
100
AcDbCircle
 10
209.676419
 20
111.806687
 30
0.0
 40
8.0
  0
CIRCLE
  5
17D
330
1F
100
AcDbEntity
  8
GR1-1
  6
CONTINUOUS
 62
     3
100
AcDbCircle
 10
209.676419
 20
111.806687
 30
0.0
 40
16.49999999999999
  0
LINE
  5
17E
330
1F
100
AcDbEntity
  8
GR1-1
  6
CONTINUOUS
 62
     3
100
AcDbLine
 10
91.699927
 20
79.406687
 30
0.0
 11
91.599927
 21
79.406687
 31
0.0
  0
INSERT
  5
182
330
1F
100
AcDbEntity
  8
0
100
AcDbBlockReference
  2
BLKF028
 10
0.0
 20
0.0
 30
0.0
  0
INSERT
  5
191
330
1F
100
AcDbEntity
  8
0
100
AcDbBlockReference
  2
BLKF029
 10
0.0
 20
0.0
 30
0.0
  0
INSERT
  5
1A3
330
1F
100
AcDbEntity
  8
0
100
AcDbBlockReference
  2
BLKF030
 10
0.0
 20
0.0
 30
0.0
  0
INSERT
  5
1AB
330
1F
100
AcDbEntity
  8
0
100
AcDbBlockReference
  2
BLKF031
 10
0.0
 20
0.0
 30
0.0
  0
LINE
  5
1B4
330
1F
100
AcDbEntity
  8
GR1-1
  6
CONTINUOUS
 62
     3
100
AcDbLine
 10
75.099927
 20
106.806687
 30
0.0
 11
85.899927
 21
106.806687
 31
0.0
  0
LINE
  5
1B5
330
1F
100
AcDbEntity
  8
GR1-1
  6
CONTINUOUS
 62
     3
100
AcDbLine
 10
85.899927
 20
106.806687
 30
0.0
 11
86.599927
 21
106.106687
 31
0.0
  0
LINE
  5
1B6
330
1F
100
AcDbEntity
  8
GR1-1
  6
CONTINUOUS
 62
     3
100
AcDbLine
 10
86.599927
 20
105.106687
 30
0.0
 11
86.599927
 21
118.506687
 31
0.0
  0
LINE
  5
1B7
330
1F
100
AcDbEntity
  8
GR1-1
  6
CONTINUOUS
 62
     3
100
AcDbLine
 10
86.599927
 20
105.106687
 30
0.0
 11
84.999927
 21
105.106687
 31
0.0
  0
LINE
  5
1B8
330
1F
100
AcDbEntity
  8
GR1-1
  6
CONTINUOUS
 62
     3
100
AcDbLine
 10
84.999927
 20
105.106687
 30
0.0
 11
84.999927
 21
102.806687
 31
0.0
  0
LINE
  5
1B9
330
1F
100
AcDbEntity
  8
GR1-1
  6
CONTINUOUS
 62
     3
100
AcDbLine
 10
84.999927
 20
102.806687
 30
0.0
 11
82.46447
 21
102.806687
 31
0.0
  0
LINE
  5
1BA
330
1F
100
AcDbEntity
  8
GR1-1
  6
CONTINUOUS
 62
     3
100
AcDbLine
 10
83.099927
 20
102.056687
 30
0.0
 11
84.699927
 21
102.056687
 31
0.0
  0
LINE
  5
1BB
330
1F
100
AcDbEntity
  8
GR1-1
  6
CONTINUOUS
 62
     3
100
AcDbLine
 10
84.699927
 20
102.056687
 30
0.0
 11
84.699927
 21
99.106687
 31
0.0
  0
ARC
  5
1BC
330
1F
100
AcDbEntity
  8
GR1-1
  6
CONTINUOUS
 62
     3
100
AcDbCircle
 10
83.099927
 20
99.106687
 30
0.0
 40
1.6
100
AcDbArc
 50
270.0
 51
360.0
  0
LINE
  5
1BD
330
1F
100
AcDbEntity
  8
GR1-1
  6
CONTINUOUS
 62
     3
100
AcDbLine
 10
83.099927
 20
97.506687
 30
0.0
 11
76.799927
 21
97.506687
 31
0.0
  0
ARC
  5
1BE
330
1F
100
AcDbEntity
  8
GR1-1
  6
CONTINUOUS
 62
     3
100
AcDbCircle
 10
77.799927
 20
96.506687
 30
0.0
 40
1.0
100
AcDbArc
 50
90.0
 51
180.0
  0
LINE
  5
1BF
330
1F
100
AcDbEntity
  8
GR1-1
  6
CONTINUOUS
 62
     3
100
AcDbLine
 10
77.799927
 20
97.506687
 30
0.0
 11
77.799927
 21
102.306687
 31
0.0
  0
LINE
  5
1C0
330
1F
100
AcDbEntity
  8
GR1-1
  6
CONTINUOUS
 62
     3
100
AcDbLine
 10
77.799927
 20
102.306687
 30
0.0
 11
76.799927
 21
102.306687
 31
0.0
  0
LINE
  5
1C1
330
1F
100
AcDbEntity
  8
GR1-1
  6
CONTINUOUS
 62
     3
100
AcDbLine
 10
77.599927
 20
102.806687
 30
0.0
 11
77.599927
 21
104.306687
 31
0.0
  0
LINE
  5
1C2
330
1F
100
AcDbEntity
  8
GR1-1
  6
CONTINUOUS
 62
     3
100
AcDbLine
 10
77.599927
 20
104.306687
 30
0.0
 11
74.399927
 21
104.306687
 31
0.0
  0
LINE
  5
1C3
330
1F
100
AcDbEntity
  8
GR1-1
  6
CONTINUOUS
 62
     3
100
AcDbLine
 10
74.399927
 20
104.306687
 30
0.0
 11
74.099927
 21
104.606687
 31
0.0
  0
LINE
  5
1C4
330
1F
100
AcDbEntity
  8
GR1-1
  6
CONTINUOUS
 62
     3
100
AcDbLine
 10
74.099927
 20
104.606687
 30
0.0
 11
74.099927
 21
119.006687
 31
0.0
  0
LINE
  5
1C5
330
1F
100
AcDbEntity
  8
GR1-1
  6
CONTINUOUS
 62
     3
100
AcDbLine
 10
74.099927
 20
105.806687
 30
0.0
 11
75.099927
 21
106.806687
 31
0.0
  0
LINE
  5
1C6
330
1F
100
AcDbEntity
  8
GR1-1
  6
CONTINUOUS
 62
     3
100
AcDbLine
 10
76.099927
 20
103.806687
 30
0.0
 11
76.799927
 21
103.806687
 31
0.0
  0
LINE
  5
1C7
330
1F
100
AcDbEntity
  8
GR1-1
  6
CONTINUOUS
 62
     3
100
AcDbLine
 10
76.799927
 20
103.806687
 30
0.0
 11
76.799927
 21
96.006687
 31
0.0
  0
ARC
  5
1C8
330
1F
100
AcDbEntity
  8
GR1-1
  6
CONTINUOUS
 62
     3
100
AcDbCircle
 10
76.698079
 20
96.19934
 30
0.0
 40
0.8996846452552031
100
AcDbArc
 50
228.329415
 51
333.03123
  0
LINE
  5
1C9
330
1F
100
AcDbEntity
  8
GR1-1
  6
CONTINUOUS
 62
     3
100
AcDbLine
 10
76.099927
 20
95.527294
 30
0.0
 11
76.099927
 21
103.806687
 31
0.0
  0
LINE
  5
1CA
330
1F
100
AcDbEntity
  8
GR1-1
  6
CONTINUOUS
 62
     3
100
AcDbLine
 10
77.599927
 20
102.806687
 30
0.0
 11
78.499927
 21
102.806687
 31
0.0
  0
CIRCLE
  5
1CB
330
1F
100
AcDbEntity
  8
GR1-1
  6
CONTINUOUS
 62
     3
100
AcDbCircle
 10
80.482198
 20
101.487687
 30
0.0
 40
2.380999999999958
  0
LINE
  5
1CC
330
1F
100
AcDbEntity
  8
GR1-1
  6
CONTINUOUS
 62
     3
100
AcDbLine
 10
77.799927
 20
99.106687
 30
0.0
 11
83.099927
 21
99.106687
 31
0.0
  0
LINE
  5
1CD
330
1F
100
AcDbEntity
  8
GR1-1
  6
CONTINUOUS
 62
     3
100
AcDbLine
 10
83.099927
 20
99.106687
 30
0.0
 11
83.099927
 21
102.056687
 31
0.0
  0
LINE
  5
1CE
330
1F
100
AcDbEntity
  8
GR1-1
  6
CONTINUOUS
 62
     3
100
AcDbLine
 10
84.699927
 20
99.906687
 30
0.0
 11
85.399927
 21
99.906687
 31
0.0
  0
LINE
  5
1CF
330
1F
100
AcDbEntity
  8
GR1-1
  6
CONTINUOUS
 62
     3
100
AcDbLine
 10
85.399927
 20
99.906687
 30
0.0
 11
85.399927
 21
98.806687
 31
0.0
  0
ARC
  5
1D0
330
1F
100
AcDbEntity
  8
GR1-1
  6
CONTINUOUS
 62
     3
100
AcDbCircle
 10
83.399927
 20
98.806687
 30
0.0
 40
2.0
100
AcDbArc
 50
-90.0
 51
0.0
  0
LINE
  5
1D1
330
1F
100
AcDbEntity
  8
GR1-1
  6
CONTINUOUS
 62
     3
100
AcDbLine
 10
83.399927
 20
96.806687
 30
0.0
 11
77.799927
 21
96.806687
 31
0.0
  0
LINE
  5
1D2
330
1F
100
AcDbEntity
  8
GR1-1
  6
CONTINUOUS
 62
     3
100
AcDbLine
 10
77.499927
 20
95.791328
 30
0.0
 11
77.499927
 21
96.506687
 31
0.0
  0
ARC
  5
1D3
330
1F
100
AcDbEntity
  8
GR1-1
  6
CONTINUOUS
 62
     3
100
AcDbCircle
 10
77.799927
 20
96.506687
 30
0.0
 40
0.3
100
AcDbArc
 50
90.0
 51
180.0
  0
LINE
  5
1D4
330
1F
100
AcDbEntity
  8
GR1-1
  6
CONTINUOUS
 62
     3
100
AcDbLine
 10
85.899927
 20
116.806687
 30
0.0
 11
85.899927
 21
106.806687
 31
0.0
  0
LINE
  5
1D5
330
1F
100
AcDbEntity
  8
GR1-1
  6
CONTINUOUS
 62
     6
100
AcDbLine
 10
85.399927
 20
105.106687
 30
0.0
 11
85.399927
 21
99.906687
 31
0.0
  0
LINE
  5
1D6
330
1F
100
AcDbEntity
  8
GR1-1
  6
CONTINUOUS
 62
     6
100
AcDbLine
 10
84.699927
 20
102.056687
 30
0.0
 11
84.699927
 21
102.806687
 31
0.0
  0
LINE
  5
1D7
330
1F
100
AcDbEntity
  8
GR1-1
  6
CONTINUOUS
 62
     6
100
AcDbLine
 10
81.982198
 20
101.487687
 30
0.0
 11
78.982198
 21
101.487687
 31
0.0
  0
LINE
  5
1D8
330
1F
100
AcDbEntity
  8
GR1-1
  6
CONTINUOUS
 62
     6
100
AcDbLine
 10
80.482198
 20
102.987687
 30
0.0
 11
80.482198
 21
99.987687
 31
0.0
  0
LINE
  5
1D9
330
1F
100
AcDbEntity
  8
GR1-1
  6
CONTINUOUS
 62
     6
100
AcDbLine
 10
76.799927
 20
103.806687
 30
0.0
 11
76.799927
 21
104.306687
 31
0.0
  0
LINE
  5
1DA
330
1F
100
AcDbEntity
  8
GR1-1
  6
CONTINUOUS
 62
     6
100
AcDbLine
 10
76.099927
 20
104.306687
 30
0.0
 11
76.099927
 21
103.806687
 31
0.0
  0
LINE
  5
1DB
330
1F
100
AcDbEntity
  8
GR1-1
  6
CONTINUOUS
 62
     3
100
AcDbLine
 10
75.099927
 20
116.806687
 30
0.0
 11
75.099927
 21
106.806687
 31
0.0
  0
ARC
  5
1DC
330
1F
100
AcDbEntity
  8
GR1-1
  6
CONTINUOUS
 62
     7
100
AcDbCircle
 10
77.499927
 20
84.706687
 30
0.0
 40
0.5
100
AcDbArc
 50
180.0
 51
270.0
  0
LINE
  5
1DD
330
1F
100
AcDbEntity
  8
GR1-1
  6
CONTINUOUS
 62
     3
100
AcDbLine
 10
84.099927
 20
96.906687
 30
0.0
 11
78.499927
 21
96.906687
 31
0.0
  0
LINE
  5
1DE
330
1F
100
AcDbEntity
  8
GR1-1
  6
CONTINUOUS
 62
     3
100
AcDbLine
 10
84.099927
 20
95.506687
 30
0.0
 11
78.499927
 21
95.506687
 31
0.0
  0
LINE
  5
1DF
330
1F
100
AcDbEntity
  8
GR1-1
  6
CONTINUOUS
 62
     3
100
AcDbLine
 10
76.599927
 20
95.006687
 30
0.0
 11
76.599927
 21
93.619914
 31
0.0
  0
LINE
  5
1E0
330
1F
100
AcDbEntity
  8
GR1-1
  6
CONTINUOUS
 62
     3
100
AcDbLine
 10
77.999927
 20
95.006687
 30
0.0
 11
77.999927
 21
93.515505
 31
0.0
  0
ARC
  5
1E1
330
1F
100
AcDbEntity
  8
GR1-1
  6
CONTINUOUS
 62
     3
100
AcDbCircle
 10
78.499927
 20
95.006687
 30
0.0
 40
0.5
100
AcDbArc
 50
90.0
 51
180.0
  0
ARC
  5
1E2
330
1F
100
AcDbEntity
  8
GR1-1
  6
CONTINUOUS
 62
     3
100
AcDbCircle
 10
78.499927
 20
95.006687
 30
0.0
 40
1.9
100
AcDbArc
 50
90.0
 51
180.0
  0
ARC
  5
1E3
330
1F
100
AcDbEntity
  8
GR1-1
  6
CONTINUOUS
 62
     3
100
AcDbCircle
 10
75.599927
 20
90.306687
 30
0.0
 40
2.0
100
AcDbArc
 50
-37.088438
 51
23.589824
  0
ARC
  5
1E4
330
1F
100
AcDbEntity
  8
GR1-1
  6
CONTINUOUS
 62
     3
100
AcDbCircle
 10
75.599927
 20
90.306687
 30
0.0
 40
3.4
100
AcDbArc
 50
-34.058297
 51
23.589824
  0
LINE
  5
1E5
330
1F
100
AcDbEntity
  8
GR1-1
  6
CONTINUOUS
 62
     3
100
AcDbLine
 10
78.083493
 20
93.115319
 30
0.0
 11
78.715802
 21
91.66732
 31
0.0
  0
LINE
  5
1E6
330
1F
100
AcDbEntity
  8
GR1-1
  6
CONTINUOUS
 62
     3
100
AcDbLine
 10
76.842269
 20
92.459374
 30
0.0
 11
77.432794
 21
91.10706
 31
0.0
  0
ARC
  5
1E7
330
1F
100
AcDbEntity
  8
GR1-1
  6
CONTINUOUS
 62
     3
100
AcDbCircle
 10
78.999927
 20
93.515505
 30
0.0
 40
1.0
100
AcDbArc
 50
180.0
 51
203.589824
  0
LINE
  5
1E8
330
1F
100
AcDbEntity
  8
GR1-1
  6
CONTINUOUS
 62
     3
100
AcDbLine
 10
77.171459
 20
86.560436
 30
0.0
 11
78.416719
 21
88.402564
 31
0.0
  0
LINE
  5
1E9
330
1F
100
AcDbEntity
  8
GR1-1
  6
CONTINUOUS
 62
     3
100
AcDbLine
 10
76.097369
 20
87.471361
 30
0.0
 11
77.256863
 21
89.186615
 31
0.0
  0
ARC
  5
1EA
330
1F
100
AcDbEntity
  8
GR1-1
  6
CONTINUOUS
 62
     3
100
AcDbCircle
 10
77.999927
 20
86.0004
 30
0.0
 40
1.0
100
AcDbArc
 50
145.941703
 51
180.0
  0
ARC
  5
1EB
330
1F
100
AcDbEntity
  8
GR1-1
  6
CONTINUOUS
 62
     3
100
AcDbCircle
 10
78.499927
 20
85.847256
 30
0.0
 40
2.9
100
AcDbArc
 50
145.941703
 51
180.0
  0
ARC
  5
1EC
330
1F
100
AcDbEntity
  8
GR1-1
  6
CONTINUOUS
 62
     3
100
AcDbCircle
 10
79.499927
 20
93.619914
 30
0.0
 40
2.9
100
AcDbArc
 50
180.0
 51
203.589824
  0
LINE
  5
1ED
330
1F
100
AcDbEntity
  8
GR1-1
  6
CONTINUOUS
 62
     3
100
AcDbLine
 10
76.999927
 20
86.0004
 30
0.0
 11
76.999927
 21
84.706687
 31
0.0
  0
LINE
  5
1EE
330
1F
100
AcDbEntity
  8
GR1-1
  6
CONTINUOUS
 62
     3
100
AcDbLine
 10
84.099927
 20
96.906687
 30
0.0
 11
84.099927
 21
95.506687
 31
0.0
  0
HATCH
  5
1EF
330
1F
100
AcDbEntity
  8
}}ﾊﾊGG血CCТ
  6
CONTINUOUS
 62
     6
100
AcDbHatch
 10
0.0
 20
0.0
 30
0.0
210
0.0
220
0.0
230
1.0
  2

 70
     0
 71
     1
 91
        1
 92
        0
 93
       58
 72
     1
 10
84.09992686296287
 20
95.50668695102662
 11
84.09992686296287
 21
96.90668695102666
 72
     1
 10
84.09992686296287
 20
96.90668695102666
 11
78.49992686296289
 21
96.90668695102666
 72
     2
 10
78.49992686296289
 20
95.00668695102662
 40
1.9
 50
90.0
 51
180.0
 73
     1
 72
     1
 10
76.59992686296286
 20
95.00668695102662
 11
76.59992686296286
 21
93.6199142660267
 72
     2
 10
79.49992686296287
 20
93.6199142660267
 40
2.9
 50
180.0
 51
203.5898242149487
 73
     1
 72
     1
 10
76.84226879227194
 20
92.4593740559127
 11
77.43279449792215
 21
91.107059509726
 72
     2
 10
75.59992686296289
 20
90.30668695102669
 40
2.0
 50
325.9417031061037
 51
383.5898242149488
 73
     0
 72
     1
 10
77.25686322293379
 20
89.18661467701649
 11
76.09736914100512
 21
87.47136116338366
 72
     2
 10
78.49992686296289
 20
85.84725636606889
 40
2.9
 50
145.9417031061036
 51
179.9999999999994
 73
     1
 72
     1
 10
75.59992686296292
 20
85.84725636606892
 11
75.5999268629629
 21
84.70668695102671
 72
     2
 10
77.49992686296291
 20
84.7066869510267
 40
1.9
 50
179.9999999999996
 51
270.0
 73
     1
 72
     1
 10
77.49992686296291
 20
82.80668695102668
 11
89.89992686296289
 21
82.80668695102668
 72
     2
 10
89.89992686296289
 20
82.50668695102668
 40
0.3
 50
0.0
 51
90.0
 73
     0
 72
     1
 10
90.19992686296288
 20
82.50668695102668
 11
90.19992686296288
 21
80.80668695102669
 72
     1
 10
90.19992686296288
 20
80.80668695102669
 11
89.8999268629629
 21
82.10668695102672
 72
     1
 10
89.8999268629629
 20
82.10668695102672
 11
88.93227622269963
 21
81.88338295711984
 72
     1
 10
88.93227622269963
 20
81.88338295711984
 11
89.25339144934681
 21
80.49188364164851
 72
     2
 10
90.61753912331929
 20
80.80668695102672
 40
1.4
 50
192.9946167919142
 51
270.0
 73
     1
 72
     1
 10
90.61753912331929
 20
79.40668695102671
 11
91.49992686296289
 21
79.40668695102671
 72
     2
 10
91.49992686296289
 20
80.90668695102666
 40
1.5
 50
270.0
 51
360.0
 73
     1
 72
     1
 10
92.99992686296289
 20
80.90668695102666
 11
92.99992686296289
 21
82.50668695102668
 72
     2
 10
93.29992686296289
 20
82.50668695102668
 40
0.3
 50
90.0
 51
180.0
 73
     0
 72
     1
 10
93.29992686296289
 20
82.80668695102668
 11
105.6999268629629
 21
82.80668695102668
 72
     2
 10
105.6999268629629
 20
84.7066869510267
 40
1.9
 50
270.0
 51
360.0000000000005
 73
     1
 72
     1
 10
107.5999268629629
 20
84.70668695102671
 11
107.5999268629629
 21
85.84725636606893
 72
     2
 10
104.6999268629629
 20
85.84725636606889
 40
2.9
 50
0.0000000000008423
 51
34.05829689389621
 73
     1
 72
     1
 10
107.1024845849207
 20
87.47136116338365
 11
105.942990502992
 21
89.18661467701651
 72
     2
 10
107.5999268629629
 20
90.30668695102669
 40
2.0
 50
156.4101757850513
 51
214.0582968938958
 73
     0
 72
     1
 10
105.7670592280036
 20
91.107059509726
 11
106.3575849336538
 21
92.4593740559127
 72
     2
 10
103.6999268629629
 20
93.6199142660267
 40
2.9
 50
336.4101757850514
 51
360.0
 73
     1
 72
     1
 10
106.5999268629629
 20
93.6199142660267
 11
106.5999268629629
 21
95.00668695102662
 72
     2
 10
104.6999268629629
 20
95.00668695102662
 40
1.9
 50
0.0
 51
90.0
 73
     1
 72
     1
 10
104.6999268629629
 20
96.90668695102666
 11
99.09992686296287
 21
96.90668695102666
 72
     1
 10
99.09992686296287
 20
96.90668695102666
 11
99.0999268629629
 21
95.50668695102662
 72
     1
 10
99.0999268629629
 20
95.50668695102662
 11
104.6999268629629
 21
95.50668695102662
 72
     2
 10
104.6999268629629
 20
95.00668695102662
 40
0.5
 50
0.0
 51
90.0
 73
     0
 72
     1
 10
105.1999268629629
 20
95.00668695102662
 11
105.1999268629629
 21
93.51550516102665
 72
     2
 10
104.1999268629629
 20
93.51550516102664
 40
1.0
 50
336.4101757850512
 51
360.0000000000007
 73
     0
 72
     1
 10
105.1163606804425
 20
93.11531888167698
 11
104.4840518835322
 21
91.66732030081552
 72
     2
 10
107.5999268629629
 20
90.30668695102669
 40
3.4
 50
156.4101757850511
 51
214.0582968938962
 73
     1
 72
     1
 10
104.7831350510124
 20
88.40256408520936
 11
106.0283950429483
 21
86.56043603139324
 72
     2
 10
105.1999268629629
 20
86.00039989438814
 40
1.0
 50
0.0
 51
34.05829689389638
 73
     0
 72
     1
 10
106.1999268629629
 20
86.00039989438814
 11
106.1999268629629
 21
84.7066869510267
 72
     2
 10
105.6999268629629
 20
84.7066869510267
 40
0.5
 50
270.0
 51
360.0
 73
     0
 72
     1
 10
105.6999268629629
 20
84.2066869510267
 11
93.09992686296287
 21
84.2066869510267
 72
     2
 10
93.09992686296287
 20
82.7066869510267
 40
1.5
 50
90.0
 51
180.0
 73
     1
 72
     2
 10
90.0999268629629
 20
82.7066869510267
 40
1.5
 50
0.0
 51
90.0
 73
     1
 72
     1
 10
90.0999268629629
 20
84.20668695102668
 11
77.49992686296289
 21
84.20668695102668
 72
     2
 10
77.49992686296289
 20
84.7066869510267
 40
0.5
 50
180.0
 51
270.0
 73
     0
 72
     1
 10
76.99992686296289
 20
84.7066869510267
 11
76.99992686296289
 21
86.00039989438814
 72
     2
 10
77.99992686296289
 20
86.00039989438814
 40
1.0
 50
145.9417031061039
 51
180.0
 73
     0
 72
     1
 10
77.17145868297743
 20
86.56043603139324
 11
78.41671867491343
 21
88.40256408520935
 72
     2
 10
75.59992686296289
 20
90.30668695102669
 40
3.4
 50
325.9417031061036
 51
383.5898242149491
 73
     1
 72
     1
 10
78.71580184239362
 20
91.66732030081553
 11
78.08349304548324
 21
93.11531888167697
 72
     2
 10
78.99992686296287
 20
93.51550516102664
 40
1.0
 50
179.9999999999992
 51
203.5898242149495
 73
     0
 72
     1
 10
77.99992686296287
 20
93.51550516102665
 11
77.99992686296288
 21
95.00668695102662
 72
     2
 10
78.49992686296288
 20
95.00668695102662
 40
0.5
 50
90.0
 51
180.0
 73
     0
 72
     1
 10
78.49992686296288
 20
95.50668695102662
 11
84.09992686296287
 21
95.50668695102662
 97
        0
 75
     0
 76
     0
 52
45.0
 41
1.0
 77
     0
 78
     1
 53
45.0
 43
0.0
 44
0.0
 45
-0.7071067811865475
 46
0.7071067811865476
 79
     0
 98
        0
  0
LINE
  5
1F0
330
1F
100
AcDbEntity
  8
GR1-1
  6
CONTINUOUS
 62
     3
100
AcDbLine
 10
92.999927
 20
141.106687
 30
0.0
 11
92.999927
 21
142.706687
 31
0.0
  0
LINE
  5
1F1
330
1F
100
AcDbEntity
  8
GR1-1
  6
CONTINUOUS
 62
     3
100
AcDbLine
 10
90.199927
 20
142.806687
 30
0.0
 11
92.999927
 21
142.806687
 31
0.0
  0
LINE
  5
1F2
330
1F
100
AcDbEntity
  8
GR1-1
  6
CONTINUOUS
 62
     3
100
AcDbLine
 10
91.499927
 20
144.206687
 30
0.0
 11
90.599927
 21
144.206687
 31
0.0
  0
ARC
  5
1F3
330
1F
100
AcDbEntity
  8
GR1-1
  6
CONTINUOUS
 62
     3
100
AcDbCircle
 10
91.499927
 20
142.706687
 30
0.0
 40
1.5
100
AcDbArc
 50
0.0
 51
90.0
  0
ARC
  5
1F4
330
1F
100
AcDbEntity
  8
GR1-1
  6
CONTINUOUS
 62
     3
100
AcDbCircle
 10
90.617539
 20
142.806687
 30
0.0
 40
1.4
100
AcDbArc
 50
90.0
 51
167.005383
  0
ARC
  5
1F5
330
1F
100
AcDbEntity
  8
GR1-1
  6
CONTINUOUS
 62
     3
100
AcDbCircle
 10
93.299927
 20
141.106687
 30
0.0
 40
0.3
100
AcDbArc
 50
180.0
 51
270.0
  0
LINE
  5
1F6
330
1F
100
AcDbEntity
  8
GR1-1
  6
CONTINUOUS
 62
     3
100
AcDbLine
 10
89.899927
 20
141.506687
 30
0.0
 11
90.199927
 21
142.806687
 31
0.0
  0
LINE
  5
1F7
330
1F
100
AcDbEntity
  8
GR1-1
  6
CONTINUOUS
 62
     3
100
AcDbLine
 10
89.899927
 20
141.506687
 30
0.0
 11
88.932276
 21
141.729991
 31
0.0
  0
INSERT
  5
1FB
330
1F
100
AcDbEntity
  8
0
100
AcDbBlockReference
  2
BLKF032
 10
0.0
 20
0.0
 30
0.0
  0
INSERT
  5
20A
330
1F
100
AcDbEntity
  8
0
100
AcDbBlockReference
  2
BLKF033
 10
0.0
 20
0.0
 30
0.0
  0
INSERT
  5
21C
330
1F
100
AcDbEntity
  8
0
100
AcDbBlockReference
  2
BLKF034
 10
0.0
 20
0.0
 30
0.0
  0
INSERT
  5
224
330
1F
100
AcDbEntity
  8
0
100
AcDbBlockReference
  2
BLKF035
 10
0.0
 20
0.0
 30
0.0
  0
LINE
  5
22D
330
1F
100
AcDbEntity
  8
GR1-1
  6
CONTINUOUS
 62
     3
100
AcDbLine
 10
108.099927
 20
116.806687
 30
0.0
 11
97.299927
 21
116.806687
 31
0.0
  0
LINE
  5
22E
330
1F
100
AcDbEntity
  8
GR1-1
  6
CONTINUOUS
 62
     3
100
AcDbLine
 10
97.299927
 20
116.806687
 30
0.0
 11
96.599927
 21
117.506687
 31
0.0
  0
LINE
  5
22F
330
1F
100
AcDbEntity
  8
GR1-1
  6
CONTINUOUS
 62
     3
100
AcDbLine
 10
96.599927
 20
118.506687
 30
0.0
 11
98.199927
 21
118.506687
 31
0.0
  0
LINE
  5
230
330
1F
100
AcDbEntity
  8
GR1-1
  6
CONTINUOUS
 62
     3
100
AcDbLine
 10
98.199927
 20
118.506687
 30
0.0
 11
98.199927
 21
120.806687
 31
0.0
  0
LINE
  5
231
330
1F
100
AcDbEntity
  8
GR1-1
  6
CONTINUOUS
 62
     3
100
AcDbLine
 10
98.199927
 20
120.806687
 30
0.0
 11
100.735384
 21
120.806687
 31
0.0
  0
LINE
  5
232
330
1F
100
AcDbEntity
  8
GR1-1
  6
CONTINUOUS
 62
     3
100
AcDbLine
 10
100.099927
 20
121.556687
 30
0.0
 11
98.499927
 21
121.556687
 31
0.0
  0
LINE
  5
233
330
1F
100
AcDbEntity
  8
GR1-1
  6
CONTINUOUS
 62
     3
100
AcDbLine
 10
98.499927
 20
121.556687
 30
0.0
 11
98.499927
 21
124.506687
 31
0.0
  0
ARC
  5
234
330
1F
100
AcDbEntity
  8
GR1-1
  6
CONTINUOUS
 62
     3
100
AcDbCircle
 10
100.099927
 20
124.506687
 30
0.0
 40
1.6
100
AcDbArc
 50
90.0
 51
180.0
  0
LINE
  5
235
330
1F
100
AcDbEntity
  8
GR1-1
  6
CONTINUOUS
 62
     3
100
AcDbLine
 10
100.099927
 20
126.106687
 30
0.0
 11
106.399927
 21
126.106687
 31
0.0
  0
ARC
  5
236
330
1F
100
AcDbEntity
  8
GR1-1
  6
CONTINUOUS
 62
     3
100
AcDbCircle
 10
105.399927
 20
127.106687
 30
0.0
 40
1.0
100
AcDbArc
 50
270.0
 51
360.0
  0
LINE
  5
237
330
1F
100
AcDbEntity
  8
GR1-1
  6
CONTINUOUS
 62
     3
100
AcDbLine
 10
105.399927
 20
126.106687
 30
0.0
 11
105.399927
 21
121.306687
 31
0.0
  0
LINE
  5
238
330
1F
100
AcDbEntity
  8
GR1-1
  6
CONTINUOUS
 62
     3
100
AcDbLine
 10
105.399927
 20
121.306687
 30
0.0
 11
106.399927
 21
121.306687
 31
0.0
  0
LINE
  5
239
330
1F
100
AcDbEntity
  8
GR1-1
  6
CONTINUOUS
 62
     3
100
AcDbLine
 10
105.599927
 20
120.806687
 30
0.0
 11
105.599927
 21
119.306687
 31
0.0
  0
LINE
  5
23A
330
1F
100
AcDbEntity
  8
GR1-1
  6
CONTINUOUS
 62
     3
100
AcDbLine
 10
105.599927
 20
119.306687
 30
0.0
 11
108.799927
 21
119.306687
 31
0.0
  0
LINE
  5
23B
330
1F
100
AcDbEntity
  8
GR1-1
  6
CONTINUOUS
 62
     3
100
AcDbLine
 10
108.799927
 20
119.306687
 30
0.0
 11
109.099927
 21
119.006687
 31
0.0
  0
LINE
  5
23C
330
1F
100
AcDbEntity
  8
GR1-1
  6
CONTINUOUS
 62
     3
100
AcDbLine
 10
109.099927
 20
117.806687
 30
0.0
 11
108.099927
 21
116.806687
 31
0.0
  0
LINE
  5
23D
330
1F
100
AcDbEntity
  8
GR1-1
  6
CONTINUOUS
 62
     3
100
AcDbLine
 10
107.099927
 20
119.806687
 30
0.0
 11
106.399927
 21
119.806687
 31
0.0
  0
LINE
  5
23E
330
1F
100
AcDbEntity
  8
GR1-1
  6
CONTINUOUS
 62
     3
100
AcDbLine
 10
106.399927
 20
119.806687
 30
0.0
 11
106.399927
 21
127.606687
 31
0.0
  0
ARC
  5
23F
330
1F
100
AcDbEntity
  8
GR1-1
  6
CONTINUOUS
 62
     3
100
AcDbCircle
 10
106.501774
 20
127.414034
 30
0.0
 40
0.8996846452552031
100
AcDbArc
 50
48.329415
 51
153.03123
  0
LINE
  5
240
330
1F
100
AcDbEntity
  8
GR1-1
  6
CONTINUOUS
 62
     3
100
AcDbLine
 10
107.099927
 20
128.08608
 30
0.0
 11
107.099927
 21
119.806687
 31
0.0
  0
LINE
  5
241
330
1F
100
AcDbEntity
  8
GR1-1
  6
CONTINUOUS
 62
     3
100
AcDbLine
 10
105.599927
 20
120.806687
 30
0.0
 11
104.699927
 21
120.806687
 31
0.0
  0
CIRCLE
  5
242
330
1F
100
AcDbEntity
  8
GR1-1
  6
CONTINUOUS
 62
     3
100
AcDbCircle
 10
102.717655
 20
122.125687
 30
0.0
 40
2.380999999999958
  0
LINE
  5
243
330
1F
100
AcDbEntity
  8
GR1-1
  6
CONTINUOUS
 62
     3
100
AcDbLine
 10
105.399927
 20
124.506687
 30
0.0
 11
100.099927
 21
124.506687
 31
0.0
  0
LINE
  5
244
330
1F
100
AcDbEntity
  8
GR1-1
  6
CONTINUOUS
 62
     3
100
AcDbLine
 10
100.099927
 20
124.506687
 30
0.0
 11
100.099927
 21
121.556687
 31
0.0
  0
LINE
  5
245
330
1F
100
AcDbEntity
  8
GR1-1
  6
CONTINUOUS
 62
     3
100
AcDbLine
 10
98.499927
 20
123.706687
 30
0.0
 11
97.799927
 21
123.706687
 31
0.0
  0
LINE
  5
246
330
1F
100
AcDbEntity
  8
GR1-1
  6
CONTINUOUS
 62
     3
100
AcDbLine
 10
97.799927
 20
123.706687
 30
0.0
 11
97.799927
 21
124.806687
 31
0.0
  0
ARC
  5
247
330
1F
100
AcDbEntity
  8
GR1-1
  6
CONTINUOUS
 62
     3
100
AcDbCircle
 10
99.799927
 20
124.806687
 30
0.0
 40
2.0
100
AcDbArc
 50
90.0
 51
180.0
  0
LINE
  5
248
330
1F
100
AcDbEntity
  8
GR1-1
  6
CONTINUOUS
 62
     3
100
AcDbLine
 10
99.799927
 20
126.806687
 30
0.0
 11
105.399927
 21
126.806687
 31
0.0
  0
LINE
  5
249
330
1F
100
AcDbEntity
  8
GR1-1
  6
CONTINUOUS
 62
     3
100
AcDbLine
 10
105.699927
 20
127.822046
 30
0.0
 11
105.699927
 21
127.106687
 31
0.0
  0
ARC
  5
24A
330
1F
100
AcDbEntity
  8
GR1-1
  6
CONTINUOUS
 62
     3
100
AcDbCircle
 10
105.399927
 20
127.106687
 30
0.0
 40
0.3
100
AcDbArc
 50
-90.0
 51
0.0
  0
LINE
  5
24B
330
1F
100
AcDbEntity
  8
GR1-1
  6
CONTINUOUS
 62
     6
100
AcDbLine
 10
97.799927
 20
118.506687
 30
0.0
 11
97.799927
 21
123.706687
 31
0.0
  0
LINE
  5
24C
330
1F
100
AcDbEntity
  8
GR1-1
  6
CONTINUOUS
 62
     6
100
AcDbLine
 10
98.499927
 20
121.556687
 30
0.0
 11
98.499927
 21
120.806687
 31
0.0
  0
LINE
  5
24D
330
1F
100
AcDbEntity
  8
GR1-1
  6
CONTINUOUS
 62
     6
100
AcDbLine
 10
101.217655
 20
122.125687
 30
0.0
 11
104.217655
 21
122.125687
 31
0.0
  0
LINE
  5
24E
330
1F
100
AcDbEntity
  8
GR1-1
  6
CONTINUOUS
 62
     6
100
AcDbLine
 10
102.717655
 20
120.625687
 30
0.0
 11
102.717655
 21
123.625687
 31
0.0
  0
LINE
  5
24F
330
1F
100
AcDbEntity
  8
GR1-1
  6
CONTINUOUS
 62
     6
100
AcDbLine
 10
106.399927
 20
119.806687
 30
0.0
 11
106.399927
 21
119.306687
 31
0.0
  0
LINE
  5
250
330
1F
100
AcDbEntity
  8
GR1-1
  6
CONTINUOUS
 62
     6
100
AcDbLine
 10
107.099927
 20
119.306687
 30
0.0
 11
107.099927
 21
119.806687
 31
0.0
  0
ARC
  5
251
330
1F
100
AcDbEntity
  8
GR1-1
  6
CONTINUOUS
 62
     3
100
AcDbCircle
 10
77.499927
 20
138.906687
 30
0.0
 40
0.5
100
AcDbArc
 50
90.0
 51
180.0
  0
LINE
  5
252
330
1F
100
AcDbEntity
  8
GR1-1
  6
CONTINUOUS
 62
     3
100
AcDbLine
 10
77.499927
 20
140.806687
 30
0.0
 11
89.899927
 21
140.806687
 31
0.0
  0
LINE
  5
253
330
1F
100
AcDbEntity
  8
GR1-1
  6
CONTINUOUS
 62
     3
100
AcDbLine
 10
77.499927
 20
139.406687
 30
0.0
 11
90.099927
 21
139.406687
 31
0.0
  0
LINE
  5
254
330
1F
100
AcDbEntity
  8
GR1-1
  6
CONTINUOUS
 62
     3
100
AcDbLine
 10
90.199927
 20
141.106687
 30
0.0
 11
90.199927
 21
142.706687
 31
0.0
  0
ARC
  5
255
330
1F
100
AcDbEntity
  8
GR1-1
  6
CONTINUOUS
 62
     7
100
AcDbCircle
 10
105.699927
 20
138.906687
 30
0.0
 40
0.5
100
AcDbArc
 50
0.0
 51
90.0
  0
ARC
  5
256
330
1F
100
AcDbEntity
  8
GR1-1
  6
CONTINUOUS
 62
     3
100
AcDbCircle
 10
105.699927
 20
138.906687
 30
0.0
 40
1.9
100
AcDbArc
 50
0.0
 51
90.0
  0
LINE
  5
257
330
1F
100
AcDbEntity
  8
GR1-1
  6
CONTINUOUS
 62
     3
100
AcDbLine
 10
105.699927
 20
140.806687
 30
0.0
 11
93.299927
 21
140.806687
 31
0.0
  0
ARC
  5
258
330
1F
100
AcDbEntity
  8
GR1-1
  6
CONTINUOUS
 62
     3
100
AcDbCircle
 10
77.499927
 20
138.906687
 30
0.0
 40
1.9
100
AcDbArc
 50
90.0
 51
180.0
  0
ARC
  5
259
330
1F
100
AcDbEntity
  8
GR1-1
  6
CONTINUOUS
 62
     3
100
AcDbCircle
 10
90.099927
 20
140.906687
 30
0.0
 40
1.5
100
AcDbArc
 50
270.0
 51
360.0
  0
ARC
  5
25A
330
1F
100
AcDbEntity
  8
GR1-1
  6
CONTINUOUS
 62
     3
100
AcDbCircle
 10
89.899927
 20
141.106687
 30
0.0
 40
0.3
100
AcDbArc
 50
270.0
 51
360.0
  0
LINE
  5
25B
330
1F
100
AcDbEntity
  8
GR1-1
  6
CONTINUOUS
 62
     3
100
AcDbLine
 10
99.099927
 20
126.706687
 30
0.0
 11
104.699927
 21
126.706687
 31
0.0
  0
LINE
  5
25C
330
1F
100
AcDbEntity
  8
GR1-1
  6
CONTINUOUS
 62
     3
100
AcDbLine
 10
99.099927
 20
128.106687
 30
0.0
 11
104.699927
 21
128.106687
 31
0.0
  0
LINE
  5
25D
330
1F
100
AcDbEntity
  8
GR1-1
  6
CONTINUOUS
 62
     3
100
AcDbLine
 10
106.599927
 20
128.606687
 30
0.0
 11
106.599927
 21
129.99346
 31
0.0
  0
LINE
  5
25E
330
1F
100
AcDbEntity
  8
GR1-1
  6
CONTINUOUS
 62
     3
100
AcDbLine
 10
105.199927
 20
128.606687
 30
0.0
 11
105.199927
 21
130.097869
 31
0.0
  0
ARC
  5
25F
330
1F
100
AcDbEntity
  8
GR1-1
  6
CONTINUOUS
 62
     3
100
AcDbCircle
 10
104.699927
 20
128.606687
 30
0.0
 40
0.5
100
AcDbArc
 50
270.0
 51
360.0
  0
ARC
  5
260
330
1F
100
AcDbEntity
  8
GR1-1
  6
CONTINUOUS
 62
     3
100
AcDbCircle
 10
104.699927
 20
128.606687
 30
0.0
 40
1.9
100
AcDbArc
 50
270.0
 51
360.0
  0
ARC
  5
261
330
1F
100
AcDbEntity
  8
GR1-1
  6
CONTINUOUS
 62
     3
100
AcDbCircle
 10
105.699927
 20
138.906687
 30
0.0
 40
0.5
100
AcDbArc
 50
0.0
 51
90.0
  0
LINE
  5
262
330
1F
100
AcDbEntity
  8
GR1-1
  6
CONTINUOUS
 62
     3
100
AcDbLine
 10
105.699927
 20
139.406687
 30
0.0
 11
93.099927
 21
139.406687
 31
0.0
  0
ARC
  5
263
330
1F
100
AcDbEntity
  8
GR1-1
  6
CONTINUOUS
 62
     3
100
AcDbCircle
 10
107.599927
 20
133.306687
 30
0.0
 40
2.0
100
AcDbArc
 50
142.911562
 51
203.589824
  0
ARC
  5
264
330
1F
100
AcDbEntity
  8
GR1-1
  6
CONTINUOUS
 62
     3
100
AcDbCircle
 10
93.099927
 20
140.906687
 30
0.0
 40
1.5
100
AcDbArc
 50
180.0
 51
270.0
  0
ARC
  5
265
330
1F
100
AcDbEntity
  8
GR1-1
  6
CONTINUOUS
 62
     3
100
AcDbCircle
 10
107.599927
 20
133.306687
 30
0.0
 40
3.4
100
AcDbArc
 50
145.941703
 51
203.589824
  0
LINE
  5
266
330
1F
100
AcDbEntity
  8
GR1-1
  6
CONTINUOUS
 62
     3
100
AcDbLine
 10
105.116361
 20
130.498055
 30
0.0
 11
104.484052
 21
131.946054
 31
0.0
  0
LINE
  5
267
330
1F
100
AcDbEntity
  8
GR1-1
  6
CONTINUOUS
 62
     3
100
AcDbLine
 10
106.357585
 20
131.154
 30
0.0
 11
105.767059
 21
132.506314
 31
0.0
  0
ARC
  5
268
330
1F
100
AcDbEntity
  8
GR1-1
  6
CONTINUOUS
 62
     3
100
AcDbCircle
 10
104.199927
 20
130.097869
 30
0.0
 40
1.0
100
AcDbArc
 50
0.0
 51
23.589824
  0
LINE
  5
269
330
1F
100
AcDbEntity
  8
GR1-1
  6
CONTINUOUS
 62
     3
100
AcDbLine
 10
106.028395
 20
137.052938
 30
0.0
 11
104.783135
 21
135.21081
 31
0.0
  0
LINE
  5
26A
330
1F
100
AcDbEntity
  8
GR1-1
  6
CONTINUOUS
 62
     3
100
AcDbLine
 10
107.102485
 20
136.142013
 30
0.0
 11
105.942991
 21
134.426759
 31
0.0
  0
ARC
  5
26B
330
1F
100
AcDbEntity
  8
GR1-1
  6
CONTINUOUS
 62
     3
100
AcDbCircle
 10
105.199927
 20
137.612974
 30
0.0
 40
1.0
100
AcDbArc
 50
325.941703
 51
360.0
  0
ARC
  5
26C
330
1F
100
AcDbEntity
  8
GR1-1
  6
CONTINUOUS
 62
     3
100
AcDbCircle
 10
104.699927
 20
137.766118
 30
0.0
 40
2.9
100
AcDbArc
 50
325.941703
 51
360.0
  0
ARC
  5
26D
330
1F
100
AcDbEntity
  8
GR1-1
  6
CONTINUOUS
 62
     3
100
AcDbCircle
 10
103.699927
 20
129.99346
 30
0.0
 40
2.9
100
AcDbArc
 50
0.0
 51
23.589824
  0
LINE
  5
26E
330
1F
100
AcDbEntity
  8
GR1-1
  6
CONTINUOUS
 62
     3
100
AcDbLine
 10
75.599927
 20
140.806687
 30
0.0
 11
75.599927
 21
119.306687
 31
0.0
  0
LINE
  5
26F
330
1F
100
AcDbEntity
  8
GR1-1
  6
CONTINUOUS
 62
     3
100
AcDbLine
 10
107.599927
 20
140.806687
 30
0.0
 11
107.599927
 21
119.306687
 31
0.0
  0
LINE
  5
270
330
1F
100
AcDbEntity
  8
GR1-1
  6
CONTINUOUS
 62
     3
100
AcDbLine
 10
106.199927
 20
137.612974
 30
0.0
 11
106.199927
 21
138.906687
 31
0.0
  0
LINE
  5
271
330
1F
100
AcDbEntity
  8
GR1-1
  6
CONTINUOUS
 62
     3
100
AcDbLine
 10
81.662105
 20
149.306687
 30
0.0
 11
101.537749
 21
149.306687
 31
0.0
  0
LINE
  5
272
330
1F
100
AcDbEntity
  8
GR1-1
  6
CONTINUOUS
 62
     3
100
AcDbLine
 10
75.599927
 20
140.806687
 30
0.0
 11
79.930054
 21
148.306687
 31
0.0
  0
LINE
  5
273
330
1F
100
AcDbEntity
  8
GR1-1
  6
CONTINUOUS
 62
     3
100
AcDbLine
 10
107.599927
 20
140.806687
 30
0.0
 11
103.2698
 21
148.306687
 31
0.0
  0
ARC
  5
274
330
1F
100
AcDbEntity
  8
GR1-1
  6
CONTINUOUS
 62
     3
100
AcDbCircle
 10
101.537749
 20
147.306687
 30
0.0
 40
2.0
100
AcDbArc
 50
30.0
 51
90.0
  0
ARC
  5
275
330
1F
100
AcDbEntity
  8
GR1-1
  6
CONTINUOUS
 62
     3
100
AcDbCircle
 10
81.662105
 20
147.306687
 30
0.0
 40
2.0
100
AcDbArc
 50
90.0
 51
150.0
  0
LINE
  5
276
330
1F
100
AcDbEntity
  8
GR1-1
  6
CONTINUOUS
 62
     3
100
AcDbLine
 10
91.599927
 20
140.906687
 30
0.0
 11
91.599927
 21
142.806687
 31
0.0
  0
LINE
  5
277
330
1F
100
AcDbEntity
  8
GR1-1
  6
CONTINUOUS
 62
     3
100
AcDbLine
 10
99.099927
 20
126.706687
 30
0.0
 11
99.099927
 21
128.106687
 31
0.0
  0
LINE
  5
278
330
1F
100
AcDbEntity
  8
GR1-1
  6
CONTINUOUS
 62
     3
100
AcDbLine
 10
88.932276
 20
141.729991
 30
0.0
 11
89.253391
 21
143.12149
 31
0.0
  0
LINE
  5
279
330
1F
100
AcDbEntity
  8
GR1-1
  6
CONTINUOUS
 62
     3
100
AcDbLine
 10
91.699927
 20
144.206687
 30
0.0
 11
91.599927
 21
144.206687
 31
0.0
  0
INSERT
  5
27D
330
1F
100
AcDbEntity
  8
0
100
AcDbBlockReference
  2
BLKF036
 10
0.0
 20
0.0
 30
0.0
  0
INSERT
  5
28C
330
1F
100
AcDbEntity
  8
0
100
AcDbBlockReference
  2
BLKF037
 10
0.0
 20
0.0
 30
0.0
  0
INSERT
  5
29E
330
1F
100
AcDbEntity
  8
0
100
AcDbBlockReference
  2
BLKF038
 10
0.0
 20
0.0
 30
0.0
  0
INSERT
  5
2A6
330
1F
100
AcDbEntity
  8
0
100
AcDbBlockReference
  2
BLKF039
 10
0.0
 20
0.0
 30
0.0
  0
LINE
  5
2AF
330
1F
100
AcDbEntity
  8
GR1-1
  6
CONTINUOUS
 62
     3
100
AcDbLine
 10
75.099927
 20
116.806687
 30
0.0
 11
85.899927
 21
116.806687
 31
0.0
  0
LINE
  5
2B0
330
1F
100
AcDbEntity
  8
GR1-1
  6
CONTINUOUS
 62
     3
100
AcDbLine
 10
85.899927
 20
116.806687
 30
0.0
 11
86.599927
 21
117.506687
 31
0.0
  0
LINE
  5
2B1
330
1F
100
AcDbEntity
  8
GR1-1
  6
CONTINUOUS
 62
     3
100
AcDbLine
 10
86.599927
 20
118.506687
 30
0.0
 11
84.999927
 21
118.506687
 31
0.0
  0
LINE
  5
2B2
330
1F
100
AcDbEntity
  8
GR1-1
  6
CONTINUOUS
 62
     3
100
AcDbLine
 10
84.999927
 20
118.506687
 30
0.0
 11
84.999927
 21
120.806687
 31
0.0
  0
LINE
  5
2B3
330
1F
100
AcDbEntity
  8
GR1-1
  6
CONTINUOUS
 62
     3
100
AcDbLine
 10
84.999927
 20
120.806687
 30
0.0
 11
82.46447
 21
120.806687
 31
0.0
  0
LINE
  5
2B4
330
1F
100
AcDbEntity
  8
GR1-1
  6
CONTINUOUS
 62
     3
100
AcDbLine
 10
83.099927
 20
121.556687
 30
0.0
 11
84.699927
 21
121.556687
 31
0.0
  0
LINE
  5
2B5
330
1F
100
AcDbEntity
  8
GR1-1
  6
CONTINUOUS
 62
     3
100
AcDbLine
 10
84.699927
 20
121.556687
 30
0.0
 11
84.699927
 21
124.506687
 31
0.0
  0
ARC
  5
2B6
330
1F
100
AcDbEntity
  8
GR1-1
  6
CONTINUOUS
 62
     3
100
AcDbCircle
 10
83.099927
 20
124.506687
 30
0.0
 40
1.6
100
AcDbArc
 50
0.0
 51
90.0
  0
LINE
  5
2B7
330
1F
100
AcDbEntity
  8
GR1-1
  6
CONTINUOUS
 62
     3
100
AcDbLine
 10
83.099927
 20
126.106687
 30
0.0
 11
76.799927
 21
126.106687
 31
0.0
  0
ARC
  5
2B8
330
1F
100
AcDbEntity
  8
GR1-1
  6
CONTINUOUS
 62
     3
100
AcDbCircle
 10
77.799927
 20
127.106687
 30
0.0
 40
1.0
100
AcDbArc
 50
180.0
 51
270.0
  0
LINE
  5
2B9
330
1F
100
AcDbEntity
  8
GR1-1
  6
CONTINUOUS
 62
     3
100
AcDbLine
 10
77.799927
 20
126.106687
 30
0.0
 11
77.799927
 21
121.306687
 31
0.0
  0
LINE
  5
2BA
330
1F
100
AcDbEntity
  8
GR1-1
  6
CONTINUOUS
 62
     3
100
AcDbLine
 10
77.799927
 20
121.306687
 30
0.0
 11
76.799927
 21
121.306687
 31
0.0
  0
LINE
  5
2BB
330
1F
100
AcDbEntity
  8
GR1-1
  6
CONTINUOUS
 62
     3
100
AcDbLine
 10
77.599927
 20
120.806687
 30
0.0
 11
77.599927
 21
119.306687
 31
0.0
  0
LINE
  5
2BC
330
1F
100
AcDbEntity
  8
GR1-1
  6
CONTINUOUS
 62
     3
100
AcDbLine
 10
77.599927
 20
119.306687
 30
0.0
 11
74.399927
 21
119.306687
 31
0.0
  0
LINE
  5
2BD
330
1F
100
AcDbEntity
  8
GR1-1
  6
CONTINUOUS
 62
     3
100
AcDbLine
 10
74.399927
 20
119.306687
 30
0.0
 11
74.099927
 21
119.006687
 31
0.0
  0
LINE
  5
2BE
330
1F
100
AcDbEntity
  8
GR1-1
  6
CONTINUOUS
 62
     3
100
AcDbLine
 10
74.099927
 20
117.806687
 30
0.0
 11
75.099927
 21
116.806687
 31
0.0
  0
LINE
  5
2BF
330
1F
100
AcDbEntity
  8
GR1-1
  6
CONTINUOUS
 62
     3
100
AcDbLine
 10
76.099927
 20
119.806687
 30
0.0
 11
76.799927
 21
119.806687
 31
0.0
  0
LINE
  5
2C0
330
1F
100
AcDbEntity
  8
GR1-1
  6
CONTINUOUS
 62
     3
100
AcDbLine
 10
76.799927
 20
119.806687
 30
0.0
 11
76.799927
 21
127.606687
 31
0.0
  0
ARC
  5
2C1
330
1F
100
AcDbEntity
  8
GR1-1
  6
CONTINUOUS
 62
     3
100
AcDbCircle
 10
76.698079
 20
127.414034
 30
0.0
 40
0.8996846452552031
100
AcDbArc
 50
26.96877
 51
131.670585
  0
LINE
  5
2C2
330
1F
100
AcDbEntity
  8
GR1-1
  6
CONTINUOUS
 62
     3
100
AcDbLine
 10
76.099927
 20
128.08608
 30
0.0
 11
76.099927
 21
119.806687
 31
0.0
  0
LINE
  5
2C3
330
1F
100
AcDbEntity
  8
GR1-1
  6
CONTINUOUS
 62
     3
100
AcDbLine
 10
77.599927
 20
120.806687
 30
0.0
 11
78.499927
 21
120.806687
 31
0.0
  0
CIRCLE
  5
2C4
330
1F
100
AcDbEntity
  8
GR1-1
  6
CONTINUOUS
 62
     3
100
AcDbCircle
 10
80.482198
 20
122.125687
 30
0.0
 40
2.380999999999958
  0
LINE
  5
2C5
330
1F
100
AcDbEntity
  8
GR1-1
  6
CONTINUOUS
 62
     3
100
AcDbLine
 10
77.799927
 20
124.506687
 30
0.0
 11
83.099927
 21
124.506687
 31
0.0
  0
LINE
  5
2C6
330
1F
100
AcDbEntity
  8
GR1-1
  6
CONTINUOUS
 62
     3
100
AcDbLine
 10
83.099927
 20
124.506687
 30
0.0
 11
83.099927
 21
121.556687
 31
0.0
  0
LINE
  5
2C7
330
1F
100
AcDbEntity
  8
GR1-1
  6
CONTINUOUS
 62
     3
100
AcDbLine
 10
84.699927
 20
123.706687
 30
0.0
 11
85.399927
 21
123.706687
 31
0.0
  0
LINE
  5
2C8
330
1F
100
AcDbEntity
  8
GR1-1
  6
CONTINUOUS
 62
     3
100
AcDbLine
 10
85.399927
 20
123.706687
 30
0.0
 11
85.399927
 21
124.806687
 31
0.0
  0
ARC
  5
2C9
330
1F
100
AcDbEntity
  8
GR1-1
  6
CONTINUOUS
 62
     3
100
AcDbCircle
 10
83.399927
 20
124.806687
 30
0.0
 40
2.0
100
AcDbArc
 50
0.0
 51
90.0
  0
LINE
  5
2CA
330
1F
100
AcDbEntity
  8
GR1-1
  6
CONTINUOUS
 62
     3
100
AcDbLine
 10
83.399927
 20
126.806687
 30
0.0
 11
77.799927
 21
126.806687
 31
0.0
  0
LINE
  5
2CB
330
1F
100
AcDbEntity
  8
GR1-1
  6
CONTINUOUS
 62
     3
100
AcDbLine
 10
77.499927
 20
127.822046
 30
0.0
 11
77.499927
 21
127.106687
 31
0.0
  0
ARC
  5
2CC
330
1F
100
AcDbEntity
  8
GR1-1
  6
CONTINUOUS
 62
     3
100
AcDbCircle
 10
77.799927
 20
127.106687
 30
0.0
 40
0.3
100
AcDbArc
 50
180.0
 51
270.0
  0
LINE
  5
2CD
330
1F
100
AcDbEntity
  8
GR1-1
  6
CONTINUOUS
 62
     6
100
AcDbLine
 10
85.399927
 20
118.506687
 30
0.0
 11
85.399927
 21
123.706687
 31
0.0
  0
LINE
  5
2CE
330
1F
100
AcDbEntity
  8
GR1-1
  6
CONTINUOUS
 62
     6
100
AcDbLine
 10
84.699927
 20
121.556687
 30
0.0
 11
84.699927
 21
120.806687
 31
0.0
  0
LINE
  5
2CF
330
1F
100
AcDbEntity
  8
GR1-1
  6
CONTINUOUS
 62
     6
100
AcDbLine
 10
81.982198
 20
122.125687
 30
0.0
 11
78.982198
 21
122.125687
 31
0.0
  0
LINE
  5
2D0
330
1F
100
AcDbEntity
  8
GR1-1
  6
CONTINUOUS
 62
     6
100
AcDbLine
 10
80.482198
 20
120.625687
 30
0.0
 11
80.482198
 21
123.625687
 31
0.0
  0
LINE
  5
2D1
330
1F
100
AcDbEntity
  8
GR1-1
  6
CONTINUOUS
 62
     6
100
AcDbLine
 10
76.799927
 20
119.806687
 30
0.0
 11
76.799927
 21
119.306687
 31
0.0
  0
LINE
  5
2D2
330
1F
100
AcDbEntity
  8
GR1-1
  6
CONTINUOUS
 62
     6
100
AcDbLine
 10
76.099927
 20
119.306687
 30
0.0
 11
76.099927
 21
119.806687
 31
0.0
  0
ARC
  5
2D3
330
1F
100
AcDbEntity
  8
GR1-1
  6
CONTINUOUS
 62
     7
100
AcDbCircle
 10
77.499927
 20
138.906687
 30
0.0
 40
0.5
100
AcDbArc
 50
90.0
 51
180.0
  0
LINE
  5
2D4
330
1F
100
AcDbEntity
  8
GR1-1
  6
CONTINUOUS
 62
     3
100
AcDbLine
 10
84.099927
 20
126.706687
 30
0.0
 11
78.499927
 21
126.706687
 31
0.0
  0
LINE
  5
2D5
330
1F
100
AcDbEntity
  8
GR1-1
  6
CONTINUOUS
 62
     3
100
AcDbLine
 10
84.099927
 20
128.106687
 30
0.0
 11
78.499927
 21
128.106687
 31
0.0
  0
LINE
  5
2D6
330
1F
100
AcDbEntity
  8
GR1-1
  6
CONTINUOUS
 62
     3
100
AcDbLine
 10
76.599927
 20
128.606687
 30
0.0
 11
76.599927
 21
129.99346
 31
0.0
  0
LINE
  5
2D7
330
1F
100
AcDbEntity
  8
GR1-1
  6
CONTINUOUS
 62
     3
100
AcDbLine
 10
77.999927
 20
128.606687
 30
0.0
 11
77.999927
 21
130.097869
 31
0.0
  0
ARC
  5
2D8
330
1F
100
AcDbEntity
  8
GR1-1
  6
CONTINUOUS
 62
     3
100
AcDbCircle
 10
78.499927
 20
128.606687
 30
0.0
 40
0.5
100
AcDbArc
 50
180.0
 51
270.0
  0
ARC
  5
2D9
330
1F
100
AcDbEntity
  8
GR1-1
  6
CONTINUOUS
 62
     3
100
AcDbCircle
 10
78.499927
 20
128.606687
 30
0.0
 40
1.9
100
AcDbArc
 50
180.0
 51
270.0
  0
ARC
  5
2DA
330
1F
100
AcDbEntity
  8
GR1-1
  6
CONTINUOUS
 62
     3
100
AcDbCircle
 10
75.599927
 20
133.306687
 30
0.0
 40
2.0
100
AcDbArc
 50
-23.589824
 51
37.088438
  0
ARC
  5
2DB
330
1F
100
AcDbEntity
  8
GR1-1
  6
CONTINUOUS
 62
     3
100
AcDbCircle
 10
75.599927
 20
133.306687
 30
0.0
 40
3.4
100
AcDbArc
 50
-23.589824
 51
34.058297
  0
LINE
  5
2DC
330
1F
100
AcDbEntity
  8
GR1-1
  6
CONTINUOUS
 62
     3
100
AcDbLine
 10
78.083493
 20
130.498055
 30
0.0
 11
78.715802
 21
131.946054
 31
0.0
  0
LINE
  5
2DD
330
1F
100
AcDbEntity
  8
GR1-1
  6
CONTINUOUS
 62
     3
100
AcDbLine
 10
76.842269
 20
131.154
 30
0.0
 11
77.432794
 21
132.506314
 31
0.0
  0
ARC
  5
2DE
330
1F
100
AcDbEntity
  8
GR1-1
  6
CONTINUOUS
 62
     3
100
AcDbCircle
 10
78.999927
 20
130.097869
 30
0.0
 40
1.0
100
AcDbArc
 50
156.410176
 51
180.0
  0
LINE
  5
2DF
330
1F
100
AcDbEntity
  8
GR1-1
  6
CONTINUOUS
 62
     3
100
AcDbLine
 10
77.171459
 20
137.052938
 30
0.0
 11
78.416719
 21
135.21081
 31
0.0
  0
LINE
  5
2E0
330
1F
100
AcDbEntity
  8
GR1-1
  6
CONTINUOUS
 62
     3
100
AcDbLine
 10
76.097369
 20
136.142013
 30
0.0
 11
77.256863
 21
134.426759
 31
0.0
  0
ARC
  5
2E1
330
1F
100
AcDbEntity
  8
GR1-1
  6
CONTINUOUS
 62
     3
100
AcDbCircle
 10
77.999927
 20
137.612974
 30
0.0
 40
1.0
100
AcDbArc
 50
180.0
 51
214.058297
  0
ARC
  5
2E2
330
1F
100
AcDbEntity
  8
GR1-1
  6
CONTINUOUS
 62
     3
100
AcDbCircle
 10
78.499927
 20
137.766118
 30
0.0
 40
2.9
100
AcDbArc
 50
180.0
 51
214.058297
  0
ARC
  5
2E3
330
1F
100
AcDbEntity
  8
GR1-1
  6
CONTINUOUS
 62
     3
100
AcDbCircle
 10
79.499927
 20
129.99346
 30
0.0
 40
2.9
100
AcDbArc
 50
156.410176
 51
180.0
  0
LINE
  5
2E4
330
1F
100
AcDbEntity
  8
GR1-1
  6
CONTINUOUS
 62
     3
100
AcDbLine
 10
76.999927
 20
137.612974
 30
0.0
 11
76.999927
 21
138.906687
 31
0.0
  0
LINE
  5
2E5
330
1F
100
AcDbEntity
  8
GR1-1
  6
CONTINUOUS
 62
     3
100
AcDbLine
 10
84.099927
 20
126.706687
 30
0.0
 11
84.099927
 21
128.106687
 31
0.0
  0
HATCH
  5
2E6
330
1F
100
AcDbEntity
  8
}}ﾊﾊGG血CCТ
  6
CONTINUOUS
 62
     6
100
AcDbHatch
 10
0.0
 20
0.0
 30
0.0
210
0.0
220
0.0
230
1.0
  2

 70
     0
 71
     1
 91
        1
 92
        0
 93
       58
 72
     1
 10
84.09992686296287
 20
128.1066869510268
 11
84.09992686296287
 21
126.7066869510267
 72
     1
 10
84.09992686296287
 20
126.7066869510267
 11
78.49992686296289
 21
126.7066869510267
 72
     2
 10
78.49992686296289
 20
128.6066869510268
 40
1.9
 50
180.0
 51
270.0
 73
     1
 72
     1
 10
76.59992686296286
 20
128.6066869510268
 11
76.59992686296286
 21
129.9934596360267
 72
     2
 10
79.49992686296287
 20
129.9934596360267
 40
2.9
 50
156.4101757850513
 51
180.0
 73
     1
 72
     1
 10
76.84226879227194
 20
131.1539998461407
 11
77.43279449792215
 21
132.5063143923273
 72
     2
 10
75.59992686296289
 20
133.3066869510267
 40
2.0
 50
336.4101757850504
 51
394.0582968938956
 73
     0
 72
     1
 10
77.25686322293379
 20
134.4267592250369
 11
76.09736914100512
 21
136.1420127386697
 72
     2
 10
78.49992686296289
 20
137.7661175359845
 40
2.9
 50
180.0
 51
214.0582968938961
 73
     1
 72
     1
 10
75.59992686296292
 20
137.7661175359845
 11
75.5999268629629
 21
138.9066869510266
 72
     2
 10
77.49992686296291
 20
138.9066869510266
 40
1.9
 50
90.0
 51
180.0
 73
     1
 72
     1
 10
77.49992686296291
 20
140.8066869510267
 11
89.89992686296289
 21
140.8066869510267
 72
     2
 10
89.89992686296289
 20
141.1066869510267
 40
0.3
 50
270.0
 51
360.0
 73
     0
 72
     1
 10
90.19992686296288
 20
141.1066869510267
 11
90.19992686296288
 21
142.8066869510267
 72
     1
 10
90.19992686296288
 20
142.8066869510267
 11
89.8999268629629
 21
141.5066869510266
 72
     1
 10
89.8999268629629
 20
141.5066869510266
 11
88.93227622269963
 21
141.7299909449335
 72
     1
 10
88.93227622269963
 20
141.7299909449335
 11
89.25339144934681
 21
143.1214902604048
 72
     2
 10
90.61753912331929
 20
142.8066869510266
 40
1.4
 50
90.0
 51
167.0053832080853
 73
     1
 72
     1
 10
90.61753912331929
 20
144.2066869510267
 11
91.49992686296289
 21
144.2066869510267
 72
     2
 10
91.49992686296289
 20
142.7066869510267
 40
1.5
 50
0.0
 51
90.0
 73
     1
 72
     1
 10
92.99992686296289
 20
142.7066869510267
 11
92.99992686296289
 21
141.1066869510267
 72
     2
 10
93.29992686296289
 20
141.1066869510267
 40
0.3
 50
180.0
 51
270.0
 73
     0
 72
     1
 10
93.29992686296289
 20
140.8066869510267
 11
105.6999268629629
 21
140.8066869510267
 72
     2
 10
105.6999268629629
 20
138.9066869510266
 40
1.9
 50
0.0
 51
90.0
 73
     1
 72
     1
 10
107.5999268629629
 20
138.9066869510266
 11
107.5999268629629
 21
137.7661175359844
 72
     2
 10
104.6999268629629
 20
137.7661175359845
 40
2.9
 50
325.9417031061039
 51
359.9999999999994
 73
     1
 72
     1
 10
107.1024845849207
 20
136.1420127386697
 11
105.942990502992
 21
134.4267592250369
 72
     2
 10
107.5999268629629
 20
133.3066869510267
 40
2.0
 50
145.9417031061045
 51
203.5898242149495
 73
     0
 72
     1
 10
105.7670592280036
 20
132.5063143923273
 11
106.3575849336538
 21
131.1539998461407
 72
     2
 10
103.6999268629629
 20
129.9934596360267
 40
2.9
 50
0.0
 51
23.58982421494878
 73
     1
 72
     1
 10
106.5999268629629
 20
129.9934596360267
 11
106.5999268629629
 21
128.6066869510268
 72
     2
 10
104.6999268629629
 20
128.6066869510268
 40
1.9
 50
270.0
 51
360.0
 73
     1
 72
     1
 10
104.6999268629629
 20
126.7066869510267
 11
99.09992686296287
 21
126.7066869510267
 72
     1
 10
99.09992686296287
 20
126.7066869510267
 11
99.0999268629629
 21
128.1066869510268
 72
     1
 10
99.0999268629629
 20
128.1066869510268
 11
104.6999268629629
 21
128.1066869510268
 72
     2
 10
104.6999268629629
 20
128.6066869510268
 40
0.5
 50
270.0
 51
360.0
 73
     0
 72
     1
 10
105.1999268629629
 20
128.6066869510268
 11
105.1999268629629
 21
130.0978687410267
 72
     2
 10
104.1999268629629
 20
130.0978687410267
 40
1.0
 50
359.9999999999984
 51
383.5898242149481
 73
     0
 72
     1
 10
105.1163606804425
 20
130.4980550203764
 11
104.4840518835322
 21
131.9460536012379
 72
     2
 10
107.5999268629629
 20
133.3066869510267
 40
3.4
 50
145.9417031061038
 51
203.5898242149489
 73
     1
 72
     1
 10
104.7831350510124
 20
135.210809816844
 11
106.0283950429483
 21
137.0529378706601
 72
     2
 10
105.1999268629629
 20
137.6129740076652
 40
1.0
 50
325.9417031061029
 51
360.0
 73
     0
 72
     1
 10
106.1999268629629
 20
137.6129740076652
 11
106.1999268629629
 21
138.9066869510266
 72
     2
 10
105.6999268629629
 20
138.9066869510266
 40
0.5
 50
0.0
 51
90.0
 73
     0
 72
     1
 10
105.6999268629629
 20
139.4066869510266
 11
93.09992686296287
 21
139.4066869510266
 72
     2
 10
93.09992686296287
 20
140.9066869510266
 40
1.5
 50
180.0
 51
270.0
 73
     1
 72
     2
 10
90.0999268629629
 20
140.9066869510266
 40
1.5
 50
270.0
 51
360.0
 73
     1
 72
     1
 10
90.0999268629629
 20
139.4066869510267
 11
77.49992686296289
 21
139.4066869510267
 72
     2
 10
77.49992686296289
 20
138.9066869510266
 40
0.5
 50
90.0
 51
180.0
 73
     0
 72
     1
 10
76.99992686296289
 20
138.9066869510266
 11
76.99992686296289
 21
137.6129740076652
 72
     2
 10
77.99992686296289
 20
137.6129740076652
 40
1.0
 50
180.0
 51
214.0582968938971
 73
     0
 72
     1
 10
77.17145868297743
 20
137.0529378706601
 11
78.41671867491343
 21
135.210809816844
 72
     2
 10
75.59992686296289
 20
133.3066869510267
 40
3.4
 50
336.4101757850506
 51
394.0582968938962
 73
     1
 72
     1
 10
78.71580184239362
 20
131.9460536012378
 11
78.08349304548324
 21
130.4980550203764
 72
     2
 10
78.99992686296287
 20
130.0978687410267
 40
1.0
 50
156.4101757850503
 51
180.0000000000016
 73
     0
 72
     1
 10
77.99992686296287
 20
130.0978687410267
 11
77.99992686296288
 21
128.6066869510268
 72
     2
 10
78.49992686296288
 20
128.6066869510268
 40
0.5
 50
180.0
 51
270.0
 73
     0
 72
     1
 10
78.49992686296288
 20
128.1066869510268
 11
84.09992686296287
 21
128.1066869510268
 97
        0
 75
     0
 76
     0
 52
45.0
 41
1.0
 77
     0
 78
     1
 53
45.0
 43
0.0
 44
0.0
 45
-0.7071067811865475
 46
0.7071067811865476
 79
     0
 98
        0
  0
DIMENSION
  5
2E7
330
1F
100
AcDbEntity
  8
}}ﾊﾊGG血CCТ
100
AcDbDimension
  2
*D38
 10
120.36093
 20
116.806687
 30
0.0
 11
119.360931
 21
111.806694
 31
0.0
 70
    33
  3
FXDIMINFO
100
AcDbAlignedDimension
 13
108.099927
 23
106.806687
 33
0.0
 14
108.099927
 24
116.806687
 34
0.0
1001
ACAD
1000
DSTYLE
1002
{
1070
     7
1000
FXTIP_ARROW_E
1070
     6
1000
FXTIP_ARROW_S
1070
   173
1070
     1
1002
}
  0
TEXT
  5
2F1
330
1F
100
AcDbEntity
  8
}}ﾊﾊGG血CCТ
  6
CONTINUOUS
 62
     7
100
AcDbText
 10
132.479858
 20
12.0
 30
0.0
 40
6.0
  1
1W25FBAA1-C03
 41
0.692015
  7
FX_VECTOR
 72
     5
 11
184.479858
 21
12.0
 31
0.0
100
AcDbText
  0
INSERT
  5
2F5
330
1F
100
AcDbEntity
  8
0
100
AcDbBlockReference
  2
BLKF041
 10
0.0
 20
0.0
 30
0.0
  0
TEXT
  5
34D
330
1F
100
AcDbEntity
  8
GR1-1
  6
CONTINUOUS
 62
     7
100
AcDbText
 10
191.993332
 20
135.778275
 30
0.0
 40
4.877275
  1
G
 50
32.0
 41
1.201412
  7
FX_VECTOR
 72
     5
 11
196.252679
 21
138.43981
 31
0.0
100
AcDbText
  0
TEXT
  5
34E
330
1F
100
AcDbEntity
  8
GR1-1
  6
CONTINUOUS
 62
     7
100
AcDbText
 10
195.501633
 20
138.005997
 30
0.0
 40
4.877275
  1
O
 50
24.0
 41
1.13818
  7
FX_VECTOR
 72
     5
 11
200.089943
 21
140.048844
 31
0.0
100
AcDbText
  0
TEXT
  5
34F
330
1F
100
AcDbEntity
  8
GR1-1
  6
CONTINUOUS
 62
     7
100
AcDbText
 10
199.285812
 20
139.72377
 30
0.0
 40
4.877275
  1
L
 50
16.0
 41
1.351589
  7
FX_VECTOR
 72
     5
 11
204.113779
 21
141.108167
 31
0.0
100
AcDbText
  0
TEXT
  5
350
330
1F
100
AcDbEntity
  8
GR1-1
  6
CONTINUOUS
 62
     7
100
AcDbText
 10
203.272232
 20
140.898178
 30
0.0
 40
4.877275
  1
D
 50
8.0
 41
1.201412
  7
FX_VECTOR
 72
     5
 11
208.245884
 21
141.597179
 31
0.0
100
AcDbText
  0
TEXT
  5
351
330
1F
100
AcDbEntity
  8
GR1-1
  6
CONTINUOUS
 62
     7
100
AcDbText
 10
211.539017
 20
141.536453
 30
0.0
 40
4.877275
  1
C
 50
352.0
 41
1.201412
  7
FX_VECTOR
 72
     5
 11
216.512668
 21
140.837452
 31
0.0
100
AcDbText
  0
TEXT
  5
352
330
1F
100
AcDbEntity
  8
GR1-1
  6
CONTINUOUS
 62
     7
100
AcDbText
 10
215.658493
 20
140.9879
 30
0.0
 40
4.877275
  1
A
 50
344.0
 41
1.272084
  7
FX_VECTOR
 72
     5
 11
220.486459
 21
139.603503
 31
0.0
100
AcDbText
  0
TEXT
  5
353
330
1F
100
AcDbEntity
  8
GR1-1
  6
CONTINUOUS
 62
     7
100
AcDbText
 10
219.661514
 20
139.871368
 30
0.0
 40
4.877275
  1
S
 50
336.0
 41
1.272084
  7
FX_VECTOR
 72
     5
 11
224.249824
 21
137.828521
 31
0.0
100
AcDbText
  0
TEXT
  5
354
330
1F
100
AcDbEntity
  8
GR1-1
  6
CONTINUOUS
 62
     7
100
AcDbText
 10
223.470169
 20
138.208588
 30
0.0
 40
4.877275
  1
T
 50
328.0
 41
1.441695
  7
FX_VECTOR
 72
     5
 11
227.729517
 21
135.547052
 31
0.0
100
AcDbText
  0
TEXT
  5
355
330
1F
100
AcDbEntity
  8
GR1-1
  6
CONTINUOUS
 62
     7
100
AcDbText
 10
227.010361
 20
136.031921
 30
0.0
 40
4.877275
  1
E
 50
320.0
 41
1.272084
  7
FX_VECTOR
 72
     5
 11
230.857842
 21
132.803501
 31
0.0
100
AcDbText
  0
TEXT
  5
356
330
1F
100
AcDbEntity
  8
GR1-1
  6
CONTINUOUS
 62
     7
100
AcDbText
 10
230.213181
 20
133.383743
 30
0.0
 40
4.877275
  1
R
 50
312.0
 41
1.201412
  7
FX_VECTOR
 72
     5
 11
233.573909
 21
129.651276
 31
0.0
100
AcDbText
  0
TEXT
  5
357
330
1F
100
AcDbEntity
  8
GR1-1
  6
CONTINUOUS
 62
     7
100
AcDbText
 10
221.442734
 20
84.447128
 30
0.0
 40
4.863612
  1
7
 50
198.0
 41
1.359714
  7
FX_VECTOR
 72
     5
 11
216.351274
 21
82.792813
 31
0.0
100
AcDbText
  0
TEXT
  5
358
330
1F
100
AcDbEntity
  8
GR1-1
  6
CONTINUOUS
 62
     7
100
AcDbText
 10
217.017899
 20
82.943314
 30
0.0
 40
4.863612
  1
5
 50
189.0
 41
1.359714
  7
FX_VECTOR
 72
     5
 11
211.730331
 21
82.105845
 31
0.0
100
AcDbText
  0
TEXT
  5
359
330
1F
100
AcDbEntity
  8
GR1-1
  6
CONTINUOUS
 62
     7
100
AcDbText
 10
212.412277
 20
82.150208
 30
0.0
 40
4.863612
  1
X
 50
180.0
 41
1.359714
  7
FX_VECTOR
 72
     5
 11
207.0588
 21
82.150208
 31
0.0
100
AcDbText
  0
TEXT
  5
35A
330
1F
100
AcDbEntity
  8
GR1-1
  6
CONTINUOUS
 62
     7
100
AcDbText
 10
207.739304
 20
82.087341
 30
0.0
 40
4.863612
  1
3
 50
171.0
 41
1.359714
  7
FX_VECTOR
 72
     5
 11
202.451736
 21
82.92481
 31
0.0
100
AcDbText
  0
TEXT
  5
35B
330
1F
100
AcDbEntity
  8
GR1-1
  6
CONTINUOUS
 62
     7
100
AcDbText
 10
203.114029
 20
82.756256
 30
0.0
 40
4.863612
  1
2
 50
162.0
 41
1.359714
  7
FX_VECTOR
 72
     5
 11
198.022569
 21
84.410572
 31
0.0
100
AcDbText
  0
LINE
  5
35C
330
1F
100
AcDbEntity
  8
GR1-1
  6
CONTINUOUS
 62
     7
100
AcDbLine
 10
186.043144
 20
130.393572
 30
0.0
 11
188.721005
 21
133.367638
 31
0.0
  0
LINE
  5
35D
330
1F
100
AcDbEntity
  8
GR1-1
  6
CONTINUOUS
 62
     7
100
AcDbLine
 10
188.721005
 20
133.367638
 30
0.0
 11
185.746939
 21
136.045499
 31
0.0
  0
LINE
  5
35E
330
1F
100
AcDbEntity
  8
GR1-1
  6
CONTINUOUS
 62
     7
100
AcDbLine
 10
185.746939
 20
136.045499
 30
0.0
 11
183.069079
 21
133.071433
 31
0.0
  0
LINE
  5
35F
330
1F
100
AcDbEntity
  8
GR1-1
  6
CONTINUOUS
 62
     7
100
AcDbLine
 10
183.069079
 20
133.071433
 30
0.0
 11
186.043144
 21
130.393572
 31
0.0
  0
LINE
  5
360
330
1F
100
AcDbEntity
  8
GR1-1
  6
CONTINUOUS
 62
     7
100
AcDbLine
 10
187.29703
 20
131.95718
 30
0.0
 11
187.215193
 21
133.518728
 31
0.0
  0
LINE
  5
361
330
1F
100
AcDbEntity
  8
GR1-1
  6
CONTINUOUS
 62
     7
100
AcDbLine
 10
187.326432
 20
133.571787
 30
0.0
 11
187.714498
 21
133.222371
 31
0.0
  0
LINE
  5
362
330
1F
100
AcDbEntity
  8
GR1-1
  6
CONTINUOUS
 62
     7
100
AcDbLine
 10
187.714498
 20
133.222371
 30
0.0
 11
188.160808
 21
133.718049
 31
0.0
  0
LINE
  5
363
330
1F
100
AcDbEntity
  8
GR1-1
  6
CONTINUOUS
 62
     7
100
AcDbLine
 10
188.160808
 20
133.718049
 30
0.0
 11
187.157397
 21
134.621523
 31
0.0
  0
LINE
  5
364
330
1F
100
AcDbEntity
  8
GR1-1
  6
CONTINUOUS
 62
     7
100
AcDbLine
 10
187.157397
 20
134.621523
 30
0.0
 11
185.895042
 21
133.219535
 31
0.0
  0
LINE
  5
365
330
1F
100
AcDbEntity
  8
GR1-1
  6
CONTINUOUS
 62
     7
100
AcDbLine
 10
185.895042
 20
133.219535
 30
0.0
 11
186.142881
 21
132.99638
 31
0.0
  0
LINE
  5
366
330
1F
100
AcDbEntity
  8
GR1-1
  6
CONTINUOUS
 62
     7
100
AcDbLine
 10
186.142881
 20
132.99638
 30
0.0
 11
186.443155
 21
133.329868
 31
0.0
  0
ARC
  5
367
330
1F
100
AcDbEntity
  8
GR1-1
  6
CONTINUOUS
 62
     7
100
AcDbCircle
 10
186.492722
 20
133.285237
 30
0.0
 40
0.0667
100
AcDbArc
 50
3.0
 51
138.0
  0
LINE
  5
368
330
1F
100
AcDbEntity
  8
GR1-1
  6
CONTINUOUS
 62
     7
100
AcDbLine
 10
186.559331
 20
133.288728
 30
0.0
 11
186.596036
 21
132.588358
 31
0.0
  0
LINE
  5
369
330
1F
100
AcDbEntity
  8
GR1-1
  6
CONTINUOUS
 62
     7
100
AcDbLine
 10
186.596036
 20
132.588358
 30
0.0
 11
185.263864
 21
132.518542
 31
0.0
  0
LINE
  5
36A
330
1F
100
AcDbEntity
  8
GR1-1
  6
CONTINUOUS
 62
     7
100
AcDbLine
 10
185.263864
 20
132.518542
 30
0.0
 11
185.194048
 21
133.850713
 31
0.0
  0
LINE
  5
36B
330
1F
100
AcDbEntity
  8
GR1-1
  6
CONTINUOUS
 62
     7
100
AcDbLine
 10
185.194048
 20
133.850713
 30
0.0
 11
186.243623
 21
133.905719
 31
0.0
  0
LINE
  5
36C
330
1F
100
AcDbEntity
  8
GR1-1
  6
CONTINUOUS
 62
     7
100
AcDbLine
 10
186.243623
 20
133.905719
 30
0.0
 11
186.874801
 21
134.606713
 31
0.0
  0
LINE
  5
36D
330
1F
100
AcDbEntity
  8
GR1-1
  6
CONTINUOUS
 62
     7
100
AcDbLine
 10
186.874801
 20
134.606713
 30
0.0
 11
184.493054
 21
134.481891
 31
0.0
  0
LINE
  5
36E
330
1F
100
AcDbEntity
  8
GR1-1
  6
CONTINUOUS
 62
     7
100
AcDbLine
 10
184.493054
 20
134.481891
 30
0.0
 11
184.632686
 21
131.817548
 31
0.0
  0
LINE
  5
36F
330
1F
100
AcDbEntity
  8
GR1-1
  6
CONTINUOUS
 62
     7
100
AcDbLine
 10
184.632686
 20
131.817548
 30
0.0
 11
187.29703
 21
131.95718
 31
0.0
  0
ARC
  5
370
330
1F
100
AcDbEntity
  8
GR1-1
  6
CONTINUOUS
 62
     7
100
AcDbCircle
 10
187.281801
 20
133.522219
 30
0.0
 40
0.0667
100
AcDbArc
 50
48.0
 51
183.0
  0
INSERT
  5
374
330
1F
100
AcDbEntity
  8
0
100
AcDbBlockReference
  2
BLKF042
 10
0.0
 20
0.0
 30
0.0
  0
LINE
  5
39E
330
1F
100
AcDbEntity
  8
GR1-1
  6
CONTINUOUS
 62
    66
100
AcDbLine
 10
216.745547
 20
96.646895
 30
0.0
 11
217.537119
 21
94.949362
 31
0.0
  0
ENDSEC
  0
SECTION
  2
OBJECTS
  0
DICTIONARY
  5
C
330
0
100
AcDbDictionary
  3
ACAD_GROUP
350
D
  3
ACAD_LAYOUT
350
1A
  3
ACAD_MLINESTYLE
350
17
  3
ACAD_PLOTSETTINGS
350
19
  3
ACDBHEADERROUNDTRIPXREC
350
39F
  0
DICTIONARY
  5
D
102
{ACAD_REACTORS
330
C
102
}
330
C
100
AcDbDictionary
  0
DICTIONARY
  5
1A
102
{ACAD_REACTORS
330
C
102
}
330
C
100
AcDbDictionary
  0
DICTIONARY
  5
17
102
{ACAD_REACTORS
330
C
102
}
330
C
100
AcDbDictionary
  3
STANDARD
350
18
  0
DICTIONARY
  5
19
102
{ACAD_REACTORS
330
C
102
}
330
C
100
AcDbDictionary
  0
DICTIONARY
  5
39F
102
{ACAD_REACTORS
330
C
102
}
330
C
100
AcDbDictionary
  3
CEPSNTYPE
350
3A8
  3
DIMSTYLEDATA
350
3BE
  3
FINGERPRINTGUID
350
3A9
  3
HYPERLINKBASE
350
3A2
  3
INSUNITS
350
3A7
  3
LAYOUTDICT
350
3A4
  3
LWETCUNION
350
3A6
  3
PLOTSETDICT
350
3A5
  3
PSVPSCALE
350
3AB
  3
PUCSBASE
350
3AE
  3
PUCSORGBACK
350
3B4
  3
PUCSORGBOTTOM
350
3B0
  3
PUCSORGFRONT
350
3B3
  3
PUCSORGLEFT
350
3B1
  3
PUCSORGRIGHT
350
3B2
  3
PUCSORGTOP
350
3AF
  3
PUCSORTHOREF
350
3AC
  3
PUCSORTHOVIEW
350
3AD
  3
STYLESHEET
350
3A3
  3
TSTACKALIGN
350
3A0
  3
TSTACKSIZE
350
3A1
  3
UCSBASE
350
3B7
  3
UCSORGBACK
350
3BD
  3
UCSORGBOTTOM
350
3B9
  3
UCSORGFRONT
350
3BC
  3
UCSORGLEFT
350
3BA
  3
UCSORGRIGHT
350
3BB
  3
UCSORGTOP
350
3B8
  3
UCSORTHOREF
350
3B5
  3
UCSORTHOVIEW
350
3B6
  3
VERSIONGUID
350
3AA
  0
MLINESTYLE
  5
18
102
{ACAD_REACTORS
330
17
102
}
330
17
100
AcDbMlineStyle
  2
Standard
 70
     0
  3

 62
   256
 51
90.0
 52
90.0
 71
     2
 49
0.5
 62
   256
  6
BYLAYER
 49
-0.5
 62
   256
  6
BYLAYER
  0
XRECORD
  5
3A8
102
{ACAD_REACTORS
330
39F
102
}
330
39F
100
AcDbXrecord
 90
        0
  0
XRECORD
  5
3BE
102
{ACAD_REACTORS
330
39F
102
}
330
39F
100
AcDbXrecord
1000
DSTYLE
1002
{
1070
   179
 70
     2
1070
   171
 70
     3
1070
   143
 40
0.03937
1070
   274
 70
     3
1070
    41
 40
4.0
1070
   343
340
41
1070
   344
340
47
1070
   141
 40
2.5
1070
   176
 70
     7
1070
   177
 70
     7
1070
   178
 70
     7
1070
   271
 70
     2
1070
    46
 40
6.0
1070
    43
 40
10.0
1070
    44
 40
1.0
1070
    42
 40
1.0
1070
   147
 40
1.0
1070
   341
340
41
1070
   173
 70
     1
1070
    77
 70
     1
1070
   272
 70
     2
1070
    73
 70
     0
1070
   172
 70
     1
1070
    74
 70
     0
1070
   283
 70
     0
1070
   340
340
3F
1070
   140
 40
4.0
1070
   284
 70
     8
1070
    78
 70
     8
1002
}
  0
XRECORD
  5
3A9
102
{ACAD_REACTORS
330
39F
102
}
330
39F
100
AcDbXrecord
  1
{023AD981-C520-4957-8945-6AAA55B1B0CB}
  0
XRECORD
  5
3A2
102
{ACAD_REACTORS
330
39F
102
}
330
39F
100
AcDbXrecord
  1

  0
XRECORD
  5
3A7
102
{ACAD_REACTORS
330
39F
102
}
330
39F
100
AcDbXrecord
 90
        1
  0
XRECORD
  5
3A4
102
{ACAD_REACTORS
330
39F
102
}
330
39F
100
AcDbXrecord
340
1A
  0
XRECORD
  5
3A6
102
{ACAD_REACTORS
330
39F
102
}
330
39F
100
AcDbXrecord
 90
    10781
  0
XRECORD
  5
3A5
102
{ACAD_REACTORS
330
39F
102
}
330
39F
100
AcDbXrecord
340
19
  0
XRECORD
  5
3AB
102
{ACAD_REACTORS
330
39F
102
}
330
39F
100
AcDbXrecord
 40
0.0
  0
XRECORD
  5
3AE
102
{ACAD_REACTORS
330
39F
102
}
330
39F
100
AcDbXrecord
340
0
  0
XRECORD
  5
3B4
102
{ACAD_REACTORS
330
39F
102
}
330
39F
100
AcDbXrecord
 10
0.0
 20
0.0
 30
0.0
  0
XRECORD
  5
3B0
102
{ACAD_REACTORS
330
39F
102
}
330
39F
100
AcDbXrecord
 10
0.0
 20
0.0
 30
0.0
  0
XRECORD
  5
3B3
102
{ACAD_REACTORS
330
39F
102
}
330
39F
100
AcDbXrecord
 10
0.0
 20
0.0
 30
0.0
  0
XRECORD
  5
3B1
102
{ACAD_REACTORS
330
39F
102
}
330
39F
100
AcDbXrecord
 10
0.0
 20
0.0
 30
0.0
  0
XRECORD
  5
3B2
102
{ACAD_REACTORS
330
39F
102
}
330
39F
100
AcDbXrecord
 10
0.0
 20
0.0
 30
0.0
  0
XRECORD
  5
3AF
102
{ACAD_REACTORS
330
39F
102
}
330
39F
100
AcDbXrecord
 10
0.0
 20
0.0
 30
0.0
  0
XRECORD
  5
3AC
102
{ACAD_REACTORS
330
39F
102
}
330
39F
100
AcDbXrecord
340
0
  0
XRECORD
  5
3AD
102
{ACAD_REACTORS
330
39F
102
}
330
39F
100
AcDbXrecord
 70
     0
  0
XRECORD
  5
3A3
102
{ACAD_REACTORS
330
39F
102
}
330
39F
100
AcDbXrecord
  1

  0
XRECORD
  5
3A0
102
{ACAD_REACTORS
330
39F
102
}
330
39F
100
AcDbXrecord
 90
        1
  0
XRECORD
  5
3A1
102
{ACAD_REACTORS
330
39F
102
}
330
39F
100
AcDbXrecord
 90
       70
  0
XRECORD
  5
3B7
102
{ACAD_REACTORS
330
39F
102
}
330
39F
100
AcDbXrecord
340
0
  0
XRECORD
  5
3BD
102
{ACAD_REACTORS
330
39F
102
}
330
39F
100
AcDbXrecord
 10
0.0
 20
0.0
 30
0.0
  0
XRECORD
  5
3B9
102
{ACAD_REACTORS
330
39F
102
}
330
39F
100
AcDbXrecord
 10
0.0
 20
0.0
 30
0.0
  0
XRECORD
  5
3BC
102
{ACAD_REACTORS
330
39F
102
}
330
39F
100
AcDbXrecord
 10
0.0
 20
0.0
 30
0.0
  0
XRECORD
  5
3BA
102
{ACAD_REACTORS
330
39F
102
}
330
39F
100
AcDbXrecord
 10
0.0
 20
0.0
 30
0.0
  0
XRECORD
  5
3BB
102
{ACAD_REACTORS
330
39F
102
}
330
39F
100
AcDbXrecord
 10
0.0
 20
0.0
 30
0.0
  0
XRECORD
  5
3B8
102
{ACAD_REACTORS
330
39F
102
}
330
39F
100
AcDbXrecord
 10
0.0
 20
0.0
 30
0.0
  0
XRECORD
  5
3B5
102
{ACAD_REACTORS
330
39F
102
}
330
39F
100
AcDbXrecord
340
0
  0
XRECORD
  5
3B6
102
{ACAD_REACTORS
330
39F
102
}
330
39F
100
AcDbXrecord
 70
     0
  0
XRECORD
  5
3AA
102
{ACAD_REACTORS
330
39F
102
}
330
39F
100
AcDbXrecord
  1
{FAEB1C32-E019-11D5-929B-00C0DF256EC4}
  0
ENDSEC
  0
EOF
