  0
SECTION
  2
HEADER
  9
$ACADVER
  1
AC1014
  9
$ACADMAINTVER
 70
     9
  9
$DWGCODEPAGE
  3
ANSI_932
  9
$INSBASE
 10
0.0
 20
0.0
 30
0.0
  9
$EXTMIN
 10
0.0
 20
0.0
 30
0.0
  9
$EXTMAX
 10
594.0
 20
420.0
 30
0.0
  9
$LIMMIN
 10
0.0
 20
0.0
  9
$LIMMAX
 10
594.0
 20
420.0
  9
$ORTHOMODE
 70
     0
  9
$REGENMODE
 70
     1
  9
$FILLMODE
 70
     1
  9
$QTEXTMODE
 70
     0
  9
$MIRRTEXT
 70
     1
  9
$DRAGMODE
 70
     2
  9
$LTSCALE
 40
1.0
  9
$OSMODE
 70
    37
  9
$ATTMODE
 70
     1
  9
$TEXTSIZE
 40
0.2
  9
$TRACEWID
 40
0.05
  9
$TEXTSTYLE
  7
STYLE1
  9
$CLAYER
  8
0
  9
$CELTYPE
  6
BYLAYER
  9
$CECOLOR
 62
   256
  9
$CELTSCALE
 40
1.0
  9
$DELOBJ
 70
     1
  9
$DISPSILH
 70
     0
  9
$DIMSCALE
 40
1.0
  9
$DIMASZ
 40
4.0
  9
$DIMEXO
 40
1.0
  9
$DIMDLI
 40
10.0
  9
$DIMRND
 40
0.0
  9
$DIMDLE
 40
6.0
  9
$DIMEXE
 40
1.0
  9
$DIMTP
 40
0.0
  9
$DIMTM
 40
0.0
  9
$DIMTXT
 40
4.0
  9
$DIMCEN
 40
2.5
  9
$DIMTSZ
 40
0.0
  9
$DIMTOL
 70
     0
  9
$DIMLIM
 70
     0
  9
$DIMTIH
 70
     0
  9
$DIMTOH
 70
     0
  9
$DIMSE1
 70
     0
  9
$DIMSE2
 70
     0
  9
$DIMTAD
 70
     1
  9
$DIMZIN
 70
     8
  9
$DIMBLK
  1

  9
$DIMASO
 70
     1
  9
$DIMSHO
 70
     1
  9
$DIMPOST
  1

  9
$DIMAPOST
  1

  9
$DIMALT
 70
     0
  9
$DIMALTD
 70
     3
  9
$DIMALTF
 40
0.03937
  9
$DIMLFAC
 40
1.0
  9
$DIMTOFL
 70
     1
  9
$DIMTVP
 40
0.0
  9
$DIMTIX
 70
     0
  9
$DIMSOXD
 70
     0
  9
$DIMSAH
 70
     1
  9
$DIMBLK1
  1
FXTIP_ARROW_S
  9
$DIMBLK2
  1
FXTIP_ARROW_E
  9
$DIMSTYLE
  2
FXDIMINFO
  9
$DIMCLRD
 70
     7
  9
$DIMCLRE
 70
     7
  9
$DIMCLRT
 70
     7
  9
$DIMTFAC
 40
1.0
  9
$DIMGAP
 40
1.0
  9
$DIMJUST
 70
     0
  9
$DIMSD1
 70
     0
  9
$DIMSD2
 70
     0
  9
$DIMTOLJ
 70
     0
  9
$DIMTZIN
 70
     8
  9
$DIMALTZ
 70
     0
  9
$DIMALTTZ
 70
     0
  9
$DIMFIT
 70
     3
  9
$DIMUPT
 70
     0
  9
$DIMUNIT
 70
     2
  9
$DIMDEC
 70
     2
  9
$DIMTDEC
 70
     2
  9
$DIMALTU
 70
     2
  9
$DIMALTTD
 70
     3
  9
$DIMTXSTY
  7
STYLE1
  9
$DIMAUNIT
 70
     0
  9
$LUNITS
 70
     2
  9
$LUPREC
 70
     4
  9
$SKETCHINC
 40
0.1
  9
$FILLETRAD
 40
0.5
  9
$AUNITS
 70
     0
  9
$AUPREC
 70
     0
  9
$MENU
  1
.
  9
$ELEVATION
 40
0.0
  9
$PELEVATION
 40
0.0
  9
$THICKNESS
 40
0.0
  9
$LIMCHECK
 70
     0
  9
$CHAMFERA
 40
0.5
  9
$CHAMFERB
 40
0.5
  9
$CHAMFERC
 40
1.0
  9
$CHAMFERD
 40
0.0
  9
$SKPOLY
 70
     0
  9
$TDCREATE
 40
2455301.476353276
  9
$TDUPDATE
 40
2455301.476353287
  9
$TDINDWG
 40
0.0000000116
  9
$TDUSRTIMER
 40
0.0000000116
  9
$USRTIMER
 70
     1
  9
$ANGBASE
 50
0.0
  9
$ANGDIR
 70
     0
  9
$PDMODE
 70
     0
  9
$PDSIZE
 40
0.0
  9
$PLINEWID
 40
0.0
  9
$COORDS
 70
     1
  9
$SPLFRAME
 70
     0
  9
$SPLINETYPE
 70
     6
  9
$SPLINESEGS
 70
     8
  9
$ATTDIA
 70
     0
  9
$ATTREQ
 70
     1
  9
$HANDLING
 70
     1
  9
$HANDSEED
  5
311
  9
$SURFTAB1
 70
     6
  9
$SURFTAB2
 70
     6
  9
$SURFTYPE
 70
     6
  9
$SURFU
 70
     6
  9
$SURFV
 70
     6
  9
$UCSNAME
  2

  9
$UCSORG
 10
0.0
 20
0.0
 30
0.0
  9
$UCSXDIR
 10
1.0
 20
0.0
 30
0.0
  9
$UCSYDIR
 10
0.0
 20
1.0
 30
0.0
  9
$PUCSNAME
  2

  9
$PUCSORG
 10
0.0
 20
0.0
 30
0.0
  9
$PUCSXDIR
 10
1.0
 20
0.0
 30
0.0
  9
$PUCSYDIR
 10
0.0
 20
1.0
 30
0.0
  9
$USERI1
 70
     0
  9
$USERI2
 70
     0
  9
$USERI3
 70
     0
  9
$USERI4
 70
     0
  9
$USERI5
 70
     0
  9
$USERR1
 40
0.0
  9
$USERR2
 40
0.0
  9
$USERR3
 40
0.0
  9
$USERR4
 40
0.0
  9
$USERR5
 40
0.0
  9
$WORLDVIEW
 70
     1
  9
$SHADEDGE
 70
     3
  9
$SHADEDIF
 70
    70
  9
$TILEMODE
 70
     1
  9
$MAXACTVP
 70
    64
  9
$PINSBASE
 10
0.0
 20
0.0
 30
0.0
  9
$PLIMCHECK
 70
     0
  9
$PEXTMIN
 10
1.000000E+20
 20
1.000000E+20
 30
1.000000E+20
  9
$PEXTMAX
 10
-1.000000E+20
 20
-1.000000E+20
 30
-1.000000E+20
  9
$PLIMMIN
 10
0.0
 20
0.0
  9
$PLIMMAX
 10
12.0
 20
9.0
  9
$UNITMODE
 70
     0
  9
$VISRETAIN
 70
     1
  9
$PLINEGEN
 70
     0
  9
$PSLTSCALE
 70
     1
  9
$TREEDEPTH
 70
  3020
  9
$PICKSTYLE
 70
     1
  9
$CMLSTYLE
  2
STANDARD
  9
$CMLJUST
 70
     0
  9
$CMLSCALE
 40
1.0
  9
$PROXYGRAPHICS
 70
     1
  9
$MEASUREMENT
 70
     0
  0
ENDSEC
  0
SECTION
  2
CLASSES
  0
CLASS
  1
ACDBDICTIONARYWDFLT
  2
AcDbDictionaryWithDefault
  3
ObjectDBX Classes
 90
        0
280
     0
281
     0
  0
CLASS
  1
XRECORD
  2
AcDbXrecord
  3
AutoCAD 2000
 90
        0
280
     0
281
     0
  0
CLASS
  1
LWPOLYLINE
  2
AcDbPolyline
  3
AutoCAD 2000
 90
        0
280
     0
281
     1
  0
CLASS
  1
HATCH
  2
AcDbHatch
  3
AutoCAD 2000
 90
        0
280
     0
281
     1
  0
CLASS
  1
ACDBPLACEHOLDER
  2
AcDbPlaceHolder
  3
ObjectDBX Classes
 90
        0
280
     0
281
     0
  0
CLASS
  1
LAYOUT
  2
AcDbLayout
  3
ObjectDBX Classes
 90
        0
280
     0
281
     0
  0
ENDSEC
  0
SECTION
  2
TABLES
  0
TABLE
  2
VPORT
  5
8
330
0
100
AcDbSymbolTable
 70
     1
  0
VPORT
  5
29
330
8
100
AcDbSymbolTableRecord
100
AcDbViewportTableRecord
  2
*ACTIVE
 70
     0
 10
0.0
 20
0.0
 11
1.0
 21
1.0
 12
297.0
 22
210.0
 13
0.0
 23
0.0
 14
0.5
 24
0.5
 15
0.5
 25
0.5
 16
0.0
 26
0.0
 36
1.0
 17
0.0
 27
0.0
 37
0.0
 40
420.0
 41
1.414286
 42
50.0
 43
0.0
 44
0.0
 50
0.0
 51
0.0
 71
     0
 72
   100
 73
     1
 74
     3
 75
     0
 76
     0
 77
     0
 78
     0
  0
ENDTAB
  0
TABLE
  2
LTYPE
  5
5
330
0
100
AcDbSymbolTable
 70
     5
  0
LTYPE
  5
14
330
5
100
AcDbSymbolTableRecord
100
AcDbLinetypeTableRecord
  2
BYBLOCK
 70
     0
  3

 72
    65
 73
     0
 40
0.0
  0
LTYPE
  5
15
330
5
100
AcDbSymbolTableRecord
100
AcDbLinetypeTableRecord
  2
BYLAYER
 70
     0
  3

 72
    65
 73
     0
 40
0.0
  0
LTYPE
  5
16
330
5
100
AcDbSymbolTableRecord
100
AcDbLinetypeTableRecord
  2
CONTINUOUS
 70
     0
  3
--------------------
 72
    65
 73
     0
 40
0.0
  0
LTYPE
  5
2A
330
5
100
AcDbSymbolTableRecord
100
AcDbLinetypeTableRecord
  2
CENTER
 70
     0
  3
Center ____ _ ____ _ ____ _ ____ _ ____ _ ____
 72
    65
 73
     4
 40
13.0
 49
10.0
 74
     0
 49
-1.0
 74
     0
 49
1.0
 74
     0
 49
-1.0
 74
     0
  0
LTYPE
  5
1AF
330
5
100
AcDbSymbolTableRecord
100
AcDbLinetypeTableRecord
  2
ﾀﾀ��PP
 70
     0
  3

 72
    65
 73
     0
 40
0.0
  0
ENDTAB
  0
TABLE
  2
LAYER
  5
2
330
0
100
AcDbSymbolTable
 70
    21
  0
LAYER
  5
10
330
2
100
AcDbSymbolTableRecord
100
AcDbLayerTableRecord
  2
0
 70
     0
 62
     7
  6
CONTINUOUS
  0
LAYER
  5
2D
330
2
100
AcDbSymbolTableRecord
100
AcDbLayerTableRecord
  2
LAYERGROUP-1
 70
     0
 62
     3
  6
CONTINUOUS
  0
LAYER
  5
3D
330
2
100
AcDbSymbolTableRecord
100
AcDbLayerTableRecord
  2
}}ﾊﾊGG血CCТ
 70
     0
 62
     3
  6
CONTINUOUS
  0
LAYER
  5
E6
330
2
100
AcDbSymbolTableRecord
100
AcDbLayerTableRecord
  2
GR1-1
 70
     0
 62
     7
  6
CONTINUOUS
  0
LAYER
  5
1AE
330
2
100
AcDbSymbolTableRecord
100
AcDbLayerTableRecord
  2
001-1
 70
     0
 62
     7
  6
CONTINUOUS
  0
LAYER
  5
2C9
330
2
100
AcDbSymbolTableRecord
100
AcDbLayerTableRecord
  2
0-1
 70
     0
 62
     7
  6
CONTINUOUS
  0
ENDTAB
  0
TABLE
  2
STYLE
  5
3
330
0
100
AcDbSymbolTable
 70
     4
  0
STYLE
  5
11
330
3
100
AcDbSymbolTableRecord
100
AcDbTextStyleTableRecord
  2
STANDARD
 70
     0
 40
0.0
 41
1.0
 50
0.0
 71
     0
 42
0.2
  3
txt
  4

  0
STYLE
  5
3F
330
3
100
AcDbSymbolTableRecord
100
AcDbTextStyleTableRecord
  2
STYLE1
 70
     0
 40
0.0
 41
1.0
 50
0.0
 71
     0
 42
0.2
  3
MONOTXT.SHX
  4
extfont.shx
  0
STYLE
  5
40
330
3
100
AcDbSymbolTableRecord
100
AcDbTextStyleTableRecord
  2
FX_VECTOR
 70
     0
 40
0.0
 41
1.0
 50
0.0
 71
     0
 42
0.2
  3
MONOTXT.SHX
  4
BIGFONT.SHX
  0
ENDTAB
  0
TABLE
  2
VIEW
  5
6
330
0
100
AcDbSymbolTable
 70
     0
  0
ENDTAB
  0
TABLE
  2
UCS
  5
7
330
0
100
AcDbSymbolTable
 70
     0
  0
ENDTAB
  0
TABLE
  2
APPID
  5
9
330
0
100
AcDbSymbolTable
 70
     1
  0
APPID
  5
12
330
9
100
AcDbSymbolTableRecord
100
AcDbRegAppTableRecord
  2
ACAD
 70
     0
  0
ENDTAB
  0
TABLE
  2
DIMSTYLE
  5
A
330
0
100
AcDbSymbolTable
 70
     2
  0
DIMSTYLE
105
27
330
A
100
AcDbSymbolTableRecord
100
AcDbDimStyleTableRecord
  2
STANDARD
 70
     0
  3

  4

  5

  6

  7

 40
1.0
 41
0.18
 42
0.0625
 43
0.38
 44
0.18
 45
0.0
 46
0.0
 47
0.0
 48
0.0
140
0.18
141
0.09
142
0.0
143
25.4
144
1.0
145
0.0
146
1.0
147
0.09
 71
     0
 72
     0
 73
     1
 74
     1
 75
     0
 76
     0
 77
     0
 78
     0
170
     0
171
     2
172
     0
173
     0
174
     0
175
     0
176
     0
177
     0
178
     0
270
     2
271
     4
272
     4
273
     2
274
     2
340
11
275
     0
280
     0
281
     0
282
     0
283
     1
284
     0
285
     0
286
     0
287
     3
288
     0
  0
DIMSTYLE
105
A7
102
{ACAD_REACTORS
330
10D
330
117
330
2A5
330
2AF
102
}
330
A
100
AcDbSymbolTableRecord
100
AcDbDimStyleTableRecord
  2
FXDIMINFO
 70
     0
  3

  4

  5

  6
FXTIP_ARROW_S
  7
FXTIP_ARROW_E
 40
1.0
 41
4.0
 42
1.0
 43
10.0
 44
1.0
 45
0.0
 46
6.0
 47
0.0
 48
0.0
140
4.0
141
2.5
142
0.0
143
0.03937
144
1.0
145
0.0
146
1.0
147
1.0
 71
     0
 72
     0
 73
     0
 74
     0
 75
     0
 76
     0
 77
     1
 78
     8
170
     0
171
     3
172
     1
173
     1
174
     0
175
     0
176
     7
177
     7
178
     7
179
     2
270
     2
271
     2
272
     2
273
     2
274
     3
340
3F
275
     0
280
     0
281
     0
282
     0
283
     0
284
     8
285
     0
286
     0
287
     3
288
     0
  0
ENDTAB
  0
TABLE
  2
BLOCK_RECORD
  5
1
330
0
100
AcDbSymbolTable
 70
    32
  0
BLOCK_RECORD
  5
1F
330
1
100
AcDbSymbolTableRecord
100
AcDbBlockTableRecord
  2
*MODEL_SPACE
  0
BLOCK_RECORD
  5
1B
330
1
100
AcDbSymbolTableRecord
100
AcDbBlockTableRecord
  2
*PAPER_SPACE
  0
BLOCK_RECORD
  5
41
330
1
100
AcDbSymbolTableRecord
100
AcDbBlockTableRecord
  2
FXTIP_ARROW_S
  0
BLOCK_RECORD
  5
47
330
1
100
AcDbSymbolTableRecord
100
AcDbBlockTableRecord
  2
FXTIP_ARROW_E
  0
BLOCK_RECORD
  5
4D
330
1
100
AcDbSymbolTableRecord
100
AcDbBlockTableRecord
  2
FXTIP_BLACKDOT_S
  0
BLOCK_RECORD
  5
53
330
1
100
AcDbSymbolTableRecord
100
AcDbBlockTableRecord
  2
FXTIP_BLACKDOT_E
  0
BLOCK_RECORD
  5
59
330
1
100
AcDbSymbolTableRecord
100
AcDbBlockTableRecord
  2
FXTIP_TRIANGLE_S
  0
BLOCK_RECORD
  5
60
330
1
100
AcDbSymbolTableRecord
100
AcDbBlockTableRecord
  2
FXTIP_TRIANGLE_E
  0
BLOCK_RECORD
  5
67
330
1
100
AcDbSymbolTableRecord
100
AcDbBlockTableRecord
  2
FXTIP_ARCHITECT_S
  0
BLOCK_RECORD
  5
6D
330
1
100
AcDbSymbolTableRecord
100
AcDbBlockTableRecord
  2
FXTIP_ARCHITECT_E
  0
BLOCK_RECORD
  5
73
330
1
100
AcDbSymbolTableRecord
100
AcDbBlockTableRecord
  2
FXTIP_CIVIL_S
  0
BLOCK_RECORD
  5
79
330
1
100
AcDbSymbolTableRecord
100
AcDbBlockTableRecord
  2
FXTIP_CIVIL_E
  0
BLOCK_RECORD
  5
7F
330
1
100
AcDbSymbolTableRecord
100
AcDbBlockTableRecord
  2
FXTIP_WHITEDOT_S
  0
BLOCK_RECORD
  5
84
330
1
100
AcDbSymbolTableRecord
100
AcDbBlockTableRecord
  2
FXTIP_WHITEDOT_E
  0
BLOCK_RECORD
  5
89
330
1
100
AcDbSymbolTableRecord
100
AcDbBlockTableRecord
  2
FXTIP_UPARROW_S
  0
BLOCK_RECORD
  5
8E
330
1
100
AcDbSymbolTableRecord
100
AcDbBlockTableRecord
  2
FXTIP_UPARROW_E
  0
BLOCK_RECORD
  5
93
330
1
100
AcDbSymbolTableRecord
100
AcDbBlockTableRecord
  2
FXTIP_DOWNARROW_S
  0
BLOCK_RECORD
  5
98
330
1
100
AcDbSymbolTableRecord
100
AcDbBlockTableRecord
  2
FXTIP_DOWNARROW_E
  0
BLOCK_RECORD
  5
9D
330
1
100
AcDbSymbolTableRecord
100
AcDbBlockTableRecord
  2
FXTIP_BLACKTRIANGLE_S
  0
BLOCK_RECORD
  5
A2
330
1
100
AcDbSymbolTableRecord
100
AcDbBlockTableRecord
  2
FXTIP_BLACKTRIANGLE_E
  0
BLOCK_RECORD
  5
10E
330
1
100
AcDbSymbolTableRecord
100
AcDbBlockTableRecord
  2
*D19
  0
BLOCK_RECORD
  5
118
330
1
100
AcDbSymbolTableRecord
100
AcDbBlockTableRecord
  2
*D20
  0
BLOCK_RECORD
  5
1AA
330
1
100
AcDbSymbolTableRecord
100
AcDbBlockTableRecord
  2
BLKF023
  0
BLOCK_RECORD
  5
1C8
330
1
100
AcDbSymbolTableRecord
100
AcDbBlockTableRecord
  2
BLKF024
  0
BLOCK_RECORD
  5
1DC
330
1
100
AcDbSymbolTableRecord
100
AcDbBlockTableRecord
  2
BLKF025
  0
BLOCK_RECORD
  5
22C
330
1
100
AcDbSymbolTableRecord
100
AcDbBlockTableRecord
  2
BLKF026
  0
BLOCK_RECORD
  5
248
330
1
100
AcDbSymbolTableRecord
100
AcDbBlockTableRecord
  2
BLKF027
  0
BLOCK_RECORD
  5
25C
330
1
100
AcDbSymbolTableRecord
100
AcDbBlockTableRecord
  2
BLKF028
  0
BLOCK_RECORD
  5
2A6
330
1
100
AcDbSymbolTableRecord
100
AcDbBlockTableRecord
  2
*D27
  0
BLOCK_RECORD
  5
2B0
330
1
100
AcDbSymbolTableRecord
100
AcDbBlockTableRecord
  2
*D28
  0
BLOCK_RECORD
  5
2B9
330
1
100
AcDbSymbolTableRecord
100
AcDbBlockTableRecord
  2
BLKF031
  0
BLOCK_RECORD
  5
2C5
330
1
100
AcDbSymbolTableRecord
100
AcDbBlockTableRecord
  2
BLKF032
  0
BLOCK_RECORD
  5
2CE
330
1
100
AcDbSymbolTableRecord
100
AcDbBlockTableRecord
  2
BLKF033
  0
ENDTAB
  0
ENDSEC
  0
SECTION
  2
BLOCKS
  0
BLOCK
  5
20
330
1F
100
AcDbEntity
  8
0
100
AcDbBlockBegin
  2
*MODEL_SPACE
 70
     0
 71
     0
 10
0.0
 20
0.0
 30
0.0
  3
*MODEL_SPACE
  1

  0
ENDBLK
  5
21
330
1F
100
AcDbEntity
  8
0
100
AcDbBlockEnd
  0
BLOCK
  5
1C
330
1B
100
AcDbEntity
 67
     1
  8
0
100
AcDbBlockBegin
  2
*PAPER_SPACE
 70
     0
 71
     0
 10
0.0
 20
0.0
 30
0.0
  3
*PAPER_SPACE
  1

  0
ENDBLK
  5
1D
330
1B
100
AcDbEntity
 67
     1
  8
0
100
AcDbBlockEnd
  0
BLOCK
  5
42
330
41
100
AcDbEntity
  8
0
100
AcDbBlockBegin
  2
FXTIP_ARROW_S
 70
     0
 71
     0
 10
0.0
 20
0.0
 30
0.0
  3
FXTIP_ARROW_S
  1

  0
LINE
  5
44
330
41
100
AcDbEntity
  8
0
  6
CONTINUOUS
 62
     0
100
AcDbLine
 10
0.0
 20
0.0
 30
0.0
 11
-1.0
 21
0.0
 31
0.0
  0
LINE
  5
45
330
41
100
AcDbEntity
  8
0
  6
CONTINUOUS
 62
     0
100
AcDbLine
 10
0.0
 20
0.0
 30
0.0
 11
-0.965926
 21
-0.258819
 31
0.0
  0
LINE
  5
46
330
41
100
AcDbEntity
  8
0
  6
CONTINUOUS
 62
     0
100
AcDbLine
 10
0.0
 20
0.0
 30
0.0
 11
-0.965926
 21
0.258819
 31
0.0
  0
ENDBLK
  5
43
330
41
100
AcDbEntity
  8
0
100
AcDbBlockEnd
  0
BLOCK
  5
48
330
47
100
AcDbEntity
  8
0
100
AcDbBlockBegin
  2
FXTIP_ARROW_E
 70
     0
 71
     0
 10
0.0
 20
0.0
 30
0.0
  3
FXTIP_ARROW_E
  1

  0
LINE
  5
4A
330
47
100
AcDbEntity
  8
0
  6
CONTINUOUS
 62
     0
100
AcDbLine
 10
0.0
 20
0.0
 30
0.0
 11
-1.0
 21
0.0
 31
0.0
  0
LINE
  5
4B
330
47
100
AcDbEntity
  8
0
  6
CONTINUOUS
 62
     0
100
AcDbLine
 10
0.0
 20
0.0
 30
0.0
 11
-0.965926
 21
0.258819
 31
0.0
  0
LINE
  5
4C
330
47
100
AcDbEntity
  8
0
  6
CONTINUOUS
 62
     0
100
AcDbLine
 10
0.0
 20
0.0
 30
0.0
 11
-0.965926
 21
-0.258819
 31
0.0
  0
ENDBLK
  5
49
330
47
100
AcDbEntity
  8
0
100
AcDbBlockEnd
  0
BLOCK
  5
4E
330
4D
100
AcDbEntity
  8
0
100
AcDbBlockBegin
  2
FXTIP_BLACKDOT_S
 70
     0
 71
     0
 10
0.0
 20
0.0
 30
0.0
  3
FXTIP_BLACKDOT_S
  1

  0
LINE
  5
50
330
4D
100
AcDbEntity
  8
0
  6
CONTINUOUS
 62
     0
100
AcDbLine
 10
0.0
 20
0.0
 30
0.0
 11
-1.0
 21
0.0
 31
0.0
  0
LWPOLYLINE
  5
51
330
4D
100
AcDbEntity
  8
0
  6
CONTINUOUS
 62
     0
100
AcDbPolyline
 90
        2
 70
     1
 10
-0.25
 20
0.0
 40
0.5
 41
0.5
 42
1.0
 10
0.25
 20
0.0
 40
0.5
 41
0.5
 42
1.0
  0
CIRCLE
  5
52
330
4D
100
AcDbEntity
  8
0
  6
CONTINUOUS
 62
     0
100
AcDbCircle
 10
0.0
 20
0.0
 30
0.0
 40
0.5
  0
ENDBLK
  5
4F
330
4D
100
AcDbEntity
  8
0
100
AcDbBlockEnd
  0
BLOCK
  5
54
330
53
100
AcDbEntity
  8
0
100
AcDbBlockBegin
  2
FXTIP_BLACKDOT_E
 70
     0
 71
     0
 10
0.0
 20
0.0
 30
0.0
  3
FXTIP_BLACKDOT_E
  1

  0
LINE
  5
56
330
53
100
AcDbEntity
  8
0
  6
CONTINUOUS
 62
     0
100
AcDbLine
 10
0.0
 20
0.0
 30
0.0
 11
-1.0
 21
0.0
 31
0.0
  0
LWPOLYLINE
  5
57
330
53
100
AcDbEntity
  8
0
  6
CONTINUOUS
 62
     0
100
AcDbPolyline
 90
        2
 70
     1
 10
-0.25
 20
0.0
 40
0.5
 41
0.5
 42
1.0
 10
0.25
 20
0.0
 40
0.5
 41
0.5
 42
1.0
  0
CIRCLE
  5
58
330
53
100
AcDbEntity
  8
0
  6
CONTINUOUS
 62
     0
100
AcDbCircle
 10
0.0
 20
0.0
 30
0.0
 40
0.5
  0
ENDBLK
  5
55
330
53
100
AcDbEntity
  8
0
100
AcDbBlockEnd
  0
BLOCK
  5
5A
330
59
100
AcDbEntity
  8
0
100
AcDbBlockBegin
  2
FXTIP_TRIANGLE_S
 70
     0
 71
     0
 10
0.0
 20
0.0
 30
0.0
  3
FXTIP_TRIANGLE_S
  1

  0
LINE
  5
5C
330
59
100
AcDbEntity
  8
0
  6
CONTINUOUS
 62
     0
100
AcDbLine
 10
0.0
 20
0.0
 30
0.0
 11
-1.0
 21
0.0
 31
0.0
  0
LINE
  5
5D
330
59
100
AcDbEntity
  8
0
  6
CONTINUOUS
 62
     0
100
AcDbLine
 10
0.0
 20
0.0
 30
0.0
 11
-0.965926
 21
-0.258819
 31
0.0
  0
LINE
  5
5E
330
59
100
AcDbEntity
  8
0
  6
CONTINUOUS
 62
     0
100
AcDbLine
 10
0.0
 20
0.0
 30
0.0
 11
-0.965926
 21
0.258819
 31
0.0
  0
LINE
  5
5F
330
59
100
AcDbEntity
  8
0
  6
CONTINUOUS
 62
     0
100
AcDbLine
 10
-0.965926
 20
-0.258819
 30
0.0
 11
-0.965926
 21
0.258819
 31
0.0
  0
ENDBLK
  5
5B
330
59
100
AcDbEntity
  8
0
100
AcDbBlockEnd
  0
BLOCK
  5
61
330
60
100
AcDbEntity
  8
0
100
AcDbBlockBegin
  2
FXTIP_TRIANGLE_E
 70
     0
 71
     0
 10
0.0
 20
0.0
 30
0.0
  3
FXTIP_TRIANGLE_E
  1

  0
LINE
  5
63
330
60
100
AcDbEntity
  8
0
  6
CONTINUOUS
 62
     0
100
AcDbLine
 10
0.0
 20
0.0
 30
0.0
 11
-1.0
 21
0.0
 31
0.0
  0
LINE
  5
64
330
60
100
AcDbEntity
  8
0
  6
CONTINUOUS
 62
     0
100
AcDbLine
 10
0.0
 20
0.0
 30
0.0
 11
-0.965926
 21
0.258819
 31
0.0
  0
LINE
  5
65
330
60
100
AcDbEntity
  8
0
  6
CONTINUOUS
 62
     0
100
AcDbLine
 10
0.0
 20
0.0
 30
0.0
 11
-0.965926
 21
-0.258819
 31
0.0
  0
LINE
  5
66
330
60
100
AcDbEntity
  8
0
  6
CONTINUOUS
 62
     0
100
AcDbLine
 10
-0.965926
 20
0.258819
 30
0.0
 11
-0.965926
 21
-0.258819
 31
0.0
  0
ENDBLK
  5
62
330
60
100
AcDbEntity
  8
0
100
AcDbBlockEnd
  0
BLOCK
  5
68
330
67
100
AcDbEntity
  8
0
100
AcDbBlockBegin
  2
FXTIP_ARCHITECT_S
 70
     0
 71
     0
 10
0.0
 20
0.0
 30
0.0
  3
FXTIP_ARCHITECT_S
  1

  0
LINE
  5
6A
330
67
100
AcDbEntity
  8
0
  6
CONTINUOUS
 62
     0
100
AcDbLine
 10
0.0
 20
0.0
 30
0.0
 11
-1.0
 21
0.0
 31
0.0
  0
LINE
  5
6B
330
67
100
AcDbEntity
  8
0
  6
CONTINUOUS
 62
     0
100
AcDbLine
 10
0.0
 20
0.0
 30
0.0
 11
-0.707107
 21
-0.707107
 31
0.0
  0
LINE
  5
6C
330
67
100
AcDbEntity
  8
0
  6
CONTINUOUS
 62
     0
100
AcDbLine
 10
0.0
 20
0.0
 30
0.0
 11
0.707107
 21
0.707107
 31
0.0
  0
ENDBLK
  5
69
330
67
100
AcDbEntity
  8
0
100
AcDbBlockEnd
  0
BLOCK
  5
6E
330
6D
100
AcDbEntity
  8
0
100
AcDbBlockBegin
  2
FXTIP_ARCHITECT_E
 70
     0
 71
     0
 10
0.0
 20
0.0
 30
0.0
  3
FXTIP_ARCHITECT_E
  1

  0
LINE
  5
70
330
6D
100
AcDbEntity
  8
0
  6
CONTINUOUS
 62
     0
100
AcDbLine
 10
0.0
 20
0.0
 30
0.0
 11
-1.0
 21
0.0
 31
0.0
  0
LINE
  5
71
330
6D
100
AcDbEntity
  8
0
  6
CONTINUOUS
 62
     0
100
AcDbLine
 10
0.0
 20
0.0
 30
0.0
 11
0.707107
 21
0.707107
 31
0.0
  0
LINE
  5
72
330
6D
100
AcDbEntity
  8
0
  6
CONTINUOUS
 62
     0
100
AcDbLine
 10
0.0
 20
0.0
 30
0.0
 11
-0.707107
 21
-0.707107
 31
0.0
  0
ENDBLK
  5
6F
330
6D
100
AcDbEntity
  8
0
100
AcDbBlockEnd
  0
BLOCK
  5
74
330
73
100
AcDbEntity
  8
0
100
AcDbBlockBegin
  2
FXTIP_CIVIL_S
 70
     0
 71
     0
 10
0.0
 20
0.0
 30
0.0
  3
FXTIP_CIVIL_S
  1

  0
LINE
  5
76
330
73
100
AcDbEntity
  8
0
  6
CONTINUOUS
 62
     0
100
AcDbLine
 10
0.0
 20
0.0
 30
0.0
 11
-1.0
 21
0.0
 31
0.0
  0
LINE
  5
77
330
73
100
AcDbEntity
  8
0
  6
CONTINUOUS
 62
     0
100
AcDbLine
 10
0.0
 20
-0.0625
 30
0.0
 11
-1.0
 21
-0.0625
 31
0.0
  0
LINE
  5
78
330
73
100
AcDbEntity
  8
0
  6
CONTINUOUS
 62
     0
100
AcDbLine
 10
0.0
 20
-0.125
 30
0.0
 11
-1.0
 21
-0.125
 31
0.0
  0
ENDBLK
  5
75
330
73
100
AcDbEntity
  8
0
100
AcDbBlockEnd
  0
BLOCK
  5
7A
330
79
100
AcDbEntity
  8
0
100
AcDbBlockBegin
  2
FXTIP_CIVIL_E
 70
     0
 71
     0
 10
0.0
 20
0.0
 30
0.0
  3
FXTIP_CIVIL_E
  1

  0
LINE
  5
7C
330
79
100
AcDbEntity
  8
0
  6
CONTINUOUS
 62
     0
100
AcDbLine
 10
0.0
 20
0.0
 30
0.0
 11
-1.0
 21
0.0
 31
0.0
  0
LINE
  5
7D
330
79
100
AcDbEntity
  8
0
  6
CONTINUOUS
 62
     0
100
AcDbLine
 10
0.0
 20
0.0625
 30
0.0
 11
-1.0
 21
0.0625
 31
0.0
  0
LINE
  5
7E
330
79
100
AcDbEntity
  8
0
  6
CONTINUOUS
 62
     0
100
AcDbLine
 10
0.0
 20
0.125
 30
0.0
 11
-1.0
 21
0.125
 31
0.0
  0
ENDBLK
  5
7B
330
79
100
AcDbEntity
  8
0
100
AcDbBlockEnd
  0
BLOCK
  5
80
330
7F
100
AcDbEntity
  8
0
100
AcDbBlockBegin
  2
FXTIP_WHITEDOT_S
 70
     0
 71
     0
 10
0.0
 20
0.0
 30
0.0
  3
FXTIP_WHITEDOT_S
  1

  0
LINE
  5
82
330
7F
100
AcDbEntity
  8
0
  6
CONTINUOUS
 62
     0
100
AcDbLine
 10
0.0
 20
0.0
 30
0.0
 11
-1.0
 21
0.0
 31
0.0
  0
CIRCLE
  5
83
330
7F
100
AcDbEntity
  8
0
  6
CONTINUOUS
 62
     0
100
AcDbCircle
 10
0.0
 20
0.0
 30
0.0
 40
0.5
  0
ENDBLK
  5
81
330
7F
100
AcDbEntity
  8
0
100
AcDbBlockEnd
  0
BLOCK
  5
85
330
84
100
AcDbEntity
  8
0
100
AcDbBlockBegin
  2
FXTIP_WHITEDOT_E
 70
     0
 71
     0
 10
0.0
 20
0.0
 30
0.0
  3
FXTIP_WHITEDOT_E
  1

  0
LINE
  5
87
330
84
100
AcDbEntity
  8
0
  6
CONTINUOUS
 62
     0
100
AcDbLine
 10
0.0
 20
0.0
 30
0.0
 11
-1.0
 21
0.0
 31
0.0
  0
CIRCLE
  5
88
330
84
100
AcDbEntity
  8
0
  6
CONTINUOUS
 62
     0
100
AcDbCircle
 10
0.0
 20
0.0
 30
0.0
 40
0.5
  0
ENDBLK
  5
86
330
84
100
AcDbEntity
  8
0
100
AcDbBlockEnd
  0
BLOCK
  5
8A
330
89
100
AcDbEntity
  8
0
100
AcDbBlockBegin
  2
FXTIP_UPARROW_S
 70
     0
 71
     0
 10
0.0
 20
0.0
 30
0.0
  3
FXTIP_UPARROW_S
  1

  0
LINE
  5
8C
330
89
100
AcDbEntity
  8
0
  6
CONTINUOUS
 62
     0
100
AcDbLine
 10
0.0
 20
0.0
 30
0.0
 11
-1.0
 21
0.0
 31
0.0
  0
LINE
  5
8D
330
89
100
AcDbEntity
  8
0
  6
CONTINUOUS
 62
     0
100
AcDbLine
 10
0.0
 20
0.0
 30
0.0
 11
-0.965926
 21
-0.258819
 31
0.0
  0
ENDBLK
  5
8B
330
89
100
AcDbEntity
  8
0
100
AcDbBlockEnd
  0
BLOCK
  5
8F
330
8E
100
AcDbEntity
  8
0
100
AcDbBlockBegin
  2
FXTIP_UPARROW_E
 70
     0
 71
     0
 10
0.0
 20
0.0
 30
0.0
  3
FXTIP_UPARROW_E
  1

  0
LINE
  5
91
330
8E
100
AcDbEntity
  8
0
  6
CONTINUOUS
 62
     0
100
AcDbLine
 10
0.0
 20
0.0
 30
0.0
 11
-1.0
 21
0.0
 31
0.0
  0
LINE
  5
92
330
8E
100
AcDbEntity
  8
0
  6
CONTINUOUS
 62
     0
100
AcDbLine
 10
0.0
 20
0.0
 30
0.0
 11
-0.965926
 21
0.258819
 31
0.0
  0
ENDBLK
  5
90
330
8E
100
AcDbEntity
  8
0
100
AcDbBlockEnd
  0
BLOCK
  5
94
330
93
100
AcDbEntity
  8
0
100
AcDbBlockBegin
  2
FXTIP_DOWNARROW_S
 70
     0
 71
     0
 10
0.0
 20
0.0
 30
0.0
  3
FXTIP_DOWNARROW_S
  1

  0
LINE
  5
96
330
93
100
AcDbEntity
  8
0
  6
CONTINUOUS
 62
     0
100
AcDbLine
 10
0.0
 20
0.0
 30
0.0
 11
-1.0
 21
0.0
 31
0.0
  0
LINE
  5
97
330
93
100
AcDbEntity
  8
0
  6
CONTINUOUS
 62
     0
100
AcDbLine
 10
0.0
 20
0.0
 30
0.0
 11
-0.965926
 21
0.258819
 31
0.0
  0
ENDBLK
  5
95
330
93
100
AcDbEntity
  8
0
100
AcDbBlockEnd
  0
BLOCK
  5
99
330
98
100
AcDbEntity
  8
0
100
AcDbBlockBegin
  2
FXTIP_DOWNARROW_E
 70
     0
 71
     0
 10
0.0
 20
0.0
 30
0.0
  3
FXTIP_DOWNARROW_E
  1

  0
LINE
  5
9B
330
98
100
AcDbEntity
  8
0
  6
CONTINUOUS
 62
     0
100
AcDbLine
 10
0.0
 20
0.0
 30
0.0
 11
-1.0
 21
0.0
 31
0.0
  0
LINE
  5
9C
330
98
100
AcDbEntity
  8
0
  6
CONTINUOUS
 62
     0
100
AcDbLine
 10
0.0
 20
0.0
 30
0.0
 11
-0.965926
 21
-0.258819
 31
0.0
  0
ENDBLK
  5
9A
330
98
100
AcDbEntity
  8
0
100
AcDbBlockEnd
  0
BLOCK
  5
9E
330
9D
100
AcDbEntity
  8
0
100
AcDbBlockBegin
  2
FXTIP_BLACKTRIANGLE_S
 70
     0
 71
     0
 10
0.0
 20
0.0
 30
0.0
  3
FXTIP_BLACKTRIANGLE_S
  1

  0
LINE
  5
A0
330
9D
100
AcDbEntity
  8
0
  6
CONTINUOUS
 62
     0
100
AcDbLine
 10
0.0
 20
0.0
 30
0.0
 11
-1.0
 21
0.0
 31
0.0
  0
SOLID
  5
A1
330
9D
100
AcDbEntity
  8
0
  6
CONTINUOUS
 62
     0
100
AcDbTrace
 10
0.0
 20
0.0
 30
0.0
 11
-0.965926
 21
-0.258819
 31
0.0
 12
-0.965926
 22
0.258819
 32
0.0
 13
-0.965926
 23
0.258819
 33
0.0
  0
ENDBLK
  5
9F
330
9D
100
AcDbEntity
  8
0
100
AcDbBlockEnd
  0
BLOCK
  5
A3
330
A2
100
AcDbEntity
  8
0
100
AcDbBlockBegin
  2
FXTIP_BLACKTRIANGLE_E
 70
     0
 71
     0
 10
0.0
 20
0.0
 30
0.0
  3
FXTIP_BLACKTRIANGLE_E
  1

  0
LINE
  5
A5
330
A2
100
AcDbEntity
  8
0
  6
CONTINUOUS
 62
     0
100
AcDbLine
 10
0.0
 20
0.0
 30
0.0
 11
-1.0
 21
0.0
 31
0.0
  0
SOLID
  5
A6
330
A2
100
AcDbEntity
  8
0
  6
CONTINUOUS
 62
     0
100
AcDbTrace
 10
0.0
 20
0.0
 30
0.0
 11
-0.965926
 21
0.258819
 31
0.0
 12
-0.965926
 22
-0.258819
 32
0.0
 13
-0.965926
 23
-0.258819
 33
0.0
  0
ENDBLK
  5
A4
330
A2
100
AcDbEntity
  8
0
100
AcDbBlockEnd
  0
BLOCK
  5
10F
330
10E
100
AcDbEntity
  8
0
100
AcDbBlockBegin
  2
*D19
 70
     1
 71
     0
 10
0.0
 20
0.0
 30
0.0
  3
*D19
  1

  0
TEXT
  5
111
330
10E
100
AcDbEntity
  8
LAYERGROUP-1
  6
CONTINUOUS
 62
     7
100
AcDbText
 10
151.207306
 20
65.762207
 30
0.0
 40
4.0
  1
45
 41
0.851351
  7
FX_VECTOR
 72
     5
 11
157.207306
 21
65.762207
 31
0.0
100
AcDbText
  0
LINE
  5
112
330
10E
100
AcDbEntity
  8
LAYERGROUP-1
  6
CONTINUOUS
 62
     7
100
AcDbLine
 10
131.707308
 20
64.762207
 30
0.0
 11
176.707308
 21
64.762207
 31
0.0
  0
INSERT
  5
113
330
10E
100
AcDbEntity
  8
LAYERGROUP-1
  6
CONTINUOUS
 62
     7
100
AcDbBlockReference
  2
FXTIP_ARROW_S
 10
131.707308
 20
64.762207
 30
0.0
 41
4.0
 42
4.0
 50
180.0
  0
INSERT
  5
114
330
10E
100
AcDbEntity
  8
LAYERGROUP-1
  6
CONTINUOUS
 62
     7
100
AcDbBlockReference
  2
FXTIP_ARROW_E
 10
176.707308
 20
64.762207
 30
0.0
 41
4.0
 42
4.0
 50
360.0
  0
LINE
  5
115
330
10E
100
AcDbEntity
  8
LAYERGROUP-1
  6
CONTINUOUS
 62
     7
100
AcDbLine
 10
131.707308
 20
101.275862
 30
0.0
 11
131.707308
 21
63.762207
 31
0.0
  0
LINE
  5
116
330
10E
100
AcDbEntity
  8
LAYERGROUP-1
  6
CONTINUOUS
 62
     7
100
AcDbLine
 10
176.707308
 20
101.275862
 30
0.0
 11
176.707308
 21
63.762207
 31
0.0
  0
ENDBLK
  5
110
330
10E
100
AcDbEntity
  8
0
100
AcDbBlockEnd
  0
BLOCK
  5
119
330
118
100
AcDbEntity
  8
0
100
AcDbBlockBegin
  2
*D20
 70
     1
 71
     0
 10
0.0
 20
0.0
 30
0.0
  3
*D20
  1

  0
TEXT
  5
11B
330
118
100
AcDbEntity
  8
LAYERGROUP-1
  6
CONTINUOUS
 62
     7
100
AcDbText
 10
222.542542
 20
206.275864
 30
0.0
 40
4.0
  1
%%c250
 50
90.0
 41
0.828947
  7
FX_VECTOR
 72
     5
 11
222.542542
 21
218.275864
 31
0.0
100
AcDbText
  0
LINE
  5
11C
330
118
100
AcDbEntity
  8
LAYERGROUP-1
  6
CONTINUOUS
 62
     7
100
AcDbLine
 10
223.54254
 20
87.275862
 30
0.0
 11
223.54254
 21
337.275862
 31
0.0
  0
INSERT
  5
11D
330
118
100
AcDbEntity
  8
LAYERGROUP-1
  6
CONTINUOUS
 62
     7
100
AcDbBlockReference
  2
FXTIP_ARROW_S
 10
223.54254
 20
87.275862
 30
0.0
 41
4.0
 42
4.0
 50
270.0
  0
INSERT
  5
11E
330
118
100
AcDbEntity
  8
LAYERGROUP-1
  6
CONTINUOUS
 62
     7
100
AcDbBlockReference
  2
FXTIP_ARROW_E
 10
223.54254
 20
337.275862
 30
0.0
 41
4.0
 42
4.0
 50
90.0
  0
LINE
  5
11F
330
118
100
AcDbEntity
  8
LAYERGROUP-1
  6
CONTINUOUS
 62
     7
100
AcDbLine
 10
167.315003
 20
87.275862
 30
0.0
 11
224.54254
 21
87.275862
 31
0.0
  0
LINE
  5
120
330
118
100
AcDbEntity
  8
LAYERGROUP-1
  6
CONTINUOUS
 62
     7
100
AcDbLine
 10
167.315003
 20
337.275862
 30
0.0
 11
224.54254
 21
337.275862
 31
0.0
  0
ENDBLK
  5
11A
330
118
100
AcDbEntity
  8
0
100
AcDbBlockEnd
  0
BLOCK
  5
1AB
330
1AA
100
AcDbEntity
  8
0
100
AcDbBlockBegin
  2
BLKF023
 70
     0
 71
     0
 10
0.0
 20
0.0
 30
0.0
  3
BLKF023
  1

  0
LINE
  5
1B0
330
1AA
100
AcDbEntity
  8
001-1
  6
ﾀﾀ��PP
 62
     3
100
AcDbLine
 10
137.457308
 20
197.775862
 30
0.0
 11
135.957308
 21
197.775862
 31
0.0
  0
LINE
  5
1B1
330
1AA
100
AcDbEntity
  8
001-1
  6
ﾀﾀ��PP
 62
     3
100
AcDbLine
 10
137.457308
 20
196.525862
 30
0.0
 11
137.457308
 21
197.775862
 31
0.0
  0
ARC
  5
1B2
330
1AA
100
AcDbEntity
  8
001-1
  6
ﾀﾀ��PP
 62
     3
100
AcDbCircle
 10
129.957308
 20
194.025862
 30
0.0
 40
4.0
100
AcDbArc
 50
30.0
 51
150.0
  0
LINE
  5
1B3
330
1AA
100
AcDbEntity
  8
001-1
  6
ﾀﾀ��PP
 62
     3
100
AcDbLine
 10
136.957308
 20
196.025862
 30
0.0
 11
133.42141
 21
196.025862
 31
0.0
  0
LINE
  5
1B4
330
1AA
100
AcDbEntity
  8
001-1
  6
ﾀﾀ��PP
 62
     3
100
AcDbLine
 10
137.457308
 20
196.525862
 30
0.0
 11
136.957308
 21
196.025862
 31
0.0
  0
LINE
  5
1B5
330
1AA
100
AcDbEntity
  8
001-1
  6
ﾀﾀ��PP
 62
     3
100
AcDbLine
 10
109.457308
 20
196.525862
 30
0.0
 11
109.957308
 21
196.025862
 31
0.0
  0
LINE
  5
1B6
330
1AA
100
AcDbEntity
  8
001-1
  6
ﾀﾀ��PP
 62
     3
100
AcDbLine
 10
109.957308
 20
196.025862
 30
0.0
 11
126.493206
 21
196.025862
 31
0.0
  0
LINE
  5
1B7
330
1AA
100
AcDbEntity
  8
001-1
  6
ﾀﾀ��PP
 62
     3
100
AcDbLine
 10
137.457308
 20
226.775862
 30
0.0
 11
135.957308
 21
226.775862
 31
0.0
  0
LINE
  5
1B8
330
1AA
100
AcDbEntity
  8
001-1
  6
ﾀﾀ��PP
 62
     3
100
AcDbLine
 10
137.457308
 20
228.025862
 30
0.0
 11
137.457308
 21
226.775862
 31
0.0
  0
ARC
  5
1B9
330
1AA
100
AcDbEntity
  8
001-1
  6
ﾀﾀ��PP
 62
     3
100
AcDbCircle
 10
129.957308
 20
230.525862
 30
0.0
 40
4.0
100
AcDbArc
 50
210.0
 51
330.0
  0
LINE
  5
1BA
330
1AA
100
AcDbEntity
  8
001-1
  6
ﾀﾀ��PP
 62
     3
100
AcDbLine
 10
136.957308
 20
228.525862
 30
0.0
 11
133.42141
 21
228.525862
 31
0.0
  0
LINE
  5
1BB
330
1AA
100
AcDbEntity
  8
001-1
  6
ﾀﾀ��PP
 62
     3
100
AcDbLine
 10
137.457308
 20
228.025862
 30
0.0
 11
136.957308
 21
228.525862
 31
0.0
  0
LINE
  5
1BC
330
1AA
100
AcDbEntity
  8
001-1
  6
ﾀﾀ��PP
 62
     3
100
AcDbLine
 10
109.457308
 20
228.025862
 30
0.0
 11
109.957308
 21
228.525862
 31
0.0
  0
LINE
  5
1BD
330
1AA
100
AcDbEntity
  8
001-1
  6
ﾀﾀ��PP
 62
     3
100
AcDbLine
 10
109.957308
 20
228.525862
 30
0.0
 11
126.493206
 21
228.525862
 31
0.0
  0
LINE
  5
1BE
330
1AA
100
AcDbEntity
  8
001-1
  6
ﾀﾀ��PP
 62
     3
100
AcDbLine
 10
109.957308
 20
199.775862
 30
0.0
 11
135.657308
 21
199.775862
 31
0.0
  0
LINE
  5
1BF
330
1AA
100
AcDbEntity
  8
001-1
  6
ﾀﾀ��PP
 62
     3
100
AcDbLine
 10
109.957308
 20
224.775862
 30
0.0
 11
135.657308
 21
224.775862
 31
0.0
  0
LINE
  5
1C0
330
1AA
100
AcDbEntity
  8
001-1
  6
ﾀﾀ��PP
 62
     3
100
AcDbLine
 10
135.957308
 20
199.475862
 30
0.0
 11
135.657308
 21
199.775862
 31
0.0
  0
LINE
  5
1C1
330
1AA
100
AcDbEntity
  8
001-1
  6
ﾀﾀ��PP
 62
     3
100
AcDbLine
 10
135.957308
 20
199.475862
 30
0.0
 11
135.957308
 21
197.775862
 31
0.0
  0
LINE
  5
1C2
330
1AA
100
AcDbEntity
  8
001-1
  6
ﾀﾀ��PP
 62
     3
100
AcDbLine
 10
109.957308
 20
199.775862
 30
0.0
 11
109.457308
 21
199.275862
 31
0.0
  0
LINE
  5
1C3
330
1AA
100
AcDbEntity
  8
001-1
  6
ﾀﾀ��PP
 62
     3
100
AcDbLine
 10
109.457308
 20
196.525862
 30
0.0
 11
109.457308
 21
199.275862
 31
0.0
  0
LINE
  5
1C4
330
1AA
100
AcDbEntity
  8
001-1
  6
ﾀﾀ��PP
 62
     3
100
AcDbLine
 10
135.957308
 20
225.075862
 30
0.0
 11
135.657308
 21
224.775862
 31
0.0
  0
LINE
  5
1C5
330
1AA
100
AcDbEntity
  8
001-1
  6
ﾀﾀ��PP
 62
     3
100
AcDbLine
 10
135.957308
 20
225.075862
 30
0.0
 11
135.957308
 21
226.775862
 31
0.0
  0
LINE
  5
1C6
330
1AA
100
AcDbEntity
  8
001-1
  6
ﾀﾀ��PP
 62
     3
100
AcDbLine
 10
109.957308
 20
224.775862
 30
0.0
 11
109.457308
 21
225.275862
 31
0.0
  0
LINE
  5
1C7
330
1AA
100
AcDbEntity
  8
001-1
  6
ﾀﾀ��PP
 62
     3
100
AcDbLine
 10
109.457308
 20
228.025862
 30
0.0
 11
109.457308
 21
225.275862
 31
0.0
  0
ENDBLK
  5
1AC
330
1AA
100
AcDbEntity
  8
0
100
AcDbBlockEnd
  0
BLOCK
  5
1C9
330
1C8
100
AcDbEntity
  8
0
100
AcDbBlockBegin
  2
BLKF024
 70
     0
 71
     0
 10
0.0
 20
0.0
 30
0.0
  3
BLKF024
  1

  0
LINE
  5
1CC
330
1C8
100
AcDbEntity
  8
001-1
  6
ﾀﾀ��PP
 62
     3
100
AcDbLine
 10
136.557308
 20
189.275862
 30
0.0
 11
136.557308
 21
195.175862
 31
0.0
  0
LINE
  5
1CD
330
1C8
100
AcDbEntity
  8
001-1
  6
ﾀﾀ��PP
 62
     3
100
AcDbLine
 10
133.937308
 20
190.387112
 30
0.0
 11
133.937308
 21
195.175862
 31
0.0
  0
LINE
  5
1CE
330
1C8
100
AcDbEntity
  8
001-1
  6
ﾀﾀ��PP
 62
     3
100
AcDbLine
 10
133.937308
 20
234.164612
 30
0.0
 11
133.937308
 21
229.375862
 31
0.0
  0
LINE
  5
1CF
330
1C8
100
AcDbEntity
  8
001-1
  6
ﾀﾀ��PP
 62
     3
100
AcDbLine
 10
136.557308
 20
235.275862
 30
0.0
 11
136.557308
 21
229.375862
 31
0.0
  0
LINE
  5
1D0
330
1C8
100
AcDbEntity
  8
001-1
  6
ﾀﾀ��PP
 62
     3
100
AcDbLine
 10
133.437308
 20
189.887112
 30
0.0
 11
125.757308
 21
189.887112
 31
0.0
  0
LINE
  5
1D1
330
1C8
100
AcDbEntity
  8
001-1
  6
ﾀﾀ��PP
 62
     3
100
AcDbLine
 10
134.557308
 20
187.275862
 30
0.0
 11
125.757308
 21
187.275862
 31
0.0
  0
LINE
  5
1D2
330
1C8
100
AcDbEntity
  8
001-1
  6
ﾀﾀ��PP
 62
     3
100
AcDbLine
 10
125.757308
 20
187.275862
 30
0.0
 11
125.757308
 21
189.887112
 31
0.0
  0
LINE
  5
1D3
330
1C8
100
AcDbEntity
  8
001-1
  6
ﾀﾀ��PP
 62
     3
100
AcDbLine
 10
136.557308
 20
195.175862
 30
0.0
 11
133.937308
 21
195.175862
 31
0.0
  0
LINE
  5
1D4
330
1C8
100
AcDbEntity
  8
001-1
  6
ﾀﾀ��PP
 62
     3
100
AcDbLine
 10
133.437308
 20
234.664612
 30
0.0
 11
125.757308
 21
234.664612
 31
0.0
  0
LINE
  5
1D5
330
1C8
100
AcDbEntity
  8
001-1
  6
ﾀﾀ��PP
 62
     3
100
AcDbLine
 10
134.557308
 20
237.275862
 30
0.0
 11
125.757308
 21
237.275862
 31
0.0
  0
LINE
  5
1D6
330
1C8
100
AcDbEntity
  8
001-1
  6
ﾀﾀ��PP
 62
     3
100
AcDbLine
 10
125.757308
 20
237.275862
 30
0.0
 11
125.757308
 21
234.664612
 31
0.0
  0
LINE
  5
1D7
330
1C8
100
AcDbEntity
  8
001-1
  6
ﾀﾀ��PP
 62
     3
100
AcDbLine
 10
136.557308
 20
229.375862
 30
0.0
 11
133.937308
 21
229.375862
 31
0.0
  0
ARC
  5
1D8
330
1C8
100
AcDbEntity
  8
001-1
  6
ﾀﾀ��PP
 62
     3
100
AcDbCircle
 10
133.437308
 20
234.164612
 30
0.0
 40
0.5
100
AcDbArc
 50
0.0
 51
90.0
  0
ARC
  5
1D9
330
1C8
100
AcDbEntity
  8
001-1
  6
ﾀﾀ��PP
 62
     3
100
AcDbCircle
 10
133.437308
 20
190.387112
 30
0.0
 40
0.5
100
AcDbArc
 50
270.0
 51
360.0
  0
ARC
  5
1DA
330
1C8
100
AcDbEntity
  8
001-1
  6
ﾀﾀ��PP
 62
     3
100
AcDbCircle
 10
134.557308
 20
235.275862
 30
0.0
 40
2.0
100
AcDbArc
 50
0.0
 51
90.0
  0
ARC
  5
1DB
330
1C8
100
AcDbEntity
  8
001-1
  6
ﾀﾀ��PP
 62
     3
100
AcDbCircle
 10
134.557308
 20
189.275862
 30
0.0
 40
2.0
100
AcDbArc
 50
270.0
 51
360.0
  0
ENDBLK
  5
1CA
330
1C8
100
AcDbEntity
  8
0
100
AcDbBlockEnd
  0
BLOCK
  5
1DD
330
1DC
100
AcDbEntity
  8
0
100
AcDbBlockBegin
  2
BLKF025
 70
     0
 71
     0
 10
0.0
 20
0.0
 30
0.0
  3
BLKF025
  1

  0
LINE
  5
1E0
330
1DC
100
AcDbEntity
  8
001-1
  6
ﾀﾀ��PP
 62
     3
100
AcDbLine
 10
125.757308
 20
187.425862
 30
0.0
 11
125.757308
 21
194.825862
 31
0.0
  0
LINE
  5
1E1
330
1DC
100
AcDbEntity
  8
001-1
  6
ﾀﾀ��PP
 62
     3
100
AcDbLine
 10
123.157308
 20
187.425862
 30
0.0
 11
123.157308
 21
195.525862
 31
0.0
  0
LINE
  5
1E2
330
1DC
100
AcDbEntity
  8
001-1
  6
ﾀﾀ��PP
 62
     3
100
AcDbLine
 10
123.157308
 20
237.125862
 30
0.0
 11
123.157308
 21
229.025862
 31
0.0
  0
LINE
  5
1E3
330
1DC
100
AcDbEntity
  8
001-1
  6
ﾀﾀ��PP
 62
     3
100
AcDbLine
 10
125.757308
 20
237.125862
 30
0.0
 11
125.757308
 21
229.725862
 31
0.0
  0
LINE
  5
1E4
330
1DC
100
AcDbEntity
  8
001-1
  6
ﾀﾀ��PP
 62
     3
100
AcDbLine
 10
125.757308
 20
187.425862
 30
0.0
 11
123.157308
 21
187.425862
 31
0.0
  0
LINE
  5
1E5
330
1DC
100
AcDbEntity
  8
001-1
  6
ﾀﾀ��PP
 62
     3
100
AcDbLine
 10
123.157308
 20
194.825862
 30
0.0
 11
125.757308
 21
194.825862
 31
0.0
  0
LINE
  5
1E6
330
1DC
100
AcDbEntity
  8
001-1
  6
ﾀﾀ��PP
 62
     3
100
AcDbLine
 10
125.757308
 20
237.125862
 30
0.0
 11
123.157308
 21
237.125862
 31
0.0
  0
LINE
  5
1E7
330
1DC
100
AcDbEntity
  8
001-1
  6
ﾀﾀ��PP
 62
     3
100
AcDbLine
 10
123.157308
 20
229.725862
 30
0.0
 11
125.757308
 21
229.725862
 31
0.0
  0
ENDBLK
  5
1DE
330
1DC
100
AcDbEntity
  8
0
100
AcDbBlockEnd
  0
BLOCK
  5
22D
330
22C
100
AcDbEntity
  8
0
100
AcDbBlockBegin
  2
BLKF026
 70
     0
 71
     0
 10
0.0
 20
0.0
 30
0.0
  3
BLKF026
  1

  0
LINE
  5
230
330
22C
100
AcDbEntity
  8
001-1
  6
ﾀﾀ��PP
 62
     3
100
AcDbLine
 10
170.957308
 20
197.775862
 30
0.0
 11
172.457308
 21
197.775862
 31
0.0
  0
LINE
  5
231
330
22C
100
AcDbEntity
  8
001-1
  6
ﾀﾀ��PP
 62
     3
100
AcDbLine
 10
170.957308
 20
196.525862
 30
0.0
 11
170.957308
 21
197.775862
 31
0.0
  0
ARC
  5
232
330
22C
100
AcDbEntity
  8
001-1
  6
ﾀﾀ��PP
 62
     3
100
AcDbCircle
 10
178.457308
 20
194.025862
 30
0.0
 40
4.0
100
AcDbArc
 50
30.0
 51
150.0
  0
LINE
  5
233
330
22C
100
AcDbEntity
  8
001-1
  6
ﾀﾀ��PP
 62
     3
100
AcDbLine
 10
171.457308
 20
196.025862
 30
0.0
 11
174.993206
 21
196.025862
 31
0.0
  0
LINE
  5
234
330
22C
100
AcDbEntity
  8
001-1
  6
ﾀﾀ��PP
 62
     3
100
AcDbLine
 10
170.957308
 20
196.525862
 30
0.0
 11
171.457308
 21
196.025862
 31
0.0
  0
LINE
  5
235
330
22C
100
AcDbEntity
  8
001-1
  6
ﾀﾀ��PP
 62
     3
100
AcDbLine
 10
198.957308
 20
196.525862
 30
0.0
 11
198.457308
 21
196.025862
 31
0.0
  0
LINE
  5
236
330
22C
100
AcDbEntity
  8
001-1
  6
ﾀﾀ��PP
 62
     3
100
AcDbLine
 10
198.457308
 20
196.025862
 30
0.0
 11
181.92141
 21
196.025862
 31
0.0
  0
LINE
  5
237
330
22C
100
AcDbEntity
  8
001-1
  6
ﾀﾀ��PP
 62
     3
100
AcDbLine
 10
170.957308
 20
226.775862
 30
0.0
 11
172.457308
 21
226.775862
 31
0.0
  0
LINE
  5
238
330
22C
100
AcDbEntity
  8
001-1
  6
ﾀﾀ��PP
 62
     3
100
AcDbLine
 10
170.957308
 20
228.025862
 30
0.0
 11
170.957308
 21
226.775862
 31
0.0
  0
ARC
  5
239
330
22C
100
AcDbEntity
  8
001-1
  6
ﾀﾀ��PP
 62
     3
100
AcDbCircle
 10
178.457308
 20
230.525862
 30
0.0
 40
4.0
100
AcDbArc
 50
210.0
 51
330.0
  0
LINE
  5
23A
330
22C
100
AcDbEntity
  8
001-1
  6
ﾀﾀ��PP
 62
     3
100
AcDbLine
 10
171.457308
 20
228.525862
 30
0.0
 11
174.993206
 21
228.525862
 31
0.0
  0
LINE
  5
23B
330
22C
100
AcDbEntity
  8
001-1
  6
ﾀﾀ��PP
 62
     3
100
AcDbLine
 10
170.957308
 20
228.025862
 30
0.0
 11
171.457308
 21
228.525862
 31
0.0
  0
LINE
  5
23C
330
22C
100
AcDbEntity
  8
001-1
  6
ﾀﾀ��PP
 62
     3
100
AcDbLine
 10
198.957308
 20
228.025862
 30
0.0
 11
198.457308
 21
228.525862
 31
0.0
  0
LINE
  5
23D
330
22C
100
AcDbEntity
  8
001-1
  6
ﾀﾀ��PP
 62
     3
100
AcDbLine
 10
198.457308
 20
228.525862
 30
0.0
 11
181.92141
 21
228.525862
 31
0.0
  0
LINE
  5
23E
330
22C
100
AcDbEntity
  8
001-1
  6
ﾀﾀ��PP
 62
     3
100
AcDbLine
 10
198.457308
 20
199.775862
 30
0.0
 11
172.757308
 21
199.775862
 31
0.0
  0
LINE
  5
23F
330
22C
100
AcDbEntity
  8
001-1
  6
ﾀﾀ��PP
 62
     3
100
AcDbLine
 10
198.457308
 20
224.775862
 30
0.0
 11
172.757308
 21
224.775862
 31
0.0
  0
LINE
  5
240
330
22C
100
AcDbEntity
  8
001-1
  6
ﾀﾀ��PP
 62
     3
100
AcDbLine
 10
172.457308
 20
199.475862
 30
0.0
 11
172.757308
 21
199.775862
 31
0.0
  0
LINE
  5
241
330
22C
100
AcDbEntity
  8
001-1
  6
ﾀﾀ��PP
 62
     3
100
AcDbLine
 10
172.457308
 20
199.475862
 30
0.0
 11
172.457308
 21
197.775862
 31
0.0
  0
LINE
  5
242
330
22C
100
AcDbEntity
  8
001-1
  6
ﾀﾀ��PP
 62
     3
100
AcDbLine
 10
198.457308
 20
199.775862
 30
0.0
 11
198.957308
 21
199.275862
 31
0.0
  0
LINE
  5
243
330
22C
100
AcDbEntity
  8
001-1
  6
ﾀﾀ��PP
 62
     3
100
AcDbLine
 10
198.957308
 20
196.525862
 30
0.0
 11
198.957308
 21
199.275862
 31
0.0
  0
LINE
  5
244
330
22C
100
AcDbEntity
  8
001-1
  6
ﾀﾀ��PP
 62
     3
100
AcDbLine
 10
172.457308
 20
225.075862
 30
0.0
 11
172.757308
 21
224.775862
 31
0.0
  0
LINE
  5
245
330
22C
100
AcDbEntity
  8
001-1
  6
ﾀﾀ��PP
 62
     3
100
AcDbLine
 10
172.457308
 20
225.075862
 30
0.0
 11
172.457308
 21
226.775862
 31
0.0
  0
LINE
  5
246
330
22C
100
AcDbEntity
  8
001-1
  6
ﾀﾀ��PP
 62
     3
100
AcDbLine
 10
198.457308
 20
224.775862
 30
0.0
 11
198.957308
 21
225.275862
 31
0.0
  0
LINE
  5
247
330
22C
100
AcDbEntity
  8
001-1
  6
ﾀﾀ��PP
 62
     3
100
AcDbLine
 10
198.957308
 20
228.025862
 30
0.0
 11
198.957308
 21
225.275862
 31
0.0
  0
ENDBLK
  5
22E
330
22C
100
AcDbEntity
  8
0
100
AcDbBlockEnd
  0
BLOCK
  5
249
330
248
100
AcDbEntity
  8
0
100
AcDbBlockBegin
  2
BLKF027
 70
     0
 71
     0
 10
0.0
 20
0.0
 30
0.0
  3
BLKF027
  1

  0
LINE
  5
24C
330
248
100
AcDbEntity
  8
001-1
  6
ﾀﾀ��PP
 62
     3
100
AcDbLine
 10
171.857308
 20
189.275862
 30
0.0
 11
171.857308
 21
195.175862
 31
0.0
  0
LINE
  5
24D
330
248
100
AcDbEntity
  8
001-1
  6
ﾀﾀ��PP
 62
     3
100
AcDbLine
 10
174.477308
 20
190.387112
 30
0.0
 11
174.477308
 21
195.175862
 31
0.0
  0
LINE
  5
24E
330
248
100
AcDbEntity
  8
001-1
  6
ﾀﾀ��PP
 62
     3
100
AcDbLine
 10
174.477308
 20
234.164612
 30
0.0
 11
174.477308
 21
229.375862
 31
0.0
  0
LINE
  5
24F
330
248
100
AcDbEntity
  8
001-1
  6
ﾀﾀ��PP
 62
     3
100
AcDbLine
 10
171.857308
 20
235.275862
 30
0.0
 11
171.857308
 21
229.375862
 31
0.0
  0
LINE
  5
250
330
248
100
AcDbEntity
  8
001-1
  6
ﾀﾀ��PP
 62
     3
100
AcDbLine
 10
174.977308
 20
189.887112
 30
0.0
 11
182.657308
 21
189.887112
 31
0.0
  0
LINE
  5
251
330
248
100
AcDbEntity
  8
001-1
  6
ﾀﾀ��PP
 62
     3
100
AcDbLine
 10
173.857308
 20
187.275862
 30
0.0
 11
182.657308
 21
187.275862
 31
0.0
  0
LINE
  5
252
330
248
100
AcDbEntity
  8
001-1
  6
ﾀﾀ��PP
 62
     3
100
AcDbLine
 10
182.657308
 20
187.275862
 30
0.0
 11
182.657308
 21
189.887112
 31
0.0
  0
LINE
  5
253
330
248
100
AcDbEntity
  8
001-1
  6
ﾀﾀ��PP
 62
     3
100
AcDbLine
 10
171.857308
 20
195.175862
 30
0.0
 11
174.477308
 21
195.175862
 31
0.0
  0
LINE
  5
254
330
248
100
AcDbEntity
  8
001-1
  6
ﾀﾀ��PP
 62
     3
100
AcDbLine
 10
174.977308
 20
234.664612
 30
0.0
 11
182.657308
 21
234.664612
 31
0.0
  0
LINE
  5
255
330
248
100
AcDbEntity
  8
001-1
  6
ﾀﾀ��PP
 62
     3
100
AcDbLine
 10
173.857308
 20
237.275862
 30
0.0
 11
182.657308
 21
237.275862
 31
0.0
  0
LINE
  5
256
330
248
100
AcDbEntity
  8
001-1
  6
ﾀﾀ��PP
 62
     3
100
AcDbLine
 10
182.657308
 20
237.275862
 30
0.0
 11
182.657308
 21
234.664612
 31
0.0
  0
LINE
  5
257
330
248
100
AcDbEntity
  8
001-1
  6
ﾀﾀ��PP
 62
     3
100
AcDbLine
 10
171.857308
 20
229.375862
 30
0.0
 11
174.477308
 21
229.375862
 31
0.0
  0
ARC
  5
258
330
248
100
AcDbEntity
  8
001-1
  6
ﾀﾀ��PP
 62
     3
100
AcDbCircle
 10
174.977308
 20
234.164612
 30
0.0
 40
0.5
100
AcDbArc
 50
90.0
 51
180.0
  0
ARC
  5
259
330
248
100
AcDbEntity
  8
001-1
  6
ﾀﾀ��PP
 62
     3
100
AcDbCircle
 10
174.977308
 20
190.387112
 30
0.0
 40
0.5
100
AcDbArc
 50
180.0
 51
270.0
  0
ARC
  5
25A
330
248
100
AcDbEntity
  8
001-1
  6
ﾀﾀ��PP
 62
     3
100
AcDbCircle
 10
173.857308
 20
235.275862
 30
0.0
 40
2.0
100
AcDbArc
 50
90.0
 51
180.0
  0
ARC
  5
25B
330
248
100
AcDbEntity
  8
001-1
  6
ﾀﾀ��PP
 62
     3
100
AcDbCircle
 10
173.857308
 20
189.275862
 30
0.0
 40
2.0
100
AcDbArc
 50
180.0
 51
270.0
  0
ENDBLK
  5
24A
330
248
100
AcDbEntity
  8
0
100
AcDbBlockEnd
  0
BLOCK
  5
25D
330
25C
100
AcDbEntity
  8
0
100
AcDbBlockBegin
  2
BLKF028
 70
     0
 71
     0
 10
0.0
 20
0.0
 30
0.0
  3
BLKF028
  1

  0
LINE
  5
260
330
25C
100
AcDbEntity
  8
001-1
  6
ﾀﾀ��PP
 62
     3
100
AcDbLine
 10
182.657308
 20
187.425862
 30
0.0
 11
182.657308
 21
194.825862
 31
0.0
  0
LINE
  5
261
330
25C
100
AcDbEntity
  8
001-1
  6
ﾀﾀ��PP
 62
     3
100
AcDbLine
 10
185.257308
 20
187.425862
 30
0.0
 11
185.257308
 21
195.525862
 31
0.0
  0
LINE
  5
262
330
25C
100
AcDbEntity
  8
001-1
  6
ﾀﾀ��PP
 62
     3
100
AcDbLine
 10
185.257308
 20
237.125862
 30
0.0
 11
185.257308
 21
229.025862
 31
0.0
  0
LINE
  5
263
330
25C
100
AcDbEntity
  8
001-1
  6
ﾀﾀ��PP
 62
     3
100
AcDbLine
 10
182.657308
 20
237.125862
 30
0.0
 11
182.657308
 21
229.725862
 31
0.0
  0
LINE
  5
264
330
25C
100
AcDbEntity
  8
001-1
  6
ﾀﾀ��PP
 62
     3
100
AcDbLine
 10
182.657308
 20
187.425862
 30
0.0
 11
185.257308
 21
187.425862
 31
0.0
  0
LINE
  5
265
330
25C
100
AcDbEntity
  8
001-1
  6
ﾀﾀ��PP
 62
     3
100
AcDbLine
 10
185.257308
 20
194.825862
 30
0.0
 11
182.657308
 21
194.825862
 31
0.0
  0
LINE
  5
266
330
25C
100
AcDbEntity
  8
001-1
  6
ﾀﾀ��PP
 62
     3
100
AcDbLine
 10
182.657308
 20
237.125862
 30
0.0
 11
185.257308
 21
237.125862
 31
0.0
  0
LINE
  5
267
330
25C
100
AcDbEntity
  8
001-1
  6
ﾀﾀ��PP
 62
     3
100
AcDbLine
 10
185.257308
 20
229.725862
 30
0.0
 11
182.657308
 21
229.725862
 31
0.0
  0
ENDBLK
  5
25E
330
25C
100
AcDbEntity
  8
0
100
AcDbBlockEnd
  0
BLOCK
  5
2A7
330
2A6
100
AcDbEntity
  8
0
100
AcDbBlockBegin
  2
*D27
 70
     1
 71
     0
 10
0.0
 20
0.0
 30
0.0
  3
*D27
  1

  0
TEXT
  5
2A9
330
2A6
100
AcDbEntity
  8
}}ﾊﾊGG血CCТ
  6
CONTINUOUS
 62
     7
100
AcDbText
 10
148.207306
 20
52.65546
 30
0.0
 40
4.0
  1
89.5
 41
0.940299
  7
FX_VECTOR
 72
     5
 11
160.207306
 21
52.65546
 31
0.0
100
AcDbText
  0
LINE
  5
2AA
330
2A6
100
AcDbEntity
  8
}}ﾊﾊGG血CCТ
  6
CONTINUOUS
 62
     7
100
AcDbLine
 10
109.457308
 20
51.655462
 30
0.0
 11
198.957308
 21
51.655462
 31
0.0
  0
INSERT
  5
2AB
330
2A6
100
AcDbEntity
  8
}}ﾊﾊGG血CCТ
  6
CONTINUOUS
 62
     7
100
AcDbBlockReference
  2
FXTIP_ARROW_S
 10
109.457308
 20
51.655462
 30
0.0
 41
4.0
 42
4.0
 50
180.0
  0
INSERT
  5
2AC
330
2A6
100
AcDbEntity
  8
}}ﾊﾊGG血CCТ
  6
CONTINUOUS
 62
     7
100
AcDbBlockReference
  2
FXTIP_ARROW_E
 10
198.957308
 20
51.655462
 30
0.0
 41
4.0
 42
4.0
 50
360.0
  0
LINE
  5
2AD
330
2A6
100
AcDbEntity
  8
}}ﾊﾊGG血CCТ
  6
CONTINUOUS
 62
     7
100
AcDbLine
 10
109.457308
 20
195.525862
 30
0.0
 11
109.457308
 21
50.655462
 31
0.0
  0
LINE
  5
2AE
330
2A6
100
AcDbEntity
  8
}}ﾊﾊGG血CCТ
  6
CONTINUOUS
 62
     7
100
AcDbLine
 10
198.957308
 20
195.525862
 30
0.0
 11
198.957308
 21
50.655462
 31
0.0
  0
ENDBLK
  5
2A8
330
2A6
100
AcDbEntity
  8
0
100
AcDbBlockEnd
  0
BLOCK
  5
2B1
330
2B0
100
AcDbEntity
  8
0
100
AcDbBlockBegin
  2
*D28
 70
     1
 71
     0
 10
0.0
 20
0.0
 30
0.0
  3
*D28
  1

  0
TEXT
  5
2B3
330
2B0
100
AcDbEntity
  8
}}ﾊﾊGG血CCТ
  6
CONTINUOUS
 62
     7
100
AcDbText
 10
210.578812
 20
207.775864
 30
0.0
 40
4.0
  1
%%c25
 50
90.0
 41
0.84375
  7
FX_VECTOR
 72
     5
 11
210.578812
 21
216.775864
 31
0.0
100
AcDbText
  0
LINE
  5
2B4
330
2B0
100
AcDbEntity
  8
}}ﾊﾊGG血CCТ
  6
CONTINUOUS
 62
     7
100
AcDbLine
 10
211.578818
 20
199.775862
 30
0.0
 11
211.578818
 21
224.775862
 31
0.0
  0
INSERT
  5
2B5
330
2B0
100
AcDbEntity
  8
}}ﾊﾊGG血CCТ
  6
CONTINUOUS
 62
     7
100
AcDbBlockReference
  2
FXTIP_ARROW_S
 10
211.578818
 20
199.775862
 30
0.0
 41
4.0
 42
4.0
 50
270.0
  0
INSERT
  5
2B6
330
2B0
100
AcDbEntity
  8
}}ﾊﾊGG血CCТ
  6
CONTINUOUS
 62
     7
100
AcDbBlockReference
  2
FXTIP_ARROW_E
 10
211.578818
 20
224.775862
 30
0.0
 41
4.0
 42
4.0
 50
90.0
  0
LINE
  5
2B7
330
2B0
100
AcDbEntity
  8
}}ﾊﾊGG血CCТ
  6
CONTINUOUS
 62
     7
100
AcDbLine
 10
199.457308
 20
199.775862
 30
0.0
 11
212.578818
 21
199.775862
 31
0.0
  0
LINE
  5
2B8
330
2B0
100
AcDbEntity
  8
}}ﾊﾊGG血CCТ
  6
CONTINUOUS
 62
     7
100
AcDbLine
 10
199.197423
 20
224.775862
 30
0.0
 11
212.578818
 21
224.775862
 31
0.0
  0
ENDBLK
  5
2B2
330
2B0
100
AcDbEntity
  8
0
100
AcDbBlockEnd
  0
BLOCK
  5
2BA
330
2B9
100
AcDbEntity
  8
0
100
AcDbBlockBegin
  2
BLKF031
 70
     0
 71
     0
 10
0.0
 20
0.0
 30
0.0
  3
BLKF031
  1

  0
LINE
  5
2BD
330
2B9
100
AcDbEntity
  8
}}ﾊﾊGG血CCТ
  6
CONTINUOUS
 62
     7
100
AcDbLine
 10
10.0
 20
10.0
 30
0.0
 11
584.0
 21
10.0
 31
0.0
  0
LINE
  5
2BE
330
2B9
100
AcDbEntity
  8
}}ﾊﾊGG血CCТ
  6
CONTINUOUS
 62
     7
100
AcDbLine
 10
10.0
 20
10.0
 30
0.0
 11
10.0
 21
410.0
 31
0.0
  0
LINE
  5
2BF
330
2B9
100
AcDbEntity
  8
}}ﾊﾊGG血CCТ
  6
CONTINUOUS
 62
     7
100
AcDbLine
 10
10.0
 20
410.0
 30
0.0
 11
584.0
 21
410.0
 31
0.0
  0
LINE
  5
2C0
330
2B9
100
AcDbEntity
  8
}}ﾊﾊGG血CCТ
  6
CONTINUOUS
 62
     7
100
AcDbLine
 10
584.0
 20
410.0
 30
0.0
 11
584.0
 21
10.0
 31
0.0
  0
LINE
  5
2C1
330
2B9
100
AcDbEntity
  8
}}ﾊﾊGG血CCТ
  6
CONTINUOUS
 62
     7
100
AcDbLine
 10
327.0
 20
10.0
 30
0.0
 11
327.0
 21
20.0
 31
0.0
  0
TEXT
  5
2C2
330
2B9
100
AcDbEntity
  8
}}ﾊﾊGG血CCТ
  6
CONTINUOUS
 62
     7
100
AcDbText
 10
311.738831
 20
11.596879
 30
0.0
 40
6.648749
  1
品名
 41
1.083413
  7
FX_VECTOR
 72
     5
 11
323.058371
 21
11.596879
 31
0.0
100
AcDbText
  0
LINE
  5
2C3
330
2B9
100
AcDbEntity
  8
}}ﾊﾊGG血CCТ
  6
CONTINUOUS
 62
     7
100
AcDbLine
 10
407.0
 20
20.0
 30
0.0
 11
407.0
 21
10.0
 31
0.0
  0
LINE
  5
2C4
330
2B9
100
AcDbEntity
  8
}}ﾊﾊGG血CCТ
  6
CONTINUOUS
 62
     7
100
AcDbLine
 10
307.0
 20
20.0
 30
0.0
 11
584.0
 21
20.0
 31
0.0
  0
INSERT
  5
2C8
330
2B9
100
AcDbEntity
  8
0
100
AcDbBlockReference
  2
BLKF032
 10
0.0
 20
0.0
 30
0.0
  0
INSERT
  5
2D1
330
2B9
100
AcDbEntity
  8
0
100
AcDbBlockReference
  2
BLKF033
 10
0.0
 20
0.0
 30
0.0
  0
HATCH
  5
2E1
330
2B9
100
AcDbEntity
  8
GR1-1
  6
CONTINUOUS
 62
     7
100
AcDbHatch
 10
0.0
 20
0.0
 30
0.0
210
0.0
220
0.0
230
1.0
  2

 70
     0
 71
     1
 91
        2
 92
        0
 93
        4
 72
     1
 10
512.8018997861325
 20
17.91346152
 11
518.8018997861325
 21
17.91346152
 72
     1
 10
518.8018997861325
 20
17.91346152
 11
518.8018997861325
 21
11.91346152
 72
     1
 10
518.8018997861325
 20
11.91346152
 11
512.8018997861325
 21
11.91346152
 72
     1
 10
512.8018997861325
 20
11.91346152
 11
512.8018997861325
 21
17.91346152
 97
        0
 92
        0
 93
       15
 72
     1
 10
515.8018997861325
 20
17.76923076000002
 11
512.9461305461325
 21
14.91346152
 72
     1
 10
512.9461305461325
 20
14.91346152
 11
515.8018997861325
 21
12.05769228000001
 72
     1
 10
515.8018997861325
 20
12.05769228000001
 11
517.3595920661326
 21
13.61538462
 72
     1
 10
517.3595920661326
 20
13.61538462
 11
517.3595920661326
 21
12.98076924
 72
     1
 10
517.3595920661326
 20
12.98076924
 11
518.2249766861326
 21
12.98076924
 72
     1
 10
518.2249766861326
 20
12.98076924
 11
518.2249766861326
 21
15.00000000000001
 72
     1
 10
518.2249766861326
 20
15.00000000000001
 11
515.8018997861325
 21
15.00000000000001
 72
     1
 10
515.8018997861325
 20
15.00000000000001
 11
515.8018997861325
 21
14.13461538000001
 72
     1
 10
515.8018997861325
 20
14.13461538000001
 11
516.2461305461325
 21
14.13461538000001
 72
     1
 10
516.2461305461325
 20
14.13461538000001
 11
515.8018997861325
 21
13.69038462
 72
     1
 10
515.8018997861325
 20
13.69038462
 11
514.5788228861325
 21
14.91346152
 72
     1
 10
514.5788228861325
 20
14.91346152
 11
515.8018997861325
 21
16.13653842000003
 72
     1
 10
515.8018997861325
 20
16.13653842000003
 11
516.5922844061325
 21
15.3461538
 72
     1
 10
516.5922844061325
 20
15.3461538
 11
518.2249766861326
 21
15.3461538
 72
     1
 10
518.2249766861326
 20
15.3461538
 11
515.8018997861325
 21
17.76923076000002
 97
        0
 75
     0
 76
     0
 52
45.0
 41
0.05
 77
     0
 78
     1
 53
45.0
 43
0.0
 44
0.0
 45
-0.0353553390593274
 46
0.0353553390593274
 79
     0
 98
        0
  0
TEXT
  5
2E2
330
2B9
100
AcDbEntity
  8
}}ﾊﾊGG血CCТ
  6
CONTINUOUS
 62
     7
100
AcDbText
 10
523.225769
 20
11.461285
 30
0.0
 40
6.0
  1
GOLD CASTER
 41
0.719626
  7
FX_VECTOR
 72
     5
 11
567.225769
 21
11.461285
 31
0.0
100
AcDbText
  0
LINE
  5
2E3
330
2B9
100
AcDbEntity
  8
}}ﾊﾊGG血CCТ
  6
CONTINUOUS
 62
     7
100
AcDbLine
 10
427.0
 20
10.0
 30
0.0
 11
427.0
 21
20.0
 31
0.0
  0
TEXT
  5
2E4
330
2B9
100
AcDbEntity
  8
}}ﾊﾊGG血CCТ
  6
CONTINUOUS
 62
     7
100
AcDbText
 10
411.738831
 20
11.596879
 30
0.0
 40
6.648749
  1
図番
 41
1.083413
  7
FX_VECTOR
 72
     5
 11
423.058371
 21
11.596879
 31
0.0
100
AcDbText
  0
LINE
  5
2E5
330
2B9
100
AcDbEntity
  8
}}ﾊﾊGG血CCТ
  6
CONTINUOUS
 62
     7
100
AcDbLine
 10
507.0
 20
20.0
 30
0.0
 11
507.0
 21
10.0
 31
0.0
  0
LINE
  5
2E6
330
2B9
100
AcDbEntity
  8
}}ﾊﾊGG血CCТ
  6
CONTINUOUS
 62
     7
100
AcDbLine
 10
307.0
 20
20.0
 30
0.0
 11
307.0
 21
10.0
 31
0.0
  0
ENDBLK
  5
2BB
330
2B9
100
AcDbEntity
  8
0
100
AcDbBlockEnd
  0
BLOCK
  5
2C6
330
2C5
100
AcDbEntity
  8
0
100
AcDbBlockBegin
  2
BLKF032
 70
     0
 71
     0
 10
0.0
 20
0.0
 30
0.0
  3
BLKF032
  1

  0
LINE
  5
2CA
330
2C5
100
AcDbEntity
  8
0-1
  6
CONTINUOUS
 62
     7
100
AcDbLine
 10
518.8019
 20
17.913462
 30
0.0
 11
512.8019
 21
17.913462
 31
0.0
  0
LINE
  5
2CB
330
2C5
100
AcDbEntity
  8
0-1
  6
CONTINUOUS
 62
     7
100
AcDbLine
 10
512.8019
 20
17.913462
 30
0.0
 11
512.8019
 21
11.913462
 31
0.0
  0
LINE
  5
2CC
330
2C5
100
AcDbEntity
  8
0-1
  6
CONTINUOUS
 62
     7
100
AcDbLine
 10
512.8019
 20
11.913462
 30
0.0
 11
518.8019
 21
11.913462
 31
0.0
  0
LINE
  5
2CD
330
2C5
100
AcDbEntity
  8
0-1
  6
CONTINUOUS
 62
     7
100
AcDbLine
 10
518.8019
 20
11.913462
 30
0.0
 11
518.8019
 21
17.913462
 31
0.0
  0
ENDBLK
  5
2C7
330
2C5
100
AcDbEntity
  8
0
100
AcDbBlockEnd
  0
BLOCK
  5
2CF
330
2CE
100
AcDbEntity
  8
0
100
AcDbBlockBegin
  2
BLKF033
 70
     0
 71
     0
 10
0.0
 20
0.0
 30
0.0
  3
BLKF033
  1

  0
LINE
  5
2D2
330
2CE
100
AcDbEntity
  8
0-1
  6
CONTINUOUS
 62
     7
100
AcDbLine
 10
518.224977
 20
15.346154
 30
0.0
 11
515.8019
 21
17.769231
 31
0.0
  0
LINE
  5
2D3
330
2CE
100
AcDbEntity
  8
0-1
  6
CONTINUOUS
 62
     7
100
AcDbLine
 10
515.8019
 20
17.769231
 30
0.0
 11
512.946131
 21
14.913462
 31
0.0
  0
LINE
  5
2D4
330
2CE
100
AcDbEntity
  8
0-1
  6
CONTINUOUS
 62
     7
100
AcDbLine
 10
512.946131
 20
14.913462
 30
0.0
 11
515.8019
 21
12.057692
 31
0.0
  0
LINE
  5
2D5
330
2CE
100
AcDbEntity
  8
0-1
  6
CONTINUOUS
 62
     7
100
AcDbLine
 10
515.8019
 20
12.057692
 30
0.0
 11
517.359592
 21
13.615385
 31
0.0
  0
LINE
  5
2D6
330
2CE
100
AcDbEntity
  8
0-1
  6
CONTINUOUS
 62
     7
100
AcDbLine
 10
517.359592
 20
13.615385
 30
0.0
 11
517.359592
 21
12.980769
 31
0.0
  0
LINE
  5
2D7
330
2CE
100
AcDbEntity
  8
0-1
  6
CONTINUOUS
 62
     7
100
AcDbLine
 10
517.359592
 20
12.980769
 30
0.0
 11
518.224977
 21
12.980769
 31
0.0
  0
LINE
  5
2D8
330
2CE
100
AcDbEntity
  8
0-1
  6
CONTINUOUS
 62
     7
100
AcDbLine
 10
518.224977
 20
12.980769
 30
0.0
 11
518.224977
 21
15.0
 31
0.0
  0
LINE
  5
2D9
330
2CE
100
AcDbEntity
  8
0-1
  6
CONTINUOUS
 62
     7
100
AcDbLine
 10
518.224977
 20
15.0
 30
0.0
 11
515.8019
 21
15.0
 31
0.0
  0
LINE
  5
2DA
330
2CE
100
AcDbEntity
  8
0-1
  6
CONTINUOUS
 62
     7
100
AcDbLine
 10
515.8019
 20
15.0
 30
0.0
 11
515.8019
 21
14.134615
 31
0.0
  0
LINE
  5
2DB
330
2CE
100
AcDbEntity
  8
0-1
  6
CONTINUOUS
 62
     7
100
AcDbLine
 10
515.8019
 20
14.134615
 30
0.0
 11
516.246131
 21
14.134615
 31
0.0
  0
LINE
  5
2DC
330
2CE
100
AcDbEntity
  8
0-1
  6
CONTINUOUS
 62
     7
100
AcDbLine
 10
516.246131
 20
14.134615
 30
0.0
 11
515.8019
 21
13.690385
 31
0.0
  0
LINE
  5
2DD
330
2CE
100
AcDbEntity
  8
0-1
  6
CONTINUOUS
 62
     7
100
AcDbLine
 10
515.8019
 20
13.690385
 30
0.0
 11
514.578823
 21
14.913462
 31
0.0
  0
LINE
  5
2DE
330
2CE
100
AcDbEntity
  8
0-1
  6
CONTINUOUS
 62
     7
100
AcDbLine
 10
514.578823
 20
14.913462
 30
0.0
 11
515.8019
 21
16.136538
 31
0.0
  0
LINE
  5
2DF
330
2CE
100
AcDbEntity
  8
0-1
  6
CONTINUOUS
 62
     7
100
AcDbLine
 10
515.8019
 20
16.136538
 30
0.0
 11
516.592284
 21
15.346154
 31
0.0
  0
LINE
  5
2E0
330
2CE
100
AcDbEntity
  8
0-1
  6
CONTINUOUS
 62
     7
100
AcDbLine
 10
516.592284
 20
15.346154
 30
0.0
 11
518.224977
 21
15.346154
 31
0.0
  0
ENDBLK
  5
2D0
330
2CE
100
AcDbEntity
  8
0
100
AcDbBlockEnd
  0
ENDSEC
  0
SECTION
  2
ENTITIES
  0
TEXT
  5
A8
330
1F
100
AcDbEntity
  8
}}ﾊﾊGG血CCТ
  6
CONTINUOUS
 62
     7
100
AcDbText
 10
329.602386
 20
12.0
 30
0.0
 40
6.0
  1
Ｗ－２５０　ＵＢ
 41
0.794326
  7
FX_VECTOR
 72
     5
 11
361.602386
 21
12.0
 31
0.0
100
AcDbText
  0
TEXT
  5
A9
330
1F
100
AcDbEntity
  8
}}ﾊﾊGG血CCТ
  6
CONTINUOUS
 62
     7
100
AcDbText
 10
430.220123
 20
12.0
 30
0.0
 40
6.0
  1
1W60FBCA-C02
 41
0.682927
  7
FX_VECTOR
 72
     5
 11
478.220123
 21
12.0
 31
0.0
100
AcDbText
  0
LINE
  5
AA
330
1F
100
AcDbEntity
  8
LAYERGROUP-1
  6
CENTER
 62
     6
100
AcDbLine
 10
154.207308
 20
81.369849
 30
0.0
 11
154.207308
 21
339.384759
 31
0.0
  0
CIRCLE
  5
AB
330
1F
100
AcDbEntity
  8
LAYERGROUP-1
  6
CONTINUOUS
 62
     6
100
AcDbCircle
 10
405.103448
 20
212.275862
 30
0.0
 40
110.0
  0
CIRCLE
  5
AC
330
1F
100
AcDbEntity
  8
LAYERGROUP-1
  6
CONTINUOUS
 62
     6
100
AcDbCircle
 10
405.103448
 20
212.275862
 30
0.0
 40
98.0
  0
CIRCLE
  5
AD
330
1F
100
AcDbEntity
  8
LAYERGROUP-1
  6
CONTINUOUS
 62
     6
100
AcDbCircle
 10
405.103448
 20
212.275862
 30
0.0
 40
40.0
  0
ARC
  5
AE
330
1F
100
AcDbEntity
  8
LAYERGROUP-1
  6
CONTINUOUS
 62
     6
100
AcDbCircle
 10
405.103448
 20
212.275862
 30
0.0
 40
81.30980333722931
100
AcDbArc
 50
-21.0
 51
21.0
  0
ARC
  5
AF
330
1F
100
AcDbEntity
  8
LAYERGROUP-1
  6
CONTINUOUS
 62
     6
100
AcDbCircle
 10
405.103448
 20
212.275862
 30
0.0
 40
88.30842640287415
100
AcDbArc
 50
-21.0
 51
21.0
  0
CIRCLE
  5
B0
330
1F
100
AcDbEntity
  8
LAYERGROUP-1
  6
CONTINUOUS
 62
     3
100
AcDbCircle
 10
405.103448
 20
212.275862
 30
0.0
 40
12.5
  0
CIRCLE
  5
B1
330
1F
100
AcDbEntity
  8
LAYERGROUP-1
  6
CONTINUOUS
 62
     3
100
AcDbCircle
 10
405.103448
 20
212.275862
 30
0.0
 40
15.0
  0
CIRCLE
  5
B2
330
1F
100
AcDbEntity
  8
LAYERGROUP-1
  6
CONTINUOUS
 62
     3
100
AcDbCircle
 10
405.103448
 20
212.275862
 30
0.0
 40
15.65000000000002
  0
CIRCLE
  5
B3
330
1F
100
AcDbEntity
  8
LAYERGROUP-1
  6
CONTINUOUS
 62
     6
100
AcDbCircle
 10
405.103448
 20
212.275862
 30
0.0
 40
13.20000000000002
  0
LINE
  5
B4
330
1F
100
AcDbEntity
  8
LAYERGROUP-1
  6
CENTER
 62
     6
100
AcDbLine
 10
274.456664
 20
212.275862
 30
0.0
 11
536.303821
 21
212.275862
 31
0.0
  0
LINE
  5
B5
330
1F
100
AcDbEntity
  8
LAYERGROUP-1
  6
CENTER
 62
     6
100
AcDbLine
 10
405.103448
 20
342.922647
 30
0.0
 11
405.103448
 21
81.075489
 31
0.0
  0
ARC
  5
B6
330
1F
100
AcDbEntity
  8
LAYERGROUP-1
  6
CONTINUOUS
 62
     6
100
AcDbCircle
 10
405.103448
 20
212.275862
 30
0.0
 40
95.0
100
AcDbArc
 50
264.865569
 51
275.134431
  0
ARC
  5
B7
330
1F
100
AcDbEntity
  8
LAYERGROUP-1
  6
CONTINUOUS
 62
     6
100
AcDbCircle
 10
413.068311
 20
123.632978
 30
0.0
 40
6.0
100
AcDbArc
 50
-84.865569
 51
9.0
  0
LINE
  5
B8
330
1F
100
AcDbEntity
  8
LAYERGROUP-1
  6
CONTINUOUS
 62
     6
100
AcDbLine
 10
413.143768
 20
161.511279
 30
0.0
 11
418.994441
 21
124.571584
 31
0.0
  0
ARC
  5
B9
330
1F
100
AcDbEntity
  8
LAYERGROUP-1
  6
CONTINUOUS
 62
     6
100
AcDbCircle
 10
397.138585
 20
123.632978
 30
0.0
 40
6.0
100
AcDbArc
 50
171.0
 51
264.865569
  0
LINE
  5
BA
330
1F
100
AcDbEntity
  8
LAYERGROUP-1
  6
CONTINUOUS
 62
     6
100
AcDbLine
 10
397.063128
 20
161.511279
 30
0.0
 11
391.212455
 21
124.571584
 31
0.0
  0
ARC
  5
BB
330
1F
100
AcDbEntity
  8
LAYERGROUP-1
  6
CONTINUOUS
 62
     6
100
AcDbCircle
 10
405.103448
 20
212.275862
 30
0.0
 40
46.64
100
AcDbArc
 50
266.556321
 51
273.443679
  0
ARC
  5
BC
330
1F
100
AcDbEntity
  8
LAYERGROUP-1
  6
CONTINUOUS
 62
     6
100
AcDbCircle
 10
405.103448
 20
212.275862
 30
0.0
 40
95.0
100
AcDbArc
 50
324.865569
 51
335.134431
  0
ARC
  5
BD
330
1F
100
AcDbEntity
  8
LAYERGROUP-1
  6
CONTINUOUS
 62
     6
100
AcDbCircle
 10
485.852869
 20
174.852193
 30
0.0
 40
6.0
100
AcDbArc
 50
-24.865569
 51
69.0
  0
LINE
  5
BE
330
1F
100
AcDbEntity
  8
LAYERGROUP-1
  6
CONTINUOUS
 62
     6
100
AcDbLine
 10
453.087026
 20
193.856692
 30
0.0
 11
488.003077
 21
180.453676
 31
0.0
  0
ARC
  5
BF
330
1F
100
AcDbEntity
  8
LAYERGROUP-1
  6
CONTINUOUS
 62
     6
100
AcDbCircle
 10
477.888007
 20
161.056646
 30
0.0
 40
6.0
100
AcDbArc
 50
231.0
 51
324.865569
  0
LINE
  5
C0
330
1F
100
AcDbEntity
  8
LAYERGROUP-1
  6
CONTINUOUS
 62
     6
100
AcDbLine
 10
445.046706
 20
179.930449
 30
0.0
 11
474.112084
 21
156.39377
 31
0.0
  0
ARC
  5
C1
330
1F
100
AcDbEntity
  8
LAYERGROUP-1
  6
CONTINUOUS
 62
     6
100
AcDbCircle
 10
405.103448
 20
212.275862
 30
0.0
 40
46.64
100
AcDbArc
 50
326.556321
 51
333.443679
  0
ARC
  5
C2
330
1F
100
AcDbEntity
  8
LAYERGROUP-1
  6
CONTINUOUS
 62
     6
100
AcDbCircle
 10
405.103448
 20
212.275862
 30
0.0
 40
95.0
100
AcDbArc
 50
204.865569
 51
215.134431
  0
ARC
  5
C3
330
1F
100
AcDbEntity
  8
LAYERGROUP-1
  6
CONTINUOUS
 62
     6
100
AcDbCircle
 10
332.31889
 20
161.056646
 30
0.0
 40
6.0
100
AcDbArc
 50
215.134431
 51
309.0
  0
LINE
  5
C4
330
1F
100
AcDbEntity
  8
LAYERGROUP-1
  6
CONTINUOUS
 62
     6
100
AcDbLine
 10
365.16019
 20
179.930449
 30
0.0
 11
336.094812
 21
156.39377
 31
0.0
  0
ARC
  5
C5
330
1F
100
AcDbEntity
  8
LAYERGROUP-1
  6
CONTINUOUS
 62
     6
100
AcDbCircle
 10
324.354027
 20
174.852193
 30
0.0
 40
6.0
100
AcDbArc
 50
111.0
 51
204.865569
  0
LINE
  5
C6
330
1F
100
AcDbEntity
  8
LAYERGROUP-1
  6
CONTINUOUS
 62
     6
100
AcDbLine
 10
357.11987
 20
193.856692
 30
0.0
 11
322.203819
 21
180.453676
 31
0.0
  0
ARC
  5
C7
330
1F
100
AcDbEntity
  8
LAYERGROUP-1
  6
CONTINUOUS
 62
     6
100
AcDbCircle
 10
405.103448
 20
212.275862
 30
0.0
 40
46.64
100
AcDbArc
 50
206.556321
 51
213.443679
  0
ARC
  5
C8
330
1F
100
AcDbEntity
  8
LAYERGROUP-1
  6
CONTINUOUS
 62
     6
100
AcDbCircle
 10
405.103448
 20
212.275862
 30
0.0
 40
95.0
100
AcDbArc
 50
84.865569
 51
95.134431
  0
ARC
  5
C9
330
1F
100
AcDbEntity
  8
LAYERGROUP-1
  6
CONTINUOUS
 62
     6
100
AcDbCircle
 10
413.068311
 20
300.918746
 30
0.0
 40
6.0
100
AcDbArc
 50
-9.0
 51
84.865569
  0
LINE
  5
CA
330
1F
100
AcDbEntity
  8
LAYERGROUP-1
  6
CONTINUOUS
 62
     6
100
AcDbLine
 10
413.143768
 20
263.040445
 30
0.0
 11
418.994441
 21
299.98014
 31
0.0
  0
ARC
  5
CB
330
1F
100
AcDbEntity
  8
LAYERGROUP-1
  6
CONTINUOUS
 62
     6
100
AcDbCircle
 10
397.138585
 20
300.918746
 30
0.0
 40
6.0
100
AcDbArc
 50
95.134431
 51
189.0
  0
LINE
  5
CC
330
1F
100
AcDbEntity
  8
LAYERGROUP-1
  6
CONTINUOUS
 62
     6
100
AcDbLine
 10
397.063128
 20
263.040445
 30
0.0
 11
391.212455
 21
299.98014
 31
0.0
  0
ARC
  5
CD
330
1F
100
AcDbEntity
  8
LAYERGROUP-1
  6
CONTINUOUS
 62
     6
100
AcDbCircle
 10
405.103448
 20
212.275862
 30
0.0
 40
46.64
100
AcDbArc
 50
86.556321
 51
93.443679
  0
ARC
  5
CE
330
1F
100
AcDbEntity
  8
LAYERGROUP-1
  6
CONTINUOUS
 62
     6
100
AcDbCircle
 10
405.103448
 20
212.275862
 30
0.0
 40
95.0
100
AcDbArc
 50
24.865569
 51
35.134431
  0
ARC
  5
CF
330
1F
100
AcDbEntity
  8
LAYERGROUP-1
  6
CONTINUOUS
 62
     6
100
AcDbCircle
 10
485.852869
 20
249.699531
 30
0.0
 40
6.0
100
AcDbArc
 50
-69.0
 51
24.865569
  0
LINE
  5
D0
330
1F
100
AcDbEntity
  8
LAYERGROUP-1
  6
CONTINUOUS
 62
     6
100
AcDbLine
 10
453.087026
 20
230.695032
 30
0.0
 11
488.003077
 21
244.098048
 31
0.0
  0
ARC
  5
D1
330
1F
100
AcDbEntity
  8
LAYERGROUP-1
  6
CONTINUOUS
 62
     6
100
AcDbCircle
 10
477.888007
 20
263.495078
 30
0.0
 40
6.0
100
AcDbArc
 50
35.134431
 51
129.0
  0
LINE
  5
D2
330
1F
100
AcDbEntity
  8
LAYERGROUP-1
  6
CONTINUOUS
 62
     6
100
AcDbLine
 10
445.046706
 20
244.621275
 30
0.0
 11
474.112084
 21
268.157954
 31
0.0
  0
ARC
  5
D3
330
1F
100
AcDbEntity
  8
LAYERGROUP-1
  6
CONTINUOUS
 62
     6
100
AcDbCircle
 10
405.103448
 20
212.275862
 30
0.0
 40
46.64
100
AcDbArc
 50
26.556321
 51
33.443679
  0
ARC
  5
D4
330
1F
100
AcDbEntity
  8
LAYERGROUP-1
  6
CONTINUOUS
 62
     6
100
AcDbCircle
 10
405.103448
 20
212.275862
 30
0.0
 40
95.0
100
AcDbArc
 50
144.865569
 51
155.134431
  0
ARC
  5
D5
330
1F
100
AcDbEntity
  8
LAYERGROUP-1
  6
CONTINUOUS
 62
     6
100
AcDbCircle
 10
332.31889
 20
263.495078
 30
0.0
 40
6.0
100
AcDbArc
 50
51.0
 51
144.865569
  0
LINE
  5
D6
330
1F
100
AcDbEntity
  8
LAYERGROUP-1
  6
CONTINUOUS
 62
     6
100
AcDbLine
 10
365.16019
 20
244.621275
 30
0.0
 11
336.094812
 21
268.157954
 31
0.0
  0
ARC
  5
D7
330
1F
100
AcDbEntity
  8
LAYERGROUP-1
  6
CONTINUOUS
 62
     7
100
AcDbCircle
 10
324.354027
 20
249.699531
 30
0.0
 40
6.0
100
AcDbArc
 50
155.134431
 51
249.0
  0
LINE
  5
D8
330
1F
100
AcDbEntity
  8
LAYERGROUP-1
  6
CONTINUOUS
 62
     6
100
AcDbLine
 10
357.11987
 20
230.695032
 30
0.0
 11
322.203819
 21
244.098048
 31
0.0
  0
ARC
  5
D9
330
1F
100
AcDbEntity
  8
LAYERGROUP-1
  6
CONTINUOUS
 62
     6
100
AcDbCircle
 10
405.103448
 20
212.275862
 30
0.0
 40
46.64
100
AcDbArc
 50
146.556321
 51
153.443679
  0
ARC
  5
DA
330
1F
100
AcDbEntity
  8
LAYERGROUP-1
  6
CONTINUOUS
 62
     6
100
AcDbCircle
 10
402.00157
 20
160.729107
 30
0.0
 40
5.0
100
AcDbArc
 50
86.556321
 51
171.0
  0
ARC
  5
DB
330
1F
100
AcDbEntity
  8
LAYERGROUP-1
  6
CONTINUOUS
 62
     6
100
AcDbCircle
 10
408.205327
 20
160.729107
 30
0.0
 40
5.0
100
AcDbArc
 50
9.0
 51
93.443679
  0
ARC
  5
DC
330
1F
100
AcDbEntity
  8
LAYERGROUP-1
  6
CONTINUOUS
 62
     6
100
AcDbCircle
 10
451.295187
 20
189.18879
 30
0.0
 40
5.0
100
AcDbArc
 50
69.0
 51
153.443679
  0
ARC
  5
DD
330
1F
100
AcDbEntity
  8
LAYERGROUP-1
  6
CONTINUOUS
 62
     6
100
AcDbCircle
 10
448.193308
 20
183.816179
 30
0.0
 40
5.0
100
AcDbArc
 50
146.556321
 51
231.0
  0
ARC
  5
DE
330
1F
100
AcDbEntity
  8
LAYERGROUP-1
  6
CONTINUOUS
 62
     6
100
AcDbCircle
 10
448.193308
 20
240.735545
 30
0.0
 40
5.0
100
AcDbArc
 50
129.0
 51
213.443679
  0
ARC
  5
DF
330
1F
100
AcDbEntity
  8
LAYERGROUP-1
  6
CONTINUOUS
 62
     6
100
AcDbCircle
 10
451.295187
 20
235.362934
 30
0.0
 40
5.0
100
AcDbArc
 50
206.556321
 51
291.0
  0
ARC
  5
E0
330
1F
100
AcDbEntity
  8
LAYERGROUP-1
  6
CONTINUOUS
 62
     6
100
AcDbCircle
 10
402.00157
 20
263.822617
 30
0.0
 40
5.0
100
AcDbArc
 50
189.0
 51
273.443679
  0
ARC
  5
E1
330
1F
100
AcDbEntity
  8
LAYERGROUP-1
  6
CONTINUOUS
 62
     6
100
AcDbCircle
 10
408.205327
 20
263.822617
 30
0.0
 40
5.0
100
AcDbArc
 50
266.556321
 51
351.0
  0
ARC
  5
E2
330
1F
100
AcDbEntity
  8
LAYERGROUP-1
  6
CONTINUOUS
 62
     6
100
AcDbCircle
 10
362.013588
 20
240.735545
 30
0.0
 40
5.0
100
AcDbArc
 50
-33.443679
 51
51.0
  0
ARC
  5
E3
330
1F
100
AcDbEntity
  8
LAYERGROUP-1
  6
CONTINUOUS
 62
     6
100
AcDbCircle
 10
358.91171
 20
235.362934
 30
0.0
 40
5.0
100
AcDbArc
 50
249.0
 51
333.443679
  0
ARC
  5
E4
330
1F
100
AcDbEntity
  8
LAYERGROUP-1
  6
CONTINUOUS
 62
     6
100
AcDbCircle
 10
358.91171
 20
189.18879
 30
0.0
 40
5.0
100
AcDbArc
 50
26.556321
 51
111.0
  0
ARC
  5
E5
330
1F
100
AcDbEntity
  8
LAYERGROUP-1
  6
CONTINUOUS
 62
     6
100
AcDbCircle
 10
362.013588
 20
183.816179
 30
0.0
 40
5.0
100
AcDbArc
 50
-51.0
 51
33.443679
  0
LINE
  5
E7
330
1F
100
AcDbEntity
  8
GR1-1
  6
CONTINUOUS
 62
     7
100
AcDbLine
 10
372.79512
 20
150.318291
 30
0.0
 11
367.581619
 21
153.288041
 31
0.0
  0
LINE
  5
E8
330
1F
100
AcDbEntity
  8
GR1-1
  6
CONTINUOUS
 62
     7
100
AcDbLine
 10
367.581619
 20
153.288041
 30
0.0
 11
364.61187
 21
148.074541
 31
0.0
  0
LINE
  5
E9
330
1F
100
AcDbEntity
  8
GR1-1
  6
CONTINUOUS
 62
     7
100
AcDbLine
 10
364.61187
 20
148.074541
 30
0.0
 11
369.82537
 21
145.104791
 31
0.0
  0
LINE
  5
EA
330
1F
100
AcDbEntity
  8
GR1-1
  6
CONTINUOUS
 62
     7
100
AcDbLine
 10
369.82537
 20
145.104791
 30
0.0
 11
372.79512
 21
150.318291
 31
0.0
  0
LINE
  5
EB
330
1F
100
AcDbEntity
  8
GR1-1
  6
CONTINUOUS
 62
     7
100
AcDbLine
 10
371.161162
 20
147.796463
 30
0.0
 11
367.303541
 21
146.738748
 31
0.0
  0
LINE
  5
EC
330
1F
100
AcDbEntity
  8
GR1-1
  6
CONTINUOUS
 62
     7
100
AcDbLine
 10
367.303541
 20
146.738748
 30
0.0
 11
366.358015
 21
150.187207
 31
0.0
  0
LINE
  5
ED
330
1F
100
AcDbEntity
  8
GR1-1
  6
CONTINUOUS
 62
     7
100
AcDbLine
 10
366.358015
 20
150.187207
 30
0.0
 11
367.586849
 21
149.48723
 31
0.0
  0
LINE
  5
EE
330
1F
100
AcDbEntity
  8
GR1-1
  6
CONTINUOUS
 62
     7
100
AcDbLine
 10
367.586849
 20
149.48723
 30
0.0
 11
368.003518
 21
147.967582
 31
0.0
  0
LINE
  5
EF
330
1F
100
AcDbEntity
  8
GR1-1
  6
CONTINUOUS
 62
     7
100
AcDbLine
 10
368.003518
 20
147.967582
 30
0.0
 11
369.932329
 21
148.496439
 31
0.0
  0
LINE
  5
F0
330
1F
100
AcDbEntity
  8
GR1-1
  6
CONTINUOUS
 62
     7
100
AcDbLine
 10
369.932329
 20
148.496439
 30
0.0
 11
369.403472
 21
150.42525
 31
0.0
  0
LINE
  5
F1
330
1F
100
AcDbEntity
  8
GR1-1
  6
CONTINUOUS
 62
     7
100
AcDbLine
 10
369.403472
 20
150.42525
 30
0.0
 11
368.389427
 21
150.147211
 31
0.0
  0
ARC
  5
F2
330
1F
100
AcDbEntity
  8
GR1-1
  6
CONTINUOUS
 62
     7
100
AcDbCircle
 10
368.415869
 20
150.05077
 30
0.0
 40
0.1
100
AcDbArc
 50
105.333
 51
240.333
  0
LINE
  5
F3
330
1F
100
AcDbEntity
  8
GR1-1
  6
CONTINUOUS
 62
     7
100
AcDbLine
 10
368.366374
 20
149.963879
 30
0.0
 11
368.950974
 21
149.630875
 31
0.0
  0
LINE
  5
F4
330
1F
100
AcDbEntity
  8
GR1-1
  6
CONTINUOUS
 62
     7
100
AcDbLine
 10
368.950974
 20
149.630875
 30
0.0
 11
368.703495
 21
149.196416
 31
0.0
  0
LINE
  5
F5
330
1F
100
AcDbEntity
  8
GR1-1
  6
CONTINUOUS
 62
     7
100
AcDbLine
 10
368.703495
 20
149.196416
 30
0.0
 11
366.245827
 21
150.59637
 31
0.0
  0
LINE
  5
F6
330
1F
100
AcDbEntity
  8
GR1-1
  6
CONTINUOUS
 62
     7
100
AcDbLine
 10
366.245827
 20
150.59637
 30
0.0
 11
367.247781
 21
152.355336
 31
0.0
  0
LINE
  5
F7
330
1F
100
AcDbEntity
  8
GR1-1
  6
CONTINUOUS
 62
     7
100
AcDbLine
 10
367.247781
 20
152.355336
 30
0.0
 11
368.116698
 21
151.860377
 31
0.0
  0
LINE
  5
F8
330
1F
100
AcDbEntity
  8
GR1-1
  6
CONTINUOUS
 62
     7
100
AcDbLine
 10
368.116698
 20
151.860377
 30
0.0
 11
367.729196
 21
151.180103
 31
0.0
  0
ARC
  5
F9
330
1F
100
AcDbEntity
  8
GR1-1
  6
CONTINUOUS
 62
     7
100
AcDbCircle
 10
367.816087
 20
151.130607
 30
0.0
 40
0.1
100
AcDbArc
 50
150.333
 51
285.333
  0
LINE
  5
FA
330
1F
100
AcDbEntity
  8
GR1-1
  6
CONTINUOUS
 62
     7
100
AcDbLine
 10
367.84253
 20
151.034167
 30
0.0
 11
370.103448
 21
151.654084
 31
0.0
  0
LINE
  5
FB
330
1F
100
AcDbEntity
  8
GR1-1
  6
CONTINUOUS
 62
     7
100
AcDbLine
 10
370.103448
 20
151.654084
 30
0.0
 11
371.161162
 21
147.796463
 31
0.0
  0
TEXT
  5
FC
330
1F
100
AcDbEntity
  8
LAYERGROUP-1
  6
CONTINUOUS
 62
     7
100
AcDbText
 10
421.91803
 20
279.768616
 30
0.0
 40
7.255827
  1
2
 50
344.166992
 41
0.75985
  7
FX_VECTOR
 72
     5
 11
426.211883
 21
278.550906
 31
0.0
100
AcDbText
  0
TEXT
  5
FD
330
1F
100
AcDbEntity
  8
LAYERGROUP-1
  6
CONTINUOUS
 62
     7
100
AcDbText
 10
428.49939
 20
277.778778
 30
0.0
 40
7.255827
  1
5
 50
338.501007
 41
0.75985
  7
FX_VECTOR
 72
     5
 11
432.652041
 21
276.14309
 31
0.0
100
AcDbText
  0
TEXT
  5
FE
330
1F
100
AcDbEntity
  8
LAYERGROUP-1
  6
CONTINUOUS
 62
     7
100
AcDbText
 10
434.853241
 20
275.148376
 30
0.0
 40
7.255827
  1
O
 50
332.835022
 41
0.679866
  7
FX_VECTOR
 72
     5
 11
438.824114
 21
273.110692
 31
0.0
100
AcDbText
  0
TEXT
  5
FF
330
1F
100
AcDbEntity
  8
LAYERGROUP-1
  6
CONTINUOUS
 62
     7
100
AcDbText
 10
440.916321
 20
271.903412
 30
0.0
 40
7.255827
  1
X
 50
327.169037
 41
0.75985
  7
FX_VECTOR
 72
     5
 11
444.666615
 21
269.483643
 31
0.0
100
AcDbText
  0
TEXT
  5
100
330
1F
100
AcDbEntity
  8
LAYERGROUP-1
  6
CONTINUOUS
 62
     7
100
AcDbText
 10
446.628326
 20
268.076294
 30
0.0
 40
7.255827
  1
4
 50
321.503052
 41
0.717636
  7
FX_VECTOR
 72
     5
 11
450.121397
 21
265.298084
 31
0.0
100
AcDbText
  0
TEXT
  5
101
330
1F
100
AcDbEntity
  8
LAYERGROUP-1
  6
CONTINUOUS
 62
     7
100
AcDbText
 10
451.935516
 20
263.703156
 30
0.0
 40
7.255827
  1
5
 50
315.837067
 41
0.75985
  7
FX_VECTOR
 72
     5
 11
455.137231
 21
260.593652
 31
0.0
100
AcDbText
  0
LINE
  5
102
330
1F
100
AcDbEntity
  8
LAYERGROUP-1
  6
CONTINUOUS
 62
     3
100
AcDbLine
 10
184.507308
 20
171.875373
 30
0.0
 11
184.507308
 21
184.775862
 31
0.0
  0
LINE
  5
103
330
1F
100
AcDbEntity
  8
LAYERGROUP-1
  6
CONTINUOUS
 62
     3
100
AcDbLine
 10
184.507308
 20
171.875373
 30
0.0
 11
171.708151
 21
131.314666
 31
0.0
  0
LINE
  5
104
330
1F
100
AcDbEntity
  8
LAYERGROUP-1
  6
CONTINUOUS
 62
     3
100
AcDbLine
 10
183.708567
 20
161.036531
 30
0.0
 11
174.153145
 21
130.755264
 31
0.0
  0
ARC
  5
105
330
1F
100
AcDbEntity
  8
LAYERGROUP-1
  6
CONTINUOUS
 62
     3
100
AcDbCircle
 10
179.89398
 20
162.240245
 30
0.0
 40
4.0
100
AcDbArc
 50
-17.51338
 51
50.462307
  0
CIRCLE
  5
106
330
1F
100
AcDbEntity
  8
LAYERGROUP-1
  6
CONTINUOUS
 62
     3
100
AcDbCircle
 10
405.103448
 20
212.275862
 30
0.0
 40
125.0
  0
LINE
  5
107
330
1F
100
AcDbEntity
  8
LAYERGROUP-1
  6
CONTINUOUS
 62
     3
100
AcDbLine
 10
142.099613
 20
87.275862
 30
0.0
 11
166.315003
 21
87.275862
 31
0.0
  0
ARC
  5
108
330
1F
100
AcDbEntity
  8
LAYERGROUP-1
  6
CONTINUOUS
 62
     3
100
AcDbCircle
 10
142.099613
 20
90.275862
 30
0.0
 40
3.0
100
AcDbArc
 50
210.0
 51
270.0
  0
ARC
  5
109
330
1F
100
AcDbEntity
  8
LAYERGROUP-1
  6
CONTINUOUS
 62
     3
100
AcDbCircle
 10
166.315003
 20
90.275862
 30
0.0
 40
3.0
100
AcDbArc
 50
270.0
 51
330.0
  0
LINE
  5
10A
330
1F
100
AcDbEntity
  8
LAYERGROUP-1
  6
CONTINUOUS
 62
     3
100
AcDbLine
 10
176.707308
 20
102.275862
 30
0.0
 11
168.913079
 21
88.775862
 31
0.0
  0
LINE
  5
10B
330
1F
100
AcDbEntity
  8
LAYERGROUP-1
  6
CONTINUOUS
 62
     3
100
AcDbLine
 10
176.707308
 20
102.275862
 30
0.0
 11
176.707308
 21
114.182737
 31
0.0
  0
LINE
  5
10C
330
1F
100
AcDbEntity
  8
LAYERGROUP-1
  6
CONTINUOUS
 62
     3
100
AcDbLine
 10
131.707308
 20
102.275862
 30
0.0
 11
139.501536
 21
88.775862
 31
0.0
  0
DIMENSION
  5
10D
330
1F
100
AcDbEntity
  8
LAYERGROUP-1
100
AcDbDimension
  2
*D19
 10
176.707308
 20
64.762207
 30
0.0
 11
154.207306
 21
65.762207
 31
0.0
 70
    33
  3
FXDIMINFO
100
AcDbAlignedDimension
 13
131.707308
 23
102.275862
 33
0.0
 14
176.707308
 24
102.275862
 34
0.0
1001
ACAD
1000
DSTYLE
1002
{
1070
     7
1000
FXTIP_ARROW_E
1070
     6
1000
FXTIP_ARROW_S
1070
   173
1070
     1
1002
}
  0
DIMENSION
  5
117
330
1F
100
AcDbEntity
  8
LAYERGROUP-1
100
AcDbDimension
  2
*D20
 10
223.54254
 20
337.275862
 30
0.0
 11
222.542542
 21
212.275864
 31
0.0
 70
    33
  3
FXDIMINFO
100
AcDbAlignedDimension
 13
166.315003
 23
87.275862
 33
0.0
 14
166.315003
 24
337.275862
 34
0.0
1001
ACAD
1000
DSTYLE
1002
{
1070
     7
1000
FXTIP_ARROW_E
1070
     6
1000
FXTIP_ARROW_S
1070
   173
1070
     1
1002
}
  0
CIRCLE
  5
121
330
1F
100
AcDbEntity
  8
LAYERGROUP-1
  6
CONTINUOUS
 62
     3
100
AcDbCircle
 10
405.103448
 20
212.275862
 30
0.0
 40
27.5
  0
ARC
  5
122
330
1F
100
AcDbEntity
  8
LAYERGROUP-1
  6
CONTINUOUS
 62
     6
100
AcDbCircle
 10
405.103448
 20
212.275862
 30
0.0
 40
81.30980333722931
100
AcDbArc
 50
219.0
 51
261.0
  0
ARC
  5
123
330
1F
100
AcDbEntity
  8
LAYERGROUP-1
  6
CONTINUOUS
 62
     6
100
AcDbCircle
 10
405.103448
 20
212.275862
 30
0.0
 40
88.30842640287415
100
AcDbArc
 50
219.0
 51
261.0
  0
ARC
  5
124
330
1F
100
AcDbEntity
  8
LAYERGROUP-1
  6
CONTINUOUS
 62
     6
100
AcDbCircle
 10
324.354027
 20
249.699531
 30
0.0
 40
6.0
100
AcDbArc
 50
155.134431
 51
249.0
  0
ARC
  5
125
330
1F
100
AcDbEntity
  8
LAYERGROUP-1
  6
CONTINUOUS
 62
     6
100
AcDbCircle
 10
405.103448
 20
212.275862
 30
0.0
 40
81.30980333722931
100
AcDbArc
 50
159.0
 51
201.0
  0
ARC
  5
126
330
1F
100
AcDbEntity
  8
LAYERGROUP-1
  6
CONTINUOUS
 62
     6
100
AcDbCircle
 10
405.103448
 20
212.275862
 30
0.0
 40
88.30842640287415
100
AcDbArc
 50
159.0
 51
201.0
  0
ARC
  5
127
330
1F
100
AcDbEntity
  8
LAYERGROUP-1
  6
CONTINUOUS
 62
     6
100
AcDbCircle
 10
405.103448
 20
212.275862
 30
0.0
 40
81.30980333722931
100
AcDbArc
 50
99.0
 51
141.0
  0
ARC
  5
128
330
1F
100
AcDbEntity
  8
LAYERGROUP-1
  6
CONTINUOUS
 62
     6
100
AcDbCircle
 10
405.103448
 20
212.275862
 30
0.0
 40
88.30842640287415
100
AcDbArc
 50
99.0
 51
141.0
  0
ARC
  5
129
330
1F
100
AcDbEntity
  8
LAYERGROUP-1
  6
CONTINUOUS
 62
     6
100
AcDbCircle
 10
405.103448
 20
212.275862
 30
0.0
 40
88.30842640287415
100
AcDbArc
 50
39.0
 51
81.0
  0
ARC
  5
12A
330
1F
100
AcDbEntity
  8
LAYERGROUP-1
  6
CONTINUOUS
 62
     6
100
AcDbCircle
 10
405.103448
 20
212.275862
 30
0.0
 40
88.30842640287415
100
AcDbArc
 50
279.0
 51
321.0
  0
ARC
  5
12B
330
1F
100
AcDbEntity
  8
LAYERGROUP-1
  6
CONTINUOUS
 62
     6
100
AcDbCircle
 10
405.103448
 20
212.275862
 30
0.0
 40
81.30980333722931
100
AcDbArc
 50
279.0
 51
321.0
  0
LINE
  5
12C
330
1F
100
AcDbEntity
  8
LAYERGROUP-1
  6
CENTER
 62
     6
100
AcDbLine
 10
109.457308
 20
212.275862
 30
0.0
 11
199.707308
 21
212.275862
 31
0.0
  0
LINE
  5
12D
330
1F
100
AcDbEntity
  8
LAYERGROUP-1
  6
CONTINUOUS
 62
     3
100
AcDbLine
 10
181.907308
 20
183.025862
 30
0.0
 11
181.907308
 21
172.275862
 31
0.0
  0
LINE
  5
12E
330
1F
100
AcDbEntity
  8
LAYERGROUP-1
  6
CONTINUOUS
 62
     3
100
AcDbLine
 10
172.272912
 20
123.88854
 30
0.0
 11
176.39882
 21
115.507789
 31
0.0
  0
ARC
  5
12F
330
1F
100
AcDbEntity
  8
LAYERGROUP-1
  6
CONTINUOUS
 62
     3
100
AcDbCircle
 10
181.244618
 20
128.305381
 30
0.0
 40
10.0
100
AcDbArc
 50
162.48662
 51
206.211378
  0
LINE
  5
130
330
1F
100
AcDbEntity
  8
LAYERGROUP-1
  6
CONTINUOUS
 62
     3
100
AcDbLine
 10
174.535968
 20
125.269756
 30
0.0
 11
176.23895
 21
121.698987
 31
0.0
  0
ARC
  5
131
330
1F
100
AcDbEntity
  8
LAYERGROUP-1
  6
CONTINUOUS
 62
     3
100
AcDbCircle
 10
181.305495
 20
128.4983
 30
0.0
 40
7.5
100
AcDbArc
 50
162.48662
 51
205.497551
  0
ARC
  5
132
330
1F
100
AcDbEntity
  8
LAYERGROUP-1
  6
CONTINUOUS
 62
     3
100
AcDbCircle
 10
172.628535
 20
119.977097
 30
0.0
 40
4.0
100
AcDbArc
 50
-42.478136
 51
25.497551
  0
ARC
  5
133
330
1F
100
AcDbEntity
  8
LAYERGROUP-1
  6
CONTINUOUS
 62
     3
100
AcDbCircle
 10
158.057308
 20
101.025862
 30
0.0
 40
3.85
100
AcDbArc
 50
90.0
 51
180.0
  0
LINE
  5
134
330
1F
100
AcDbEntity
  8
LAYERGROUP-1
  6
CONTINUOUS
 62
     3
100
AcDbLine
 10
154.207308
 20
100.525862
 30
0.0
 11
154.207308
 21
101.275862
 31
0.0
  0
LINE
  5
135
330
1F
100
AcDbEntity
  8
LAYERGROUP-1
  6
CONTINUOUS
 62
     3
100
AcDbLine
 10
156.807308
 20
99.775862
 30
0.0
 11
156.807308
 21
101.025862
 31
0.0
  0
LINE
  5
136
330
1F
100
AcDbEntity
  8
LAYERGROUP-1
  6
CONTINUOUS
 62
     3
100
AcDbLine
 10
156.807308
 20
99.775862
 30
0.0
 11
151.607308
 21
99.775862
 31
0.0
  0
ARC
  5
137
330
1F
100
AcDbEntity
  8
LAYERGROUP-1
  6
CONTINUOUS
 62
     3
100
AcDbCircle
 10
158.057308
 20
101.025862
 30
0.0
 40
1.25
100
AcDbArc
 50
90.0
 51
180.0
  0
LINE
  5
138
330
1F
100
AcDbEntity
  8
LAYERGROUP-1
  6
CONTINUOUS
 62
     3
100
AcDbLine
 10
158.057308
 20
104.875862
 30
0.0
 11
173.107308
 21
104.875862
 31
0.0
  0
LINE
  5
139
330
1F
100
AcDbEntity
  8
LAYERGROUP-1
  6
CONTINUOUS
 62
     3
100
AcDbLine
 10
158.057308
 20
102.275862
 30
0.0
 11
173.107308
 21
102.275862
 31
0.0
  0
LINE
  5
13A
330
1F
100
AcDbEntity
  8
LAYERGROUP-1
  6
CONTINUOUS
 62
     3
100
AcDbLine
 10
174.107308
 20
105.875862
 30
0.0
 11
174.107308
 21
114.275862
 31
0.0
  0
ARC
  5
13B
330
1F
100
AcDbEntity
  8
LAYERGROUP-1
  6
CONTINUOUS
 62
     3
100
AcDbCircle
 10
173.107308
 20
105.875862
 30
0.0
 40
1.0
100
AcDbArc
 50
270.0
 51
360.0
  0
ARC
  5
13C
330
1F
100
AcDbEntity
  8
LAYERGROUP-1
  6
CONTINUOUS
 62
     3
100
AcDbCircle
 10
173.107308
 20
105.875862
 30
0.0
 40
3.6
100
AcDbArc
 50
270.0
 51
360.0
  0
LINE
  5
13D
330
1F
100
AcDbEntity
  8
LAYERGROUP-1
  6
CONTINUOUS
 62
     3
100
AcDbLine
 10
169.940268
 20
122.740162
 30
0.0
 11
174.107308
 21
114.275862
 31
0.0
  0
ARC
  5
13E
330
1F
100
AcDbEntity
  8
LAYERGROUP-1
  6
CONTINUOUS
 62
     3
100
AcDbCircle
 10
181.244618
 20
128.305381
 30
0.0
 40
12.6
100
AcDbArc
 50
162.48662
 51
206.211378
  0
LINE
  5
13F
330
1F
100
AcDbEntity
  8
LAYERGROUP-1
  6
CONTINUOUS
 62
     3
100
AcDbLine
 10
169.22867
 20
132.09708
 30
0.0
 11
181.907308
 21
172.275862
 31
0.0
  0
ARC
  5
140
330
1F
100
AcDbEntity
  8
LAYERGROUP-1
  6
CONTINUOUS
 62
     3
100
AcDbCircle
 10
173.707308
 20
114.182737
 30
0.0
 40
3.0
100
AcDbArc
 50
0.0
 51
26.211378
  0
LINE
  5
141
330
1F
100
AcDbEntity
  8
LAYERGROUP-1
  6
CONTINUOUS
 62
     3
100
AcDbLine
 10
156.807308
 20
100.775862
 30
0.0
 11
151.607308
 21
100.775862
 31
0.0
  0
ARC
  5
142
330
1F
100
AcDbEntity
  8
LAYERGROUP-1
  6
CONTINUOUS
 62
     7
100
AcDbCircle
 10
154.207308
 20
100.775862
 30
0.0
 40
2.0
100
AcDbArc
 50
210.0
 51
330.0
  0
ARC
  5
143
330
1F
100
AcDbEntity
  8
LAYERGROUP-1
  6
CONTINUOUS
 62
     7
100
AcDbCircle
 10
154.207308
 20
100.775862
 30
0.0
 40
1.8
100
AcDbArc
 50
213.748989
 51
326.251011
  0
ARC
  5
144
330
1F
100
AcDbEntity
  8
LAYERGROUP-1
  6
CONTINUOUS
 62
     7
100
AcDbCircle
 10
154.207308
 20
100.775862
 30
0.0
 40
1.6
100
AcDbArc
 50
218.682187
 51
321.317813
  0
ARC
  5
145
330
1F
100
AcDbEntity
  8
LAYERGROUP-1
  6
CONTINUOUS
 62
     7
100
AcDbCircle
 10
154.207308
 20
100.775862
 30
0.0
 40
1.4
100
AcDbArc
 50
225.584691
 51
314.415309
  0
ARC
  5
146
330
1F
100
AcDbEntity
  8
LAYERGROUP-1
  6
CONTINUOUS
 62
     7
100
AcDbCircle
 10
154.207308
 20
100.775862
 30
0.0
 40
2.2
100
AcDbArc
 50
207.035692
 51
332.964308
  0
ARC
  5
147
330
1F
100
AcDbEntity
  8
LAYERGROUP-1
  6
CONTINUOUS
 62
     7
100
AcDbCircle
 10
154.207308
 20
100.775862
 30
0.0
 40
2.4
100
AcDbArc
 50
204.624318
 51
335.375682
  0
ARC
  5
148
330
1F
100
AcDbEntity
  8
LAYERGROUP-1
  6
CONTINUOUS
 62
     7
100
AcDbCircle
 10
154.207308
 20
100.775862
 30
0.0
 40
2.600000000000001
100
AcDbArc
 50
202.619865
 51
337.380135
  0
ARC
  5
149
330
1F
100
AcDbEntity
  8
LAYERGROUP-1
  6
CONTINUOUS
 62
     7
100
AcDbCircle
 10
154.207308
 20
100.775862
 30
0.0
 40
2.800000000000001
100
AcDbArc
 50
201.037511
 51
338.962489
  0
HATCH
  5
14A
330
1F
100
AcDbEntity
  8
}}ﾊﾊGG血CCТ
  6
CONTINUOUS
 62
     6
100
AcDbHatch
 10
0.0
 20
0.0
 30
0.0
210
0.0
220
0.0
230
1.0
  2

 70
     0
 71
     1
 91
        1
 92
        0
 93
       26
 72
     2
 10
179.5073078479707
 20
181.5561660618809
 40
5.0
 50
0.0
 51
72.54239687627654
 73
     1
 72
     1
 10
181.0073078479708
 20
186.3258620689656
 11
173.7073078479707
 21
186.3258620689656
 72
     1
 10
173.7073078479707
 20
186.3258620689656
 11
173.7073078479707
 21
184.0258620689656
 72
     1
 10
173.7073078479707
 20
184.0258620689656
 11
180.9073078479707
 21
184.0258620689656
 72
     2
 10
180.9073078479707
 20
183.0258620689656
 40
1.0
 50
0.0
 51
90.0
 73
     0
 72
     1
 10
181.9073078479707
 20
183.0258620689656
 11
181.9073078479707
 21
173.1051017289906
 72
     1
 10
181.9073078479707
 20
173.1051017289906
 11
181.9073078479707
 21
172.2758620689655
 72
     1
 10
181.9073078479707
 20
172.2758620689655
 11
176.7073078479707
 21
155.7969888295289
 72
     1
 10
176.7073078479707
 20
155.7969888295289
 11
169.2286699595249
 21
132.0970800281164
 72
     2
 10
181.2446183849749
 20
128.3053807471966
 40
12.6
 50
162.4866196242879
 51
206.2113780178314
 73
     1
 72
     1
 10
169.9402678668641
 20
122.7401620305883
 11
174.1073078479707
 21
114.2758620689655
 72
     1
 10
174.1073078479707
 20
114.2758620689655
 11
174.1073078479707
 21
105.8758620689654
 72
     2
 10
173.1073078479707
 20
105.8758620689654
 40
1.0
 50
270.0
 51
360.0
 73
     0
 72
     1
 10
173.1073078479707
 20
104.8758620689655
 11
158.0573078479707
 21
104.8758620689655
 72
     2
 10
158.0573078479707
 20
101.0258620689654
 40
3.85
 50
90.0
 51
183.723124760657
 73
     1
 72
     1
 10
154.2154333055109
 20
100.7758620689655
 11
156.8325629765791
 21
100.7758620689655
 72
     2
 10
158.0573078479707
 20
101.0258620689654
 40
1.25
 50
90.0
 51
191.5369590328128
 73
     0
 72
     1
 10
158.0573078479707
 20
102.2758620689655
 11
173.1073078479707
 21
102.2758620689655
 72
     2
 10
173.1073078479707
 20
105.8758620689655
 40
3.6
 50
270.0
 51
360.0
 73
     1
 72
     1
 10
176.7073078479706
 20
105.8758620689655
 11
176.7073078479706
 21
114.1827372846316
 72
     2
 10
173.7073078479706
 20
114.1827372846316
 40
3.0
 50
0.0
 51
26.21137801783135
 73
     1
 72
     1
 10
176.3988198760922
 20
115.5077893600145
 11
172.2729116245695
 21
123.8885404959201
 72
     2
 10
181.2446183849749
 20
128.3053807471966
 40
10.0
 50
162.486619624288
 51
206.2113780178314
 73
     0
 72
     1
 10
171.7081513806495
 20
131.3146658907837
 11
176.7073078479707
 21
147.1570631463789
 72
     1
 10
176.7073078479707
 20
147.1570631463789
 11
184.5073078479707
 21
171.8753730055339
 72
     1
 10
184.5073078479707
 20
171.8753730055339
 11
184.5073078479707
 21
181.5561660618809
 97
        0
 75
     0
 76
     0
 52
45.0
 41
1.0
 77
     0
 78
     1
 53
45.0
 43
0.0
 44
0.0
 45
-0.7071067811865475
 46
0.7071067811865476
 79
     0
 98
        0
  0
LINE
  5
14B
330
1F
100
AcDbEntity
  8
LAYERGROUP-1
  6
CONTINUOUS
 62
     3
100
AcDbLine
 10
123.907308
 20
171.875373
 30
0.0
 11
123.907308
 21
184.775862
 31
0.0
  0
LINE
  5
14C
330
1F
100
AcDbEntity
  8
LAYERGROUP-1
  6
CONTINUOUS
 62
     3
100
AcDbLine
 10
123.907308
 20
171.875373
 30
0.0
 11
136.706464
 21
131.314666
 31
0.0
  0
LINE
  5
14D
330
1F
100
AcDbEntity
  8
LAYERGROUP-1
  6
CONTINUOUS
 62
     3
100
AcDbLine
 10
124.706049
 20
161.036531
 30
0.0
 11
134.261471
 21
130.755264
 31
0.0
  0
ARC
  5
14E
330
1F
100
AcDbEntity
  8
LAYERGROUP-1
  6
CONTINUOUS
 62
     3
100
AcDbCircle
 10
128.520635
 20
162.240245
 30
0.0
 40
4.0
100
AcDbArc
 50
129.537693
 51
197.51338
  0
LINE
  5
14F
330
1F
100
AcDbEntity
  8
LAYERGROUP-1
  6
CONTINUOUS
 62
     3
100
AcDbLine
 10
131.707308
 20
102.275862
 30
0.0
 11
131.707308
 21
114.182737
 31
0.0
  0
LINE
  5
150
330
1F
100
AcDbEntity
  8
LAYERGROUP-1
  6
CONTINUOUS
 62
     3
100
AcDbLine
 10
127.507308
 20
184.025862
 30
0.0
 11
134.707308
 21
184.025862
 31
0.0
  0
ARC
  5
151
330
1F
100
AcDbEntity
  8
LAYERGROUP-1
  6
CONTINUOUS
 62
     3
100
AcDbCircle
 10
127.507308
 20
183.025862
 30
0.0
 40
1.0
100
AcDbArc
 50
90.0
 51
180.0
  0
LINE
  5
152
330
1F
100
AcDbEntity
  8
LAYERGROUP-1
  6
CONTINUOUS
 62
     3
100
AcDbLine
 10
126.507308
 20
183.025862
 30
0.0
 11
126.507308
 21
172.275862
 31
0.0
  0
LINE
  5
153
330
1F
100
AcDbEntity
  8
LAYERGROUP-1
  6
CONTINUOUS
 62
     3
100
AcDbLine
 10
134.707308
 20
184.025862
 30
0.0
 11
134.707308
 21
186.325862
 31
0.0
  0
LINE
  5
154
330
1F
100
AcDbEntity
  8
LAYERGROUP-1
  6
CONTINUOUS
 62
     3
100
AcDbLine
 10
136.141704
 20
123.88854
 30
0.0
 11
132.015796
 21
115.507789
 31
0.0
  0
ARC
  5
155
330
1F
100
AcDbEntity
  8
LAYERGROUP-1
  6
CONTINUOUS
 62
     3
100
AcDbCircle
 10
127.169997
 20
128.305381
 30
0.0
 40
10.0
100
AcDbArc
 50
-26.211378
 51
17.51338
  0
LINE
  5
156
330
1F
100
AcDbEntity
  8
LAYERGROUP-1
  6
CONTINUOUS
 62
     3
100
AcDbLine
 10
133.878648
 20
125.269756
 30
0.0
 11
132.175666
 21
121.698987
 31
0.0
  0
ARC
  5
157
330
1F
100
AcDbEntity
  8
LAYERGROUP-1
  6
CONTINUOUS
 62
     3
100
AcDbCircle
 10
127.10912
 20
128.4983
 30
0.0
 40
7.5
100
AcDbArc
 50
-25.497551
 51
17.51338
  0
ARC
  5
158
330
1F
100
AcDbEntity
  8
LAYERGROUP-1
  6
CONTINUOUS
 62
     3
100
AcDbCircle
 10
135.786081
 20
119.977097
 30
0.0
 40
4.0
100
AcDbArc
 50
154.502449
 51
222.478136
  0
ARC
  5
159
330
1F
100
AcDbEntity
  8
LAYERGROUP-1
  6
CONTINUOUS
 62
     3
100
AcDbCircle
 10
150.357308
 20
101.025862
 30
0.0
 40
3.85
100
AcDbArc
 50
0.0
 51
90.0
  0
LINE
  5
15A
330
1F
100
AcDbEntity
  8
LAYERGROUP-1
  6
CONTINUOUS
 62
     3
100
AcDbLine
 10
151.607308
 20
99.775862
 30
0.0
 11
151.607308
 21
101.025862
 31
0.0
  0
ARC
  5
15B
330
1F
100
AcDbEntity
  8
LAYERGROUP-1
  6
CONTINUOUS
 62
     3
100
AcDbCircle
 10
150.357308
 20
101.025862
 30
0.0
 40
1.25
100
AcDbArc
 50
0.0
 51
90.0
  0
LINE
  5
15C
330
1F
100
AcDbEntity
  8
LAYERGROUP-1
  6
CONTINUOUS
 62
     3
100
AcDbLine
 10
150.357308
 20
104.875862
 30
0.0
 11
135.307308
 21
104.875862
 31
0.0
  0
LINE
  5
15D
330
1F
100
AcDbEntity
  8
LAYERGROUP-1
  6
CONTINUOUS
 62
     3
100
AcDbLine
 10
150.357308
 20
102.275862
 30
0.0
 11
135.307308
 21
102.275862
 31
0.0
  0
LINE
  5
15E
330
1F
100
AcDbEntity
  8
LAYERGROUP-1
  6
CONTINUOUS
 62
     3
100
AcDbLine
 10
134.307308
 20
105.875862
 30
0.0
 11
134.307308
 21
114.275862
 31
0.0
  0
ARC
  5
15F
330
1F
100
AcDbEntity
  8
LAYERGROUP-1
  6
CONTINUOUS
 62
     3
100
AcDbCircle
 10
135.307308
 20
105.875862
 30
0.0
 40
1.0
100
AcDbArc
 50
180.0
 51
270.0
  0
ARC
  5
160
330
1F
100
AcDbEntity
  8
LAYERGROUP-1
  6
CONTINUOUS
 62
     3
100
AcDbCircle
 10
135.307308
 20
105.875862
 30
0.0
 40
3.6
100
AcDbArc
 50
180.0
 51
270.0
  0
LINE
  5
161
330
1F
100
AcDbEntity
  8
LAYERGROUP-1
  6
CONTINUOUS
 62
     3
100
AcDbLine
 10
138.474348
 20
122.740162
 30
0.0
 11
134.307308
 21
114.275862
 31
0.0
  0
ARC
  5
162
330
1F
100
AcDbEntity
  8
LAYERGROUP-1
  6
CONTINUOUS
 62
     3
100
AcDbCircle
 10
127.169997
 20
128.305381
 30
0.0
 40
12.6
100
AcDbArc
 50
-26.211378
 51
17.51338
  0
LINE
  5
163
330
1F
100
AcDbEntity
  8
LAYERGROUP-1
  6
CONTINUOUS
 62
     3
100
AcDbLine
 10
139.185946
 20
132.09708
 30
0.0
 11
126.507308
 21
172.275862
 31
0.0
  0
ARC
  5
164
330
1F
100
AcDbEntity
  8
LAYERGROUP-1
  6
CONTINUOUS
 62
     3
100
AcDbCircle
 10
134.707308
 20
114.182737
 30
0.0
 40
3.0
100
AcDbArc
 50
153.788622
 51
180.0
  0
LINE
  5
165
330
1F
100
AcDbEntity
  8
LAYERGROUP-1
  6
CONTINUOUS
 62
     3
100
AcDbLine
 10
127.256711
 20
186.275862
 30
0.0
 11
134.707308
 21
186.275862
 31
0.0
  0
HATCH
  5
166
330
1F
100
AcDbEntity
  8
}}ﾊﾊGG血CCТ
  6
CONTINUOUS
 62
     6
100
AcDbHatch
 10
0.0
 20
0.0
 30
0.0
210
0.0
220
0.0
230
1.0
  2

 70
     0
 71
     1
 91
        1
 92
        0
 93
       26
 72
     2
 10
128.9073078479705
 20
181.5561660618809
 40
5.0
 50
107.4576031237235
 51
180.0
 73
     1
 72
     1
 10
127.4073078479704
 20
186.3258620689656
 11
134.7073078479706
 21
186.3258620689656
 72
     1
 10
134.7073078479706
 20
186.3258620689656
 11
134.7073078479706
 21
184.0258620689656
 72
     1
 10
134.7073078479706
 20
184.0258620689656
 11
127.5073078479706
 21
184.0258620689656
 72
     2
 10
127.5073078479706
 20
183.0258620689656
 40
1.0
 50
90.0
 51
180.0
 73
     0
 72
     1
 10
126.5073078479706
 20
183.0258620689656
 11
126.5073078479706
 21
173.1051017289906
 72
     1
 10
126.5073078479706
 20
173.1051017289906
 11
126.5073078479706
 21
172.2758620689655
 72
     1
 10
126.5073078479706
 20
172.2758620689655
 11
131.7073078479706
 21
155.7969888295289
 72
     1
 10
131.7073078479706
 20
155.7969888295289
 11
139.1859457364163
 21
132.0970800281164
 72
     2
 10
127.1699973109664
 20
128.3053807471966
 40
12.6
 50
333.7886219821686
 51
377.5133803757121
 73
     1
 72
     1
 10
138.4743478290772
 20
122.7401620305883
 11
134.3073078479706
 21
114.2758620689655
 72
     1
 10
134.3073078479706
 20
114.2758620689655
 11
134.3073078479706
 21
105.8758620689654
 72
     2
 10
135.3073078479705
 20
105.8758620689654
 40
1.0
 50
180.0
 51
270.0
 73
     0
 72
     1
 10
135.3073078479705
 20
104.8758620689655
 11
150.3573078479706
 21
104.8758620689655
 72
     2
 10
150.3573078479706
 20
101.0258620689654
 40
3.85
 50
356.276875239343
 51
450.0
 73
     1
 72
     1
 10
154.1991823904303
 20
100.7758620689655
 11
151.5820527193622
 21
100.7758620689655
 72
     2
 10
150.3573078479706
 20
101.0258620689654
 40
1.25
 50
348.4630409671872
 51
450.0
 73
     0
 72
     1
 10
150.3573078479706
 20
102.2758620689655
 11
135.3073078479705
 21
102.2758620689655
 72
     2
 10
135.3073078479705
 20
105.8758620689655
 40
3.6
 50
180.0
 51
270.0
 73
     1
 72
     1
 10
131.7073078479706
 20
105.8758620689655
 11
131.7073078479706
 21
114.1827372846316
 72
     2
 10
134.7073078479706
 20
114.1827372846316
 40
3.0
 50
153.7886219821687
 51
180.0
 73
     1
 72
     1
 10
132.015795819849
 20
115.5077893600145
 11
136.1417040713718
 21
123.8885404959201
 72
     2
 10
127.1699973109664
 20
128.3053807471966
 40
10.0
 50
333.7886219821687
 51
377.513380375712
 73
     0
 72
     1
 10
136.7064643152917
 20
131.3146658907837
 11
131.7073078479706
 21
147.1570631463789
 72
     1
 10
131.7073078479706
 20
147.1570631463789
 11
123.9073078479705
 21
171.8753730055339
 72
     1
 10
123.9073078479705
 20
171.8753730055339
 11
123.9073078479705
 21
181.5561660618809
 97
        0
 75
     0
 76
     0
 52
45.0
 41
1.0
 77
     0
 78
     1
 53
45.0
 43
0.0
 44
0.0
 45
-0.7071067811865475
 46
0.7071067811865476
 79
     0
 98
        0
  0
LINE
  5
167
330
1F
100
AcDbEntity
  8
LAYERGROUP-1
  6
CONTINUOUS
 62
     3
100
AcDbLine
 10
184.507308
 20
252.676351
 30
0.0
 11
184.507308
 21
239.775862
 31
0.0
  0
LINE
  5
168
330
1F
100
AcDbEntity
  8
LAYERGROUP-1
  6
CONTINUOUS
 62
     3
100
AcDbLine
 10
184.507308
 20
252.676351
 30
0.0
 11
171.708151
 21
293.237058
 31
0.0
  0
LINE
  5
169
330
1F
100
AcDbEntity
  8
LAYERGROUP-1
  6
CONTINUOUS
 62
     3
100
AcDbLine
 10
183.708567
 20
263.515193
 30
0.0
 11
174.153145
 21
293.79646
 31
0.0
  0
ARC
  5
16A
330
1F
100
AcDbEntity
  8
LAYERGROUP-1
  6
CONTINUOUS
 62
     3
100
AcDbCircle
 10
179.89398
 20
262.311479
 30
0.0
 40
4.0
100
AcDbArc
 50
-50.462307
 51
17.51338
  0
LINE
  5
16B
330
1F
100
AcDbEntity
  8
LAYERGROUP-1
  6
CONTINUOUS
 62
     3
100
AcDbLine
 10
142.099613
 20
337.275862
 30
0.0
 11
166.315003
 21
337.275862
 31
0.0
  0
ARC
  5
16C
330
1F
100
AcDbEntity
  8
LAYERGROUP-1
  6
CONTINUOUS
 62
     3
100
AcDbCircle
 10
142.099613
 20
334.275862
 30
0.0
 40
3.0
100
AcDbArc
 50
90.0
 51
150.0
  0
ARC
  5
16D
330
1F
100
AcDbEntity
  8
LAYERGROUP-1
  6
CONTINUOUS
 62
     3
100
AcDbCircle
 10
166.315003
 20
334.275862
 30
0.0
 40
3.0
100
AcDbArc
 50
30.0
 51
90.0
  0
LINE
  5
16E
330
1F
100
AcDbEntity
  8
LAYERGROUP-1
  6
CONTINUOUS
 62
     3
100
AcDbLine
 10
176.707308
 20
322.275862
 30
0.0
 11
168.913079
 21
335.775862
 31
0.0
  0
LINE
  5
16F
330
1F
100
AcDbEntity
  8
LAYERGROUP-1
  6
CONTINUOUS
 62
     3
100
AcDbLine
 10
176.707308
 20
322.275862
 30
0.0
 11
176.707308
 21
310.368987
 31
0.0
  0
LINE
  5
170
330
1F
100
AcDbEntity
  8
LAYERGROUP-1
  6
CONTINUOUS
 62
     3
100
AcDbLine
 10
131.707308
 20
322.275862
 30
0.0
 11
139.501536
 21
335.775862
 31
0.0
  0
LINE
  5
171
330
1F
100
AcDbEntity
  8
LAYERGROUP-1
  6
CONTINUOUS
 62
     3
100
AcDbLine
 10
181.907308
 20
241.525862
 30
0.0
 11
181.907308
 21
252.275862
 31
0.0
  0
LINE
  5
172
330
1F
100
AcDbEntity
  8
LAYERGROUP-1
  6
CONTINUOUS
 62
     3
100
AcDbLine
 10
172.272912
 20
300.663184
 30
0.0
 11
176.39882
 21
309.043935
 31
0.0
  0
ARC
  5
173
330
1F
100
AcDbEntity
  8
LAYERGROUP-1
  6
CONTINUOUS
 62
     3
100
AcDbCircle
 10
181.244618
 20
296.246343
 30
0.0
 40
10.0
100
AcDbArc
 50
153.788622
 51
197.51338
  0
LINE
  5
174
330
1F
100
AcDbEntity
  8
LAYERGROUP-1
  6
CONTINUOUS
 62
     3
100
AcDbLine
 10
174.535968
 20
299.281968
 30
0.0
 11
176.23895
 21
302.852737
 31
0.0
  0
ARC
  5
175
330
1F
100
AcDbEntity
  8
LAYERGROUP-1
  6
CONTINUOUS
 62
     3
100
AcDbCircle
 10
181.305495
 20
296.053424
 30
0.0
 40
7.5
100
AcDbArc
 50
154.502449
 51
197.51338
  0
ARC
  5
176
330
1F
100
AcDbEntity
  8
LAYERGROUP-1
  6
CONTINUOUS
 62
     3
100
AcDbCircle
 10
172.628535
 20
304.574627
 30
0.0
 40
4.0
100
AcDbArc
 50
-25.497551
 51
42.478136
  0
ARC
  5
177
330
1F
100
AcDbEntity
  8
LAYERGROUP-1
  6
CONTINUOUS
 62
     3
100
AcDbCircle
 10
158.057308
 20
323.525862
 30
0.0
 40
3.85
100
AcDbArc
 50
180.0
 51
270.0
  0
LINE
  5
178
330
1F
100
AcDbEntity
  8
LAYERGROUP-1
  6
CONTINUOUS
 62
     3
100
AcDbLine
 10
154.207308
 20
324.025862
 30
0.0
 11
154.207308
 21
323.275862
 31
0.0
  0
LINE
  5
179
330
1F
100
AcDbEntity
  8
LAYERGROUP-1
  6
CONTINUOUS
 62
     3
100
AcDbLine
 10
156.807308
 20
324.775862
 30
0.0
 11
156.807308
 21
323.525862
 31
0.0
  0
LINE
  5
17A
330
1F
100
AcDbEntity
  8
LAYERGROUP-1
  6
CONTINUOUS
 62
     3
100
AcDbLine
 10
156.807308
 20
324.775862
 30
0.0
 11
151.607308
 21
324.775862
 31
0.0
  0
ARC
  5
17B
330
1F
100
AcDbEntity
  8
LAYERGROUP-1
  6
CONTINUOUS
 62
     3
100
AcDbCircle
 10
158.057308
 20
323.525862
 30
0.0
 40
1.25
100
AcDbArc
 50
180.0
 51
270.0
  0
LINE
  5
17C
330
1F
100
AcDbEntity
  8
LAYERGROUP-1
  6
CONTINUOUS
 62
     3
100
AcDbLine
 10
158.057308
 20
319.675862
 30
0.0
 11
173.107308
 21
319.675862
 31
0.0
  0
LINE
  5
17D
330
1F
100
AcDbEntity
  8
LAYERGROUP-1
  6
CONTINUOUS
 62
     3
100
AcDbLine
 10
158.057308
 20
322.275862
 30
0.0
 11
173.107308
 21
322.275862
 31
0.0
  0
LINE
  5
17E
330
1F
100
AcDbEntity
  8
LAYERGROUP-1
  6
CONTINUOUS
 62
     3
100
AcDbLine
 10
174.107308
 20
318.675862
 30
0.0
 11
174.107308
 21
310.275862
 31
0.0
  0
ARC
  5
17F
330
1F
100
AcDbEntity
  8
LAYERGROUP-1
  6
CONTINUOUS
 62
     3
100
AcDbCircle
 10
173.107308
 20
318.675862
 30
0.0
 40
1.0
100
AcDbArc
 50
0.0
 51
90.0
  0
ARC
  5
180
330
1F
100
AcDbEntity
  8
LAYERGROUP-1
  6
CONTINUOUS
 62
     3
100
AcDbCircle
 10
173.107308
 20
318.675862
 30
0.0
 40
3.6
100
AcDbArc
 50
0.0
 51
90.0
  0
LINE
  5
181
330
1F
100
AcDbEntity
  8
LAYERGROUP-1
  6
CONTINUOUS
 62
     3
100
AcDbLine
 10
169.940268
 20
301.811562
 30
0.0
 11
174.107308
 21
310.275862
 31
0.0
  0
ARC
  5
182
330
1F
100
AcDbEntity
  8
LAYERGROUP-1
  6
CONTINUOUS
 62
     3
100
AcDbCircle
 10
181.244618
 20
296.246343
 30
0.0
 40
12.6
100
AcDbArc
 50
153.788622
 51
197.51338
  0
LINE
  5
183
330
1F
100
AcDbEntity
  8
LAYERGROUP-1
  6
CONTINUOUS
 62
     3
100
AcDbLine
 10
169.22867
 20
292.454644
 30
0.0
 11
181.907308
 21
252.275862
 31
0.0
  0
ARC
  5
184
330
1F
100
AcDbEntity
  8
LAYERGROUP-1
  6
CONTINUOUS
 62
     3
100
AcDbCircle
 10
173.707308
 20
310.368987
 30
0.0
 40
3.0
100
AcDbArc
 50
333.788622
 51
360.0
  0
LINE
  5
185
330
1F
100
AcDbEntity
  8
LAYERGROUP-1
  6
CONTINUOUS
 62
     3
100
AcDbLine
 10
156.807308
 20
323.775862
 30
0.0
 11
151.607308
 21
323.775862
 31
0.0
  0
ARC
  5
186
330
1F
100
AcDbEntity
  8
LAYERGROUP-1
  6
CONTINUOUS
 62
     7
100
AcDbCircle
 10
154.207308
 20
323.775862
 30
0.0
 40
2.0
100
AcDbArc
 50
30.0
 51
150.0
  0
ARC
  5
187
330
1F
100
AcDbEntity
  8
LAYERGROUP-1
  6
CONTINUOUS
 62
     7
100
AcDbCircle
 10
154.207308
 20
323.775862
 30
0.0
 40
1.8
100
AcDbArc
 50
33.748989
 51
146.251011
  0
ARC
  5
188
330
1F
100
AcDbEntity
  8
LAYERGROUP-1
  6
CONTINUOUS
 62
     7
100
AcDbCircle
 10
154.207308
 20
323.775862
 30
0.0
 40
1.6
100
AcDbArc
 50
38.682187
 51
141.317813
  0
ARC
  5
189
330
1F
100
AcDbEntity
  8
LAYERGROUP-1
  6
CONTINUOUS
 62
     7
100
AcDbCircle
 10
154.207308
 20
323.775862
 30
0.0
 40
1.4
100
AcDbArc
 50
45.584691
 51
134.415309
  0
ARC
  5
18A
330
1F
100
AcDbEntity
  8
LAYERGROUP-1
  6
CONTINUOUS
 62
     7
100
AcDbCircle
 10
154.207308
 20
323.775862
 30
0.0
 40
2.2
100
AcDbArc
 50
27.035692
 51
152.964308
  0
ARC
  5
18B
330
1F
100
AcDbEntity
  8
LAYERGROUP-1
  6
CONTINUOUS
 62
     7
100
AcDbCircle
 10
154.207308
 20
323.775862
 30
0.0
 40
2.4
100
AcDbArc
 50
24.624318
 51
155.375682
  0
ARC
  5
18C
330
1F
100
AcDbEntity
  8
LAYERGROUP-1
  6
CONTINUOUS
 62
     7
100
AcDbCircle
 10
154.207308
 20
323.775862
 30
0.0
 40
2.600000000000001
100
AcDbArc
 50
22.619865
 51
157.380135
  0
ARC
  5
18D
330
1F
100
AcDbEntity
  8
LAYERGROUP-1
  6
CONTINUOUS
 62
     7
100
AcDbCircle
 10
154.207308
 20
323.775862
 30
0.0
 40
2.800000000000001
100
AcDbArc
 50
21.037511
 51
158.962489
  0
HATCH
  5
18E
330
1F
100
AcDbEntity
  8
}}ﾊﾊGG血CCТ
  6
CONTINUOUS
 62
     6
100
AcDbHatch
 10
0.0
 20
0.0
 30
0.0
210
0.0
220
0.0
230
1.0
  2

 70
     0
 71
     1
 91
        1
 92
        0
 93
       26
 72
     2
 10
179.5073078479707
 20
242.9955580760503
 40
5.0
 50
287.4576031237235
 51
360.0
 73
     1
 72
     1
 10
181.0073078479708
 20
238.2258620689656
 11
173.7073078479707
 21
238.2258620689656
 72
     1
 10
173.7073078479707
 20
238.2258620689656
 11
173.7073078479707
 21
240.5258620689656
 72
     1
 10
173.7073078479707
 20
240.5258620689656
 11
180.9073078479707
 21
240.5258620689656
 72
     2
 10
180.9073078479707
 20
241.5258620689656
 40
1.0
 50
270.0
 51
360.0
 73
     0
 72
     1
 10
181.9073078479707
 20
241.5258620689656
 11
181.9073078479707
 21
251.4466224089406
 72
     1
 10
181.9073078479707
 20
251.4466224089406
 11
181.9073078479707
 21
252.2758620689657
 72
     1
 10
181.9073078479707
 20
252.2758620689657
 11
176.7073078479707
 21
268.7547353084023
 72
     1
 10
176.7073078479707
 20
268.7547353084023
 11
169.2286699595249
 21
292.4546441098148
 72
     2
 10
181.2446183849749
 20
296.2463433907345
 40
12.6
 50
153.7886219821685
 51
197.5133803757119
 73
     1
 72
     1
 10
169.9402678668641
 20
301.8115621073429
 11
174.1073078479707
 21
310.2758620689656
 72
     1
 10
174.1073078479707
 20
310.2758620689656
 11
174.1073078479707
 21
318.6758620689657
 72
     2
 10
173.1073078479707
 20
318.6758620689657
 40
1.0
 50
0.0
 51
90.0
 73
     0
 72
     1
 10
173.1073078479707
 20
319.6758620689657
 11
158.0573078479707
 21
319.6758620689657
 72
     2
 10
158.0573078479707
 20
323.5258620689657
 40
3.85
 50
176.2768752393422
 51
270.0
 73
     1
 72
     1
 10
154.2154333055109
 20
323.7758620689657
 11
156.8325629765791
 21
323.7758620689657
 72
     2
 10
158.0573078479707
 20
323.5258620689657
 40
1.25
 50
168.4630409671847
 51
270.0
 73
     0
 72
     1
 10
158.0573078479707
 20
322.2758620689657
 11
173.1073078479707
 21
322.2758620689657
 72
     2
 10
173.1073078479707
 20
318.6758620689657
 40
3.6
 50
0.0
 51
90.0
 73
     1
 72
     1
 10
176.7073078479706
 20
318.6758620689657
 11
176.7073078479706
 21
310.3689868532996
 72
     2
 10
173.7073078479706
 20
310.3689868532996
 40
3.0
 50
333.7886219821689
 51
360.0
 73
     1
 72
     1
 10
176.3988198760922
 20
309.0439347779167
 11
172.2729116245695
 21
300.663183642011
 72
     2
 10
181.2446183849749
 20
296.2463433907345
 40
10.0
 50
153.7886219821686
 51
197.5133803757119
 73
     0
 72
     1
 10
171.7081513806495
 20
293.2370582471474
 11
176.7073078479707
 21
277.3946609915522
 72
     1
 10
176.7073078479707
 20
277.3946609915522
 11
184.5073078479707
 21
252.6763511323973
 72
     1
 10
184.5073078479707
 20
252.6763511323973
 11
184.5073078479707
 21
242.9955580760503
 97
        0
 75
     0
 76
     0
 52
45.0
 41
1.0
 77
     0
 78
     1
 53
45.0
 43
0.0
 44
0.0
 45
-0.7071067811865475
 46
0.7071067811865476
 79
     0
 98
        0
  0
LINE
  5
18F
330
1F
100
AcDbEntity
  8
LAYERGROUP-1
  6
CONTINUOUS
 62
     3
100
AcDbLine
 10
123.907308
 20
252.676351
 30
0.0
 11
123.907308
 21
239.775862
 31
0.0
  0
LINE
  5
190
330
1F
100
AcDbEntity
  8
LAYERGROUP-1
  6
CONTINUOUS
 62
     3
100
AcDbLine
 10
123.907308
 20
252.676351
 30
0.0
 11
136.706464
 21
293.237058
 31
0.0
  0
LINE
  5
191
330
1F
100
AcDbEntity
  8
LAYERGROUP-1
  6
CONTINUOUS
 62
     3
100
AcDbLine
 10
124.706049
 20
263.515193
 30
0.0
 11
134.261471
 21
293.79646
 31
0.0
  0
ARC
  5
192
330
1F
100
AcDbEntity
  8
LAYERGROUP-1
  6
CONTINUOUS
 62
     3
100
AcDbCircle
 10
128.520635
 20
262.311479
 30
0.0
 40
4.0
100
AcDbArc
 50
162.48662
 51
230.462307
  0
LINE
  5
193
330
1F
100
AcDbEntity
  8
LAYERGROUP-1
  6
CONTINUOUS
 62
     3
100
AcDbLine
 10
131.707308
 20
322.275862
 30
0.0
 11
131.707308
 21
310.368987
 31
0.0
  0
LINE
  5
194
330
1F
100
AcDbEntity
  8
LAYERGROUP-1
  6
CONTINUOUS
 62
     3
100
AcDbLine
 10
127.507308
 20
240.525862
 30
0.0
 11
134.707308
 21
240.525862
 31
0.0
  0
ARC
  5
195
330
1F
100
AcDbEntity
  8
LAYERGROUP-1
  6
CONTINUOUS
 62
     3
100
AcDbCircle
 10
127.507308
 20
241.525862
 30
0.0
 40
1.0
100
AcDbArc
 50
180.0
 51
270.0
  0
LINE
  5
196
330
1F
100
AcDbEntity
  8
LAYERGROUP-1
  6
CONTINUOUS
 62
     3
100
AcDbLine
 10
126.507308
 20
241.525862
 30
0.0
 11
126.507308
 21
252.275862
 31
0.0
  0
LINE
  5
197
330
1F
100
AcDbEntity
  8
LAYERGROUP-1
  6
CONTINUOUS
 62
     3
100
AcDbLine
 10
134.707308
 20
240.525862
 30
0.0
 11
134.707308
 21
238.275862
 31
0.0
  0
LINE
  5
198
330
1F
100
AcDbEntity
  8
LAYERGROUP-1
  6
CONTINUOUS
 62
     3
100
AcDbLine
 10
136.141704
 20
300.663184
 30
0.0
 11
132.015796
 21
309.043935
 31
0.0
  0
ARC
  5
199
330
1F
100
AcDbEntity
  8
LAYERGROUP-1
  6
CONTINUOUS
 62
     3
100
AcDbCircle
 10
127.169997
 20
296.246343
 30
0.0
 40
10.0
100
AcDbArc
 50
-17.51338
 51
26.211378
  0
LINE
  5
19A
330
1F
100
AcDbEntity
  8
LAYERGROUP-1
  6
CONTINUOUS
 62
     3
100
AcDbLine
 10
133.878648
 20
299.281968
 30
0.0
 11
132.175666
 21
302.852737
 31
0.0
  0
ARC
  5
19B
330
1F
100
AcDbEntity
  8
LAYERGROUP-1
  6
CONTINUOUS
 62
     3
100
AcDbCircle
 10
127.10912
 20
296.053424
 30
0.0
 40
7.5
100
AcDbArc
 50
-17.51338
 51
25.497551
  0
ARC
  5
19C
330
1F
100
AcDbEntity
  8
LAYERGROUP-1
  6
CONTINUOUS
 62
     3
100
AcDbCircle
 10
135.786081
 20
304.574627
 30
0.0
 40
4.0
100
AcDbArc
 50
137.521864
 51
205.497551
  0
ARC
  5
19D
330
1F
100
AcDbEntity
  8
LAYERGROUP-1
  6
CONTINUOUS
 62
     3
100
AcDbCircle
 10
150.357308
 20
323.525862
 30
0.0
 40
3.85
100
AcDbArc
 50
-90.0
 51
0.0
  0
LINE
  5
19E
330
1F
100
AcDbEntity
  8
LAYERGROUP-1
  6
CONTINUOUS
 62
     3
100
AcDbLine
 10
151.607308
 20
324.775862
 30
0.0
 11
151.607308
 21
323.525862
 31
0.0
  0
ARC
  5
19F
330
1F
100
AcDbEntity
  8
LAYERGROUP-1
  6
CONTINUOUS
 62
     3
100
AcDbCircle
 10
150.357308
 20
323.525862
 30
0.0
 40
1.25
100
AcDbArc
 50
-90.0
 51
0.0
  0
LINE
  5
1A0
330
1F
100
AcDbEntity
  8
LAYERGROUP-1
  6
CONTINUOUS
 62
     3
100
AcDbLine
 10
150.357308
 20
319.675862
 30
0.0
 11
135.307308
 21
319.675862
 31
0.0
  0
LINE
  5
1A1
330
1F
100
AcDbEntity
  8
LAYERGROUP-1
  6
CONTINUOUS
 62
     3
100
AcDbLine
 10
150.357308
 20
322.275862
 30
0.0
 11
135.307308
 21
322.275862
 31
0.0
  0
LINE
  5
1A2
330
1F
100
AcDbEntity
  8
LAYERGROUP-1
  6
CONTINUOUS
 62
     3
100
AcDbLine
 10
134.307308
 20
318.675862
 30
0.0
 11
134.307308
 21
310.275862
 31
0.0
  0
ARC
  5
1A3
330
1F
100
AcDbEntity
  8
LAYERGROUP-1
  6
CONTINUOUS
 62
     3
100
AcDbCircle
 10
135.307308
 20
318.675862
 30
0.0
 40
1.0
100
AcDbArc
 50
90.0
 51
180.0
  0
ARC
  5
1A4
330
1F
100
AcDbEntity
  8
LAYERGROUP-1
  6
CONTINUOUS
 62
     3
100
AcDbCircle
 10
135.307308
 20
318.675862
 30
0.0
 40
3.6
100
AcDbArc
 50
90.0
 51
180.0
  0
LINE
  5
1A5
330
1F
100
AcDbEntity
  8
LAYERGROUP-1
  6
CONTINUOUS
 62
     3
100
AcDbLine
 10
138.474348
 20
301.811562
 30
0.0
 11
134.307308
 21
310.275862
 31
0.0
  0
ARC
  5
1A6
330
1F
100
AcDbEntity
  8
LAYERGROUP-1
  6
CONTINUOUS
 62
     3
100
AcDbCircle
 10
127.169997
 20
296.246343
 30
0.0
 40
12.6
100
AcDbArc
 50
-17.51338
 51
26.211378
  0
LINE
  5
1A7
330
1F
100
AcDbEntity
  8
LAYERGROUP-1
  6
CONTINUOUS
 62
     3
100
AcDbLine
 10
139.185946
 20
292.454644
 30
0.0
 11
126.507308
 21
252.275862
 31
0.0
  0
ARC
  5
1A8
330
1F
100
AcDbEntity
  8
LAYERGROUP-1
  6
CONTINUOUS
 62
     3
100
AcDbCircle
 10
134.707308
 20
310.368987
 30
0.0
 40
3.0
100
AcDbArc
 50
180.0
 51
206.211378
  0
HATCH
  5
1A9
330
1F
100
AcDbEntity
  8
}}ﾊﾊGG血CCТ
  6
CONTINUOUS
 62
     6
100
AcDbHatch
 10
0.0
 20
0.0
 30
0.0
210
0.0
220
0.0
230
1.0
  2

 70
     0
 71
     1
 91
        1
 92
        0
 93
       26
 72
     2
 10
128.9073078479705
 20
242.9955580760503
 40
5.0
 50
180.0
 51
252.5423968762765
 73
     1
 72
     1
 10
127.4073078479704
 20
238.2258620689656
 11
134.7073078479706
 21
238.2258620689656
 72
     1
 10
134.7073078479706
 20
238.2258620689656
 11
134.7073078479706
 21
240.5258620689656
 72
     1
 10
134.7073078479706
 20
240.5258620689656
 11
127.5073078479706
 21
240.5258620689656
 72
     2
 10
127.5073078479706
 20
241.5258620689656
 40
1.0
 50
180.0
 51
270.0
 73
     0
 72
     1
 10
126.5073078479706
 20
241.5258620689656
 11
126.5073078479706
 21
251.4466224089406
 72
     1
 10
126.5073078479706
 20
251.4466224089406
 11
126.5073078479706
 21
252.2758620689657
 72
     1
 10
126.5073078479706
 20
252.2758620689657
 11
131.7073078479706
 21
268.7547353084023
 72
     1
 10
131.7073078479706
 20
268.7547353084023
 11
139.1859457364163
 21
292.4546441098148
 72
     2
 10
127.1699973109664
 20
296.2463433907345
 40
12.6
 50
342.4866196242881
 51
386.2113780178316
 73
     1
 72
     1
 10
138.4743478290772
 20
301.8115621073429
 11
134.3073078479706
 21
310.2758620689656
 72
     1
 10
134.3073078479706
 20
310.2758620689656
 11
134.3073078479706
 21
318.6758620689657
 72
     2
 10
135.3073078479705
 20
318.6758620689657
 40
1.0
 50
90.0
 51
180.0
 73
     0
 72
     1
 10
135.3073078479705
 20
319.6758620689657
 11
150.3573078479706
 21
319.6758620689657
 72
     2
 10
150.3573078479706
 20
323.5258620689657
 40
3.85
 50
270.0
 51
363.7231247606579
 73
     1
 72
     1
 10
154.1991823904303
 20
323.7758620689657
 11
151.5820527193622
 21
323.7758620689657
 72
     2
 10
150.3573078479706
 20
323.5258620689657
 40
1.25
 50
270.0
 51
371.5369590328153
 73
     0
 72
     1
 10
150.3573078479706
 20
322.2758620689657
 11
135.3073078479705
 21
322.2758620689657
 72
     2
 10
135.3073078479705
 20
318.6758620689657
 40
3.6
 50
90.0
 51
180.0
 73
     1
 72
     1
 10
131.7073078479706
 20
318.6758620689657
 11
131.7073078479706
 21
310.3689868532996
 72
     2
 10
134.7073078479706
 20
310.3689868532996
 40
3.0
 50
180.0
 51
206.2113780178311
 73
     1
 72
     1
 10
132.015795819849
 20
309.0439347779167
 11
136.1417040713718
 21
300.663183642011
 72
     2
 10
127.1699973109664
 20
296.2463433907345
 40
10.0
 50
342.4866196242881
 51
386.2113780178314
 73
     0
 72
     1
 10
136.7064643152917
 20
293.2370582471474
 11
131.7073078479706
 21
277.3946609915522
 72
     1
 10
131.7073078479706
 20
277.3946609915522
 11
123.9073078479705
 21
252.6763511323973
 72
     1
 10
123.9073078479705
 20
252.6763511323973
 11
123.9073078479705
 21
242.9955580760503
 97
        0
 75
     0
 76
     0
 52
45.0
 41
1.0
 77
     0
 78
     1
 53
45.0
 43
0.0
 44
0.0
 45
-0.7071067811865475
 46
0.7071067811865476
 79
     0
 98
        0
  0
INSERT
  5
1AD
330
1F
100
AcDbEntity
  8
0
100
AcDbBlockReference
  2
BLKF023
 10
0.0
 20
0.0
 30
0.0
  0
INSERT
  5
1CB
330
1F
100
AcDbEntity
  8
0
100
AcDbBlockReference
  2
BLKF024
 10
0.0
 20
0.0
 30
0.0
  0
INSERT
  5
1DF
330
1F
100
AcDbEntity
  8
0
100
AcDbBlockReference
  2
BLKF025
 10
0.0
 20
0.0
 30
0.0
  0
CIRCLE
  5
1E8
330
1F
100
AcDbEntity
  8
001-1
  6
ﾀﾀ��PP
 62
     3
100
AcDbCircle
 10
129.957308
 20
193.957112
 30
0.0
 40
3.969999999999999
  0
CIRCLE
  5
1E9
330
1F
100
AcDbEntity
  8
001-1
  6
ﾀﾀ��PP
 62
     3
100
AcDbCircle
 10
129.957308
 20
230.594612
 30
0.0
 40
3.969999999999999
  0
LINE
  5
1EA
330
1F
100
AcDbEntity
  8
001-1
  6
ﾀﾀ��PP
 62
     3
100
AcDbLine
 10
122.257308
 20
195.525862
 30
0.0
 11
123.157308
 21
195.525862
 31
0.0
  0
LINE
  5
1EB
330
1F
100
AcDbEntity
  8
001-1
  6
ﾀﾀ��PP
 62
     3
100
AcDbLine
 10
122.257308
 20
229.025862
 30
0.0
 11
123.157308
 21
229.025862
 31
0.0
  0
LINE
  5
1EC
330
1F
100
AcDbEntity
  8
001-1
  6
ﾀﾀ��PP
 62
     3
100
AcDbLine
 10
123.157308
 20
185.925862
 30
0.0
 11
123.157308
 21
195.525862
 31
0.0
  0
LINE
  5
1ED
330
1F
100
AcDbEntity
  8
001-1
  6
ﾀﾀ��PP
 62
     3
100
AcDbLine
 10
122.257308
 20
185.925862
 30
0.0
 11
122.257308
 21
195.525862
 31
0.0
  0
LINE
  5
1EE
330
1F
100
AcDbEntity
  8
001-1
  6
ﾀﾀ��PP
 62
     3
100
AcDbLine
 10
137.457308
 20
189.275862
 30
0.0
 11
137.457308
 21
191.275862
 31
0.0
  0
LINE
  5
1EF
330
1F
100
AcDbEntity
  8
001-1
  6
ﾀﾀ��PP
 62
     3
100
AcDbLine
 10
136.557308
 20
189.275862
 30
0.0
 11
136.557308
 21
195.175862
 31
0.0
  0
LINE
  5
1F0
330
1F
100
AcDbEntity
  8
001-1
  6
ﾀﾀ��PP
 62
     3
100
AcDbLine
 10
122.257308
 20
238.625862
 30
0.0
 11
122.257308
 21
229.025862
 31
0.0
  0
LINE
  5
1F1
330
1F
100
AcDbEntity
  8
001-1
  6
ﾀﾀ��PP
 62
     3
100
AcDbLine
 10
123.157308
 20
238.625862
 30
0.0
 11
123.157308
 21
229.025862
 31
0.0
  0
LINE
  5
1F2
330
1F
100
AcDbEntity
  8
001-1
  6
ﾀﾀ��PP
 62
     3
100
AcDbLine
 10
136.557308
 20
235.275862
 30
0.0
 11
136.557308
 21
229.375862
 31
0.0
  0
LINE
  5
1F3
330
1F
100
AcDbEntity
  8
001-1
  6
ﾀﾀ��PP
 62
     3
100
AcDbLine
 10
137.457308
 20
235.275862
 30
0.0
 11
137.457308
 21
233.275862
 31
0.0
  0
ARC
  5
1F4
330
1F
100
AcDbEntity
  8
001-1
  6
ﾀﾀ��PP
 62
     3
100
AcDbCircle
 10
124.507308
 20
185.825862
 30
0.0
 40
0.4500000000000028
100
AcDbArc
 50
90.0
 51
171.52721
  0
LINE
  5
1F5
330
1F
100
AcDbEntity
  8
001-1
  6
ﾀﾀ��PP
 62
     3
100
AcDbLine
 10
124.047485
 20
185.793256
 30
0.0
 11
124.062219
 21
185.892165
 31
0.0
  0
ARC
  5
1F6
330
1F
100
AcDbEntity
  8
001-1
  6
ﾀﾀ��PP
 62
     3
100
AcDbCircle
 10
123.157308
 20
185.925862
 30
0.0
 40
0.9000000000000057
100
AcDbArc
 50
180.0
 51
351.52721
  0
ARC
  5
1F7
330
1F
100
AcDbEntity
  8
001-1
  6
ﾀﾀ��PP
 62
     3
100
AcDbCircle
 10
124.507308
 20
238.725862
 30
0.0
 40
0.4500000000000028
100
AcDbArc
 50
188.47279
 51
270.0
  0
LINE
  5
1F8
330
1F
100
AcDbEntity
  8
001-1
  6
ﾀﾀ��PP
 62
     3
100
AcDbLine
 10
124.047485
 20
238.758468
 30
0.0
 11
124.062219
 21
238.659559
 31
0.0
  0
ARC
  5
1F9
330
1F
100
AcDbEntity
  8
001-1
  6
ﾀﾀ��PP
 62
     3
100
AcDbCircle
 10
123.157308
 20
238.625862
 30
0.0
 40
0.9000000000000057
100
AcDbArc
 50
8.47279
 51
180.0
  0
LINE
  5
1FA
330
1F
100
AcDbEntity
  8
001-1
  6
ﾀﾀ��PP
 62
     3
100
AcDbLine
 10
124.507308
 20
186.275862
 30
0.0
 11
134.457308
 21
186.275862
 31
0.0
  0
LINE
  5
1FB
330
1F
100
AcDbEntity
  8
001-1
  6
ﾀﾀ��PP
 62
     3
100
AcDbLine
 10
124.057308
 20
187.275862
 30
0.0
 11
134.557308
 21
187.275862
 31
0.0
  0
ARC
  5
1FC
330
1F
100
AcDbEntity
  8
001-1
  6
ﾀﾀ��PP
 62
     3
100
AcDbCircle
 10
134.557308
 20
189.275862
 30
0.0
 40
2.0
100
AcDbArc
 50
270.0
 51
360.0
  0
ARC
  5
1FD
330
1F
100
AcDbEntity
  8
001-1
  6
ﾀﾀ��PP
 62
     3
100
AcDbCircle
 10
134.457308
 20
189.275862
 30
0.0
 40
3.0
100
AcDbArc
 50
270.0
 51
360.0
  0
ARC
  5
1FE
330
1F
100
AcDbEntity
  8
001-1
  6
ﾀﾀ��PP
 62
     3
100
AcDbCircle
 10
124.057308
 20
186.375862
 30
0.0
 40
0.9000000000000057
100
AcDbArc
 50
90.0
 51
180.0
  0
LINE
  5
1FF
330
1F
100
AcDbEntity
  8
001-1
  6
ﾀﾀ��PP
 62
     3
100
AcDbLine
 10
137.457308
 20
191.275862
 30
0.0
 11
136.557308
 21
191.275862
 31
0.0
  0
LINE
  5
200
330
1F
100
AcDbEntity
  8
001-1
  6
ﾀﾀ��PP
 62
     3
100
AcDbLine
 10
124.507308
 20
238.275862
 30
0.0
 11
134.457308
 21
238.275862
 31
0.0
  0
LINE
  5
201
330
1F
100
AcDbEntity
  8
001-1
  6
ﾀﾀ��PP
 62
     3
100
AcDbLine
 10
124.057308
 20
237.275862
 30
0.0
 11
134.557308
 21
237.275862
 31
0.0
  0
ARC
  5
202
330
1F
100
AcDbEntity
  8
001-1
  6
ﾀﾀ��PP
 62
     3
100
AcDbCircle
 10
134.557308
 20
235.275862
 30
0.0
 40
2.0
100
AcDbArc
 50
0.0
 51
90.0
  0
ARC
  5
203
330
1F
100
AcDbEntity
  8
001-1
  6
ﾀﾀ��PP
 62
     3
100
AcDbCircle
 10
134.457308
 20
235.275862
 30
0.0
 40
3.0
100
AcDbArc
 50
0.0
 51
90.0
  0
ARC
  5
204
330
1F
100
AcDbEntity
  8
001-1
  6
ﾀﾀ��PP
 62
     3
100
AcDbCircle
 10
124.057308
 20
238.175862
 30
0.0
 40
0.9000000000000057
100
AcDbArc
 50
180.0
 51
270.0
  0
LINE
  5
205
330
1F
100
AcDbEntity
  8
001-1
  6
ﾀﾀ��PP
 62
     3
100
AcDbLine
 10
137.457308
 20
233.275862
 30
0.0
 11
136.557308
 21
233.275862
 31
0.0
  0
LINE
  5
206
330
1F
100
AcDbEntity
  8
LAYERGROUP-1
  6
CONTINUOUS
 62
     6
100
AcDbLine
 10
122.257308
 20
196.025862
 30
0.0
 11
122.257308
 21
195.525862
 31
0.0
  0
LINE
  5
207
330
1F
100
AcDbEntity
  8
LAYERGROUP-1
  6
CONTINUOUS
 62
     6
100
AcDbLine
 10
123.157308
 20
196.025862
 30
0.0
 11
123.157308
 21
195.525862
 31
0.0
  0
LINE
  5
208
330
1F
100
AcDbEntity
  8
LAYERGROUP-1
  6
CONTINUOUS
 62
     6
100
AcDbLine
 10
125.757308
 20
196.025862
 30
0.0
 11
125.757308
 21
194.825862
 31
0.0
  0
LINE
  5
209
330
1F
100
AcDbEntity
  8
LAYERGROUP-1
  6
CONTINUOUS
 62
     6
100
AcDbLine
 10
136.557308
 20
196.025862
 30
0.0
 11
136.557308
 21
195.175862
 31
0.0
  0
LINE
  5
20A
330
1F
100
AcDbEntity
  8
LAYERGROUP-1
  6
CONTINUOUS
 62
     6
100
AcDbLine
 10
133.937308
 20
196.025862
 30
0.0
 11
133.937308
 21
195.175862
 31
0.0
  0
LINE
  5
20B
330
1F
100
AcDbEntity
  8
LAYERGROUP-1
  6
CONTINUOUS
 62
     6
100
AcDbLine
 10
137.457308
 20
196.525862
 30
0.0
 11
137.457308
 21
191.275862
 31
0.0
  0
LINE
  5
20C
330
1F
100
AcDbEntity
  8
LAYERGROUP-1
  6
CONTINUOUS
 62
     6
100
AcDbLine
 10
135.657308
 20
199.775862
 30
0.0
 11
135.657308
 21
224.775862
 31
0.0
  0
LINE
  5
20D
330
1F
100
AcDbEntity
  8
LAYERGROUP-1
  6
CONTINUOUS
 62
     6
100
AcDbLine
 10
135.957308
 20
199.475862
 30
0.0
 11
135.957308
 21
225.314043
 31
0.0
  0
LINE
  5
20E
330
1F
100
AcDbEntity
  8
LAYERGROUP-1
  6
CONTINUOUS
 62
     6
100
AcDbLine
 10
137.457308
 20
226.775862
 30
0.0
 11
137.457308
 21
197.775862
 31
0.0
  0
LINE
  5
20F
330
1F
100
AcDbEntity
  8
LAYERGROUP-1
  6
CONTINUOUS
 62
     6
100
AcDbLine
 10
109.957308
 20
199.775862
 30
0.0
 11
109.957308
 21
224.775862
 31
0.0
  0
LINE
  5
210
330
1F
100
AcDbEntity
  8
LAYERGROUP-1
  6
CONTINUOUS
 62
     6
100
AcDbLine
 10
109.457308
 20
199.275862
 30
0.0
 11
109.457308
 21
225.275862
 31
0.0
  0
LINE
  5
211
330
1F
100
AcDbEntity
  8
LAYERGROUP-1
  6
CONTINUOUS
 62
     6
100
AcDbLine
 10
122.257308
 20
228.525862
 30
0.0
 11
122.257308
 21
229.025862
 31
0.0
  0
LINE
  5
212
330
1F
100
AcDbEntity
  8
LAYERGROUP-1
  6
CONTINUOUS
 62
     6
100
AcDbLine
 10
123.157308
 20
228.525862
 30
0.0
 11
123.157308
 21
229.025862
 31
0.0
  0
LINE
  5
213
330
1F
100
AcDbEntity
  8
LAYERGROUP-1
  6
CONTINUOUS
 62
     6
100
AcDbLine
 10
125.757308
 20
228.525862
 30
0.0
 11
125.757308
 21
229.725862
 31
0.0
  0
LINE
  5
214
330
1F
100
AcDbEntity
  8
LAYERGROUP-1
  6
CONTINUOUS
 62
     6
100
AcDbLine
 10
133.937308
 20
228.525862
 30
0.0
 11
133.937308
 21
229.375862
 31
0.0
  0
LINE
  5
215
330
1F
100
AcDbEntity
  8
LAYERGROUP-1
  6
CONTINUOUS
 62
     6
100
AcDbLine
 10
137.457308
 20
228.025862
 30
0.0
 11
137.457308
 21
233.275862
 31
0.0
  0
LINE
  5
216
330
1F
100
AcDbEntity
  8
LAYERGROUP-1
  6
CONTINUOUS
 62
     6
100
AcDbLine
 10
136.557308
 20
228.525862
 30
0.0
 11
136.557308
 21
229.375862
 31
0.0
  0
HATCH
  5
217
330
1F
100
AcDbEntity
  8
LAYERGROUP-1
  6
CONTINUOUS
 62
     7
100
AcDbHatch
 10
0.0
 20
0.0
 30
0.0
210
0.0
220
0.0
230
1.0
  2

 70
     0
 71
     1
 91
        1
 92
        0
 93
       11
 72
     1
 10
109.9573078479706
 20
199.7758620689656
 11
135.9573078479706
 21
199.7758620689656
 72
     1
 10
135.9573078479706
 20
199.7758620689656
 11
135.9573078479706
 21
197.7758620689656
 72
     1
 10
135.9573078479706
 20
197.7758620689656
 11
137.4573078479706
 21
197.7758620689656
 72
     1
 10
137.4573078479706
 20
197.7758620689656
 11
137.4573078479706
 21
196.5258620689656
 72
     1
 10
137.4573078479706
 20
196.5258620689656
 11
136.9573078479706
 21
196.0258620689656
 72
     1
 10
136.9573078479706
 20
196.0258620689656
 11
133.4214094631084
 21
196.0258620689656
 72
     2
 10
129.9573078479706
 20
194.0258620689656
 40
4.0
 50
29.99999999999995
 51
150.0000000000001
 73
     1
 72
     1
 10
126.4932062328329
 20
196.0258620689656
 11
109.9573078479706
 21
196.0258620689656
 72
     1
 10
109.9573078479706
 20
196.0258620689656
 11
109.4573078479706
 21
196.5258620689656
 72
     1
 10
109.4573078479706
 20
196.5258620689656
 11
109.4573078479706
 21
199.2758620689656
 72
     1
 10
109.4573078479706
 20
199.2758620689656
 11
109.9573078479706
 21
199.7758620689656
 97
        0
 75
     0
 76
     0
 52
45.0
 41
2.0
 77
     0
 78
     1
 53
45.0
 43
0.0
 44
0.0
 45
-1.414213562373095
 46
1.414213562373095
 79
     0
 98
        0
  0
HATCH
  5
218
330
1F
100
AcDbEntity
  8
LAYERGROUP-1
  6
CONTINUOUS
 62
     6
100
AcDbHatch
 10
0.0
 20
0.0
 30
0.0
210
0.0
220
0.0
230
1.0
  2

 70
     0
 71
     1
 91
        1
 92
        0
 93
       12
 72
     1
 10
109.9573078479706
 20
224.7758620689656
 11
135.6573078479706
 21
224.7758620689656
 72
     1
 10
135.6573078479706
 20
224.7758620689656
 11
135.9573078479706
 21
225.0758620689656
 72
     1
 10
135.9573078479706
 20
225.0758620689656
 11
135.9573078479706
 21
226.7758620689656
 72
     1
 10
135.9573078479706
 20
226.7758620689656
 11
137.4573078479706
 21
226.7758620689656
 72
     1
 10
137.4573078479706
 20
226.7758620689656
 11
137.4573078479706
 21
228.0258620689656
 72
     1
 10
137.4573078479706
 20
228.0258620689656
 11
136.9573078479706
 21
228.5258620689656
 72
     1
 10
136.9573078479706
 20
228.5258620689656
 11
133.4214094631084
 21
228.5258620689656
 72
     2
 10
129.9573078479706
 20
230.5258620689656
 40
4.0
 50
209.9999999999999
 51
330.0000000000001
 73
     0
 72
     1
 10
126.4932062328329
 20
228.5258620689656
 11
109.9573078479706
 21
228.5258620689656
 72
     1
 10
109.9573078479706
 20
228.5258620689656
 11
109.4573078479706
 21
228.0258620689656
 72
     1
 10
109.4573078479706
 20
228.0258620689656
 11
109.4573078479706
 21
225.2758620689656
 72
     1
 10
109.4573078479706
 20
225.2758620689656
 11
109.9573078479706
 21
224.7758620689656
 97
        0
 75
     0
 76
     0
 52
45.0
 41
2.0
 77
     0
 78
     1
 53
45.0
 43
0.0
 44
0.0
 45
-1.414213562373095
 46
1.414213562373095
 79
     0
 98
        0
  0
HATCH
  5
219
330
1F
100
AcDbEntity
  8
LAYERGROUP-1
  6
CONTINUOUS
 62
     6
100
AcDbHatch
 10
0.0
 20
0.0
 30
0.0
210
0.0
220
0.0
230
1.0
  2

 70
     0
 71
     1
 91
        1
 92
        0
 93
       14
 72
     1
 10
122.2573078479706
 20
195.5258620689656
 11
122.2573078479706
 21
185.9258620689656
 72
     2
 10
123.1573078479706
 20
185.9258620689656
 40
0.9000000000000057
 50
180.0
 51
351.5271900786786
 73
     1
 72
     1
 10
124.0474848479706
 20
185.7932560689656
 11
124.0622191717645
 21
185.8921649370262
 72
     2
 10
124.5073078479706
 20
185.8258620689656
 40
0.4500000000000028
 50
90.0
 51
171.5272099999987
 73
     0
 72
     1
 10
124.5073078479706
 20
186.2758620689656
 11
134.4573078479706
 21
186.2758620689656
 72
     2
 10
134.4573078479706
 20
189.2758620689656
 40
3.0
 50
270.0
 51
360.0
 73
     1
 72
     1
 10
137.4573078479706
 20
189.2758620689656
 11
137.4573078479706
 21
191.2758620689656
 72
     1
 10
137.4573078479706
 20
191.2758620689656
 11
136.5573078479707
 21
191.2758620689656
 72
     1
 10
136.5573078479707
 20
191.2758620689656
 11
136.5573078479707
 21
189.2758620689656
 72
     2
 10
134.5573078479707
 20
189.2758620689656
 40
2.0
 50
270.0
 51
360.0
 73
     0
 72
     1
 10
134.5573078479707
 20
187.2758620689656
 11
124.0573078479707
 21
187.2758620689656
 72
     2
 10
124.0573078479707
 20
186.3758620689656
 40
0.9000000000000057
 50
90.0
 51
180.0
 73
     1
 72
     1
 10
123.1573078479706
 20
186.3758620689656
 11
123.1573078479706
 21
195.5258620689656
 72
     1
 10
123.1573078479706
 20
195.5258620689656
 11
122.2573078479706
 21
195.5258620689656
 97
        0
 75
     0
 76
     0
 52
-45.0
 41
1.0
 77
     0
 78
     1
 53
-45.0
 43
0.0
 44
0.0
 45
0.7071067811865475
 46
0.7071067811865476
 79
     0
 98
        0
  0
HATCH
  5
21A
330
1F
100
AcDbEntity
  8
LAYERGROUP-1
  6
CONTINUOUS
 62
     6
100
AcDbHatch
 10
0.0
 20
0.0
 30
0.0
210
0.0
220
0.0
230
1.0
  2

 70
     0
 71
     1
 91
        1
 92
        0
 93
        4
 72
     1
 10
125.7573078479706
 20
187.4258620689656
 11
125.7573078479706
 21
194.8258620689656
 72
     1
 10
125.7573078479706
 20
194.8258620689656
 11
123.1573078479706
 21
194.8258620689656
 72
     1
 10
123.1573078479706
 20
194.8258620689656
 11
123.1573078479706
 21
187.4258620689656
 72
     1
 10
123.1573078479706
 20
187.4258620689656
 11
125.7573078479706
 21
187.4258620689656
 97
        0
 75
     0
 76
     0
 52
45.0
 41
1.0
 77
     0
 78
     1
 53
45.0
 43
0.0
 44
0.0
 45
-0.7071067811865475
 46
0.7071067811865476
 79
     0
 98
        0
  0
HATCH
  5
21B
330
1F
100
AcDbEntity
  8
LAYERGROUP-1
  6
CONTINUOUS
 62
     6
100
AcDbHatch
 10
0.0
 20
0.0
 30
0.0
210
0.0
220
0.0
230
1.0
  2

 70
     0
 71
     1
 91
        1
 92
        0
 93
        4
 72
     1
 10
125.7573078479706
 20
237.1258620689656
 11
125.7573078479706
 21
229.7258620689656
 72
     1
 10
125.7573078479706
 20
229.7258620689656
 11
123.1573078479706
 21
229.7258620689656
 72
     1
 10
123.1573078479706
 20
229.7258620689656
 11
123.1573078479706
 21
237.1258620689656
 72
     1
 10
123.1573078479706
 20
237.1258620689656
 11
125.7573078479706
 21
237.1258620689656
 97
        0
 75
     0
 76
     0
 52
45.0
 41
1.0
 77
     0
 78
     1
 53
45.0
 43
0.0
 44
0.0
 45
-0.7071067811865475
 46
0.7071067811865476
 79
     0
 98
        0
  0
HATCH
  5
21C
330
1F
100
AcDbEntity
  8
LAYERGROUP-1
  6
CONTINUOUS
 62
     6
100
AcDbHatch
 10
0.0
 20
0.0
 30
0.0
210
0.0
220
0.0
230
1.0
  2

 70
     0
 71
     1
 91
        1
 92
        0
 93
       14
 72
     1
 10
122.2573078479706
 20
229.0258620689656
 11
122.2573078479706
 21
238.6258620689656
 72
     2
 10
123.1573078479706
 20
238.6258620689656
 40
0.9000000000000057
 50
8.472809921321527
 51
180.0
 73
     1
 72
     1
 10
124.0474848479706
 20
238.7584680689656
 11
124.0622191717645
 21
238.659559200905
 72
     2
 10
124.5073078479706
 20
238.7258620689656
 40
0.4500000000000028
 50
188.4727900000049
 51
270.0
 73
     0
 72
     1
 10
124.5073078479706
 20
238.2758620689656
 11
134.4573078479706
 21
238.2758620689656
 72
     2
 10
134.4573078479706
 20
235.2758620689656
 40
3.0
 50
0.0
 51
90.0
 73
     1
 72
     1
 10
137.4573078479706
 20
235.2758620689656
 11
137.4573078479706
 21
233.2758620689656
 72
     1
 10
137.4573078479706
 20
233.2758620689656
 11
136.5573078479707
 21
233.2758620689656
 72
     1
 10
136.5573078479707
 20
233.2758620689656
 11
136.5573078479707
 21
235.2758620689656
 72
     2
 10
134.5573078479707
 20
235.2758620689656
 40
2.0
 50
0.0
 51
90.0
 73
     0
 72
     1
 10
134.5573078479707
 20
237.2758620689656
 11
124.0573078479707
 21
237.2758620689656
 72
     2
 10
124.0573078479707
 20
238.1758620689656
 40
0.9000000000000057
 50
180.0
 51
270.0
 73
     1
 72
     1
 10
123.1573078479706
 20
238.1758620689656
 11
123.1573078479706
 21
229.0258620689656
 72
     1
 10
123.1573078479706
 20
229.0258620689656
 11
122.2573078479706
 21
229.0258620689656
 97
        0
 75
     0
 76
     0
 52
-45.0
 41
1.0
 77
     0
 78
     1
 53
-45.0
 43
0.0
 44
0.0
 45
0.7071067811865475
 46
0.7071067811865476
 79
     0
 98
        0
  0
HATCH
  5
21D
330
1F
100
AcDbEntity
  8
LAYERGROUP-1
  6
CONTINUOUS
 62
     6
100
AcDbHatch
 10
0.0
 20
0.0
 30
0.0
210
0.0
220
0.0
230
1.0
  2

 70
     0
 71
     1
 91
        1
 92
        0
 93
        8
 72
     1
 10
125.7573078479706
 20
189.8871120689656
 11
125.7573078479706
 21
187.2758620689656
 72
     1
 10
125.7573078479706
 20
187.2758620689656
 11
134.5573078479707
 21
187.2758620689656
 72
     2
 10
134.5573078479707
 20
189.2758620689656
 40
2.0
 50
270.0
 51
360.0
 73
     1
 72
     1
 10
136.5573078479707
 20
189.2758620689656
 11
136.5573078479707
 21
195.1758620689656
 72
     1
 10
136.5573078479707
 20
195.1758620689656
 11
133.9373078479707
 21
195.1758620689656
 72
     1
 10
133.9373078479707
 20
195.1758620689656
 11
133.9373078479707
 21
190.3871120689656
 72
     2
 10
133.4373078479707
 20
190.3871120689656
 40
0.5
 50
270.0
 51
360.0
 73
     0
 72
     1
 10
133.4373078479707
 20
189.8871120689656
 11
125.7573078479706
 21
189.8871120689656
 97
        0
 75
     0
 76
     0
 52
45.0
 41
1.0
 77
     0
 78
     1
 53
45.0
 43
0.0
 44
0.0
 45
-0.7071067811865475
 46
0.7071067811865476
 79
     0
 98
        0
  0
HATCH
  5
21E
330
1F
100
AcDbEntity
  8
LAYERGROUP-1
  6
CONTINUOUS
 62
     6
100
AcDbHatch
 10
0.0
 20
0.0
 30
0.0
210
0.0
220
0.0
230
1.0
  2

 70
     0
 71
     1
 91
        1
 92
        0
 93
        8
 72
     1
 10
125.7573078479706
 20
234.6646120689656
 11
125.7573078479706
 21
237.2758620689656
 72
     1
 10
125.7573078479706
 20
237.2758620689656
 11
134.5573078479707
 21
237.2758620689656
 72
     2
 10
134.5573078479707
 20
235.2758620689656
 40
2.0
 50
0.0
 51
90.0
 73
     1
 72
     1
 10
136.5573078479707
 20
235.2758620689656
 11
136.5573078479707
 21
229.3758620689656
 72
     1
 10
136.5573078479707
 20
229.3758620689656
 11
133.9373078479707
 21
229.3758620689656
 72
     1
 10
133.9373078479707
 20
229.3758620689656
 11
133.9373078479707
 21
234.1646120689656
 72
     2
 10
133.4373078479707
 20
234.1646120689656
 40
0.5
 50
0.0
 51
90.0
 73
     0
 72
     1
 10
133.4373078479707
 20
234.6646120689656
 11
125.7573078479706
 21
234.6646120689656
 97
        0
 75
     0
 76
     0
 52
45.0
 41
1.0
 77
     0
 78
     1
 53
45.0
 43
0.0
 44
0.0
 45
-0.7071067811865475
 46
0.7071067811865476
 79
     0
 98
        0
  0
LINE
  5
21F
330
1F
100
AcDbEntity
  8
LAYERGROUP-1
  6
CONTINUOUS
 62
     6
100
AcDbLine
 10
129.957308
 20
197.17019
 30
0.0
 11
129.957308
 21
190.545467
 31
0.0
  0
LINE
  5
220
330
1F
100
AcDbEntity
  8
LAYERGROUP-1
  6
CONTINUOUS
 62
     6
100
AcDbLine
 10
126.648183
 20
193.957112
 30
0.0
 11
133.364071
 21
193.957112
 31
0.0
  0
LINE
  5
221
330
1F
100
AcDbEntity
  8
LAYERGROUP-1
  6
CONTINUOUS
 62
     6
100
AcDbLine
 10
129.957308
 20
227.381534
 30
0.0
 11
129.957308
 21
234.006257
 31
0.0
  0
LINE
  5
222
330
1F
100
AcDbEntity
  8
LAYERGROUP-1
  6
CONTINUOUS
 62
     6
100
AcDbLine
 10
126.648183
 20
230.594612
 30
0.0
 11
133.364071
 21
230.594612
 31
0.0
  0
ARC
  5
223
330
1F
100
AcDbEntity
  8
}}ﾊﾊGG血CCТ
  6
CONTINUOUS
 62
     3
100
AcDbCircle
 10
125.407308
 20
239.775862
 30
0.0
 40
1.5
100
AcDbArc
 50
180.0
 51
270.0
  0
ARC
  5
224
330
1F
100
AcDbEntity
  8
}}ﾊﾊGG血CCТ
  6
CONTINUOUS
 62
     3
100
AcDbCircle
 10
125.407308
 20
184.775862
 30
0.0
 40
1.5
100
AcDbArc
 50
90.0
 51
180.0
  0
LINE
  5
225
330
1F
100
AcDbEntity
  8
LAYERGROUP-1
  6
CONTINUOUS
 62
     3
100
AcDbLine
 10
180.907308
 20
184.025862
 30
0.0
 11
173.707308
 21
184.025862
 31
0.0
  0
ARC
  5
226
330
1F
100
AcDbEntity
  8
LAYERGROUP-1
  6
CONTINUOUS
 62
     3
100
AcDbCircle
 10
180.907308
 20
183.025862
 30
0.0
 40
1.0
100
AcDbArc
 50
0.0
 51
90.0
  0
LINE
  5
227
330
1F
100
AcDbEntity
  8
LAYERGROUP-1
  6
CONTINUOUS
 62
     3
100
AcDbLine
 10
173.707308
 20
184.025862
 30
0.0
 11
173.707308
 21
186.325862
 31
0.0
  0
LINE
  5
228
330
1F
100
AcDbEntity
  8
LAYERGROUP-1
  6
CONTINUOUS
 62
     3
100
AcDbLine
 10
181.157905
 20
186.275862
 30
0.0
 11
173.707308
 21
186.275862
 31
0.0
  0
LINE
  5
229
330
1F
100
AcDbEntity
  8
LAYERGROUP-1
  6
CONTINUOUS
 62
     3
100
AcDbLine
 10
180.907308
 20
240.525862
 30
0.0
 11
173.707308
 21
240.525862
 31
0.0
  0
ARC
  5
22A
330
1F
100
AcDbEntity
  8
LAYERGROUP-1
  6
CONTINUOUS
 62
     3
100
AcDbCircle
 10
180.907308
 20
241.525862
 30
0.0
 40
1.0
100
AcDbArc
 50
270.0
 51
360.0
  0
LINE
  5
22B
330
1F
100
AcDbEntity
  8
LAYERGROUP-1
  6
CONTINUOUS
 62
     3
100
AcDbLine
 10
173.707308
 20
240.525862
 30
0.0
 11
173.707308
 21
238.275862
 31
0.0
  0
INSERT
  5
22F
330
1F
100
AcDbEntity
  8
0
100
AcDbBlockReference
  2
BLKF026
 10
0.0
 20
0.0
 30
0.0
  0
INSERT
  5
24B
330
1F
100
AcDbEntity
  8
0
100
AcDbBlockReference
  2
BLKF027
 10
0.0
 20
0.0
 30
0.0
  0
INSERT
  5
25F
330
1F
100
AcDbEntity
  8
0
100
AcDbBlockReference
  2
BLKF028
 10
0.0
 20
0.0
 30
0.0
  0
CIRCLE
  5
268
330
1F
100
AcDbEntity
  8
001-1
  6
ﾀﾀ��PP
 62
     3
100
AcDbCircle
 10
178.457308
 20
193.957112
 30
0.0
 40
3.969999999999999
  0
CIRCLE
  5
269
330
1F
100
AcDbEntity
  8
001-1
  6
ﾀﾀ��PP
 62
     3
100
AcDbCircle
 10
178.457308
 20
230.594612
 30
0.0
 40
3.969999999999999
  0
LINE
  5
26A
330
1F
100
AcDbEntity
  8
001-1
  6
ﾀﾀ��PP
 62
     3
100
AcDbLine
 10
186.157308
 20
195.525862
 30
0.0
 11
185.257308
 21
195.525862
 31
0.0
  0
LINE
  5
26B
330
1F
100
AcDbEntity
  8
001-1
  6
ﾀﾀ��PP
 62
     3
100
AcDbLine
 10
186.157308
 20
229.025862
 30
0.0
 11
185.257308
 21
229.025862
 31
0.0
  0
LINE
  5
26C
330
1F
100
AcDbEntity
  8
001-1
  6
ﾀﾀ��PP
 62
     3
100
AcDbLine
 10
185.257308
 20
185.925862
 30
0.0
 11
185.257308
 21
195.525862
 31
0.0
  0
LINE
  5
26D
330
1F
100
AcDbEntity
  8
001-1
  6
ﾀﾀ��PP
 62
     3
100
AcDbLine
 10
186.157308
 20
185.925862
 30
0.0
 11
186.157308
 21
195.525862
 31
0.0
  0
LINE
  5
26E
330
1F
100
AcDbEntity
  8
001-1
  6
ﾀﾀ��PP
 62
     3
100
AcDbLine
 10
170.957308
 20
189.275862
 30
0.0
 11
170.957308
 21
191.275862
 31
0.0
  0
LINE
  5
26F
330
1F
100
AcDbEntity
  8
001-1
  6
ﾀﾀ��PP
 62
     3
100
AcDbLine
 10
171.857308
 20
189.275862
 30
0.0
 11
171.857308
 21
195.175862
 31
0.0
  0
LINE
  5
270
330
1F
100
AcDbEntity
  8
001-1
  6
ﾀﾀ��PP
 62
     3
100
AcDbLine
 10
186.157308
 20
238.625862
 30
0.0
 11
186.157308
 21
229.025862
 31
0.0
  0
LINE
  5
271
330
1F
100
AcDbEntity
  8
001-1
  6
ﾀﾀ��PP
 62
     3
100
AcDbLine
 10
185.257308
 20
238.625862
 30
0.0
 11
185.257308
 21
229.025862
 31
0.0
  0
LINE
  5
272
330
1F
100
AcDbEntity
  8
001-1
  6
ﾀﾀ��PP
 62
     3
100
AcDbLine
 10
171.857308
 20
235.275862
 30
0.0
 11
171.857308
 21
229.375862
 31
0.0
  0
LINE
  5
273
330
1F
100
AcDbEntity
  8
001-1
  6
ﾀﾀ��PP
 62
     3
100
AcDbLine
 10
170.957308
 20
235.275862
 30
0.0
 11
170.957308
 21
233.275862
 31
0.0
  0
ARC
  5
274
330
1F
100
AcDbEntity
  8
001-1
  6
ﾀﾀ��PP
 62
     3
100
AcDbCircle
 10
183.907308
 20
185.825862
 30
0.0
 40
0.4500000000000028
100
AcDbArc
 50
8.47279
 51
90.0
  0
LINE
  5
275
330
1F
100
AcDbEntity
  8
001-1
  6
ﾀﾀ��PP
 62
     3
100
AcDbLine
 10
184.367131
 20
185.793256
 30
0.0
 11
184.352397
 21
185.892165
 31
0.0
  0
ARC
  5
276
330
1F
100
AcDbEntity
  8
001-1
  6
ﾀﾀ��PP
 62
     3
100
AcDbCircle
 10
185.257308
 20
185.925862
 30
0.0
 40
0.9000000000000057
100
AcDbArc
 50
188.47279
 51
360.0
  0
ARC
  5
277
330
1F
100
AcDbEntity
  8
001-1
  6
ﾀﾀ��PP
 62
     3
100
AcDbCircle
 10
183.907308
 20
238.725862
 30
0.0
 40
0.4500000000000028
100
AcDbArc
 50
270.0
 51
351.52721
  0
LINE
  5
278
330
1F
100
AcDbEntity
  8
001-1
  6
ﾀﾀ��PP
 62
     3
100
AcDbLine
 10
184.367131
 20
238.758468
 30
0.0
 11
184.352397
 21
238.659559
 31
0.0
  0
ARC
  5
279
330
1F
100
AcDbEntity
  8
001-1
  6
ﾀﾀ��PP
 62
     3
100
AcDbCircle
 10
185.257308
 20
238.625862
 30
0.0
 40
0.9000000000000057
100
AcDbArc
 50
0.0
 51
171.52721
  0
LINE
  5
27A
330
1F
100
AcDbEntity
  8
001-1
  6
ﾀﾀ��PP
 62
     3
100
AcDbLine
 10
183.907308
 20
186.275862
 30
0.0
 11
173.957308
 21
186.275862
 31
0.0
  0
LINE
  5
27B
330
1F
100
AcDbEntity
  8
001-1
  6
ﾀﾀ��PP
 62
     3
100
AcDbLine
 10
184.357308
 20
187.275862
 30
0.0
 11
173.857308
 21
187.275862
 31
0.0
  0
ARC
  5
27C
330
1F
100
AcDbEntity
  8
001-1
  6
ﾀﾀ��PP
 62
     3
100
AcDbCircle
 10
173.857308
 20
189.275862
 30
0.0
 40
2.0
100
AcDbArc
 50
180.0
 51
270.0
  0
ARC
  5
27D
330
1F
100
AcDbEntity
  8
001-1
  6
ﾀﾀ��PP
 62
     3
100
AcDbCircle
 10
173.957308
 20
189.275862
 30
0.0
 40
3.0
100
AcDbArc
 50
180.0
 51
270.0
  0
ARC
  5
27E
330
1F
100
AcDbEntity
  8
001-1
  6
ﾀﾀ��PP
 62
     3
100
AcDbCircle
 10
184.357308
 20
186.375862
 30
0.0
 40
0.9000000000000057
100
AcDbArc
 50
0.0
 51
90.0
  0
LINE
  5
27F
330
1F
100
AcDbEntity
  8
001-1
  6
ﾀﾀ��PP
 62
     3
100
AcDbLine
 10
170.957308
 20
191.275862
 30
0.0
 11
171.857308
 21
191.275862
 31
0.0
  0
LINE
  5
280
330
1F
100
AcDbEntity
  8
001-1
  6
ﾀﾀ��PP
 62
     3
100
AcDbLine
 10
183.907308
 20
238.275862
 30
0.0
 11
173.957308
 21
238.275862
 31
0.0
  0
LINE
  5
281
330
1F
100
AcDbEntity
  8
001-1
  6
ﾀﾀ��PP
 62
     3
100
AcDbLine
 10
184.357308
 20
237.275862
 30
0.0
 11
173.857308
 21
237.275862
 31
0.0
  0
ARC
  5
282
330
1F
100
AcDbEntity
  8
001-1
  6
ﾀﾀ��PP
 62
     3
100
AcDbCircle
 10
173.857308
 20
235.275862
 30
0.0
 40
2.0
100
AcDbArc
 50
90.0
 51
180.0
  0
ARC
  5
283
330
1F
100
AcDbEntity
  8
001-1
  6
ﾀﾀ��PP
 62
     3
100
AcDbCircle
 10
173.957308
 20
235.275862
 30
0.0
 40
3.0
100
AcDbArc
 50
90.0
 51
180.0
  0
ARC
  5
284
330
1F
100
AcDbEntity
  8
001-1
  6
ﾀﾀ��PP
 62
     3
100
AcDbCircle
 10
184.357308
 20
238.175862
 30
0.0
 40
0.9000000000000057
100
AcDbArc
 50
270.0
 51
360.0
  0
LINE
  5
285
330
1F
100
AcDbEntity
  8
001-1
  6
ﾀﾀ��PP
 62
     3
100
AcDbLine
 10
170.957308
 20
233.275862
 30
0.0
 11
171.857308
 21
233.275862
 31
0.0
  0
LINE
  5
286
330
1F
100
AcDbEntity
  8
LAYERGROUP-1
  6
CONTINUOUS
 62
     6
100
AcDbLine
 10
186.157308
 20
196.025862
 30
0.0
 11
186.157308
 21
195.525862
 31
0.0
  0
LINE
  5
287
330
1F
100
AcDbEntity
  8
LAYERGROUP-1
  6
CONTINUOUS
 62
     6
100
AcDbLine
 10
185.257308
 20
196.025862
 30
0.0
 11
185.257308
 21
195.525862
 31
0.0
  0
LINE
  5
288
330
1F
100
AcDbEntity
  8
LAYERGROUP-1
  6
CONTINUOUS
 62
     6
100
AcDbLine
 10
182.657308
 20
196.025862
 30
0.0
 11
182.657308
 21
194.825862
 31
0.0
  0
LINE
  5
289
330
1F
100
AcDbEntity
  8
LAYERGROUP-1
  6
CONTINUOUS
 62
     6
100
AcDbLine
 10
171.857308
 20
196.025862
 30
0.0
 11
171.857308
 21
195.175862
 31
0.0
  0
LINE
  5
28A
330
1F
100
AcDbEntity
  8
LAYERGROUP-1
  6
CONTINUOUS
 62
     6
100
AcDbLine
 10
174.477308
 20
196.025862
 30
0.0
 11
174.477308
 21
195.175862
 31
0.0
  0
LINE
  5
28B
330
1F
100
AcDbEntity
  8
LAYERGROUP-1
  6
CONTINUOUS
 62
     6
100
AcDbLine
 10
170.957308
 20
196.525862
 30
0.0
 11
170.957308
 21
191.275862
 31
0.0
  0
LINE
  5
28C
330
1F
100
AcDbEntity
  8
LAYERGROUP-1
  6
CONTINUOUS
 62
     6
100
AcDbLine
 10
172.757308
 20
199.775862
 30
0.0
 11
172.757308
 21
224.775862
 31
0.0
  0
LINE
  5
28D
330
1F
100
AcDbEntity
  8
LAYERGROUP-1
  6
CONTINUOUS
 62
     6
100
AcDbLine
 10
172.457308
 20
199.475862
 30
0.0
 11
172.457308
 21
225.314043
 31
0.0
  0
LINE
  5
28E
330
1F
100
AcDbEntity
  8
LAYERGROUP-1
  6
CONTINUOUS
 62
     6
100
AcDbLine
 10
170.957308
 20
226.775862
 30
0.0
 11
170.957308
 21
197.775862
 31
0.0
  0
LINE
  5
28F
330
1F
100
AcDbEntity
  8
LAYERGROUP-1
  6
CONTINUOUS
 62
     6
100
AcDbLine
 10
198.457308
 20
199.775862
 30
0.0
 11
198.457308
 21
224.775862
 31
0.0
  0
LINE
  5
290
330
1F
100
AcDbEntity
  8
LAYERGROUP-1
  6
CONTINUOUS
 62
     6
100
AcDbLine
 10
198.957308
 20
199.275862
 30
0.0
 11
198.957308
 21
225.275862
 31
0.0
  0
LINE
  5
291
330
1F
100
AcDbEntity
  8
LAYERGROUP-1
  6
CONTINUOUS
 62
     6
100
AcDbLine
 10
186.157308
 20
228.525862
 30
0.0
 11
186.157308
 21
229.025862
 31
0.0
  0
LINE
  5
292
330
1F
100
AcDbEntity
  8
LAYERGROUP-1
  6
CONTINUOUS
 62
     6
100
AcDbLine
 10
185.257308
 20
228.525862
 30
0.0
 11
185.257308
 21
229.025862
 31
0.0
  0
LINE
  5
293
330
1F
100
AcDbEntity
  8
LAYERGROUP-1
  6
CONTINUOUS
 62
     6
100
AcDbLine
 10
182.657308
 20
228.525862
 30
0.0
 11
182.657308
 21
229.725862
 31
0.0
  0
LINE
  5
294
330
1F
100
AcDbEntity
  8
LAYERGROUP-1
  6
CONTINUOUS
 62
     6
100
AcDbLine
 10
174.477308
 20
228.525862
 30
0.0
 11
174.477308
 21
229.375862
 31
0.0
  0
LINE
  5
295
330
1F
100
AcDbEntity
  8
LAYERGROUP-1
  6
CONTINUOUS
 62
     6
100
AcDbLine
 10
170.957308
 20
228.025862
 30
0.0
 11
170.957308
 21
233.275862
 31
0.0
  0
LINE
  5
296
330
1F
100
AcDbEntity
  8
LAYERGROUP-1
  6
CONTINUOUS
 62
     6
100
AcDbLine
 10
171.857308
 20
228.525862
 30
0.0
 11
171.857308
 21
229.375862
 31
0.0
  0
HATCH
  5
297
330
1F
100
AcDbEntity
  8
LAYERGROUP-1
  6
CONTINUOUS
 62
     7
100
AcDbHatch
 10
0.0
 20
0.0
 30
0.0
210
0.0
220
0.0
230
1.0
  2

 70
     0
 71
     1
 91
        1
 92
        0
 93
       11
 72
     1
 10
198.4573078479706
 20
199.7758620689656
 11
172.4573078479706
 21
199.7758620689656
 72
     1
 10
172.4573078479706
 20
199.7758620689656
 11
172.4573078479706
 21
197.7758620689656
 72
     1
 10
172.4573078479706
 20
197.7758620689656
 11
170.9573078479706
 21
197.7758620689656
 72
     1
 10
170.9573078479706
 20
197.7758620689656
 11
170.9573078479706
 21
196.5258620689656
 72
     1
 10
170.9573078479706
 20
196.5258620689656
 11
171.4573078479706
 21
196.0258620689656
 72
     1
 10
171.4573078479706
 20
196.0258620689656
 11
174.9932062328329
 21
196.0258620689656
 72
     2
 10
178.4573078479706
 20
194.0258620689656
 40
4.0
 50
30.00000000000013
 51
150.0000000000001
 73
     1
 72
     1
 10
181.9214094631083
 20
196.0258620689656
 11
198.4573078479706
 21
196.0258620689656
 72
     1
 10
198.4573078479706
 20
196.0258620689656
 11
198.9573078479706
 21
196.5258620689656
 72
     1
 10
198.9573078479706
 20
196.5258620689656
 11
198.9573078479706
 21
199.2758620689656
 72
     1
 10
198.9573078479706
 20
199.2758620689656
 11
198.4573078479706
 21
199.7758620689656
 97
        0
 75
     0
 76
     0
 52
45.0
 41
2.0
 77
     0
 78
     1
 53
45.0
 43
0.0
 44
0.0
 45
-1.414213562373095
 46
1.414213562373095
 79
     0
 98
        0
  0
HATCH
  5
298
330
1F
100
AcDbEntity
  8
LAYERGROUP-1
  6
CONTINUOUS
 62
     6
100
AcDbHatch
 10
0.0
 20
0.0
 30
0.0
210
0.0
220
0.0
230
1.0
  2

 70
     0
 71
     1
 91
        1
 92
        0
 93
       12
 72
     1
 10
198.4573078479706
 20
224.7758620689656
 11
172.7573078479706
 21
224.7758620689656
 72
     1
 10
172.7573078479706
 20
224.7758620689656
 11
172.4573078479706
 21
225.0758620689656
 72
     1
 10
172.4573078479706
 20
225.0758620689656
 11
172.4573078479706
 21
226.7758620689656
 72
     1
 10
172.4573078479706
 20
226.7758620689656
 11
170.9573078479706
 21
226.7758620689656
 72
     1
 10
170.9573078479706
 20
226.7758620689656
 11
170.9573078479706
 21
228.0258620689656
 72
     1
 10
170.9573078479706
 20
228.0258620689656
 11
171.4573078479706
 21
228.5258620689656
 72
     1
 10
171.4573078479706
 20
228.5258620689656
 11
174.9932062328329
 21
228.5258620689656
 72
     2
 10
178.4573078479706
 20
230.5258620689656
 40
4.0
 50
209.9999999999999
 51
330.0000000000001
 73
     0
 72
     1
 10
181.9214094631083
 20
228.5258620689656
 11
198.4573078479706
 21
228.5258620689656
 72
     1
 10
198.4573078479706
 20
228.5258620689656
 11
198.9573078479706
 21
228.0258620689656
 72
     1
 10
198.9573078479706
 20
228.0258620689656
 11
198.9573078479706
 21
225.2758620689656
 72
     1
 10
198.9573078479706
 20
225.2758620689656
 11
198.4573078479706
 21
224.7758620689656
 97
        0
 75
     0
 76
     0
 52
45.0
 41
2.0
 77
     0
 78
     1
 53
45.0
 43
0.0
 44
0.0
 45
-1.414213562373095
 46
1.414213562373095
 79
     0
 98
        0
  0
HATCH
  5
299
330
1F
100
AcDbEntity
  8
LAYERGROUP-1
  6
CONTINUOUS
 62
     6
100
AcDbHatch
 10
0.0
 20
0.0
 30
0.0
210
0.0
220
0.0
230
1.0
  2

 70
     0
 71
     1
 91
        1
 92
        0
 93
       14
 72
     1
 10
186.1573078479706
 20
195.5258620689656
 11
186.1573078479706
 21
185.9258620689656
 72
     2
 10
185.2573078479706
 20
185.9258620689656
 40
0.9000000000000057
 50
188.4728099213216
 51
360.0
 73
     1
 72
     1
 10
184.3671308479706
 20
185.7932560689656
 11
184.3523965241768
 21
185.8921649370262
 72
     2
 10
183.9073078479706
 20
185.8258620689656
 40
0.4500000000000028
 50
8.472790000000792
 51
90.0
 73
     0
 72
     1
 10
183.9073078479706
 20
186.2758620689656
 11
173.9573078479706
 21
186.2758620689656
 72
     2
 10
173.9573078479706
 20
189.2758620689656
 40
3.0
 50
180.0
 51
270.0
 73
     1
 72
     1
 10
170.9573078479706
 20
189.2758620689656
 11
170.9573078479706
 21
191.2758620689656
 72
     1
 10
170.9573078479706
 20
191.2758620689656
 11
171.8573078479706
 21
191.2758620689656
 72
     1
 10
171.8573078479706
 20
191.2758620689656
 11
171.8573078479706
 21
189.2758620689656
 72
     2
 10
173.8573078479706
 20
189.2758620689656
 40
2.0
 50
180.0
 51
270.0
 73
     0
 72
     1
 10
173.8573078479706
 20
187.2758620689656
 11
184.3573078479706
 21
187.2758620689656
 72
     2
 10
184.3573078479706
 20
186.3758620689656
 40
0.9000000000000057
 50
0.0
 51
90.0
 73
     1
 72
     1
 10
185.2573078479706
 20
186.3758620689656
 11
185.2573078479706
 21
195.5258620689656
 72
     1
 10
185.2573078479706
 20
195.5258620689656
 11
186.1573078479706
 21
195.5258620689656
 97
        0
 75
     0
 76
     0
 52
-45.0
 41
1.0
 77
     0
 78
     1
 53
-45.0
 43
0.0
 44
0.0
 45
0.7071067811865475
 46
0.7071067811865476
 79
     0
 98
        0
  0
HATCH
  5
29A
330
1F
100
AcDbEntity
  8
LAYERGROUP-1
  6
CONTINUOUS
 62
     6
100
AcDbHatch
 10
0.0
 20
0.0
 30
0.0
210
0.0
220
0.0
230
1.0
  2

 70
     0
 71
     1
 91
        1
 92
        0
 93
        4
 72
     1
 10
182.6573078479706
 20
187.4258620689656
 11
182.6573078479706
 21
194.8258620689656
 72
     1
 10
182.6573078479706
 20
194.8258620689656
 11
185.2573078479706
 21
194.8258620689656
 72
     1
 10
185.2573078479706
 20
194.8258620689656
 11
185.2573078479706
 21
187.4258620689656
 72
     1
 10
185.2573078479706
 20
187.4258620689656
 11
182.6573078479706
 21
187.4258620689656
 97
        0
 75
     0
 76
     0
 52
45.0
 41
1.0
 77
     0
 78
     1
 53
45.0
 43
0.0
 44
0.0
 45
-0.7071067811865475
 46
0.7071067811865476
 79
     0
 98
        0
  0
HATCH
  5
29B
330
1F
100
AcDbEntity
  8
LAYERGROUP-1
  6
CONTINUOUS
 62
     6
100
AcDbHatch
 10
0.0
 20
0.0
 30
0.0
210
0.0
220
0.0
230
1.0
  2

 70
     0
 71
     1
 91
        1
 92
        0
 93
        4
 72
     1
 10
182.6573078479706
 20
237.1258620689656
 11
182.6573078479706
 21
229.7258620689656
 72
     1
 10
182.6573078479706
 20
229.7258620689656
 11
185.2573078479706
 21
229.7258620689656
 72
     1
 10
185.2573078479706
 20
229.7258620689656
 11
185.2573078479706
 21
237.1258620689656
 72
     1
 10
185.2573078479706
 20
237.1258620689656
 11
182.6573078479706
 21
237.1258620689656
 97
        0
 75
     0
 76
     0
 52
45.0
 41
1.0
 77
     0
 78
     1
 53
45.0
 43
0.0
 44
0.0
 45
-0.7071067811865475
 46
0.7071067811865476
 79
     0
 98
        0
  0
HATCH
  5
29C
330
1F
100
AcDbEntity
  8
LAYERGROUP-1
  6
CONTINUOUS
 62
     6
100
AcDbHatch
 10
0.0
 20
0.0
 30
0.0
210
0.0
220
0.0
230
1.0
  2

 70
     0
 71
     1
 91
        1
 92
        0
 93
       14
 72
     1
 10
186.1573078479706
 20
229.0258620689656
 11
186.1573078479706
 21
238.6258620689656
 72
     2
 10
185.2573078479706
 20
238.6258620689656
 40
0.9000000000000057
 50
0.0
 51
171.5271900786784
 73
     1
 72
     1
 10
184.3671308479706
 20
238.7584680689656
 11
184.3523965241768
 21
238.659559200905
 72
     2
 10
183.9073078479706
 20
238.7258620689656
 40
0.4500000000000028
 50
270.0
 51
351.5272099999957
 73
     0
 72
     1
 10
183.9073078479706
 20
238.2758620689656
 11
173.9573078479706
 21
238.2758620689656
 72
     2
 10
173.9573078479706
 20
235.2758620689656
 40
3.0
 50
90.0
 51
180.0
 73
     1
 72
     1
 10
170.9573078479706
 20
235.2758620689656
 11
170.9573078479706
 21
233.2758620689656
 72
     1
 10
170.9573078479706
 20
233.2758620689656
 11
171.8573078479706
 21
233.2758620689656
 72
     1
 10
171.8573078479706
 20
233.2758620689656
 11
171.8573078479706
 21
235.2758620689656
 72
     2
 10
173.8573078479706
 20
235.2758620689656
 40
2.0
 50
90.0
 51
180.0
 73
     0
 72
     1
 10
173.8573078479706
 20
237.2758620689656
 11
184.3573078479706
 21
237.2758620689656
 72
     2
 10
184.3573078479706
 20
238.1758620689656
 40
0.9000000000000057
 50
270.0
 51
360.0
 73
     1
 72
     1
 10
185.2573078479706
 20
238.1758620689656
 11
185.2573078479706
 21
229.0258620689656
 72
     1
 10
185.2573078479706
 20
229.0258620689656
 11
186.1573078479706
 21
229.0258620689656
 97
        0
 75
     0
 76
     0
 52
-45.0
 41
1.0
 77
     0
 78
     1
 53
-45.0
 43
0.0
 44
0.0
 45
0.7071067811865475
 46
0.7071067811865476
 79
     0
 98
        0
  0
HATCH
  5
29D
330
1F
100
AcDbEntity
  8
LAYERGROUP-1
  6
CONTINUOUS
 62
     6
100
AcDbHatch
 10
0.0
 20
0.0
 30
0.0
210
0.0
220
0.0
230
1.0
  2

 70
     0
 71
     1
 91
        1
 92
        0
 93
        8
 72
     1
 10
182.6573078479706
 20
189.8871120689656
 11
182.6573078479706
 21
187.2758620689656
 72
     1
 10
182.6573078479706
 20
187.2758620689656
 11
173.8573078479706
 21
187.2758620689656
 72
     2
 10
173.8573078479706
 20
189.2758620689656
 40
2.0
 50
180.0
 51
270.0
 73
     1
 72
     1
 10
171.8573078479706
 20
189.2758620689656
 11
171.8573078479706
 21
195.1758620689656
 72
     1
 10
171.8573078479706
 20
195.1758620689656
 11
174.4773078479706
 21
195.1758620689656
 72
     1
 10
174.4773078479706
 20
195.1758620689656
 11
174.4773078479706
 21
190.3871120689656
 72
     2
 10
174.9773078479706
 20
190.3871120689656
 40
0.5
 50
180.0
 51
270.0
 73
     0
 72
     1
 10
174.9773078479706
 20
189.8871120689656
 11
182.6573078479706
 21
189.8871120689656
 97
        0
 75
     0
 76
     0
 52
45.0
 41
1.0
 77
     0
 78
     1
 53
45.0
 43
0.0
 44
0.0
 45
-0.7071067811865475
 46
0.7071067811865476
 79
     0
 98
        0
  0
HATCH
  5
29E
330
1F
100
AcDbEntity
  8
LAYERGROUP-1
  6
CONTINUOUS
 62
     6
100
AcDbHatch
 10
0.0
 20
0.0
 30
0.0
210
0.0
220
0.0
230
1.0
  2

 70
     0
 71
     1
 91
        1
 92
        0
 93
        8
 72
     1
 10
182.6573078479706
 20
234.6646120689656
 11
182.6573078479706
 21
237.2758620689656
 72
     1
 10
182.6573078479706
 20
237.2758620689656
 11
173.8573078479706
 21
237.2758620689656
 72
     2
 10
173.8573078479706
 20
235.2758620689656
 40
2.0
 50
90.0
 51
180.0
 73
     1
 72
     1
 10
171.8573078479706
 20
235.2758620689656
 11
171.8573078479706
 21
229.3758620689656
 72
     1
 10
171.8573078479706
 20
229.3758620689656
 11
174.4773078479706
 21
229.3758620689656
 72
     1
 10
174.4773078479706
 20
229.3758620689656
 11
174.4773078479706
 21
234.1646120689656
 72
     2
 10
174.9773078479706
 20
234.1646120689656
 40
0.5
 50
90.0
 51
180.0
 73
     0
 72
     1
 10
174.9773078479706
 20
234.6646120689656
 11
182.6573078479706
 21
234.6646120689656
 97
        0
 75
     0
 76
     0
 52
45.0
 41
1.0
 77
     0
 78
     1
 53
45.0
 43
0.0
 44
0.0
 45
-0.7071067811865475
 46
0.7071067811865476
 79
     0
 98
        0
  0
LINE
  5
29F
330
1F
100
AcDbEntity
  8
LAYERGROUP-1
  6
CONTINUOUS
 62
     6
100
AcDbLine
 10
178.457308
 20
197.17019
 30
0.0
 11
178.457308
 21
190.545467
 31
0.0
  0
LINE
  5
2A0
330
1F
100
AcDbEntity
  8
LAYERGROUP-1
  6
CONTINUOUS
 62
     6
100
AcDbLine
 10
181.766433
 20
193.957112
 30
0.0
 11
175.050545
 21
193.957112
 31
0.0
  0
LINE
  5
2A1
330
1F
100
AcDbEntity
  8
LAYERGROUP-1
  6
CONTINUOUS
 62
     6
100
AcDbLine
 10
178.457308
 20
227.381534
 30
0.0
 11
178.457308
 21
234.006257
 31
0.0
  0
LINE
  5
2A2
330
1F
100
AcDbEntity
  8
LAYERGROUP-1
  6
CONTINUOUS
 62
     6
100
AcDbLine
 10
181.766433
 20
230.594612
 30
0.0
 11
175.050545
 21
230.594612
 31
0.0
  0
ARC
  5
2A3
330
1F
100
AcDbEntity
  8
}}ﾊﾊGG血CCТ
  6
CONTINUOUS
 62
     3
100
AcDbCircle
 10
183.007308
 20
239.775862
 30
0.0
 40
1.5
100
AcDbArc
 50
270.0
 51
360.0
  0
ARC
  5
2A4
330
1F
100
AcDbEntity
  8
}}ﾊﾊGG血CCТ
  6
CONTINUOUS
 62
     3
100
AcDbCircle
 10
183.007308
 20
184.775862
 30
0.0
 40
1.5
100
AcDbArc
 50
0.0
 51
90.0
  0
DIMENSION
  5
2A5
330
1F
100
AcDbEntity
  8
}}ﾊﾊGG血CCТ
100
AcDbDimension
  2
*D27
 10
198.957308
 20
51.655462
 30
0.0
 11
154.207306
 21
52.65546
 31
0.0
 70
    33
  3
FXDIMINFO
100
AcDbAlignedDimension
 13
109.457308
 23
196.525862
 33
0.0
 14
198.957308
 24
196.525862
 34
0.0
1001
ACAD
1000
DSTYLE
1002
{
1070
     7
1000
FXTIP_ARROW_E
1070
     6
1000
FXTIP_ARROW_S
1070
   173
1070
     1
1002
}
  0
DIMENSION
  5
2AF
330
1F
100
AcDbEntity
  8
}}ﾊﾊGG血CCТ
100
AcDbDimension
  2
*D28
 10
211.578818
 20
224.775862
 30
0.0
 11
210.578812
 21
212.275864
 31
0.0
 70
    32
  3
FXDIMINFO
100
AcDbAlignedDimension
 13
198.457308
 23
199.775862
 33
0.0
 14
198.197423
 24
224.775862
 34
0.0
 50
270.0
100
AcDbRotatedDimension
1001
ACAD
1000
DSTYLE
1002
{
1070
     7
1000
FXTIP_ARROW_E
1070
     6
1000
FXTIP_ARROW_S
1070
   173
1070
     1
1002
}
  0
INSERT
  5
2BC
330
1F
100
AcDbEntity
  8
0
100
AcDbBlockReference
  2
BLKF031
 10
0.0
 20
0.0
 30
0.0
  0
ARC
  5
2E7
330
1F
100
AcDbEntity
  8
LAYERGROUP-1
  6
CONTINUOUS
 62
    66
100
AcDbCircle
 10
405.103448
 20
212.275862
 30
0.0
 40
76.0
100
AcDbArc
 50
237.167
 51
242.833
  0
ARC
  5
2E8
330
1F
100
AcDbEntity
  8
LAYERGROUP-1
  6
CONTINUOUS
 62
    66
100
AcDbCircle
 10
405.103448
 20
212.275862
 30
0.0
 40
70.0
100
AcDbArc
 50
237.167
 51
242.833
  0
ARC
  5
2E9
330
1F
100
AcDbEntity
  8
LAYERGROUP-1
  6
CONTINUOUS
 62
    66
100
AcDbCircle
 10
173.107308
 20
105.875862
 30
0.0
 40
1.0
100
AcDbArc
 50
270.0
 51
360.0
  0
ARC
  5
2EA
330
1F
100
AcDbEntity
  8
LAYERGROUP-1
  6
CONTINUOUS
 62
    66
100
AcDbCircle
 10
173.107308
 20
105.875862
 30
0.0
 40
3.6
100
AcDbArc
 50
270.0
 51
360.0
  0
ARC
  5
2EB
330
1F
100
AcDbEntity
  8
LAYERGROUP-1
  6
CONTINUOUS
 62
    66
100
AcDbCircle
 10
135.307308
 20
105.875862
 30
0.0
 40
1.0
100
AcDbArc
 50
180.0
 51
270.0
  0
ARC
  5
2EC
330
1F
100
AcDbEntity
  8
LAYERGROUP-1
  6
CONTINUOUS
 62
    66
100
AcDbCircle
 10
135.307308
 20
105.875862
 30
0.0
 40
3.6
100
AcDbArc
 50
180.0
 51
270.0
  0
ARC
  5
2ED
330
1F
100
AcDbEntity
  8
LAYERGROUP-1
  6
CONTINUOUS
 62
    66
100
AcDbCircle
 10
173.107308
 20
318.675862
 30
0.0
 40
1.0
100
AcDbArc
 50
0.0
 51
90.0
  0
ARC
  5
2EE
330
1F
100
AcDbEntity
  8
LAYERGROUP-1
  6
CONTINUOUS
 62
    66
100
AcDbCircle
 10
173.107308
 20
318.675862
 30
0.0
 40
3.6
100
AcDbArc
 50
0.0
 51
90.0
  0
ARC
  5
2EF
330
1F
100
AcDbEntity
  8
LAYERGROUP-1
  6
CONTINUOUS
 62
    66
100
AcDbCircle
 10
135.307308
 20
318.675862
 30
0.0
 40
1.0
100
AcDbArc
 50
90.0
 51
180.0
  0
ARC
  5
2F0
330
1F
100
AcDbEntity
  8
LAYERGROUP-1
  6
CONTINUOUS
 62
    66
100
AcDbCircle
 10
135.307308
 20
318.675862
 30
0.0
 40
3.6
100
AcDbArc
 50
90.0
 51
180.0
  0
ENDSEC
  0
SECTION
  2
OBJECTS
  0
DICTIONARY
  5
C
330
0
100
AcDbDictionary
  3
ACAD_GROUP
350
D
  3
ACAD_LAYOUT
350
1A
  3
ACAD_MLINESTYLE
350
17
  3
ACAD_PLOTSETTINGS
350
19
  3
ACDBHEADERROUNDTRIPXREC
350
2F1
  0
DICTIONARY
  5
D
102
{ACAD_REACTORS
330
C
102
}
330
C
100
AcDbDictionary
  0
DICTIONARY
  5
1A
102
{ACAD_REACTORS
330
C
102
}
330
C
100
AcDbDictionary
  0
DICTIONARY
  5
17
102
{ACAD_REACTORS
330
C
102
}
330
C
100
AcDbDictionary
  3
STANDARD
350
18
  0
DICTIONARY
  5
19
102
{ACAD_REACTORS
330
C
102
}
330
C
100
AcDbDictionary
  0
DICTIONARY
  5
2F1
102
{ACAD_REACTORS
330
C
102
}
330
C
100
AcDbDictionary
  3
CEPSNTYPE
350
2FA
  3
DIMSTYLEDATA
350
310
  3
FINGERPRINTGUID
350
2FB
  3
HYPERLINKBASE
350
2F4
  3
INSUNITS
350
2F9
  3
LAYOUTDICT
350
2F6
  3
LWETCUNION
350
2F8
  3
PLOTSETDICT
350
2F7
  3
PSVPSCALE
350
2FD
  3
PUCSBASE
350
300
  3
PUCSORGBACK
350
306
  3
PUCSORGBOTTOM
350
302
  3
PUCSORGFRONT
350
305
  3
PUCSORGLEFT
350
303
  3
PUCSORGRIGHT
350
304
  3
PUCSORGTOP
350
301
  3
PUCSORTHOREF
350
2FE
  3
PUCSORTHOVIEW
350
2FF
  3
STYLESHEET
350
2F5
  3
TSTACKALIGN
350
2F2
  3
TSTACKSIZE
350
2F3
  3
UCSBASE
350
309
  3
UCSORGBACK
350
30F
  3
UCSORGBOTTOM
350
30B
  3
UCSORGFRONT
350
30E
  3
UCSORGLEFT
350
30C
  3
UCSORGRIGHT
350
30D
  3
UCSORGTOP
350
30A
  3
UCSORTHOREF
350
307
  3
UCSORTHOVIEW
350
308
  3
VERSIONGUID
350
2FC
  0
MLINESTYLE
  5
18
102
{ACAD_REACTORS
330
17
102
}
330
17
100
AcDbMlineStyle
  2
Standard
 70
     0
  3

 62
   256
 51
90.0
 52
90.0
 71
     2
 49
0.5
 62
   256
  6
BYLAYER
 49
-0.5
 62
   256
  6
BYLAYER
  0
XRECORD
  5
2FA
102
{ACAD_REACTORS
330
2F1
102
}
330
2F1
100
AcDbXrecord
 90
        0
  0
XRECORD
  5
310
102
{ACAD_REACTORS
330
2F1
102
}
330
2F1
100
AcDbXrecord
1000
DSTYLE
1002
{
1070
   179
 70
     2
1070
   171
 70
     3
1070
   143
 40
0.03937
1070
   274
 70
     3
1070
    41
 40
4.0
1070
   343
340
41
1070
   344
340
47
1070
   141
 40
2.5
1070
   176
 70
     7
1070
   177
 70
     7
1070
   178
 70
     7
1070
   271
 70
     2
1070
    46
 40
6.0
1070
    43
 40
10.0
1070
    44
 40
1.0
1070
    42
 40
1.0
1070
   147
 40
1.0
1070
   341
340
41
1070
   173
 70
     1
1070
    77
 70
     1
1070
   272
 70
     2
1070
    73
 70
     0
1070
   172
 70
     1
1070
    74
 70
     0
1070
   283
 70
     0
1070
   340
340
3F
1070
   140
 40
4.0
1070
   284
 70
     8
1070
    78
 70
     8
1002
}
  0
XRECORD
  5
2FB
102
{ACAD_REACTORS
330
2F1
102
}
330
2F1
100
AcDbXrecord
  1
{AF8C408A-071B-4CA4-B248-F8D1B7A4744E}
  0
XRECORD
  5
2F4
102
{ACAD_REACTORS
330
2F1
102
}
330
2F1
100
AcDbXrecord
  1

  0
XRECORD
  5
2F9
102
{ACAD_REACTORS
330
2F1
102
}
330
2F1
100
AcDbXrecord
 90
        1
  0
XRECORD
  5
2F6
102
{ACAD_REACTORS
330
2F1
102
}
330
2F1
100
AcDbXrecord
340
1A
  0
XRECORD
  5
2F8
102
{ACAD_REACTORS
330
2F1
102
}
330
2F1
100
AcDbXrecord
 90
    10781
  0
XRECORD
  5
2F7
102
{ACAD_REACTORS
330
2F1
102
}
330
2F1
100
AcDbXrecord
340
19
  0
XRECORD
  5
2FD
102
{ACAD_REACTORS
330
2F1
102
}
330
2F1
100
AcDbXrecord
 40
0.0
  0
XRECORD
  5
300
102
{ACAD_REACTORS
330
2F1
102
}
330
2F1
100
AcDbXrecord
340
0
  0
XRECORD
  5
306
102
{ACAD_REACTORS
330
2F1
102
}
330
2F1
100
AcDbXrecord
 10
0.0
 20
0.0
 30
0.0
  0
XRECORD
  5
302
102
{ACAD_REACTORS
330
2F1
102
}
330
2F1
100
AcDbXrecord
 10
0.0
 20
0.0
 30
0.0
  0
XRECORD
  5
305
102
{ACAD_REACTORS
330
2F1
102
}
330
2F1
100
AcDbXrecord
 10
0.0
 20
0.0
 30
0.0
  0
XRECORD
  5
303
102
{ACAD_REACTORS
330
2F1
102
}
330
2F1
100
AcDbXrecord
 10
0.0
 20
0.0
 30
0.0
  0
XRECORD
  5
304
102
{ACAD_REACTORS
330
2F1
102
}
330
2F1
100
AcDbXrecord
 10
0.0
 20
0.0
 30
0.0
  0
XRECORD
  5
301
102
{ACAD_REACTORS
330
2F1
102
}
330
2F1
100
AcDbXrecord
 10
0.0
 20
0.0
 30
0.0
  0
XRECORD
  5
2FE
102
{ACAD_REACTORS
330
2F1
102
}
330
2F1
100
AcDbXrecord
340
0
  0
XRECORD
  5
2FF
102
{ACAD_REACTORS
330
2F1
102
}
330
2F1
100
AcDbXrecord
 70
     0
  0
XRECORD
  5
2F5
102
{ACAD_REACTORS
330
2F1
102
}
330
2F1
100
AcDbXrecord
  1

  0
XRECORD
  5
2F2
102
{ACAD_REACTORS
330
2F1
102
}
330
2F1
100
AcDbXrecord
 90
        1
  0
XRECORD
  5
2F3
102
{ACAD_REACTORS
330
2F1
102
}
330
2F1
100
AcDbXrecord
 90
       70
  0
XRECORD
  5
309
102
{ACAD_REACTORS
330
2F1
102
}
330
2F1
100
AcDbXrecord
340
0
  0
XRECORD
  5
30F
102
{ACAD_REACTORS
330
2F1
102
}
330
2F1
100
AcDbXrecord
 10
0.0
 20
0.0
 30
0.0
  0
XRECORD
  5
30B
102
{ACAD_REACTORS
330
2F1
102
}
330
2F1
100
AcDbXrecord
 10
0.0
 20
0.0
 30
0.0
  0
XRECORD
  5
30E
102
{ACAD_REACTORS
330
2F1
102
}
330
2F1
100
AcDbXrecord
 10
0.0
 20
0.0
 30
0.0
  0
XRECORD
  5
30C
102
{ACAD_REACTORS
330
2F1
102
}
330
2F1
100
AcDbXrecord
 10
0.0
 20
0.0
 30
0.0
  0
XRECORD
  5
30D
102
{ACAD_REACTORS
330
2F1
102
}
330
2F1
100
AcDbXrecord
 10
0.0
 20
0.0
 30
0.0
  0
XRECORD
  5
30A
102
{ACAD_REACTORS
330
2F1
102
}
330
2F1
100
AcDbXrecord
 10
0.0
 20
0.0
 30
0.0
  0
XRECORD
  5
307
102
{ACAD_REACTORS
330
2F1
102
}
330
2F1
100
AcDbXrecord
340
0
  0
XRECORD
  5
308
102
{ACAD_REACTORS
330
2F1
102
}
330
2F1
100
AcDbXrecord
 70
     0
  0
XRECORD
  5
2FC
102
{ACAD_REACTORS
330
2F1
102
}
330
2F1
100
AcDbXrecord
  1
{FAEB1C32-E019-11D5-929B-00C0DF256EC4}
  0
ENDSEC
  0
EOF
