  0
SECTION
  2
HEADER
  9
$ACADVER
  1
AC1014
  9
$ACADMAINTVER
 70
     9
  9
$DWGCODEPAGE
  3
ANSI_932
  9
$INSBASE
 10
0.0
 20
0.0
 30
0.0
  9
$EXTMIN
 10
0.0
 20
0.0
 30
0.0
  9
$EXTMAX
 10
420.0
 20
297.0
 30
0.0
  9
$LIMMIN
 10
0.0
 20
0.0
  9
$LIMMAX
 10
420.0
 20
297.0
  9
$ORTHOMODE
 70
     0
  9
$REGENMODE
 70
     1
  9
$FILLMODE
 70
     1
  9
$QTEXTMODE
 70
     0
  9
$MIRRTEXT
 70
     1
  9
$DRAGMODE
 70
     2
  9
$LTSCALE
 40
1.0
  9
$OSMODE
 70
    37
  9
$ATTMODE
 70
     1
  9
$TEXTSIZE
 40
0.2
  9
$TRACEWID
 40
0.05
  9
$TEXTSTYLE
  7
STYLE1
  9
$CLAYER
  8
0
  9
$CELTYPE
  6
BYLAYER
  9
$CECOLOR
 62
   256
  9
$CELTSCALE
 40
1.0
  9
$DELOBJ
 70
     1
  9
$DISPSILH
 70
     0
  9
$DIMSCALE
 40
1.0
  9
$DIMASZ
 40
4.0
  9
$DIMEXO
 40
1.0
  9
$DIMDLI
 40
10.0
  9
$DIMRND
 40
0.0
  9
$DIMDLE
 40
6.0
  9
$DIMEXE
 40
1.0
  9
$DIMTP
 40
0.0
  9
$DIMTM
 40
0.0
  9
$DIMTXT
 40
4.0
  9
$DIMCEN
 40
2.5
  9
$DIMTSZ
 40
0.0
  9
$DIMTOL
 70
     0
  9
$DIMLIM
 70
     0
  9
$DIMTIH
 70
     0
  9
$DIMTOH
 70
     0
  9
$DIMSE1
 70
     0
  9
$DIMSE2
 70
     0
  9
$DIMTAD
 70
     1
  9
$DIMZIN
 70
     8
  9
$DIMBLK
  1

  9
$DIMASO
 70
     1
  9
$DIMSHO
 70
     1
  9
$DIMPOST
  1

  9
$DIMAPOST
  1

  9
$DIMALT
 70
     0
  9
$DIMALTD
 70
     3
  9
$DIMALTF
 40
0.03937
  9
$DIMLFAC
 40
1.0
  9
$DIMTOFL
 70
     1
  9
$DIMTVP
 40
0.0
  9
$DIMTIX
 70
     0
  9
$DIMSOXD
 70
     0
  9
$DIMSAH
 70
     1
  9
$DIMBLK1
  1
FXTIP_ARROW_S
  9
$DIMBLK2
  1
FXTIP_ARROW_E
  9
$DIMSTYLE
  2
FXDIMINFO
  9
$DIMCLRD
 70
     7
  9
$DIMCLRE
 70
     7
  9
$DIMCLRT
 70
     7
  9
$DIMTFAC
 40
1.0
  9
$DIMGAP
 40
1.0
  9
$DIMJUST
 70
     0
  9
$DIMSD1
 70
     0
  9
$DIMSD2
 70
     0
  9
$DIMTOLJ
 70
     0
  9
$DIMTZIN
 70
     8
  9
$DIMALTZ
 70
     0
  9
$DIMALTTZ
 70
     0
  9
$DIMFIT
 70
     3
  9
$DIMUPT
 70
     0
  9
$DIMUNIT
 70
     2
  9
$DIMDEC
 70
     2
  9
$DIMTDEC
 70
     2
  9
$DIMALTU
 70
     2
  9
$DIMALTTD
 70
     3
  9
$DIMTXSTY
  7
STYLE1
  9
$DIMAUNIT
 70
     0
  9
$LUNITS
 70
     2
  9
$LUPREC
 70
     4
  9
$SKETCHINC
 40
0.1
  9
$FILLETRAD
 40
0.5
  9
$AUNITS
 70
     0
  9
$AUPREC
 70
     0
  9
$MENU
  1
.
  9
$ELEVATION
 40
0.0
  9
$PELEVATION
 40
0.0
  9
$THICKNESS
 40
0.0
  9
$LIMCHECK
 70
     0
  9
$CHAMFERA
 40
0.5
  9
$CHAMFERB
 40
0.5
  9
$CHAMFERC
 40
1.0
  9
$CHAMFERD
 40
0.0
  9
$SKPOLY
 70
     0
  9
$TDCREATE
 40
2455301.476307708
  9
$TDUPDATE
 40
2455301.47630772
  9
$TDINDWG
 40
0.0000000116
  9
$TDUSRTIMER
 40
0.0000000116
  9
$USRTIMER
 70
     1
  9
$ANGBASE
 50
0.0
  9
$ANGDIR
 70
     0
  9
$PDMODE
 70
     0
  9
$PDSIZE
 40
0.0
  9
$PLINEWID
 40
0.0
  9
$COORDS
 70
     1
  9
$SPLFRAME
 70
     0
  9
$SPLINETYPE
 70
     6
  9
$SPLINESEGS
 70
     8
  9
$ATTDIA
 70
     0
  9
$ATTREQ
 70
     1
  9
$HANDLING
 70
     1
  9
$HANDSEED
  5
294
  9
$SURFTAB1
 70
     6
  9
$SURFTAB2
 70
     6
  9
$SURFTYPE
 70
     6
  9
$SURFU
 70
     6
  9
$SURFV
 70
     6
  9
$UCSNAME
  2

  9
$UCSORG
 10
0.0
 20
0.0
 30
0.0
  9
$UCSXDIR
 10
1.0
 20
0.0
 30
0.0
  9
$UCSYDIR
 10
0.0
 20
1.0
 30
0.0
  9
$PUCSNAME
  2

  9
$PUCSORG
 10
0.0
 20
0.0
 30
0.0
  9
$PUCSXDIR
 10
1.0
 20
0.0
 30
0.0
  9
$PUCSYDIR
 10
0.0
 20
1.0
 30
0.0
  9
$USERI1
 70
     0
  9
$USERI2
 70
     0
  9
$USERI3
 70
     0
  9
$USERI4
 70
     0
  9
$USERI5
 70
     0
  9
$USERR1
 40
0.0
  9
$USERR2
 40
0.0
  9
$USERR3
 40
0.0
  9
$USERR4
 40
0.0
  9
$USERR5
 40
0.0
  9
$WORLDVIEW
 70
     1
  9
$SHADEDGE
 70
     3
  9
$SHADEDIF
 70
    70
  9
$TILEMODE
 70
     1
  9
$MAXACTVP
 70
    64
  9
$PINSBASE
 10
0.0
 20
0.0
 30
0.0
  9
$PLIMCHECK
 70
     0
  9
$PEXTMIN
 10
1.000000E+20
 20
1.000000E+20
 30
1.000000E+20
  9
$PEXTMAX
 10
-1.000000E+20
 20
-1.000000E+20
 30
-1.000000E+20
  9
$PLIMMIN
 10
0.0
 20
0.0
  9
$PLIMMAX
 10
12.0
 20
9.0
  9
$UNITMODE
 70
     0
  9
$VISRETAIN
 70
     1
  9
$PLINEGEN
 70
     0
  9
$PSLTSCALE
 70
     1
  9
$TREEDEPTH
 70
  3020
  9
$PICKSTYLE
 70
     1
  9
$CMLSTYLE
  2
STANDARD
  9
$CMLJUST
 70
     0
  9
$CMLSCALE
 40
1.0
  9
$PROXYGRAPHICS
 70
     1
  9
$MEASUREMENT
 70
     0
  0
ENDSEC
  0
SECTION
  2
CLASSES
  0
CLASS
  1
ACDBDICTIONARYWDFLT
  2
AcDbDictionaryWithDefault
  3
ObjectDBX Classes
 90
        0
280
     0
281
     0
  0
CLASS
  1
XRECORD
  2
AcDbXrecord
  3
AutoCAD 2000
 90
        0
280
     0
281
     0
  0
CLASS
  1
LWPOLYLINE
  2
AcDbPolyline
  3
AutoCAD 2000
 90
        0
280
     0
281
     1
  0
CLASS
  1
HATCH
  2
AcDbHatch
  3
AutoCAD 2000
 90
        0
280
     0
281
     1
  0
CLASS
  1
ACDBPLACEHOLDER
  2
AcDbPlaceHolder
  3
ObjectDBX Classes
 90
        0
280
     0
281
     0
  0
CLASS
  1
LAYOUT
  2
AcDbLayout
  3
ObjectDBX Classes
 90
        0
280
     0
281
     0
  0
ENDSEC
  0
SECTION
  2
TABLES
  0
TABLE
  2
VPORT
  5
8
330
0
100
AcDbSymbolTable
 70
     1
  0
VPORT
  5
29
330
8
100
AcDbSymbolTableRecord
100
AcDbViewportTableRecord
  2
*ACTIVE
 70
     0
 10
0.0
 20
0.0
 11
1.0
 21
1.0
 12
210.0
 22
148.5
 13
0.0
 23
0.0
 14
0.5
 24
0.5
 15
0.5
 25
0.5
 16
0.0
 26
0.0
 36
1.0
 17
0.0
 27
0.0
 37
0.0
 40
297.0
 41
1.414141
 42
50.0
 43
0.0
 44
0.0
 50
0.0
 51
0.0
 71
     0
 72
   100
 73
     1
 74
     3
 75
     0
 76
     0
 77
     0
 78
     0
  0
ENDTAB
  0
TABLE
  2
LTYPE
  5
5
330
0
100
AcDbSymbolTable
 70
     4
  0
LTYPE
  5
14
330
5
100
AcDbSymbolTableRecord
100
AcDbLinetypeTableRecord
  2
BYBLOCK
 70
     0
  3

 72
    65
 73
     0
 40
0.0
  0
LTYPE
  5
15
330
5
100
AcDbSymbolTableRecord
100
AcDbLinetypeTableRecord
  2
BYLAYER
 70
     0
  3

 72
    65
 73
     0
 40
0.0
  0
LTYPE
  5
16
330
5
100
AcDbSymbolTableRecord
100
AcDbLinetypeTableRecord
  2
CONTINUOUS
 70
     0
  3
--------------------
 72
    65
 73
     0
 40
0.0
  0
LTYPE
  5
2A
330
5
100
AcDbSymbolTableRecord
100
AcDbLinetypeTableRecord
  2
CENTER
 70
     0
  3
Center ____ _ ____ _ ____ _ ____ _ ____ _ ____
 72
    65
 73
     4
 40
13.0
 49
10.0
 74
     0
 49
-1.0
 74
     0
 49
1.0
 74
     0
 49
-1.0
 74
     0
  0
ENDTAB
  0
TABLE
  2
LAYER
  5
2
330
0
100
AcDbSymbolTable
 70
    20
  0
LAYER
  5
10
330
2
100
AcDbSymbolTableRecord
100
AcDbLayerTableRecord
  2
0
 70
     0
 62
     7
  6
CONTINUOUS
  0
LAYER
  5
2D
330
2
100
AcDbSymbolTableRecord
100
AcDbLayerTableRecord
  2
LAYERGROUP-1
 70
     0
 62
     3
  6
CONTINUOUS
  0
LAYER
  5
3D
330
2
100
AcDbSymbolTableRecord
100
AcDbLayerTableRecord
  2
}}ﾊﾊGG血CCТ
 70
     0
 62
     3
  6
CONTINUOUS
  0
LAYER
  5
A8
330
2
100
AcDbSymbolTableRecord
100
AcDbLayerTableRecord
  2
GR1-1
 70
     0
 62
     7
  6
CONTINUOUS
  0
LAYER
  5
256
330
2
100
AcDbSymbolTableRecord
100
AcDbLayerTableRecord
  2
0-1
 70
     0
 62
     7
  6
CONTINUOUS
  0
ENDTAB
  0
TABLE
  2
STYLE
  5
3
330
0
100
AcDbSymbolTable
 70
     4
  0
STYLE
  5
11
330
3
100
AcDbSymbolTableRecord
100
AcDbTextStyleTableRecord
  2
STANDARD
 70
     0
 40
0.0
 41
1.0
 50
0.0
 71
     0
 42
0.2
  3
txt
  4

  0
STYLE
  5
3F
330
3
100
AcDbSymbolTableRecord
100
AcDbTextStyleTableRecord
  2
STYLE1
 70
     0
 40
0.0
 41
1.0
 50
0.0
 71
     0
 42
0.2
  3
MONOTXT.SHX
  4
extfont.shx
  0
STYLE
  5
40
330
3
100
AcDbSymbolTableRecord
100
AcDbTextStyleTableRecord
  2
FX_VECTOR
 70
     0
 40
0.0
 41
1.0
 50
0.0
 71
     0
 42
0.2
  3
MONOTXT.SHX
  4
BIGFONT.SHX
  0
ENDTAB
  0
TABLE
  2
VIEW
  5
6
330
0
100
AcDbSymbolTable
 70
     0
  0
ENDTAB
  0
TABLE
  2
UCS
  5
7
330
0
100
AcDbSymbolTable
 70
     0
  0
ENDTAB
  0
TABLE
  2
APPID
  5
9
330
0
100
AcDbSymbolTable
 70
     1
  0
APPID
  5
12
330
9
100
AcDbSymbolTableRecord
100
AcDbRegAppTableRecord
  2
ACAD
 70
     0
  0
ENDTAB
  0
TABLE
  2
DIMSTYLE
  5
A
330
0
100
AcDbSymbolTable
 70
     2
  0
DIMSTYLE
105
27
330
A
100
AcDbSymbolTableRecord
100
AcDbDimStyleTableRecord
  2
STANDARD
 70
     0
  3

  4

  5

  6

  7

 40
1.0
 41
0.18
 42
0.0625
 43
0.38
 44
0.18
 45
0.0
 46
0.0
 47
0.0
 48
0.0
140
0.18
141
0.09
142
0.0
143
25.4
144
1.0
145
0.0
146
1.0
147
0.09
 71
     0
 72
     0
 73
     1
 74
     1
 75
     0
 76
     0
 77
     0
 78
     0
170
     0
171
     2
172
     0
173
     0
174
     0
175
     0
176
     0
177
     0
178
     0
270
     2
271
     4
272
     4
273
     2
274
     2
340
11
275
     0
280
     0
281
     0
282
     0
283
     1
284
     0
285
     0
286
     0
287
     3
288
     0
  0
DIMSTYLE
105
A7
102
{ACAD_REACTORS
330
21C
330
226
330
230
330
23A
102
}
330
A
100
AcDbSymbolTableRecord
100
AcDbDimStyleTableRecord
  2
FXDIMINFO
 70
     0
  3

  4

  5

  6
FXTIP_ARROW_S
  7
FXTIP_ARROW_E
 40
1.0
 41
4.0
 42
1.0
 43
10.0
 44
1.0
 45
0.0
 46
6.0
 47
0.0
 48
0.0
140
4.0
141
2.5
142
0.0
143
0.03937
144
1.0
145
0.0
146
1.0
147
1.0
 71
     0
 72
     0
 73
     0
 74
     0
 75
     0
 76
     0
 77
     1
 78
     8
170
     0
171
     3
172
     1
173
     1
174
     0
175
     0
176
     7
177
     7
178
     7
179
     2
270
     2
271
     2
272
     2
273
     2
274
     3
340
3F
275
     0
280
     0
281
     0
282
     0
283
     0
284
     8
285
     0
286
     0
287
     3
288
     0
  0
ENDTAB
  0
TABLE
  2
BLOCK_RECORD
  5
1
330
0
100
AcDbSymbolTable
 70
    27
  0
BLOCK_RECORD
  5
1F
330
1
100
AcDbSymbolTableRecord
100
AcDbBlockTableRecord
  2
*MODEL_SPACE
  0
BLOCK_RECORD
  5
1B
330
1
100
AcDbSymbolTableRecord
100
AcDbBlockTableRecord
  2
*PAPER_SPACE
  0
BLOCK_RECORD
  5
41
330
1
100
AcDbSymbolTableRecord
100
AcDbBlockTableRecord
  2
FXTIP_ARROW_S
  0
BLOCK_RECORD
  5
47
330
1
100
AcDbSymbolTableRecord
100
AcDbBlockTableRecord
  2
FXTIP_ARROW_E
  0
BLOCK_RECORD
  5
4D
330
1
100
AcDbSymbolTableRecord
100
AcDbBlockTableRecord
  2
FXTIP_BLACKDOT_S
  0
BLOCK_RECORD
  5
53
330
1
100
AcDbSymbolTableRecord
100
AcDbBlockTableRecord
  2
FXTIP_BLACKDOT_E
  0
BLOCK_RECORD
  5
59
330
1
100
AcDbSymbolTableRecord
100
AcDbBlockTableRecord
  2
FXTIP_TRIANGLE_S
  0
BLOCK_RECORD
  5
60
330
1
100
AcDbSymbolTableRecord
100
AcDbBlockTableRecord
  2
FXTIP_TRIANGLE_E
  0
BLOCK_RECORD
  5
67
330
1
100
AcDbSymbolTableRecord
100
AcDbBlockTableRecord
  2
FXTIP_ARCHITECT_S
  0
BLOCK_RECORD
  5
6D
330
1
100
AcDbSymbolTableRecord
100
AcDbBlockTableRecord
  2
FXTIP_ARCHITECT_E
  0
BLOCK_RECORD
  5
73
330
1
100
AcDbSymbolTableRecord
100
AcDbBlockTableRecord
  2
FXTIP_CIVIL_S
  0
BLOCK_RECORD
  5
79
330
1
100
AcDbSymbolTableRecord
100
AcDbBlockTableRecord
  2
FXTIP_CIVIL_E
  0
BLOCK_RECORD
  5
7F
330
1
100
AcDbSymbolTableRecord
100
AcDbBlockTableRecord
  2
FXTIP_WHITEDOT_S
  0
BLOCK_RECORD
  5
84
330
1
100
AcDbSymbolTableRecord
100
AcDbBlockTableRecord
  2
FXTIP_WHITEDOT_E
  0
BLOCK_RECORD
  5
89
330
1
100
AcDbSymbolTableRecord
100
AcDbBlockTableRecord
  2
FXTIP_UPARROW_S
  0
BLOCK_RECORD
  5
8E
330
1
100
AcDbSymbolTableRecord
100
AcDbBlockTableRecord
  2
FXTIP_UPARROW_E
  0
BLOCK_RECORD
  5
93
330
1
100
AcDbSymbolTableRecord
100
AcDbBlockTableRecord
  2
FXTIP_DOWNARROW_S
  0
BLOCK_RECORD
  5
98
330
1
100
AcDbSymbolTableRecord
100
AcDbBlockTableRecord
  2
FXTIP_DOWNARROW_E
  0
BLOCK_RECORD
  5
9D
330
1
100
AcDbSymbolTableRecord
100
AcDbBlockTableRecord
  2
FXTIP_BLACKTRIANGLE_S
  0
BLOCK_RECORD
  5
A2
330
1
100
AcDbSymbolTableRecord
100
AcDbBlockTableRecord
  2
FXTIP_BLACKTRIANGLE_E
  0
BLOCK_RECORD
  5
C0
330
1
100
AcDbSymbolTableRecord
100
AcDbBlockTableRecord
  2
BLKF021
  0
BLOCK_RECORD
  5
21D
330
1
100
AcDbSymbolTableRecord
100
AcDbBlockTableRecord
  2
*D20
  0
BLOCK_RECORD
  5
227
330
1
100
AcDbSymbolTableRecord
100
AcDbBlockTableRecord
  2
*D21
  0
BLOCK_RECORD
  5
231
330
1
100
AcDbSymbolTableRecord
100
AcDbBlockTableRecord
  2
*D22
  0
BLOCK_RECORD
  5
23B
330
1
100
AcDbSymbolTableRecord
100
AcDbBlockTableRecord
  2
*D23
  0
BLOCK_RECORD
  5
246
330
1
100
AcDbSymbolTableRecord
100
AcDbBlockTableRecord
  2
BLKF026
  0
BLOCK_RECORD
  5
252
330
1
100
AcDbSymbolTableRecord
100
AcDbBlockTableRecord
  2
BLKF027
  0
BLOCK_RECORD
  5
25B
330
1
100
AcDbSymbolTableRecord
100
AcDbBlockTableRecord
  2
BLKF028
  0
ENDTAB
  0
ENDSEC
  0
SECTION
  2
BLOCKS
  0
BLOCK
  5
20
330
1F
100
AcDbEntity
  8
0
100
AcDbBlockBegin
  2
*MODEL_SPACE
 70
     0
 71
     0
 10
0.0
 20
0.0
 30
0.0
  3
*MODEL_SPACE
  1

  0
ENDBLK
  5
21
330
1F
100
AcDbEntity
  8
0
100
AcDbBlockEnd
  0
BLOCK
  5
1C
330
1B
100
AcDbEntity
 67
     1
  8
0
100
AcDbBlockBegin
  2
*PAPER_SPACE
 70
     0
 71
     0
 10
0.0
 20
0.0
 30
0.0
  3
*PAPER_SPACE
  1

  0
ENDBLK
  5
1D
330
1B
100
AcDbEntity
 67
     1
  8
0
100
AcDbBlockEnd
  0
BLOCK
  5
42
330
41
100
AcDbEntity
  8
0
100
AcDbBlockBegin
  2
FXTIP_ARROW_S
 70
     0
 71
     0
 10
0.0
 20
0.0
 30
0.0
  3
FXTIP_ARROW_S
  1

  0
LINE
  5
44
330
41
100
AcDbEntity
  8
0
  6
CONTINUOUS
 62
     0
100
AcDbLine
 10
0.0
 20
0.0
 30
0.0
 11
-1.0
 21
0.0
 31
0.0
  0
LINE
  5
45
330
41
100
AcDbEntity
  8
0
  6
CONTINUOUS
 62
     0
100
AcDbLine
 10
0.0
 20
0.0
 30
0.0
 11
-0.965926
 21
-0.258819
 31
0.0
  0
LINE
  5
46
330
41
100
AcDbEntity
  8
0
  6
CONTINUOUS
 62
     0
100
AcDbLine
 10
0.0
 20
0.0
 30
0.0
 11
-0.965926
 21
0.258819
 31
0.0
  0
ENDBLK
  5
43
330
41
100
AcDbEntity
  8
0
100
AcDbBlockEnd
  0
BLOCK
  5
48
330
47
100
AcDbEntity
  8
0
100
AcDbBlockBegin
  2
FXTIP_ARROW_E
 70
     0
 71
     0
 10
0.0
 20
0.0
 30
0.0
  3
FXTIP_ARROW_E
  1

  0
LINE
  5
4A
330
47
100
AcDbEntity
  8
0
  6
CONTINUOUS
 62
     0
100
AcDbLine
 10
0.0
 20
0.0
 30
0.0
 11
-1.0
 21
0.0
 31
0.0
  0
LINE
  5
4B
330
47
100
AcDbEntity
  8
0
  6
CONTINUOUS
 62
     0
100
AcDbLine
 10
0.0
 20
0.0
 30
0.0
 11
-0.965926
 21
0.258819
 31
0.0
  0
LINE
  5
4C
330
47
100
AcDbEntity
  8
0
  6
CONTINUOUS
 62
     0
100
AcDbLine
 10
0.0
 20
0.0
 30
0.0
 11
-0.965926
 21
-0.258819
 31
0.0
  0
ENDBLK
  5
49
330
47
100
AcDbEntity
  8
0
100
AcDbBlockEnd
  0
BLOCK
  5
4E
330
4D
100
AcDbEntity
  8
0
100
AcDbBlockBegin
  2
FXTIP_BLACKDOT_S
 70
     0
 71
     0
 10
0.0
 20
0.0
 30
0.0
  3
FXTIP_BLACKDOT_S
  1

  0
LINE
  5
50
330
4D
100
AcDbEntity
  8
0
  6
CONTINUOUS
 62
     0
100
AcDbLine
 10
0.0
 20
0.0
 30
0.0
 11
-1.0
 21
0.0
 31
0.0
  0
LWPOLYLINE
  5
51
330
4D
100
AcDbEntity
  8
0
  6
CONTINUOUS
 62
     0
100
AcDbPolyline
 90
        2
 70
     1
 10
-0.25
 20
0.0
 40
0.5
 41
0.5
 42
1.0
 10
0.25
 20
0.0
 40
0.5
 41
0.5
 42
1.0
  0
CIRCLE
  5
52
330
4D
100
AcDbEntity
  8
0
  6
CONTINUOUS
 62
     0
100
AcDbCircle
 10
0.0
 20
0.0
 30
0.0
 40
0.5
  0
ENDBLK
  5
4F
330
4D
100
AcDbEntity
  8
0
100
AcDbBlockEnd
  0
BLOCK
  5
54
330
53
100
AcDbEntity
  8
0
100
AcDbBlockBegin
  2
FXTIP_BLACKDOT_E
 70
     0
 71
     0
 10
0.0
 20
0.0
 30
0.0
  3
FXTIP_BLACKDOT_E
  1

  0
LINE
  5
56
330
53
100
AcDbEntity
  8
0
  6
CONTINUOUS
 62
     0
100
AcDbLine
 10
0.0
 20
0.0
 30
0.0
 11
-1.0
 21
0.0
 31
0.0
  0
LWPOLYLINE
  5
57
330
53
100
AcDbEntity
  8
0
  6
CONTINUOUS
 62
     0
100
AcDbPolyline
 90
        2
 70
     1
 10
-0.25
 20
0.0
 40
0.5
 41
0.5
 42
1.0
 10
0.25
 20
0.0
 40
0.5
 41
0.5
 42
1.0
  0
CIRCLE
  5
58
330
53
100
AcDbEntity
  8
0
  6
CONTINUOUS
 62
     0
100
AcDbCircle
 10
0.0
 20
0.0
 30
0.0
 40
0.5
  0
ENDBLK
  5
55
330
53
100
AcDbEntity
  8
0
100
AcDbBlockEnd
  0
BLOCK
  5
5A
330
59
100
AcDbEntity
  8
0
100
AcDbBlockBegin
  2
FXTIP_TRIANGLE_S
 70
     0
 71
     0
 10
0.0
 20
0.0
 30
0.0
  3
FXTIP_TRIANGLE_S
  1

  0
LINE
  5
5C
330
59
100
AcDbEntity
  8
0
  6
CONTINUOUS
 62
     0
100
AcDbLine
 10
0.0
 20
0.0
 30
0.0
 11
-1.0
 21
0.0
 31
0.0
  0
LINE
  5
5D
330
59
100
AcDbEntity
  8
0
  6
CONTINUOUS
 62
     0
100
AcDbLine
 10
0.0
 20
0.0
 30
0.0
 11
-0.965926
 21
-0.258819
 31
0.0
  0
LINE
  5
5E
330
59
100
AcDbEntity
  8
0
  6
CONTINUOUS
 62
     0
100
AcDbLine
 10
0.0
 20
0.0
 30
0.0
 11
-0.965926
 21
0.258819
 31
0.0
  0
LINE
  5
5F
330
59
100
AcDbEntity
  8
0
  6
CONTINUOUS
 62
     0
100
AcDbLine
 10
-0.965926
 20
-0.258819
 30
0.0
 11
-0.965926
 21
0.258819
 31
0.0
  0
ENDBLK
  5
5B
330
59
100
AcDbEntity
  8
0
100
AcDbBlockEnd
  0
BLOCK
  5
61
330
60
100
AcDbEntity
  8
0
100
AcDbBlockBegin
  2
FXTIP_TRIANGLE_E
 70
     0
 71
     0
 10
0.0
 20
0.0
 30
0.0
  3
FXTIP_TRIANGLE_E
  1

  0
LINE
  5
63
330
60
100
AcDbEntity
  8
0
  6
CONTINUOUS
 62
     0
100
AcDbLine
 10
0.0
 20
0.0
 30
0.0
 11
-1.0
 21
0.0
 31
0.0
  0
LINE
  5
64
330
60
100
AcDbEntity
  8
0
  6
CONTINUOUS
 62
     0
100
AcDbLine
 10
0.0
 20
0.0
 30
0.0
 11
-0.965926
 21
0.258819
 31
0.0
  0
LINE
  5
65
330
60
100
AcDbEntity
  8
0
  6
CONTINUOUS
 62
     0
100
AcDbLine
 10
0.0
 20
0.0
 30
0.0
 11
-0.965926
 21
-0.258819
 31
0.0
  0
LINE
  5
66
330
60
100
AcDbEntity
  8
0
  6
CONTINUOUS
 62
     0
100
AcDbLine
 10
-0.965926
 20
0.258819
 30
0.0
 11
-0.965926
 21
-0.258819
 31
0.0
  0
ENDBLK
  5
62
330
60
100
AcDbEntity
  8
0
100
AcDbBlockEnd
  0
BLOCK
  5
68
330
67
100
AcDbEntity
  8
0
100
AcDbBlockBegin
  2
FXTIP_ARCHITECT_S
 70
     0
 71
     0
 10
0.0
 20
0.0
 30
0.0
  3
FXTIP_ARCHITECT_S
  1

  0
LINE
  5
6A
330
67
100
AcDbEntity
  8
0
  6
CONTINUOUS
 62
     0
100
AcDbLine
 10
0.0
 20
0.0
 30
0.0
 11
-1.0
 21
0.0
 31
0.0
  0
LINE
  5
6B
330
67
100
AcDbEntity
  8
0
  6
CONTINUOUS
 62
     0
100
AcDbLine
 10
0.0
 20
0.0
 30
0.0
 11
-0.707107
 21
-0.707107
 31
0.0
  0
LINE
  5
6C
330
67
100
AcDbEntity
  8
0
  6
CONTINUOUS
 62
     0
100
AcDbLine
 10
0.0
 20
0.0
 30
0.0
 11
0.707107
 21
0.707107
 31
0.0
  0
ENDBLK
  5
69
330
67
100
AcDbEntity
  8
0
100
AcDbBlockEnd
  0
BLOCK
  5
6E
330
6D
100
AcDbEntity
  8
0
100
AcDbBlockBegin
  2
FXTIP_ARCHITECT_E
 70
     0
 71
     0
 10
0.0
 20
0.0
 30
0.0
  3
FXTIP_ARCHITECT_E
  1

  0
LINE
  5
70
330
6D
100
AcDbEntity
  8
0
  6
CONTINUOUS
 62
     0
100
AcDbLine
 10
0.0
 20
0.0
 30
0.0
 11
-1.0
 21
0.0
 31
0.0
  0
LINE
  5
71
330
6D
100
AcDbEntity
  8
0
  6
CONTINUOUS
 62
     0
100
AcDbLine
 10
0.0
 20
0.0
 30
0.0
 11
0.707107
 21
0.707107
 31
0.0
  0
LINE
  5
72
330
6D
100
AcDbEntity
  8
0
  6
CONTINUOUS
 62
     0
100
AcDbLine
 10
0.0
 20
0.0
 30
0.0
 11
-0.707107
 21
-0.707107
 31
0.0
  0
ENDBLK
  5
6F
330
6D
100
AcDbEntity
  8
0
100
AcDbBlockEnd
  0
BLOCK
  5
74
330
73
100
AcDbEntity
  8
0
100
AcDbBlockBegin
  2
FXTIP_CIVIL_S
 70
     0
 71
     0
 10
0.0
 20
0.0
 30
0.0
  3
FXTIP_CIVIL_S
  1

  0
LINE
  5
76
330
73
100
AcDbEntity
  8
0
  6
CONTINUOUS
 62
     0
100
AcDbLine
 10
0.0
 20
0.0
 30
0.0
 11
-1.0
 21
0.0
 31
0.0
  0
LINE
  5
77
330
73
100
AcDbEntity
  8
0
  6
CONTINUOUS
 62
     0
100
AcDbLine
 10
0.0
 20
-0.0625
 30
0.0
 11
-1.0
 21
-0.0625
 31
0.0
  0
LINE
  5
78
330
73
100
AcDbEntity
  8
0
  6
CONTINUOUS
 62
     0
100
AcDbLine
 10
0.0
 20
-0.125
 30
0.0
 11
-1.0
 21
-0.125
 31
0.0
  0
ENDBLK
  5
75
330
73
100
AcDbEntity
  8
0
100
AcDbBlockEnd
  0
BLOCK
  5
7A
330
79
100
AcDbEntity
  8
0
100
AcDbBlockBegin
  2
FXTIP_CIVIL_E
 70
     0
 71
     0
 10
0.0
 20
0.0
 30
0.0
  3
FXTIP_CIVIL_E
  1

  0
LINE
  5
7C
330
79
100
AcDbEntity
  8
0
  6
CONTINUOUS
 62
     0
100
AcDbLine
 10
0.0
 20
0.0
 30
0.0
 11
-1.0
 21
0.0
 31
0.0
  0
LINE
  5
7D
330
79
100
AcDbEntity
  8
0
  6
CONTINUOUS
 62
     0
100
AcDbLine
 10
0.0
 20
0.0625
 30
0.0
 11
-1.0
 21
0.0625
 31
0.0
  0
LINE
  5
7E
330
79
100
AcDbEntity
  8
0
  6
CONTINUOUS
 62
     0
100
AcDbLine
 10
0.0
 20
0.125
 30
0.0
 11
-1.0
 21
0.125
 31
0.0
  0
ENDBLK
  5
7B
330
79
100
AcDbEntity
  8
0
100
AcDbBlockEnd
  0
BLOCK
  5
80
330
7F
100
AcDbEntity
  8
0
100
AcDbBlockBegin
  2
FXTIP_WHITEDOT_S
 70
     0
 71
     0
 10
0.0
 20
0.0
 30
0.0
  3
FXTIP_WHITEDOT_S
  1

  0
LINE
  5
82
330
7F
100
AcDbEntity
  8
0
  6
CONTINUOUS
 62
     0
100
AcDbLine
 10
0.0
 20
0.0
 30
0.0
 11
-1.0
 21
0.0
 31
0.0
  0
CIRCLE
  5
83
330
7F
100
AcDbEntity
  8
0
  6
CONTINUOUS
 62
     0
100
AcDbCircle
 10
0.0
 20
0.0
 30
0.0
 40
0.5
  0
ENDBLK
  5
81
330
7F
100
AcDbEntity
  8
0
100
AcDbBlockEnd
  0
BLOCK
  5
85
330
84
100
AcDbEntity
  8
0
100
AcDbBlockBegin
  2
FXTIP_WHITEDOT_E
 70
     0
 71
     0
 10
0.0
 20
0.0
 30
0.0
  3
FXTIP_WHITEDOT_E
  1

  0
LINE
  5
87
330
84
100
AcDbEntity
  8
0
  6
CONTINUOUS
 62
     0
100
AcDbLine
 10
0.0
 20
0.0
 30
0.0
 11
-1.0
 21
0.0
 31
0.0
  0
CIRCLE
  5
88
330
84
100
AcDbEntity
  8
0
  6
CONTINUOUS
 62
     0
100
AcDbCircle
 10
0.0
 20
0.0
 30
0.0
 40
0.5
  0
ENDBLK
  5
86
330
84
100
AcDbEntity
  8
0
100
AcDbBlockEnd
  0
BLOCK
  5
8A
330
89
100
AcDbEntity
  8
0
100
AcDbBlockBegin
  2
FXTIP_UPARROW_S
 70
     0
 71
     0
 10
0.0
 20
0.0
 30
0.0
  3
FXTIP_UPARROW_S
  1

  0
LINE
  5
8C
330
89
100
AcDbEntity
  8
0
  6
CONTINUOUS
 62
     0
100
AcDbLine
 10
0.0
 20
0.0
 30
0.0
 11
-1.0
 21
0.0
 31
0.0
  0
LINE
  5
8D
330
89
100
AcDbEntity
  8
0
  6
CONTINUOUS
 62
     0
100
AcDbLine
 10
0.0
 20
0.0
 30
0.0
 11
-0.965926
 21
-0.258819
 31
0.0
  0
ENDBLK
  5
8B
330
89
100
AcDbEntity
  8
0
100
AcDbBlockEnd
  0
BLOCK
  5
8F
330
8E
100
AcDbEntity
  8
0
100
AcDbBlockBegin
  2
FXTIP_UPARROW_E
 70
     0
 71
     0
 10
0.0
 20
0.0
 30
0.0
  3
FXTIP_UPARROW_E
  1

  0
LINE
  5
91
330
8E
100
AcDbEntity
  8
0
  6
CONTINUOUS
 62
     0
100
AcDbLine
 10
0.0
 20
0.0
 30
0.0
 11
-1.0
 21
0.0
 31
0.0
  0
LINE
  5
92
330
8E
100
AcDbEntity
  8
0
  6
CONTINUOUS
 62
     0
100
AcDbLine
 10
0.0
 20
0.0
 30
0.0
 11
-0.965926
 21
0.258819
 31
0.0
  0
ENDBLK
  5
90
330
8E
100
AcDbEntity
  8
0
100
AcDbBlockEnd
  0
BLOCK
  5
94
330
93
100
AcDbEntity
  8
0
100
AcDbBlockBegin
  2
FXTIP_DOWNARROW_S
 70
     0
 71
     0
 10
0.0
 20
0.0
 30
0.0
  3
FXTIP_DOWNARROW_S
  1

  0
LINE
  5
96
330
93
100
AcDbEntity
  8
0
  6
CONTINUOUS
 62
     0
100
AcDbLine
 10
0.0
 20
0.0
 30
0.0
 11
-1.0
 21
0.0
 31
0.0
  0
LINE
  5
97
330
93
100
AcDbEntity
  8
0
  6
CONTINUOUS
 62
     0
100
AcDbLine
 10
0.0
 20
0.0
 30
0.0
 11
-0.965926
 21
0.258819
 31
0.0
  0
ENDBLK
  5
95
330
93
100
AcDbEntity
  8
0
100
AcDbBlockEnd
  0
BLOCK
  5
99
330
98
100
AcDbEntity
  8
0
100
AcDbBlockBegin
  2
FXTIP_DOWNARROW_E
 70
     0
 71
     0
 10
0.0
 20
0.0
 30
0.0
  3
FXTIP_DOWNARROW_E
  1

  0
LINE
  5
9B
330
98
100
AcDbEntity
  8
0
  6
CONTINUOUS
 62
     0
100
AcDbLine
 10
0.0
 20
0.0
 30
0.0
 11
-1.0
 21
0.0
 31
0.0
  0
LINE
  5
9C
330
98
100
AcDbEntity
  8
0
  6
CONTINUOUS
 62
     0
100
AcDbLine
 10
0.0
 20
0.0
 30
0.0
 11
-0.965926
 21
-0.258819
 31
0.0
  0
ENDBLK
  5
9A
330
98
100
AcDbEntity
  8
0
100
AcDbBlockEnd
  0
BLOCK
  5
9E
330
9D
100
AcDbEntity
  8
0
100
AcDbBlockBegin
  2
FXTIP_BLACKTRIANGLE_S
 70
     0
 71
     0
 10
0.0
 20
0.0
 30
0.0
  3
FXTIP_BLACKTRIANGLE_S
  1

  0
LINE
  5
A0
330
9D
100
AcDbEntity
  8
0
  6
CONTINUOUS
 62
     0
100
AcDbLine
 10
0.0
 20
0.0
 30
0.0
 11
-1.0
 21
0.0
 31
0.0
  0
SOLID
  5
A1
330
9D
100
AcDbEntity
  8
0
  6
CONTINUOUS
 62
     0
100
AcDbTrace
 10
0.0
 20
0.0
 30
0.0
 11
-0.965926
 21
-0.258819
 31
0.0
 12
-0.965926
 22
0.258819
 32
0.0
 13
-0.965926
 23
0.258819
 33
0.0
  0
ENDBLK
  5
9F
330
9D
100
AcDbEntity
  8
0
100
AcDbBlockEnd
  0
BLOCK
  5
A3
330
A2
100
AcDbEntity
  8
0
100
AcDbBlockBegin
  2
FXTIP_BLACKTRIANGLE_E
 70
     0
 71
     0
 10
0.0
 20
0.0
 30
0.0
  3
FXTIP_BLACKTRIANGLE_E
  1

  0
LINE
  5
A5
330
A2
100
AcDbEntity
  8
0
  6
CONTINUOUS
 62
     0
100
AcDbLine
 10
0.0
 20
0.0
 30
0.0
 11
-1.0
 21
0.0
 31
0.0
  0
SOLID
  5
A6
330
A2
100
AcDbEntity
  8
0
  6
CONTINUOUS
 62
     0
100
AcDbTrace
 10
0.0
 20
0.0
 30
0.0
 11
-0.965926
 21
0.258819
 31
0.0
 12
-0.965926
 22
-0.258819
 32
0.0
 13
-0.965926
 23
-0.258819
 33
0.0
  0
ENDBLK
  5
A4
330
A2
100
AcDbEntity
  8
0
100
AcDbBlockEnd
  0
BLOCK
  5
C1
330
C0
100
AcDbEntity
  8
0
100
AcDbBlockBegin
  2
BLKF021
 70
     0
 71
     0
 10
0.0
 20
0.0
 30
0.0
  3
BLKF021
  1

  0
LINE
  5
C4
330
C0
100
AcDbEntity
  8
GR1-1
  6
CONTINUOUS
 62
     7
100
AcDbLine
 10
270.765627
 20
198.490325
 30
0.0
 11
270.902435
 21
198.866202
 31
0.0
  0
LINE
  5
C5
330
C0
100
AcDbEntity
  8
GR1-1
  6
CONTINUOUS
 62
     7
100
AcDbLine
 10
270.509284
 20
198.370791
 30
0.0
 11
270.782901
 21
199.122545
 31
0.0
  0
LINE
  5
C6
330
C0
100
AcDbEntity
  8
GR1-1
  6
CONTINUOUS
 62
     7
100
AcDbLine
 10
270.252942
 20
198.251256
 30
0.0
 11
270.663366
 21
199.378887
 31
0.0
  0
LINE
  5
C7
330
C0
100
AcDbEntity
  8
GR1-1
  6
CONTINUOUS
 62
     7
100
AcDbLine
 10
269.996599
 20
198.131722
 30
0.0
 11
270.543832
 21
199.63523
 31
0.0
  0
LINE
  5
C8
330
C0
100
AcDbEntity
  8
GR1-1
  6
CONTINUOUS
 62
     7
100
AcDbLine
 10
269.740257
 20
198.012187
 30
0.0
 11
270.212183
 21
199.308793
 31
0.0
  0
LINE
  5
C9
330
C0
100
AcDbEntity
  8
GR1-1
  6
CONTINUOUS
 62
     7
100
AcDbLine
 10
270.341309
 20
199.663565
 30
0.0
 11
270.424297
 21
199.891573
 31
0.0
  0
LINE
  5
CA
330
C0
100
AcDbEntity
  8
GR1-1
  6
CONTINUOUS
 62
     7
100
AcDbLine
 10
269.483914
 20
197.892653
 30
0.0
 11
269.95584
 21
199.189259
 31
0.0
  0
LINE
  5
CB
330
C0
100
AcDbEntity
  8
GR1-1
  6
CONTINUOUS
 62
     7
100
AcDbLine
 10
270.221775
 20
199.919907
 30
0.0
 11
270.304763
 21
200.147915
 31
0.0
  0
LINE
  5
CC
330
C0
100
AcDbEntity
  8
GR1-1
  6
CONTINUOUS
 62
     7
100
AcDbLine
 10
269.227572
 20
197.773118
 30
0.0
 11
269.699498
 21
199.069724
 31
0.0
  0
LINE
  5
CD
330
C0
100
AcDbEntity
  8
GR1-1
  6
CONTINUOUS
 62
     7
100
AcDbLine
 10
270.10224
 20
200.17625
 30
0.0
 11
270.185228
 21
200.404258
 31
0.0
  0
LINE
  5
CE
330
C0
100
AcDbEntity
  8
GR1-1
  6
CONTINUOUS
 62
     7
100
AcDbLine
 10
268.971229
 20
197.653584
 30
0.0
 11
269.499016
 21
199.103667
 31
0.0
  0
LINE
  5
CF
330
C0
100
AcDbEntity
  8
GR1-1
  6
CONTINUOUS
 62
     7
100
AcDbLine
 10
269.982706
 20
200.432593
 30
0.0
 11
270.065694
 21
200.6606
 31
0.0
  0
LINE
  5
D0
330
C0
100
AcDbEntity
  8
GR1-1
  6
CONTINUOUS
 62
     7
100
AcDbLine
 10
268.714887
 20
197.534049
 30
0.0
 11
269.379482
 21
199.360009
 31
0.0
  0
LINE
  5
D1
330
C0
100
AcDbEntity
  8
GR1-1
  6
CONTINUOUS
 62
     7
100
AcDbLine
 10
269.863171
 20
200.688935
 30
0.0
 11
269.946159
 21
200.916943
 31
0.0
  0
LINE
  5
D2
330
C0
100
AcDbEntity
  8
GR1-1
  6
CONTINUOUS
 62
     7
100
AcDbLine
 10
268.458544
 20
197.414515
 30
0.0
 11
269.259947
 21
199.616352
 31
0.0
  0
LINE
  5
D3
330
C0
100
AcDbEntity
  8
GR1-1
  6
CONTINUOUS
 62
     7
100
AcDbLine
 10
269.743637
 20
200.945278
 30
0.0
 11
269.826625
 21
201.173285
 31
0.0
  0
LINE
  5
D4
330
C0
100
AcDbEntity
  8
GR1-1
  6
CONTINUOUS
 62
     7
100
AcDbLine
 10
268.202202
 20
197.29498
 30
0.0
 11
269.100442
 21
199.762875
 31
0.0
  0
LINE
  5
D5
330
C0
100
AcDbEntity
  8
GR1-1
  6
CONTINUOUS
 62
     7
100
AcDbLine
 10
269.624102
 20
201.20162
 30
0.0
 11
269.70709
 21
201.429628
 31
0.0
  0
LINE
  5
D6
330
C0
100
AcDbEntity
  8
GR1-1
  6
CONTINUOUS
 62
     7
100
AcDbLine
 10
267.945859
 20
197.175446
 30
0.0
 11
268.082667
 21
197.551323
 31
0.0
  0
LINE
  5
D7
330
C0
100
AcDbEntity
  8
GR1-1
  6
CONTINUOUS
 62
     7
100
AcDbLine
 10
269.396928
 20
201.162224
 30
0.0
 11
269.587556
 21
201.68597
 31
0.0
  0
LINE
  5
D8
330
C0
100
AcDbEntity
  8
GR1-1
  6
CONTINUOUS
 62
     7
100
AcDbLine
 10
267.689516
 20
197.055911
 30
0.0
 11
267.894728
 21
197.619727
 31
0.0
  0
LINE
  5
D9
330
C0
100
AcDbEntity
  8
GR1-1
  6
CONTINUOUS
 62
     7
100
AcDbLine
 10
269.140585
 20
201.04269
 30
0.0
 11
269.468021
 21
201.942313
 31
0.0
  0
LINE
  5
DA
330
C0
100
AcDbEntity
  8
GR1-1
  6
CONTINUOUS
 62
     7
100
AcDbLine
 10
267.433174
 20
196.936377
 30
0.0
 11
267.70679
 21
197.688131
 31
0.0
  0
LINE
  5
DB
330
C0
100
AcDbEntity
  8
GR1-1
  6
CONTINUOUS
 62
     7
100
AcDbLine
 10
268.884242
 20
200.923155
 30
0.0
 11
269.029349
 21
201.321833
 31
0.0
  0
LINE
  5
DC
330
C0
100
AcDbEntity
  8
GR1-1
  6
CONTINUOUS
 62
     7
100
AcDbLine
 10
269.074871
 20
201.446901
 30
0.0
 11
269.348487
 21
202.198656
 31
0.0
  0
LINE
  5
DD
330
C0
100
AcDbEntity
  8
GR1-1
  6
CONTINUOUS
 62
     7
100
AcDbLine
 10
267.176831
 20
196.816842
 30
0.0
 11
267.518851
 21
197.756535
 31
0.0
  0
LINE
  5
DE
330
C0
100
AcDbEntity
  8
GR1-1
  6
CONTINUOUS
 62
     7
100
AcDbLine
 10
268.6279
 20
200.803621
 30
0.0
 11
268.773007
 21
201.202298
 31
0.0
  0
LINE
  5
DF
330
C0
100
AcDbEntity
  8
GR1-1
  6
CONTINUOUS
 62
     7
100
AcDbLine
 10
268.886932
 20
201.515305
 30
0.0
 11
269.228952
 21
202.454998
 31
0.0
  0
LINE
  5
E0
330
C0
100
AcDbEntity
  8
GR1-1
  6
CONTINUOUS
 62
     7
100
AcDbLine
 10
266.920489
 20
196.697308
 30
0.0
 11
267.330913
 21
197.824939
 31
0.0
  0
LINE
  5
E1
330
C0
100
AcDbEntity
  8
GR1-1
  6
CONTINUOUS
 62
     7
100
AcDbLine
 10
268.371557
 20
200.684086
 30
0.0
 11
268.516664
 21
201.082764
 31
0.0
  0
LINE
  5
E2
330
C0
100
AcDbEntity
  8
GR1-1
  6
CONTINUOUS
 62
     7
100
AcDbLine
 10
268.698993
 20
201.58371
 30
0.0
 11
269.109418
 21
202.711341
 31
0.0
  0
LINE
  5
E3
330
C0
100
AcDbEntity
  8
GR1-1
  6
CONTINUOUS
 62
     7
100
AcDbLine
 10
266.664146
 20
196.577773
 30
0.0
 11
267.142974
 21
197.893343
 31
0.0
  0
LINE
  5
E4
330
C0
100
AcDbEntity
  8
GR1-1
  6
CONTINUOUS
 62
     7
100
AcDbLine
 10
267.484995
 20
198.833036
 30
0.0
 11
267.872635
 21
199.89807
 31
0.0
  0
LINE
  5
E5
330
C0
100
AcDbEntity
  8
GR1-1
  6
CONTINUOUS
 62
     7
100
AcDbLine
 10
268.115215
 20
200.564552
 30
0.0
 11
268.260322
 21
200.963229
 31
0.0
  0
LINE
  5
E6
330
C0
100
AcDbEntity
  8
GR1-1
  6
CONTINUOUS
 62
     7
100
AcDbLine
 10
268.511055
 20
201.652114
 30
0.0
 11
268.989883
 21
202.967683
 31
0.0
  0
LINE
  5
E7
330
C0
100
AcDbEntity
  8
GR1-1
  6
CONTINUOUS
 62
     7
100
AcDbLine
 10
266.407804
 20
196.458239
 30
0.0
 11
266.955036
 21
197.961747
 31
0.0
  0
LINE
  5
E8
330
C0
100
AcDbEntity
  8
GR1-1
  6
CONTINUOUS
 62
     7
100
AcDbLine
 10
267.297056
 20
198.90144
 30
0.0
 11
267.617027
 21
199.780554
 31
0.0
  0
LINE
  5
E9
330
C0
100
AcDbEntity
  8
GR1-1
  6
CONTINUOUS
 62
     7
100
AcDbLine
 10
267.858872
 20
200.445017
 30
0.0
 11
268.003979
 21
200.843695
 31
0.0
  0
LINE
  5
EA
330
C0
100
AcDbEntity
  8
GR1-1
  6
CONTINUOUS
 62
     7
100
AcDbLine
 10
268.323116
 20
201.720518
 30
0.0
 11
268.870349
 21
203.224026
 31
0.0
  0
LINE
  5
EB
330
C0
100
AcDbEntity
  8
GR1-1
  6
CONTINUOUS
 62
     7
100
AcDbLine
 10
266.151461
 20
196.338704
 30
0.0
 11
266.767097
 21
198.030151
 31
0.0
  0
LINE
  5
EC
330
C0
100
AcDbEntity
  8
GR1-1
  6
CONTINUOUS
 62
     7
100
AcDbLine
 10
267.109117
 20
198.969844
 30
0.0
 11
267.360685
 21
199.66102
 31
0.0
  0
LINE
  5
ED
330
C0
100
AcDbEntity
  8
GR1-1
  6
CONTINUOUS
 62
     7
100
AcDbLine
 10
267.60253
 20
200.325483
 30
0.0
 11
267.793158
 21
200.849229
 31
0.0
  0
LINE
  5
EE
330
C0
100
AcDbEntity
  8
GR1-1
  6
CONTINUOUS
 62
     7
100
AcDbLine
 10
268.135178
 20
201.788922
 30
0.0
 11
268.750814
 21
203.480368
 31
0.0
  0
LINE
  5
EF
330
C0
100
AcDbEntity
  8
GR1-1
  6
CONTINUOUS
 62
     7
100
AcDbLine
 10
265.895119
 20
196.21917
 30
0.0
 11
266.579159
 21
198.098555
 31
0.0
  0
LINE
  5
F0
330
C0
100
AcDbEntity
  8
GR1-1
  6
CONTINUOUS
 62
     7
100
AcDbLine
 10
266.921179
 20
199.038248
 30
0.0
 11
267.180211
 21
199.749933
 31
0.0
  0
LINE
  5
F1
330
C0
100
AcDbEntity
  8
GR1-1
  6
CONTINUOUS
 62
     7
100
AcDbLine
 10
267.346187
 20
200.205948
 30
0.0
 11
267.605219
 21
200.917633
 31
0.0
  0
LINE
  5
F2
330
C0
100
AcDbEntity
  8
GR1-1
  6
CONTINUOUS
 62
     7
100
AcDbLine
 10
267.947239
 20
201.857326
 30
0.0
 11
268.63128
 21
203.736711
 31
0.0
  0
LINE
  5
F3
330
C0
100
AcDbEntity
  8
GR1-1
  6
CONTINUOUS
 62
     7
100
AcDbLine
 10
265.638776
 20
196.099635
 30
0.0
 11
266.39122
 21
198.166959
 31
0.0
  0
LINE
  5
F4
330
C0
100
AcDbEntity
  8
GR1-1
  6
CONTINUOUS
 62
     7
100
AcDbLine
 10
266.73324
 20
199.106652
 30
0.0
 11
267.060677
 21
200.006275
 31
0.0
  0
LINE
  5
F5
330
C0
100
AcDbEntity
  8
GR1-1
  6
CONTINUOUS
 62
     7
100
AcDbLine
 10
267.089845
 20
200.086414
 30
0.0
 11
267.417281
 21
200.986037
 31
0.0
  0
LINE
  5
F6
330
C0
100
AcDbEntity
  8
GR1-1
  6
CONTINUOUS
 62
     7
100
AcDbLine
 10
267.759301
 20
201.92573
 30
0.0
 11
268.511745
 21
203.993053
 31
0.0
  0
LINE
  5
F7
330
C0
100
AcDbEntity
  8
GR1-1
  6
CONTINUOUS
 62
     7
100
AcDbLine
 10
265.490074
 20
196.27584
 30
0.0
 11
266.203282
 21
198.235363
 31
0.0
  0
LINE
  5
F8
330
C0
100
AcDbEntity
  8
GR1-1
  6
CONTINUOUS
 62
     7
100
AcDbLine
 10
266.545302
 20
199.175056
 30
0.0
 11
267.229342
 21
201.054441
 31
0.0
  0
LINE
  5
F9
330
C0
100
AcDbEntity
  8
GR1-1
  6
CONTINUOUS
 62
     7
100
AcDbLine
 10
267.571362
 20
201.994134
 30
0.0
 11
268.284571
 21
203.953657
 31
0.0
  0
LINE
  5
FA
330
C0
100
AcDbEntity
  8
GR1-1
  6
CONTINUOUS
 62
     7
100
AcDbLine
 10
265.370539
 20
196.532182
 30
0.0
 11
266.015343
 21
198.303767
 31
0.0
  0
LINE
  5
FB
330
C0
100
AcDbEntity
  8
GR1-1
  6
CONTINUOUS
 62
     7
100
AcDbLine
 10
266.357363
 20
199.24346
 30
0.0
 11
267.041404
 21
201.122845
 31
0.0
  0
LINE
  5
FC
330
C0
100
AcDbEntity
  8
GR1-1
  6
CONTINUOUS
 62
     7
100
AcDbLine
 10
267.383424
 20
202.062538
 30
0.0
 11
268.028228
 21
203.834123
 31
0.0
  0
LINE
  5
FD
330
C0
100
AcDbEntity
  8
GR1-1
  6
CONTINUOUS
 62
     7
100
AcDbLine
 10
265.251005
 20
196.788525
 30
0.0
 11
265.827405
 21
198.372171
 31
0.0
  0
LINE
  5
FE
330
C0
100
AcDbEntity
  8
GR1-1
  6
CONTINUOUS
 62
     7
100
AcDbLine
 10
266.169425
 20
199.311864
 30
0.0
 11
266.853465
 21
201.191249
 31
0.0
  0
LINE
  5
FF
330
C0
100
AcDbEntity
  8
GR1-1
  6
CONTINUOUS
 62
     7
100
AcDbLine
 10
267.195485
 20
202.130942
 30
0.0
 11
267.771885
 21
203.714588
 31
0.0
  0
LINE
  5
100
330
C0
100
AcDbEntity
  8
GR1-1
  6
CONTINUOUS
 62
     7
100
AcDbLine
 10
265.13147
 20
197.044867
 30
0.0
 11
265.639466
 21
198.440575
 31
0.0
  0
LINE
  5
101
330
C0
100
AcDbEntity
  8
GR1-1
  6
CONTINUOUS
 62
     7
100
AcDbLine
 10
265.981486
 20
199.380268
 30
0.0
 11
266.665527
 21
201.259653
 31
0.0
  0
LINE
  5
102
330
C0
100
AcDbEntity
  8
GR1-1
  6
CONTINUOUS
 62
     7
100
AcDbLine
 10
267.007547
 20
202.199346
 30
0.0
 11
267.515543
 21
203.595054
 31
0.0
  0
LINE
  5
103
330
C0
100
AcDbEntity
  8
GR1-1
  6
CONTINUOUS
 62
     7
100
AcDbLine
 10
265.011936
 20
197.30121
 30
0.0
 11
265.451528
 21
198.508979
 31
0.0
  0
LINE
  5
104
330
C0
100
AcDbEntity
  8
GR1-1
  6
CONTINUOUS
 62
     7
100
AcDbLine
 10
265.793548
 20
199.448672
 30
0.0
 11
266.477588
 21
201.328057
 31
0.0
  0
LINE
  5
105
330
C0
100
AcDbEntity
  8
GR1-1
  6
CONTINUOUS
 62
     7
100
AcDbLine
 10
266.819608
 20
202.26775
 30
0.0
 11
267.2592
 21
203.475519
 31
0.0
  0
LINE
  5
106
330
C0
100
AcDbEntity
  8
GR1-1
  6
CONTINUOUS
 62
     7
100
AcDbLine
 10
264.892401
 20
197.557552
 30
0.0
 11
265.263589
 21
198.577383
 31
0.0
  0
LINE
  5
107
330
C0
100
AcDbEntity
  8
GR1-1
  6
CONTINUOUS
 62
     7
100
AcDbLine
 10
266.63167
 20
202.336154
 30
0.0
 11
267.002858
 21
203.355985
 31
0.0
  0
LINE
  5
108
330
C0
100
AcDbEntity
  8
GR1-1
  6
CONTINUOUS
 62
     7
100
AcDbLine
 10
264.772867
 20
197.813895
 30
0.0
 11
265.075651
 21
198.645787
 31
0.0
  0
LINE
  5
109
330
C0
100
AcDbEntity
  8
GR1-1
  6
CONTINUOUS
 62
     7
100
AcDbLine
 10
266.443731
 20
202.404558
 30
0.0
 11
266.746515
 21
203.23645
 31
0.0
  0
LINE
  5
10A
330
C0
100
AcDbEntity
  8
GR1-1
  6
CONTINUOUS
 62
     7
100
AcDbLine
 10
264.653332
 20
198.070238
 30
0.0
 11
264.887712
 21
198.714191
 31
0.0
  0
LINE
  5
10B
330
C0
100
AcDbEntity
  8
GR1-1
  6
CONTINUOUS
 62
     7
100
AcDbLine
 10
266.255793
 20
202.472962
 30
0.0
 11
266.490173
 21
203.116916
 31
0.0
  0
LINE
  5
10C
330
C0
100
AcDbEntity
  8
GR1-1
  6
CONTINUOUS
 62
     7
100
AcDbLine
 10
264.533798
 20
198.32658
 30
0.0
 11
264.699774
 21
198.782595
 31
0.0
  0
LINE
  5
10D
330
C0
100
AcDbEntity
  8
GR1-1
  6
CONTINUOUS
 62
     7
100
AcDbLine
 10
266.067854
 20
202.541366
 30
0.0
 11
266.23383
 21
202.997381
 31
0.0
  0
LINE
  5
10E
330
C0
100
AcDbEntity
  8
GR1-1
  6
CONTINUOUS
 62
     7
100
AcDbLine
 10
264.414263
 20
198.582923
 30
0.0
 11
264.511835
 21
198.850999
 31
0.0
  0
LINE
  5
10F
330
C0
100
AcDbEntity
  8
GR1-1
  6
CONTINUOUS
 62
     7
100
AcDbLine
 10
265.879916
 20
202.60977
 30
0.0
 11
265.977488
 21
202.877847
 31
0.0
  0
LINE
  5
110
330
C0
100
AcDbEntity
  8
GR1-1
  6
CONTINUOUS
 62
     7
100
AcDbLine
 10
264.294729
 20
198.839265
 30
0.0
 11
265.721145
 21
202.758312
 31
0.0
  0
LINE
  5
111
330
C0
100
AcDbEntity
  8
GR1-1
  6
CONTINUOUS
 62
     7
100
AcDbLine
 10
264.175194
 20
199.095608
 30
0.0
 11
265.464803
 21
202.638778
 31
0.0
  0
LINE
  5
112
330
C0
100
AcDbEntity
  8
GR1-1
  6
CONTINUOUS
 62
     7
100
AcDbLine
 10
264.05566
 20
199.35195
 30
0.0
 11
265.20846
 21
202.519243
 31
0.0
  0
LINE
  5
113
330
C0
100
AcDbEntity
  8
GR1-1
  6
CONTINUOUS
 62
     7
100
AcDbLine
 10
263.936125
 20
199.608293
 30
0.0
 11
264.952117
 21
202.399709
 31
0.0
  0
LINE
  5
114
330
C0
100
AcDbEntity
  8
GR1-1
  6
CONTINUOUS
 62
     7
100
AcDbLine
 10
263.816591
 20
199.864635
 30
0.0
 11
264.695775
 21
202.280174
 31
0.0
  0
LINE
  5
115
330
C0
100
AcDbEntity
  8
GR1-1
  6
CONTINUOUS
 62
     7
100
AcDbLine
 10
263.697056
 20
200.120978
 30
0.0
 11
264.439432
 21
202.16064
 31
0.0
  0
LINE
  5
116
330
C0
100
AcDbEntity
  8
GR1-1
  6
CONTINUOUS
 62
     7
100
AcDbLine
 10
263.577522
 20
200.377321
 30
0.0
 11
264.18309
 21
202.041105
 31
0.0
  0
LINE
  5
117
330
C0
100
AcDbEntity
  8
GR1-1
  6
CONTINUOUS
 62
     7
100
AcDbLine
 10
263.457987
 20
200.633663
 30
0.0
 11
263.926747
 21
201.921571
 31
0.0
  0
LINE
  5
118
330
C0
100
AcDbEntity
  8
GR1-1
  6
CONTINUOUS
 62
     7
100
AcDbLine
 10
263.338453
 20
200.890006
 30
0.0
 11
263.670405
 21
201.802036
 31
0.0
  0
LINE
  5
119
330
C0
100
AcDbEntity
  8
GR1-1
  6
CONTINUOUS
 62
     7
100
AcDbLine
 10
263.218918
 20
201.146348
 30
0.0
 11
263.414062
 21
201.682502
 31
0.0
  0
LINE
  5
11A
330
C0
100
AcDbEntity
  8
GR1-1
  6
CONTINUOUS
 62
     7
100
AcDbLine
 10
263.099384
 20
201.402691
 30
0.0
 11
263.15772
 21
201.562967
 31
0.0
  0
ENDBLK
  5
C2
330
C0
100
AcDbEntity
  8
0
100
AcDbBlockEnd
  0
BLOCK
  5
21E
330
21D
100
AcDbEntity
  8
0
100
AcDbBlockBegin
  2
*D20
 70
     1
 71
     0
 10
0.0
 20
0.0
 30
0.0
  3
*D20
  1

  0
TEXT
  5
220
330
21D
100
AcDbEntity
  8
LAYERGROUP-1
  6
CONTINUOUS
 62
     7
100
AcDbText
 10
135.589798
 20
144.807693
 30
0.0
 40
4.0
  1
%%c20
 50
90.0
 41
0.84375
  7
FX_VECTOR
 72
     5
 11
135.589798
 21
153.807693
 31
0.0
100
AcDbText
  0
LINE
  5
221
330
21D
100
AcDbEntity
  8
LAYERGROUP-1
  6
CONTINUOUS
 62
     7
100
AcDbLine
 10
136.589798
 20
139.307692
 30
0.0
 11
136.589798
 21
159.307692
 31
0.0
  0
INSERT
  5
222
330
21D
100
AcDbEntity
  8
LAYERGROUP-1
  6
CONTINUOUS
 62
     7
100
AcDbBlockReference
  2
FXTIP_ARROW_S
 10
136.589798
 20
139.307692
 30
0.0
 41
4.0
 42
4.0
 50
270.0
  0
INSERT
  5
223
330
21D
100
AcDbEntity
  8
LAYERGROUP-1
  6
CONTINUOUS
 62
     7
100
AcDbBlockReference
  2
FXTIP_ARROW_E
 10
136.589798
 20
159.307692
 30
0.0
 41
4.0
 42
4.0
 50
90.0
  0
LINE
  5
224
330
21D
100
AcDbEntity
  8
LAYERGROUP-1
  6
CONTINUOUS
 62
     7
100
AcDbLine
 10
123.009666
 20
139.307692
 30
0.0
 11
137.589798
 21
139.307692
 31
0.0
  0
LINE
  5
225
330
21D
100
AcDbEntity
  8
LAYERGROUP-1
  6
CONTINUOUS
 62
     7
100
AcDbLine
 10
123.009666
 20
159.307692
 30
0.0
 11
137.589798
 21
159.307692
 31
0.0
  0
ENDBLK
  5
21F
330
21D
100
AcDbEntity
  8
0
100
AcDbBlockEnd
  0
BLOCK
  5
228
330
227
100
AcDbEntity
  8
0
100
AcDbBlockBegin
  2
*D21
 70
     1
 71
     0
 10
0.0
 20
0.0
 30
0.0
  3
*D21
  1

  0
TEXT
  5
22A
330
227
100
AcDbEntity
  8
LAYERGROUP-1
  6
CONTINUOUS
 62
     7
100
AcDbText
 10
152.952072
 20
143.307693
 30
0.0
 40
4.0
  1
%%c200
 50
90.0
 41
0.828947
  7
FX_VECTOR
 72
     5
 11
152.952072
 21
155.307693
 31
0.0
100
AcDbText
  0
LINE
  5
22B
330
227
100
AcDbEntity
  8
LAYERGROUP-1
  6
CONTINUOUS
 62
     7
100
AcDbLine
 10
153.952076
 20
49.307692
 30
0.0
 11
153.952076
 21
249.307692
 31
0.0
  0
INSERT
  5
22C
330
227
100
AcDbEntity
  8
LAYERGROUP-1
  6
CONTINUOUS
 62
     7
100
AcDbBlockReference
  2
FXTIP_ARROW_S
 10
153.952076
 20
49.307692
 30
0.0
 41
4.0
 42
4.0
 50
270.0
  0
INSERT
  5
22D
330
227
100
AcDbEntity
  8
LAYERGROUP-1
  6
CONTINUOUS
 62
     7
100
AcDbBlockReference
  2
FXTIP_ARROW_E
 10
153.952076
 20
249.307692
 30
0.0
 41
4.0
 42
4.0
 50
90.0
  0
LINE
  5
22E
330
227
100
AcDbEntity
  8
LAYERGROUP-1
  6
CONTINUOUS
 62
     7
100
AcDbLine
 10
110.581463
 20
49.307692
 30
0.0
 11
154.952076
 21
49.307692
 31
0.0
  0
LINE
  5
22F
330
227
100
AcDbEntity
  8
LAYERGROUP-1
  6
CONTINUOUS
 62
     7
100
AcDbLine
 10
110.581463
 20
249.307692
 30
0.0
 11
154.952076
 21
249.307692
 31
0.0
  0
ENDBLK
  5
229
330
227
100
AcDbEntity
  8
0
100
AcDbBlockEnd
  0
BLOCK
  5
232
330
231
100
AcDbEntity
  8
0
100
AcDbBlockBegin
  2
*D22
 70
     1
 71
     0
 10
0.0
 20
0.0
 30
0.0
  3
*D22
  1

  0
TEXT
  5
234
330
231
100
AcDbEntity
  8
LAYERGROUP-1
  6
CONTINUOUS
 62
     7
100
AcDbText
 10
92.509666
 20
261.825134
 30
0.0
 40
4.0
  1
42
 41
0.851351
  7
FX_VECTOR
 72
     5
 11
98.509666
 21
261.825134
 31
0.0
100
AcDbText
  0
LINE
  5
235
330
231
100
AcDbEntity
  8
LAYERGROUP-1
  6
CONTINUOUS
 62
     7
100
AcDbLine
 10
74.509666
 20
260.825148
 30
0.0
 11
116.509666
 21
260.825148
 31
0.0
  0
INSERT
  5
236
330
231
100
AcDbEntity
  8
LAYERGROUP-1
  6
CONTINUOUS
 62
     7
100
AcDbBlockReference
  2
FXTIP_ARROW_S
 10
74.509666
 20
260.825148
 30
0.0
 41
4.0
 42
4.0
 50
180.0
  0
INSERT
  5
237
330
231
100
AcDbEntity
  8
LAYERGROUP-1
  6
CONTINUOUS
 62
     7
100
AcDbBlockReference
  2
FXTIP_ARROW_E
 10
116.509666
 20
260.825148
 30
0.0
 41
4.0
 42
4.0
 50
360.0
  0
LINE
  5
238
330
231
100
AcDbEntity
  8
LAYERGROUP-1
  6
CONTINUOUS
 62
     7
100
AcDbLine
 10
74.509666
 20
240.307692
 30
0.0
 11
74.509666
 21
261.825148
 31
0.0
  0
LINE
  5
239
330
231
100
AcDbEntity
  8
LAYERGROUP-1
  6
CONTINUOUS
 62
     7
100
AcDbLine
 10
116.509666
 20
240.307692
 30
0.0
 11
116.509666
 21
261.825148
 31
0.0
  0
ENDBLK
  5
233
330
231
100
AcDbEntity
  8
0
100
AcDbBlockEnd
  0
BLOCK
  5
23C
330
23B
100
AcDbEntity
  8
0
100
AcDbBlockBegin
  2
*D23
 70
     1
 71
     0
 10
0.0
 20
0.0
 30
0.0
  3
*D23
  1

  0
TEXT
  5
23E
330
23B
100
AcDbEntity
  8
LAYERGROUP-1
  6
CONTINUOUS
 62
     7
100
AcDbText
 10
92.509666
 20
270.82782
 30
0.0
 40
4.0
  1
55
 41
0.851351
  7
FX_VECTOR
 72
     5
 11
98.509666
 21
270.82782
 31
0.0
100
AcDbText
  0
LINE
  5
23F
330
23B
100
AcDbEntity
  8
LAYERGROUP-1
  6
CONTINUOUS
 62
     7
100
AcDbLine
 10
68.009666
 20
269.827811
 30
0.0
 11
123.009666
 21
269.827811
 31
0.0
  0
INSERT
  5
240
330
23B
100
AcDbEntity
  8
LAYERGROUP-1
  6
CONTINUOUS
 62
     7
100
AcDbBlockReference
  2
FXTIP_ARROW_S
 10
68.009666
 20
269.827811
 30
0.0
 41
4.0
 42
4.0
 50
180.0
  0
INSERT
  5
241
330
23B
100
AcDbEntity
  8
LAYERGROUP-1
  6
CONTINUOUS
 62
     7
100
AcDbBlockReference
  2
FXTIP_ARROW_E
 10
123.009666
 20
269.827811
 30
0.0
 41
4.0
 42
4.0
 50
360.0
  0
LINE
  5
242
330
23B
100
AcDbEntity
  8
LAYERGROUP-1
  6
CONTINUOUS
 62
     7
100
AcDbLine
 10
68.009666
 20
164.807692
 30
0.0
 11
68.009666
 21
270.827811
 31
0.0
  0
LINE
  5
243
330
23B
100
AcDbEntity
  8
LAYERGROUP-1
  6
CONTINUOUS
 62
     7
100
AcDbLine
 10
123.009666
 20
164.807692
 30
0.0
 11
123.009666
 21
270.827811
 31
0.0
  0
ENDBLK
  5
23D
330
23B
100
AcDbEntity
  8
0
100
AcDbBlockEnd
  0
BLOCK
  5
247
330
246
100
AcDbEntity
  8
0
100
AcDbBlockBegin
  2
BLKF026
 70
     0
 71
     0
 10
0.0
 20
0.0
 30
0.0
  3
BLKF026
  1

  0
LINE
  5
24A
330
246
100
AcDbEntity
  8
}}ﾊﾊGG血CCТ
  6
CONTINUOUS
 62
     7
100
AcDbLine
 10
10.0
 20
10.0
 30
0.0
 11
410.0
 21
10.0
 31
0.0
  0
LINE
  5
24B
330
246
100
AcDbEntity
  8
}}ﾊﾊGG血CCТ
  6
CONTINUOUS
 62
     7
100
AcDbLine
 10
10.0
 20
10.0
 30
0.0
 11
10.0
 21
287.0
 31
0.0
  0
LINE
  5
24C
330
246
100
AcDbEntity
  8
}}ﾊﾊGG血CCТ
  6
CONTINUOUS
 62
     7
100
AcDbLine
 10
10.0
 20
287.0
 30
0.0
 11
410.0
 21
287.0
 31
0.0
  0
LINE
  5
24D
330
246
100
AcDbEntity
  8
}}ﾊﾊGG血CCТ
  6
CONTINUOUS
 62
     7
100
AcDbLine
 10
410.0
 20
287.0
 30
0.0
 11
410.0
 21
10.0
 31
0.0
  0
LINE
  5
24E
330
246
100
AcDbEntity
  8
}}ﾊﾊGG血CCТ
  6
CONTINUOUS
 62
     7
100
AcDbLine
 10
153.0
 20
10.0
 30
0.0
 11
153.0
 21
20.0
 31
0.0
  0
TEXT
  5
24F
330
246
100
AcDbEntity
  8
}}ﾊﾊGG血CCТ
  6
CONTINUOUS
 62
     7
100
AcDbText
 10
137.738815
 20
11.596879
 30
0.0
 40
6.648749
  1
品名
 41
1.083413
  7
FX_VECTOR
 72
     5
 11
149.058355
 21
11.596879
 31
0.0
100
AcDbText
  0
LINE
  5
250
330
246
100
AcDbEntity
  8
}}ﾊﾊGG血CCТ
  6
CONTINUOUS
 62
     7
100
AcDbLine
 10
233.0
 20
20.0
 30
0.0
 11
233.0
 21
10.0
 31
0.0
  0
LINE
  5
251
330
246
100
AcDbEntity
  8
}}ﾊﾊGG血CCТ
  6
CONTINUOUS
 62
     7
100
AcDbLine
 10
133.0
 20
20.0
 30
0.0
 11
410.0
 21
20.0
 31
0.0
  0
INSERT
  5
255
330
246
100
AcDbEntity
  8
0
100
AcDbBlockReference
  2
BLKF027
 10
0.0
 20
0.0
 30
0.0
  0
INSERT
  5
25E
330
246
100
AcDbEntity
  8
0
100
AcDbBlockReference
  2
BLKF028
 10
0.0
 20
0.0
 30
0.0
  0
HATCH
  5
26E
330
246
100
AcDbEntity
  8
GR1-1
  6
CONTINUOUS
 62
     7
100
AcDbHatch
 10
0.0
 20
0.0
 30
0.0
210
0.0
220
0.0
230
1.0
  2

 70
     0
 71
     1
 91
        2
 92
        0
 93
        4
 72
     1
 10
338.8018997861325
 20
17.91346152
 11
344.8018997861325
 21
17.91346152
 72
     1
 10
344.8018997861325
 20
17.91346152
 11
344.8018997861325
 21
11.91346152
 72
     1
 10
344.8018997861325
 20
11.91346152
 11
338.8018997861325
 21
11.91346152
 72
     1
 10
338.8018997861325
 20
11.91346152
 11
338.8018997861325
 21
17.91346152
 97
        0
 92
        0
 93
       15
 72
     1
 10
341.8018997861325
 20
17.76923076000002
 11
338.9461305461325
 21
14.91346152
 72
     1
 10
338.9461305461325
 20
14.91346152
 11
341.8018997861325
 21
12.05769228000001
 72
     1
 10
341.8018997861325
 20
12.05769228000001
 11
343.3595920661325
 21
13.61538462
 72
     1
 10
343.3595920661325
 20
13.61538462
 11
343.3595920661325
 21
12.98076924
 72
     1
 10
343.3595920661325
 20
12.98076924
 11
344.2249766861325
 21
12.98076924
 72
     1
 10
344.2249766861325
 20
12.98076924
 11
344.2249766861325
 21
15.00000000000001
 72
     1
 10
344.2249766861325
 20
15.00000000000001
 11
341.8018997861325
 21
15.00000000000001
 72
     1
 10
341.8018997861325
 20
15.00000000000001
 11
341.8018997861325
 21
14.13461538000001
 72
     1
 10
341.8018997861325
 20
14.13461538000001
 11
342.2461305461325
 21
14.13461538000001
 72
     1
 10
342.2461305461325
 20
14.13461538000001
 11
341.8018997861325
 21
13.69038462
 72
     1
 10
341.8018997861325
 20
13.69038462
 11
340.5788228861325
 21
14.91346152
 72
     1
 10
340.5788228861325
 20
14.91346152
 11
341.8018997861325
 21
16.13653842000003
 72
     1
 10
341.8018997861325
 20
16.13653842000003
 11
342.5922844061325
 21
15.3461538
 72
     1
 10
342.5922844061325
 20
15.3461538
 11
344.2249766861325
 21
15.3461538
 72
     1
 10
344.2249766861325
 20
15.3461538
 11
341.8018997861325
 21
17.76923076000002
 97
        0
 75
     0
 76
     0
 52
45.0
 41
0.05
 77
     0
 78
     1
 53
45.0
 43
0.0
 44
0.0
 45
-0.0353553390593274
 46
0.0353553390593274
 79
     0
 98
        0
  0
TEXT
  5
26F
330
246
100
AcDbEntity
  8
}}ﾊﾊGG血CCТ
  6
CONTINUOUS
 62
     7
100
AcDbText
 10
349.225769
 20
11.461285
 30
0.0
 40
6.0
  1
GOLD CASTER
 41
0.719626
  7
FX_VECTOR
 72
     5
 11
393.225769
 21
11.461285
 31
0.0
100
AcDbText
  0
LINE
  5
270
330
246
100
AcDbEntity
  8
}}ﾊﾊGG血CCТ
  6
CONTINUOUS
 62
     7
100
AcDbLine
 10
253.0
 20
10.0
 30
0.0
 11
253.0
 21
20.0
 31
0.0
  0
TEXT
  5
271
330
246
100
AcDbEntity
  8
}}ﾊﾊGG血CCТ
  6
CONTINUOUS
 62
     7
100
AcDbText
 10
237.738815
 20
11.596879
 30
0.0
 40
6.648749
  1
図番
 41
1.083413
  7
FX_VECTOR
 72
     5
 11
249.058355
 21
11.596879
 31
0.0
100
AcDbText
  0
LINE
  5
272
330
246
100
AcDbEntity
  8
}}ﾊﾊGG血CCТ
  6
CONTINUOUS
 62
     7
100
AcDbLine
 10
333.0
 20
20.0
 30
0.0
 11
333.0
 21
10.0
 31
0.0
  0
LINE
  5
273
330
246
100
AcDbEntity
  8
}}ﾊﾊGG血CCТ
  6
CONTINUOUS
 62
     7
100
AcDbLine
 10
133.0
 20
20.0
 30
0.0
 11
133.0
 21
10.0
 31
0.0
  0
ENDBLK
  5
248
330
246
100
AcDbEntity
  8
0
100
AcDbBlockEnd
  0
BLOCK
  5
253
330
252
100
AcDbEntity
  8
0
100
AcDbBlockBegin
  2
BLKF027
 70
     0
 71
     0
 10
0.0
 20
0.0
 30
0.0
  3
BLKF027
  1

  0
LINE
  5
257
330
252
100
AcDbEntity
  8
0-1
  6
CONTINUOUS
 62
     7
100
AcDbLine
 10
344.8019
 20
17.913462
 30
0.0
 11
338.8019
 21
17.913462
 31
0.0
  0
LINE
  5
258
330
252
100
AcDbEntity
  8
0-1
  6
CONTINUOUS
 62
     7
100
AcDbLine
 10
338.8019
 20
17.913462
 30
0.0
 11
338.8019
 21
11.913462
 31
0.0
  0
LINE
  5
259
330
252
100
AcDbEntity
  8
0-1
  6
CONTINUOUS
 62
     7
100
AcDbLine
 10
338.8019
 20
11.913462
 30
0.0
 11
344.8019
 21
11.913462
 31
0.0
  0
LINE
  5
25A
330
252
100
AcDbEntity
  8
0-1
  6
CONTINUOUS
 62
     7
100
AcDbLine
 10
344.8019
 20
11.913462
 30
0.0
 11
344.8019
 21
17.913462
 31
0.0
  0
ENDBLK
  5
254
330
252
100
AcDbEntity
  8
0
100
AcDbBlockEnd
  0
BLOCK
  5
25C
330
25B
100
AcDbEntity
  8
0
100
AcDbBlockBegin
  2
BLKF028
 70
     0
 71
     0
 10
0.0
 20
0.0
 30
0.0
  3
BLKF028
  1

  0
LINE
  5
25F
330
25B
100
AcDbEntity
  8
0-1
  6
CONTINUOUS
 62
     7
100
AcDbLine
 10
344.224977
 20
15.346154
 30
0.0
 11
341.8019
 21
17.769231
 31
0.0
  0
LINE
  5
260
330
25B
100
AcDbEntity
  8
0-1
  6
CONTINUOUS
 62
     7
100
AcDbLine
 10
341.8019
 20
17.769231
 30
0.0
 11
338.946131
 21
14.913462
 31
0.0
  0
LINE
  5
261
330
25B
100
AcDbEntity
  8
0-1
  6
CONTINUOUS
 62
     7
100
AcDbLine
 10
338.946131
 20
14.913462
 30
0.0
 11
341.8019
 21
12.057692
 31
0.0
  0
LINE
  5
262
330
25B
100
AcDbEntity
  8
0-1
  6
CONTINUOUS
 62
     7
100
AcDbLine
 10
341.8019
 20
12.057692
 30
0.0
 11
343.359592
 21
13.615385
 31
0.0
  0
LINE
  5
263
330
25B
100
AcDbEntity
  8
0-1
  6
CONTINUOUS
 62
     7
100
AcDbLine
 10
343.359592
 20
13.615385
 30
0.0
 11
343.359592
 21
12.980769
 31
0.0
  0
LINE
  5
264
330
25B
100
AcDbEntity
  8
0-1
  6
CONTINUOUS
 62
     7
100
AcDbLine
 10
343.359592
 20
12.980769
 30
0.0
 11
344.224977
 21
12.980769
 31
0.0
  0
LINE
  5
265
330
25B
100
AcDbEntity
  8
0-1
  6
CONTINUOUS
 62
     7
100
AcDbLine
 10
344.224977
 20
12.980769
 30
0.0
 11
344.224977
 21
15.0
 31
0.0
  0
LINE
  5
266
330
25B
100
AcDbEntity
  8
0-1
  6
CONTINUOUS
 62
     7
100
AcDbLine
 10
344.224977
 20
15.0
 30
0.0
 11
341.8019
 21
15.0
 31
0.0
  0
LINE
  5
267
330
25B
100
AcDbEntity
  8
0-1
  6
CONTINUOUS
 62
     7
100
AcDbLine
 10
341.8019
 20
15.0
 30
0.0
 11
341.8019
 21
14.134615
 31
0.0
  0
LINE
  5
268
330
25B
100
AcDbEntity
  8
0-1
  6
CONTINUOUS
 62
     7
100
AcDbLine
 10
341.8019
 20
14.134615
 30
0.0
 11
342.246131
 21
14.134615
 31
0.0
  0
LINE
  5
269
330
25B
100
AcDbEntity
  8
0-1
  6
CONTINUOUS
 62
     7
100
AcDbLine
 10
342.246131
 20
14.134615
 30
0.0
 11
341.8019
 21
13.690385
 31
0.0
  0
LINE
  5
26A
330
25B
100
AcDbEntity
  8
0-1
  6
CONTINUOUS
 62
     7
100
AcDbLine
 10
341.8019
 20
13.690385
 30
0.0
 11
340.578823
 21
14.913462
 31
0.0
  0
LINE
  5
26B
330
25B
100
AcDbEntity
  8
0-1
  6
CONTINUOUS
 62
     7
100
AcDbLine
 10
340.578823
 20
14.913462
 30
0.0
 11
341.8019
 21
16.136538
 31
0.0
  0
LINE
  5
26C
330
25B
100
AcDbEntity
  8
0-1
  6
CONTINUOUS
 62
     7
100
AcDbLine
 10
341.8019
 20
16.136538
 30
0.0
 11
342.592284
 21
15.346154
 31
0.0
  0
LINE
  5
26D
330
25B
100
AcDbEntity
  8
0-1
  6
CONTINUOUS
 62
     7
100
AcDbLine
 10
342.592284
 20
15.346154
 30
0.0
 11
344.224977
 21
15.346154
 31
0.0
  0
ENDBLK
  5
25D
330
25B
100
AcDbEntity
  8
0
100
AcDbBlockEnd
  0
ENDSEC
  0
SECTION
  2
ENTITIES
  0
LINE
  5
A9
330
1F
100
AcDbEntity
  8
GR1-1
  6
CONTINUOUS
 62
     3
100
AcDbLine
 10
109.423748
 20
73.904054
 30
0.0
 11
113.909666
 21
69.307692
 31
0.0
  0
LINE
  5
AA
330
1F
100
AcDbEntity
  8
GR1-1
  6
CONTINUOUS
 62
     3
100
AcDbLine
 10
113.909666
 20
69.307692
 30
0.0
 11
113.909666
 21
62.907692
 31
0.0
  0
ARC
  5
AB
330
1F
100
AcDbEntity
  8
GR1-1
  6
CONTINUOUS
 62
     3
100
AcDbCircle
 10
112.909666
 20
62.907692
 30
0.0
 40
1.0
100
AcDbArc
 50
270.0
 51
360.0
  0
LINE
  5
AC
330
1F
100
AcDbEntity
  8
GR1-1
  6
CONTINUOUS
 62
     3
100
AcDbLine
 10
112.909666
 20
61.907692
 30
0.0
 11
99.109666
 21
61.907692
 31
0.0
  0
ARC
  5
AD
330
1F
100
AcDbEntity
  8
GR1-1
  6
CONTINUOUS
 62
     3
100
AcDbCircle
 10
99.109666
 20
58.307692
 30
0.0
 40
3.6
100
AcDbArc
 50
90.0
 51
180.0
  0
LINE
  5
AE
330
1F
100
AcDbEntity
  8
GR1-1
  6
CONTINUOUS
 62
     3
100
AcDbLine
 10
98.109666
 20
56.807692
 30
0.0
 11
92.909666
 21
56.807692
 31
0.0
  0
LINE
  5
AF
330
1F
100
AcDbEntity
  8
GR1-1
  6
CONTINUOUS
 62
     3
100
AcDbLine
 10
98.109666
 20
56.807692
 30
0.0
 11
98.109666
 21
58.307692
 31
0.0
  0
LINE
  5
B0
330
1F
100
AcDbEntity
  8
GR1-1
  6
CONTINUOUS
 62
     3
100
AcDbLine
 10
99.109666
 20
59.307692
 30
0.0
 11
112.909666
 21
59.307692
 31
0.0
  0
ARC
  5
B1
330
1F
100
AcDbEntity
  8
GR1-1
  6
CONTINUOUS
 62
     3
100
AcDbCircle
 10
112.909666
 20
62.907692
 30
0.0
 40
3.6
100
AcDbArc
 50
270.0
 51
360.0
  0
LINE
  5
B2
330
1F
100
AcDbEntity
  8
GR1-1
  6
CONTINUOUS
 62
     3
100
AcDbLine
 10
116.509666
 20
62.907692
 30
0.0
 11
116.509666
 21
69.144849
 31
0.0
  0
ARC
  5
B3
330
1F
100
AcDbEntity
  8
GR1-1
  6
CONTINUOUS
 62
     3
100
AcDbCircle
 10
113.509666
 20
69.144849
 30
0.0
 40
3.0
100
AcDbArc
 50
0.0
 51
44.303293
  0
LINE
  5
B4
330
1F
100
AcDbEntity
  8
GR1-1
  6
CONTINUOUS
 62
     3
100
AcDbLine
 10
115.656624
 20
71.240218
 30
0.0
 11
111.284445
 21
75.720041
 31
0.0
  0
ARC
  5
B5
330
1F
100
AcDbEntity
  8
GR1-1
  6
CONTINUOUS
 62
     3
100
AcDbCircle
 10
99.109666
 20
58.307692
 30
0.0
 40
1.0
100
AcDbArc
 50
90.0
 51
180.0
  0
LINE
  5
B6
330
1F
100
AcDbEntity
  8
GR1-1
  6
CENTER
 62
     6
100
AcDbLine
 10
95.509666
 20
39.771283
 30
0.0
 11
95.509666
 21
258.844101
 31
0.0
  0
LINE
  5
B7
330
1F
100
AcDbEntity
  8
GR1-1
  6
CENTER
 62
     6
100
AcDbLine
 10
124.751622
 20
149.307692
 30
0.0
 11
65.636611
 21
149.307692
 31
0.0
  0
CIRCLE
  5
B8
330
1F
100
AcDbEntity
  8
GR1-1
  6
CONTINUOUS
 62
     6
100
AcDbCircle
 10
290.701814
 20
149.307692
 30
0.0
 40
80.0
  0
CIRCLE
  5
B9
330
1F
100
AcDbEntity
  8
GR1-1
  6
CONTINUOUS
 62
     6
100
AcDbCircle
 10
290.701814
 20
149.307692
 30
0.0
 40
68.0
  0
CIRCLE
  5
BA
330
1F
100
AcDbEntity
  8
GR1-1
  6
CONTINUOUS
 62
     6
100
AcDbCircle
 10
290.701814
 20
149.307692
 30
0.0
 40
35.0
  0
LINE
  5
BB
330
1F
100
AcDbEntity
  8
GR1-1
  6
CENTER
 62
     6
100
AcDbLine
 10
290.701814
 20
39.771283
 30
0.0
 11
290.701814
 21
258.844101
 31
0.0
  0
LINE
  5
BC
330
1F
100
AcDbEntity
  8
LAYERGROUP-1
  6
CENTER
 62
     6
100
AcDbLine
 10
400.238223
 20
149.307692
 30
0.0
 11
181.165405
 21
149.307692
 31
0.0
  0
LINE
  5
BD
330
1F
100
AcDbEntity
  8
LAYERGROUP-1
  6
CONTINUOUS
 62
     3
100
AcDbLine
 10
116.509666
 20
103.939559
 30
0.0
 11
116.509666
 21
69.144849
 31
0.0
  0
ARC
  5
BE
330
1F
100
AcDbEntity
  8
GR1-1
  6
CONTINUOUS
 62
     3
100
AcDbCircle
 10
117.009666
 20
81.307692
 30
0.0
 40
10.6
100
AcDbArc
 50
161.090222
 51
224.303293
  0
ARC
  5
BF
330
1F
100
AcDbEntity
  8
GR1-1
  6
CONTINUOUS
 62
     3
100
AcDbCircle
 10
117.009666
 20
81.307692
 30
0.0
 40
8.0
100
AcDbArc
 50
161.090222
 51
224.303293
  0
INSERT
  5
C3
330
1F
100
AcDbEntity
  8
0
100
AcDbBlockReference
  2
BLKF021
 10
0.0
 20
0.0
 30
0.0
  0
LINE
  5
11B
330
1F
100
AcDbEntity
  8
GR1-1
  6
CONTINUOUS
 62
     7
100
AcDbLine
 10
265.584123
 20
196.07415
 30
0.0
 11
271.02197
 21
198.60986
 31
0.0
  0
LINE
  5
11C
330
1F
100
AcDbEntity
  8
GR1-1
  6
CONTINUOUS
 62
     7
100
AcDbLine
 10
271.02197
 20
198.60986
 30
0.0
 11
268.48626
 21
204.047707
 31
0.0
  0
LINE
  5
11D
330
1F
100
AcDbEntity
  8
GR1-1
  6
CONTINUOUS
 62
     7
100
AcDbLine
 10
268.48626
 20
204.047707
 30
0.0
 11
263.048413
 21
201.511997
 31
0.0
  0
LINE
  5
11E
330
1F
100
AcDbEntity
  8
GR1-1
  6
CONTINUOUS
 62
     7
100
AcDbLine
 10
263.048413
 20
201.511997
 30
0.0
 11
265.584123
 21
196.07415
 31
0.0
  0
LINE
  5
11F
330
1F
100
AcDbEntity
  8
GR1-1
  6
CONTINUOUS
 62
     7
100
AcDbLine
 10
264.471766
 20
198.865583
 30
0.0
 11
265.839846
 21
202.624354
 31
0.0
  0
LINE
  5
120
330
1F
100
AcDbEntity
  8
GR1-1
  6
CONTINUOUS
 62
     7
100
AcDbLine
 10
265.839846
 20
202.624354
 30
0.0
 11
269.199939
 21
201.40138
 31
0.0
  0
LINE
  5
121
330
1F
100
AcDbEntity
  8
GR1-1
  6
CONTINUOUS
 62
     7
100
AcDbLine
 10
269.199939
 20
201.40138
 30
0.0
 11
267.918226
 21
200.803708
 31
0.0
  0
LINE
  5
122
330
1F
100
AcDbEntity
  8
GR1-1
  6
CONTINUOUS
 62
     7
100
AcDbLine
 10
267.918226
 20
200.803708
 30
0.0
 11
266.437519
 21
201.342641
 31
0.0
  0
LINE
  5
123
330
1F
100
AcDbEntity
  8
GR1-1
  6
CONTINUOUS
 62
     7
100
AcDbLine
 10
266.437519
 20
201.342641
 30
0.0
 11
265.753479
 21
199.463256
 31
0.0
  0
LINE
  5
124
330
1F
100
AcDbEntity
  8
GR1-1
  6
CONTINUOUS
 62
     7
100
AcDbLine
 10
265.753479
 20
199.463256
 30
0.0
 11
267.632864
 21
198.779216
 31
0.0
  0
LINE
  5
125
330
1F
100
AcDbEntity
  8
GR1-1
  6
CONTINUOUS
 62
     7
100
AcDbLine
 10
267.632864
 20
198.779216
 30
0.0
 11
267.992488
 21
199.767276
 31
0.0
  0
ARC
  5
126
330
1F
100
AcDbEntity
  8
GR1-1
  6
CONTINUOUS
 62
     7
100
AcDbCircle
 10
267.898519
 20
199.801478
 30
0.0
 40
0.1
100
AcDbArc
 50
-20.0
 51
115.0
  0
LINE
  5
127
330
1F
100
AcDbEntity
  8
GR1-1
  6
CONTINUOUS
 62
     7
100
AcDbLine
 10
267.856257
 20
199.892109
 30
0.0
 11
267.246501
 21
199.607774
 31
0.0
  0
LINE
  5
128
330
1F
100
AcDbEntity
  8
GR1-1
  6
CONTINUOUS
 62
     7
100
AcDbLine
 10
267.246501
 20
199.607774
 30
0.0
 11
267.035191
 21
200.060928
 31
0.0
  0
LINE
  5
129
330
1F
100
AcDbEntity
  8
GR1-1
  6
CONTINUOUS
 62
     7
100
AcDbLine
 10
267.035191
 20
200.060928
 30
0.0
 11
269.598617
 21
201.256273
 31
0.0
  0
LINE
  5
12A
330
1F
100
AcDbEntity
  8
GR1-1
  6
CONTINUOUS
 62
     7
100
AcDbLine
 10
269.598617
 20
201.256273
 30
0.0
 11
270.454132
 21
199.421616
 31
0.0
  0
LINE
  5
12B
330
1F
100
AcDbEntity
  8
GR1-1
  6
CONTINUOUS
 62
     7
100
AcDbLine
 10
270.454132
 20
199.421616
 30
0.0
 11
269.547824
 21
198.998998
 31
0.0
  0
LINE
  5
12C
330
1F
100
AcDbEntity
  8
GR1-1
  6
CONTINUOUS
 62
     7
100
AcDbLine
 10
269.547824
 20
198.998998
 30
0.0
 11
269.216957
 21
199.708545
 31
0.0
  0
ARC
  5
12D
330
1F
100
AcDbEntity
  8
GR1-1
  6
CONTINUOUS
 62
     7
100
AcDbCircle
 10
269.126326
 20
199.666283
 30
0.0
 40
0.1
100
AcDbArc
 50
25.0
 51
160.0
  0
LINE
  5
12E
330
1F
100
AcDbEntity
  8
GR1-1
  6
CONTINUOUS
 62
     7
100
AcDbLine
 10
269.032356
 20
199.700485
 30
0.0
 11
268.230536
 21
197.497503
 31
0.0
  0
LINE
  5
12F
330
1F
100
AcDbEntity
  8
GR1-1
  6
CONTINUOUS
 62
     7
100
AcDbLine
 10
268.230536
 20
197.497503
 30
0.0
 11
264.471766
 21
198.865583
 31
0.0
  0
TEXT
  5
130
330
1F
100
AcDbEntity
  8
LAYERGROUP-1
  6
CONTINUOUS
 62
     7
100
AcDbText
 10
277.220001
 20
200.000534
 30
0.0
 40
7.369145
  1
2
 50
11.0
 41
1.19511
  7
FX_VECTOR
 72
     5
 11
284.218439
 21
201.360892
 31
0.0
100
AcDbText
  0
TEXT
  5
131
330
1F
100
AcDbEntity
  8
LAYERGROUP-1
  6
CONTINUOUS
 62
     7
100
AcDbText
 10
283.498383
 20
201.265701
 30
0.0
 40
7.369145
  1
0
 50
4.0
 41
1.19511
  7
FX_VECTOR
 72
     5
 11
290.610441
 21
201.763025
 31
0.0
100
AcDbText
  0
TEXT
  5
132
330
1F
100
AcDbEntity
  8
LAYERGROUP-1
  6
CONTINUOUS
 62
     7
100
AcDbText
 10
289.884186
 20
201.756287
 30
0.0
 40
7.369145
  1
0
 50
357.0
 41
1.19511
  7
FX_VECTOR
 72
     5
 11
297.00384
 21
201.383161
 31
0.0
100
AcDbText
  0
TEXT
  5
133
330
1F
100
AcDbEntity
  8
LAYERGROUP-1
  6
CONTINUOUS
 62
     7
100
AcDbText
 10
297.191559
 20
201.35965
 30
0.0
 40
7.369145
  1
X
 50
349.0
 41
1.19511
  7
FX_VECTOR
 72
     5
 11
304.189996
 21
199.999291
 31
0.0
100
AcDbText
  0
TEXT
  5
134
330
1F
100
AcDbEntity
  8
LAYERGROUP-1
  6
CONTINUOUS
 62
     7
100
AcDbText
 10
304.37265
 20
199.94989
 30
0.0
 40
7.369145
  1
4
 50
341.0
 41
1.128715
  7
FX_VECTOR
 72
     5
 11
311.113654
 21
197.628776
 31
0.0
100
AcDbText
  0
TEXT
  5
135
330
1F
100
AcDbEntity
  8
LAYERGROUP-1
  6
CONTINUOUS
 62
     7
100
AcDbText
 10
310.442474
 20
197.906357
 30
0.0
 40
7.369145
  1
2
 50
334.0
 41
1.19511
  7
FX_VECTOR
 72
     5
 11
316.850359
 21
194.781023
 31
0.0
100
AcDbText
  0
LINE
  5
136
330
1F
100
AcDbEntity
  8
GR1-1
  6
CONTINUOUS
 62
     3
100
AcDbLine
 10
109.423748
 20
224.71133
 30
0.0
 11
113.909666
 21
229.307692
 31
0.0
  0
LINE
  5
137
330
1F
100
AcDbEntity
  8
GR1-1
  6
CONTINUOUS
 62
     3
100
AcDbLine
 10
113.909666
 20
229.307692
 30
0.0
 11
113.909666
 21
235.707692
 31
0.0
  0
ARC
  5
138
330
1F
100
AcDbEntity
  8
GR1-1
  6
CONTINUOUS
 62
     3
100
AcDbCircle
 10
112.909666
 20
235.707692
 30
0.0
 40
1.0
100
AcDbArc
 50
0.0
 51
90.0
  0
LINE
  5
139
330
1F
100
AcDbEntity
  8
GR1-1
  6
CONTINUOUS
 62
     3
100
AcDbLine
 10
112.909666
 20
236.707692
 30
0.0
 11
99.109666
 21
236.707692
 31
0.0
  0
ARC
  5
13A
330
1F
100
AcDbEntity
  8
GR1-1
  6
CONTINUOUS
 62
     3
100
AcDbCircle
 10
99.109666
 20
240.307692
 30
0.0
 40
3.6
100
AcDbArc
 50
180.0
 51
270.0
  0
LINE
  5
13B
330
1F
100
AcDbEntity
  8
GR1-1
  6
CONTINUOUS
 62
     3
100
AcDbLine
 10
98.109666
 20
241.807692
 30
0.0
 11
92.909666
 21
241.807692
 31
0.0
  0
LINE
  5
13C
330
1F
100
AcDbEntity
  8
GR1-1
  6
CONTINUOUS
 62
     3
100
AcDbLine
 10
98.109666
 20
241.807692
 30
0.0
 11
98.109666
 21
240.307692
 31
0.0
  0
LINE
  5
13D
330
1F
100
AcDbEntity
  8
GR1-1
  6
CONTINUOUS
 62
     3
100
AcDbLine
 10
99.109666
 20
239.307692
 30
0.0
 11
112.909666
 21
239.307692
 31
0.0
  0
ARC
  5
13E
330
1F
100
AcDbEntity
  8
GR1-1
  6
CONTINUOUS
 62
     3
100
AcDbCircle
 10
112.909666
 20
235.707692
 30
0.0
 40
3.6
100
AcDbArc
 50
0.0
 51
90.0
  0
LINE
  5
13F
330
1F
100
AcDbEntity
  8
GR1-1
  6
CONTINUOUS
 62
     3
100
AcDbLine
 10
116.509666
 20
235.707692
 30
0.0
 11
116.509666
 21
229.470536
 31
0.0
  0
ARC
  5
140
330
1F
100
AcDbEntity
  8
GR1-1
  6
CONTINUOUS
 62
     3
100
AcDbCircle
 10
113.509666
 20
229.470536
 30
0.0
 40
3.0
100
AcDbArc
 50
315.696707
 51
360.0
  0
LINE
  5
141
330
1F
100
AcDbEntity
  8
GR1-1
  6
CONTINUOUS
 62
     3
100
AcDbLine
 10
115.656624
 20
227.375166
 30
0.0
 11
111.284445
 21
222.895344
 31
0.0
  0
ARC
  5
142
330
1F
100
AcDbEntity
  8
GR1-1
  6
CONTINUOUS
 62
     3
100
AcDbCircle
 10
99.109666
 20
240.307692
 30
0.0
 40
1.0
100
AcDbArc
 50
180.0
 51
270.0
  0
LINE
  5
143
330
1F
100
AcDbEntity
  8
LAYERGROUP-1
  6
CONTINUOUS
 62
     3
100
AcDbLine
 10
116.509666
 20
194.675825
 30
0.0
 11
116.509666
 21
229.470536
 31
0.0
  0
ARC
  5
144
330
1F
100
AcDbEntity
  8
GR1-1
  6
CONTINUOUS
 62
     3
100
AcDbCircle
 10
117.009666
 20
217.307692
 30
0.0
 40
10.6
100
AcDbArc
 50
135.696707
 51
198.909778
  0
ARC
  5
145
330
1F
100
AcDbEntity
  8
GR1-1
  6
CONTINUOUS
 62
     3
100
AcDbCircle
 10
117.009666
 20
217.307692
 30
0.0
 40
8.0
100
AcDbArc
 50
135.696707
 51
198.909778
  0
LINE
  5
146
330
1F
100
AcDbEntity
  8
GR1-1
  6
CONTINUOUS
 62
     3
100
AcDbLine
 10
81.595584
 20
73.904054
 30
0.0
 11
77.109666
 21
69.307692
 31
0.0
  0
LINE
  5
147
330
1F
100
AcDbEntity
  8
GR1-1
  6
CONTINUOUS
 62
     3
100
AcDbLine
 10
77.109666
 20
69.307692
 30
0.0
 11
77.109666
 21
62.907692
 31
0.0
  0
ARC
  5
148
330
1F
100
AcDbEntity
  8
GR1-1
  6
CONTINUOUS
 62
     3
100
AcDbCircle
 10
78.109666
 20
62.907692
 30
0.0
 40
1.0
100
AcDbArc
 50
180.0
 51
270.0
  0
LINE
  5
149
330
1F
100
AcDbEntity
  8
GR1-1
  6
CONTINUOUS
 62
     3
100
AcDbLine
 10
78.109666
 20
61.907692
 30
0.0
 11
91.909666
 21
61.907692
 31
0.0
  0
ARC
  5
14A
330
1F
100
AcDbEntity
  8
GR1-1
  6
CONTINUOUS
 62
     3
100
AcDbCircle
 10
91.909666
 20
58.307692
 30
0.0
 40
3.6
100
AcDbArc
 50
0.0
 51
90.0
  0
LINE
  5
14B
330
1F
100
AcDbEntity
  8
GR1-1
  6
CONTINUOUS
 62
     3
100
AcDbLine
 10
92.909666
 20
56.807692
 30
0.0
 11
92.909666
 21
58.307692
 31
0.0
  0
LINE
  5
14C
330
1F
100
AcDbEntity
  8
GR1-1
  6
CONTINUOUS
 62
     3
100
AcDbLine
 10
91.909666
 20
59.307692
 30
0.0
 11
78.109666
 21
59.307692
 31
0.0
  0
ARC
  5
14D
330
1F
100
AcDbEntity
  8
GR1-1
  6
CONTINUOUS
 62
     3
100
AcDbCircle
 10
78.109666
 20
62.907692
 30
0.0
 40
3.6
100
AcDbArc
 50
180.0
 51
270.0
  0
LINE
  5
14E
330
1F
100
AcDbEntity
  8
GR1-1
  6
CONTINUOUS
 62
     3
100
AcDbLine
 10
74.509666
 20
62.907692
 30
0.0
 11
74.509666
 21
69.144849
 31
0.0
  0
ARC
  5
14F
330
1F
100
AcDbEntity
  8
GR1-1
  6
CONTINUOUS
 62
     3
100
AcDbCircle
 10
77.509666
 20
69.144849
 30
0.0
 40
3.0
100
AcDbArc
 50
135.696707
 51
180.0
  0
LINE
  5
150
330
1F
100
AcDbEntity
  8
GR1-1
  6
CONTINUOUS
 62
     3
100
AcDbLine
 10
75.362708
 20
71.240218
 30
0.0
 11
79.734887
 21
75.720041
 31
0.0
  0
ARC
  5
151
330
1F
100
AcDbEntity
  8
GR1-1
  6
CONTINUOUS
 62
     3
100
AcDbCircle
 10
91.909666
 20
58.307692
 30
0.0
 40
1.0
100
AcDbArc
 50
0.0
 51
90.0
  0
LINE
  5
152
330
1F
100
AcDbEntity
  8
LAYERGROUP-1
  6
CONTINUOUS
 62
     3
100
AcDbLine
 10
74.509666
 20
103.939559
 30
0.0
 11
74.509666
 21
69.144849
 31
0.0
  0
ARC
  5
153
330
1F
100
AcDbEntity
  8
GR1-1
  6
CONTINUOUS
 62
     3
100
AcDbCircle
 10
74.009666
 20
81.307692
 30
0.0
 40
10.6
100
AcDbArc
 50
-44.303293
 51
18.909778
  0
ARC
  5
154
330
1F
100
AcDbEntity
  8
GR1-1
  6
CONTINUOUS
 62
     3
100
AcDbCircle
 10
74.009666
 20
81.307692
 30
0.0
 40
8.0
100
AcDbArc
 50
-44.303293
 51
18.831409
  0
LINE
  5
155
330
1F
100
AcDbEntity
  8
GR1-1
  6
CONTINUOUS
 62
     3
100
AcDbLine
 10
81.595584
 20
224.71133
 30
0.0
 11
77.109666
 21
229.307692
 31
0.0
  0
LINE
  5
156
330
1F
100
AcDbEntity
  8
GR1-1
  6
CONTINUOUS
 62
     3
100
AcDbLine
 10
77.109666
 20
229.307692
 30
0.0
 11
77.109666
 21
235.707692
 31
0.0
  0
ARC
  5
157
330
1F
100
AcDbEntity
  8
GR1-1
  6
CONTINUOUS
 62
     3
100
AcDbCircle
 10
78.109666
 20
235.707692
 30
0.0
 40
1.0
100
AcDbArc
 50
90.0
 51
180.0
  0
LINE
  5
158
330
1F
100
AcDbEntity
  8
GR1-1
  6
CONTINUOUS
 62
     3
100
AcDbLine
 10
78.109666
 20
236.707692
 30
0.0
 11
91.909666
 21
236.707692
 31
0.0
  0
ARC
  5
159
330
1F
100
AcDbEntity
  8
GR1-1
  6
CONTINUOUS
 62
     3
100
AcDbCircle
 10
91.909666
 20
240.307692
 30
0.0
 40
3.6
100
AcDbArc
 50
270.0
 51
360.0
  0
LINE
  5
15A
330
1F
100
AcDbEntity
  8
GR1-1
  6
CONTINUOUS
 62
     3
100
AcDbLine
 10
92.909666
 20
241.807692
 30
0.0
 11
92.909666
 21
240.307692
 31
0.0
  0
LINE
  5
15B
330
1F
100
AcDbEntity
  8
GR1-1
  6
CONTINUOUS
 62
     3
100
AcDbLine
 10
91.909666
 20
239.307692
 30
0.0
 11
78.109666
 21
239.307692
 31
0.0
  0
ARC
  5
15C
330
1F
100
AcDbEntity
  8
GR1-1
  6
CONTINUOUS
 62
     3
100
AcDbCircle
 10
78.109666
 20
235.707692
 30
0.0
 40
3.6
100
AcDbArc
 50
90.0
 51
180.0
  0
LINE
  5
15D
330
1F
100
AcDbEntity
  8
GR1-1
  6
CONTINUOUS
 62
     3
100
AcDbLine
 10
74.509666
 20
235.707692
 30
0.0
 11
74.509666
 21
229.470536
 31
0.0
  0
ARC
  5
15E
330
1F
100
AcDbEntity
  8
GR1-1
  6
CONTINUOUS
 62
     3
100
AcDbCircle
 10
77.509666
 20
229.470536
 30
0.0
 40
3.0
100
AcDbArc
 50
180.0
 51
224.303293
  0
LINE
  5
15F
330
1F
100
AcDbEntity
  8
GR1-1
  6
CONTINUOUS
 62
     3
100
AcDbLine
 10
75.362708
 20
227.375166
 30
0.0
 11
79.734887
 21
222.895344
 31
0.0
  0
ARC
  5
160
330
1F
100
AcDbEntity
  8
GR1-1
  6
CONTINUOUS
 62
     3
100
AcDbCircle
 10
91.909666
 20
240.307692
 30
0.0
 40
1.0
100
AcDbArc
 50
270.0
 51
360.0
  0
LINE
  5
161
330
1F
100
AcDbEntity
  8
LAYERGROUP-1
  6
CONTINUOUS
 62
     3
100
AcDbLine
 10
74.509666
 20
194.675825
 30
0.0
 11
74.509666
 21
229.470536
 31
0.0
  0
ARC
  5
162
330
1F
100
AcDbEntity
  8
GR1-1
  6
CONTINUOUS
 62
     3
100
AcDbCircle
 10
74.009666
 20
217.307692
 30
0.0
 40
10.6
100
AcDbArc
 50
-18.909778
 51
44.303293
  0
ARC
  5
163
330
1F
100
AcDbEntity
  8
GR1-1
  6
CONTINUOUS
 62
     3
100
AcDbCircle
 10
74.009666
 20
217.307692
 30
0.0
 40
8.0
100
AcDbArc
 50
-18.909778
 51
44.303293
  0
LINE
  5
164
330
1F
100
AcDbEntity
  8
GR1-1
  6
CONTINUOUS
 62
     3
100
AcDbLine
 10
75.609666
 20
125.832692
 30
0.0
 11
84.209666
 21
125.832692
 31
0.0
  0
LINE
  5
165
330
1F
100
AcDbEntity
  8
GR1-1
  6
CONTINUOUS
 62
     3
100
AcDbLine
 10
75.609666
 20
123.832692
 30
0.0
 11
84.209666
 21
123.832692
 31
0.0
  0
LINE
  5
166
330
1F
100
AcDbEntity
  8
GR1-1
  6
CONTINUOUS
 62
     3
100
AcDbLine
 10
71.009666
 20
114.540839
 30
0.0
 11
71.009666
 21
121.232692
 31
0.0
  0
LINE
  5
167
330
1F
100
AcDbEntity
  8
GR1-1
  6
CONTINUOUS
 62
     3
100
AcDbLine
 10
73.609666
 20
121.832692
 30
0.0
 11
73.609666
 21
114.307692
 31
0.0
  0
ARC
  5
168
330
1F
100
AcDbEntity
  8
LAYERGROUP-1
  6
CONTINUOUS
 62
     3
100
AcDbCircle
 10
75.009666
 20
114.540839
 30
0.0
 40
4.0
100
AcDbArc
 50
180.0
 51
198.909778
  0
LINE
  5
169
330
1F
100
AcDbEntity
  8
LAYERGROUP-1
  6
CONTINUOUS
 62
     3
100
AcDbLine
 10
73.609666
 20
114.307692
 30
0.0
 11
84.037585
 21
84.742928
 31
0.0
  0
LINE
  5
16A
330
1F
100
AcDbEntity
  8
LAYERGROUP-1
  6
CONTINUOUS
 62
     3
100
AcDbLine
 10
71.227436
 20
113.24519
 30
0.0
 11
81.581446
 21
83.889969
 31
0.0
  0
ARC
  5
16B
330
1F
100
AcDbEntity
  8
LAYERGROUP-1
  6
CONTINUOUS
 62
     3
100
AcDbCircle
 10
75.609666
 20
121.832692
 30
0.0
 40
2.0
100
AcDbArc
 50
90.0
 51
180.0
  0
ARC
  5
16C
330
1F
100
AcDbEntity
  8
LAYERGROUP-1
  6
CONTINUOUS
 62
     3
100
AcDbCircle
 10
75.609666
 20
121.232692
 30
0.0
 40
4.6
100
AcDbArc
 50
90.0
 51
180.0
  0
LINE
  5
16D
330
1F
100
AcDbEntity
  8
GR1-1
  6
CONTINUOUS
 62
     3
100
AcDbLine
 10
115.409666
 20
125.832692
 30
0.0
 11
106.809666
 21
125.832692
 31
0.0
  0
LINE
  5
16E
330
1F
100
AcDbEntity
  8
GR1-1
  6
CONTINUOUS
 62
     3
100
AcDbLine
 10
115.409666
 20
123.832692
 30
0.0
 11
106.809666
 21
123.832692
 31
0.0
  0
LINE
  5
16F
330
1F
100
AcDbEntity
  8
GR1-1
  6
CONTINUOUS
 62
     3
100
AcDbLine
 10
120.009666
 20
114.540839
 30
0.0
 11
120.009666
 21
121.232692
 31
0.0
  0
LINE
  5
170
330
1F
100
AcDbEntity
  8
GR1-1
  6
CONTINUOUS
 62
     3
100
AcDbLine
 10
117.409666
 20
121.832692
 30
0.0
 11
117.409666
 21
114.307692
 31
0.0
  0
ARC
  5
171
330
1F
100
AcDbEntity
  8
LAYERGROUP-1
  6
CONTINUOUS
 62
     3
100
AcDbCircle
 10
116.009666
 20
114.540839
 30
0.0
 40
4.0
100
AcDbArc
 50
341.090222
 51
360.0
  0
LINE
  5
172
330
1F
100
AcDbEntity
  8
LAYERGROUP-1
  6
CONTINUOUS
 62
     3
100
AcDbLine
 10
117.409666
 20
114.307692
 30
0.0
 11
106.981747
 21
84.742928
 31
0.0
  0
LINE
  5
173
330
1F
100
AcDbEntity
  8
LAYERGROUP-1
  6
CONTINUOUS
 62
     3
100
AcDbLine
 10
119.791896
 20
113.24519
 30
0.0
 11
109.437886
 21
83.889969
 31
0.0
  0
ARC
  5
174
330
1F
100
AcDbEntity
  8
LAYERGROUP-1
  6
CONTINUOUS
 62
     3
100
AcDbCircle
 10
115.409666
 20
121.832692
 30
0.0
 40
2.0
100
AcDbArc
 50
0.0
 51
90.0
  0
ARC
  5
175
330
1F
100
AcDbEntity
  8
LAYERGROUP-1
  6
CONTINUOUS
 62
     3
100
AcDbCircle
 10
115.409666
 20
121.232692
 30
0.0
 40
4.6
100
AcDbArc
 50
0.0
 51
90.0
  0
LINE
  5
176
330
1F
100
AcDbEntity
  8
GR1-1
  6
CONTINUOUS
 62
     3
100
AcDbLine
 10
75.609666
 20
172.782692
 30
0.0
 11
84.233412
 21
172.782692
 31
0.0
  0
LINE
  5
177
330
1F
100
AcDbEntity
  8
GR1-1
  6
CONTINUOUS
 62
     3
100
AcDbLine
 10
75.609666
 20
174.782692
 30
0.0
 11
84.209666
 21
174.782692
 31
0.0
  0
LINE
  5
178
330
1F
100
AcDbEntity
  8
GR1-1
  6
CONTINUOUS
 62
     3
100
AcDbLine
 10
71.009666
 20
184.074546
 30
0.0
 11
71.009666
 21
177.382692
 31
0.0
  0
LINE
  5
179
330
1F
100
AcDbEntity
  8
GR1-1
  6
CONTINUOUS
 62
     3
100
AcDbLine
 10
73.609666
 20
176.782692
 30
0.0
 11
73.609666
 21
184.307692
 31
0.0
  0
ARC
  5
17A
330
1F
100
AcDbEntity
  8
LAYERGROUP-1
  6
CONTINUOUS
 62
     3
100
AcDbCircle
 10
75.009666
 20
184.074546
 30
0.0
 40
4.0
100
AcDbArc
 50
161.090222
 51
180.0
  0
LINE
  5
17B
330
1F
100
AcDbEntity
  8
LAYERGROUP-1
  6
CONTINUOUS
 62
     3
100
AcDbLine
 10
73.609666
 20
184.307692
 30
0.0
 11
84.037585
 21
213.872456
 31
0.0
  0
LINE
  5
17C
330
1F
100
AcDbEntity
  8
LAYERGROUP-1
  6
CONTINUOUS
 62
     3
100
AcDbLine
 10
71.227436
 20
185.370195
 30
0.0
 11
81.581446
 21
214.725416
 31
0.0
  0
ARC
  5
17D
330
1F
100
AcDbEntity
  8
LAYERGROUP-1
  6
CONTINUOUS
 62
     3
100
AcDbCircle
 10
75.609666
 20
176.782692
 30
0.0
 40
2.0
100
AcDbArc
 50
180.0
 51
270.0
  0
ARC
  5
17E
330
1F
100
AcDbEntity
  8
LAYERGROUP-1
  6
CONTINUOUS
 62
     3
100
AcDbCircle
 10
75.609666
 20
177.382692
 30
0.0
 40
4.6
100
AcDbArc
 50
180.0
 51
270.0
  0
LINE
  5
17F
330
1F
100
AcDbEntity
  8
GR1-1
  6
CONTINUOUS
 62
     3
100
AcDbLine
 10
115.409666
 20
172.782692
 30
0.0
 11
106.78592
 21
172.782692
 31
0.0
  0
LINE
  5
180
330
1F
100
AcDbEntity
  8
GR1-1
  6
CONTINUOUS
 62
     3
100
AcDbLine
 10
115.409666
 20
174.782692
 30
0.0
 11
106.809666
 21
174.782692
 31
0.0
  0
LINE
  5
181
330
1F
100
AcDbEntity
  8
GR1-1
  6
CONTINUOUS
 62
     3
100
AcDbLine
 10
120.009666
 20
184.074546
 30
0.0
 11
120.009666
 21
177.382692
 31
0.0
  0
LINE
  5
182
330
1F
100
AcDbEntity
  8
GR1-1
  6
CONTINUOUS
 62
     3
100
AcDbLine
 10
117.409666
 20
176.782692
 30
0.0
 11
117.409666
 21
184.307692
 31
0.0
  0
ARC
  5
183
330
1F
100
AcDbEntity
  8
LAYERGROUP-1
  6
CONTINUOUS
 62
     3
100
AcDbCircle
 10
116.009666
 20
184.074546
 30
0.0
 40
4.0
100
AcDbArc
 50
0.0
 51
18.909518
  0
LINE
  5
184
330
1F
100
AcDbEntity
  8
LAYERGROUP-1
  6
CONTINUOUS
 62
     3
100
AcDbLine
 10
117.409666
 20
184.307692
 30
0.0
 11
106.981747
 21
213.872456
 31
0.0
  0
LINE
  5
185
330
1F
100
AcDbEntity
  8
LAYERGROUP-1
  6
CONTINUOUS
 62
     3
100
AcDbLine
 10
119.791896
 20
185.370195
 30
0.0
 11
109.437886
 21
214.725416
 31
0.0
  0
ARC
  5
186
330
1F
100
AcDbEntity
  8
LAYERGROUP-1
  6
CONTINUOUS
 62
     3
100
AcDbCircle
 10
115.409666
 20
176.782692
 30
0.0
 40
2.0
100
AcDbArc
 50
270.0
 51
360.0
  0
ARC
  5
187
330
1F
100
AcDbEntity
  8
LAYERGROUP-1
  6
CONTINUOUS
 62
     3
100
AcDbCircle
 10
115.409666
 20
177.382692
 30
0.0
 40
4.6
100
AcDbArc
 50
-90.0
 51
0.0
  0
LINE
  5
188
330
1F
100
AcDbEntity
  8
LAYERGROUP-1
  6
CONTINUOUS
 62
     3
100
AcDbLine
 10
68.009666
 20
134.807692
 30
0.0
 11
68.009666
 21
163.807692
 31
0.0
  0
ARC
  5
189
330
1F
100
AcDbEntity
  8
LAYERGROUP-1
  6
CONTINUOUS
 62
     3
100
AcDbCircle
 10
69.009666
 20
138.307692
 30
0.0
 40
1.0
100
AcDbArc
 50
90.0
 51
180.0
  0
ARC
  5
18A
330
1F
100
AcDbEntity
  8
LAYERGROUP-1
  6
CONTINUOUS
 62
     3
100
AcDbCircle
 10
69.009666
 20
160.307692
 30
0.0
 40
1.0
100
AcDbArc
 50
180.0
 51
270.0
  0
LINE
  5
18B
330
1F
100
AcDbEntity
  8
LAYERGROUP-1
  6
CONTINUOUS
 62
     3
100
AcDbLine
 10
87.009666
 20
126.632692
 30
0.0
 11
87.009666
 21
128.807692
 31
0.0
  0
LINE
  5
18C
330
1F
100
AcDbEntity
  8
GR1-1
  6
CONTINUOUS
 62
     3
100
AcDbLine
 10
87.009666
 20
128.807692
 30
0.0
 11
85.009666
 21
128.807692
 31
0.0
  0
LINE
  5
18D
330
1F
100
AcDbEntity
  8
LAYERGROUP-1
  6
CONTINUOUS
 62
     3
100
AcDbLine
 10
85.009666
 20
126.632692
 30
0.0
 11
85.009666
 21
171.982692
 31
0.0
  0
ARC
  5
18E
330
1F
100
AcDbEntity
  8
LAYERGROUP-1
  6
CONTINUOUS
 62
     3
100
AcDbCircle
 10
84.209666
 20
126.632692
 30
0.0
 40
0.8
100
AcDbArc
 50
270.0
 51
360.0
  0
LINE
  5
18F
330
1F
100
AcDbEntity
  8
LAYERGROUP-1
  6
CONTINUOUS
 62
     3
100
AcDbLine
 10
104.009666
 20
126.632692
 30
0.0
 11
104.009666
 21
128.807692
 31
0.0
  0
LINE
  5
190
330
1F
100
AcDbEntity
  8
GR1-1
  6
CONTINUOUS
 62
     3
100
AcDbLine
 10
104.009666
 20
128.807692
 30
0.0
 11
106.009666
 21
128.807692
 31
0.0
  0
ARC
  5
191
330
1F
100
AcDbEntity
  8
LAYERGROUP-1
  6
CONTINUOUS
 62
     3
100
AcDbCircle
 10
106.809666
 20
126.632692
 30
0.0
 40
0.8
100
AcDbArc
 50
180.0
 51
270.0
  0
LINE
  5
192
330
1F
100
AcDbEntity
  8
LAYERGROUP-1
  6
CONTINUOUS
 62
     3
100
AcDbLine
 10
87.009666
 20
171.982692
 30
0.0
 11
87.009666
 21
169.807692
 31
0.0
  0
LINE
  5
193
330
1F
100
AcDbEntity
  8
GR1-1
  6
CONTINUOUS
 62
     3
100
AcDbLine
 10
87.009666
 20
169.807692
 30
0.0
 11
85.009666
 21
169.807692
 31
0.0
  0
ARC
  5
194
330
1F
100
AcDbEntity
  8
LAYERGROUP-1
  6
CONTINUOUS
 62
     3
100
AcDbCircle
 10
84.209666
 20
171.982692
 30
0.0
 40
0.8
100
AcDbArc
 50
0.0
 51
90.0
  0
LINE
  5
195
330
1F
100
AcDbEntity
  8
LAYERGROUP-1
  6
CONTINUOUS
 62
     3
100
AcDbLine
 10
104.009666
 20
171.982692
 30
0.0
 11
104.009666
 21
169.807692
 31
0.0
  0
LINE
  5
196
330
1F
100
AcDbEntity
  8
GR1-1
  6
CONTINUOUS
 62
     3
100
AcDbLine
 10
104.009666
 20
169.807692
 30
0.0
 11
106.009666
 21
169.807692
 31
0.0
  0
ARC
  5
197
330
1F
100
AcDbEntity
  8
LAYERGROUP-1
  6
CONTINUOUS
 62
     3
100
AcDbCircle
 10
106.809666
 20
171.982692
 30
0.0
 40
0.8
100
AcDbArc
 50
90.0
 51
180.0
  0
ARC
  5
198
330
1F
100
AcDbEntity
  8
LAYERGROUP-1
  6
CONTINUOUS
 62
     3
100
AcDbCircle
 10
84.209666
 20
126.632692
 30
0.0
 40
2.8
100
AcDbArc
 50
270.0
 51
360.0
  0
ARC
  5
199
330
1F
100
AcDbEntity
  8
LAYERGROUP-1
  6
CONTINUOUS
 62
     3
100
AcDbCircle
 10
106.809666
 20
171.982692
 30
0.0
 40
2.8
100
AcDbArc
 50
90.0
 51
180.0
  0
ARC
  5
19A
330
1F
100
AcDbEntity
  8
LAYERGROUP-1
  6
CONTINUOUS
 62
     3
100
AcDbCircle
 10
84.209666
 20
171.982692
 30
0.0
 40
2.8
100
AcDbArc
 50
0.0
 51
90.0
  0
ARC
  5
19B
330
1F
100
AcDbEntity
  8
LAYERGROUP-1
  6
CONTINUOUS
 62
     3
100
AcDbCircle
 10
106.809666
 20
126.632692
 30
0.0
 40
2.8
100
AcDbArc
 50
180.0
 51
270.0
  0
LINE
  5
19C
330
1F
100
AcDbEntity
  8
LAYERGROUP-1
  6
CONTINUOUS
 62
     3
100
AcDbLine
 10
84.009666
 20
125.807692
 30
0.0
 11
72.009666
 21
125.807692
 31
0.0
  0
LINE
  5
19D
330
1F
100
AcDbEntity
  8
LAYERGROUP-1
  6
CONTINUOUS
 62
     3
100
AcDbLine
 10
71.009666
 20
126.807692
 30
0.0
 11
71.009666
 21
134.807692
 31
0.0
  0
LINE
  5
19E
330
1F
100
AcDbEntity
  8
LAYERGROUP-1
  6
CONTINUOUS
 62
     3
100
AcDbLine
 10
85.009666
 20
134.807692
 30
0.0
 11
81.90678
 21
134.807692
 31
0.0
  0
LINE
  5
19F
330
1F
100
AcDbEntity
  8
LAYERGROUP-1
  6
CONTINUOUS
 62
     3
100
AcDbLine
 10
74.112552
 20
134.807692
 30
0.0
 11
68.009666
 21
134.807692
 31
0.0
  0
CIRCLE
  5
1A0
330
1F
100
AcDbEntity
  8
LAYERGROUP-1
  6
CONTINUOUS
 62
     3
100
AcDbCircle
 10
78.009666
 20
132.557692
 30
0.0
 40
4.5
  0
LINE
  5
1A1
330
1F
100
AcDbEntity
  8
LAYERGROUP-1
  6
CONTINUOUS
 62
     3
100
AcDbLine
 10
84.009666
 20
139.307692
 30
0.0
 11
69.009666
 21
139.307692
 31
0.0
  0
ARC
  5
1A2
330
1F
100
AcDbEntity
  8
LAYERGROUP-1
  6
CONTINUOUS
 62
     3
100
AcDbCircle
 10
84.009666
 20
126.807692
 30
0.0
 40
1.0
100
AcDbArc
 50
270.0
 51
360.0
  0
ARC
  5
1A3
330
1F
100
AcDbEntity
  8
LAYERGROUP-1
  6
CONTINUOUS
 62
     3
100
AcDbCircle
 10
72.009666
 20
126.807692
 30
0.0
 40
1.0
100
AcDbArc
 50
180.0
 51
270.0
  0
ARC
  5
1A4
330
1F
100
AcDbEntity
  8
LAYERGROUP-1
  6
CONTINUOUS
 62
     3
100
AcDbCircle
 10
84.009666
 20
138.307692
 30
0.0
 40
1.0
100
AcDbArc
 50
0.0
 51
90.0
  0
LINE
  5
1A5
330
1F
100
AcDbEntity
  8
LAYERGROUP-1
  6
CONTINUOUS
 62
     3
100
AcDbLine
 10
84.009666
 20
159.307692
 30
0.0
 11
69.009666
 21
159.307692
 31
0.0
  0
LINE
  5
1A6
330
1F
100
AcDbEntity
  8
LAYERGROUP-1
  6
CONTINUOUS
 62
     3
100
AcDbLine
 10
71.009666
 20
163.807692
 30
0.0
 11
71.009666
 21
171.807692
 31
0.0
  0
LINE
  5
1A7
330
1F
100
AcDbEntity
  8
LAYERGROUP-1
  6
CONTINUOUS
 62
     3
100
AcDbLine
 10
85.009666
 20
163.807692
 30
0.0
 11
81.90678
 21
163.807692
 31
0.0
  0
LINE
  5
1A8
330
1F
100
AcDbEntity
  8
LAYERGROUP-1
  6
CONTINUOUS
 62
     3
100
AcDbLine
 10
74.112552
 20
163.807692
 30
0.0
 11
68.009666
 21
163.807692
 31
0.0
  0
CIRCLE
  5
1A9
330
1F
100
AcDbEntity
  8
LAYERGROUP-1
  6
CONTINUOUS
 62
     3
100
AcDbCircle
 10
78.009666
 20
166.057692
 30
0.0
 40
4.5
  0
LINE
  5
1AA
330
1F
100
AcDbEntity
  8
LAYERGROUP-1
  6
CONTINUOUS
 62
     3
100
AcDbLine
 10
84.009666
 20
172.807692
 30
0.0
 11
72.009666
 21
172.807692
 31
0.0
  0
ARC
  5
1AB
330
1F
100
AcDbEntity
  8
LAYERGROUP-1
  6
CONTINUOUS
 62
     3
100
AcDbCircle
 10
84.009666
 20
160.307692
 30
0.0
 40
1.0
100
AcDbArc
 50
270.0
 51
360.0
  0
ARC
  5
1AC
330
1F
100
AcDbEntity
  8
LAYERGROUP-1
  6
CONTINUOUS
 62
     3
100
AcDbCircle
 10
84.009666
 20
171.807692
 30
0.0
 40
1.0
100
AcDbArc
 50
0.0
 51
90.0
  0
ARC
  5
1AD
330
1F
100
AcDbEntity
  8
LAYERGROUP-1
  6
CONTINUOUS
 62
     3
100
AcDbCircle
 10
72.009666
 20
171.807692
 30
0.0
 40
1.0
100
AcDbArc
 50
90.0
 51
180.0
  0
LINE
  5
1AE
330
1F
100
AcDbEntity
  8
LAYERGROUP-1
  6
CONTINUOUS
 62
     3
100
AcDbLine
 10
83.134666
 20
134.432692
 30
0.0
 11
83.759666
 21
134.432692
 31
0.0
  0
LINE
  5
1AF
330
1F
100
AcDbEntity
  8
LAYERGROUP-1
  6
CONTINUOUS
 62
     3
100
AcDbLine
 10
83.759666
 20
134.432692
 30
0.0
 11
83.759666
 21
130.932692
 31
0.0
  0
LINE
  5
1B0
330
1F
100
AcDbEntity
  8
LAYERGROUP-1
  6
CONTINUOUS
 62
     3
100
AcDbLine
 10
83.759666
 20
130.932692
 30
0.0
 11
83.134666
 21
130.307692
 31
0.0
  0
LINE
  5
1B1
330
1F
100
AcDbEntity
  8
LAYERGROUP-1
  6
CONTINUOUS
 62
     3
100
AcDbLine
 10
83.134666
 20
130.307692
 30
0.0
 11
83.134666
 21
129.582692
 31
0.0
  0
LINE
  5
1B2
330
1F
100
AcDbEntity
  8
LAYERGROUP-1
  6
CONTINUOUS
 62
     3
100
AcDbLine
 10
84.384666
 20
129.582692
 30
0.0
 11
84.384666
 21
129.945192
 31
0.0
  0
LINE
  5
1B3
330
1F
100
AcDbEntity
  8
LAYERGROUP-1
  6
CONTINUOUS
 62
     3
100
AcDbLine
 10
84.384666
 20
129.582692
 30
0.0
 11
85.009666
 21
129.582692
 31
0.0
  0
LINE
  5
1B4
330
1F
100
AcDbEntity
  8
LAYERGROUP-1
  6
CONTINUOUS
 62
     3
100
AcDbLine
 10
81.90678
 20
130.307692
 30
0.0
 11
83.134666
 21
130.307692
 31
0.0
  0
ARC
  5
1B5
330
1F
100
AcDbEntity
  8
LAYERGROUP-1
  6
CONTINUOUS
 62
     3
100
AcDbCircle
 10
83.759666
 20
129.582692
 30
0.0
 40
0.625
100
AcDbArc
 50
180.0
 51
360.0
  0
LINE
  5
1B6
330
1F
100
AcDbEntity
  8
LAYERGROUP-1
  6
CONTINUOUS
 62
     3
100
AcDbLine
 10
72.884666
 20
134.432692
 30
0.0
 11
72.259666
 21
134.432692
 31
0.0
  0
LINE
  5
1B7
330
1F
100
AcDbEntity
  8
LAYERGROUP-1
  6
CONTINUOUS
 62
     3
100
AcDbLine
 10
72.259666
 20
134.432692
 30
0.0
 11
72.259666
 21
130.932692
 31
0.0
  0
LINE
  5
1B8
330
1F
100
AcDbEntity
  8
LAYERGROUP-1
  6
CONTINUOUS
 62
     3
100
AcDbLine
 10
72.259666
 20
130.932692
 30
0.0
 11
72.884666
 21
130.307692
 31
0.0
  0
LINE
  5
1B9
330
1F
100
AcDbEntity
  8
LAYERGROUP-1
  6
CONTINUOUS
 62
     3
100
AcDbLine
 10
72.884666
 20
130.307692
 30
0.0
 11
72.884666
 21
129.582692
 31
0.0
  0
LINE
  5
1BA
330
1F
100
AcDbEntity
  8
LAYERGROUP-1
  6
CONTINUOUS
 62
     3
100
AcDbLine
 10
71.634666
 20
129.582692
 30
0.0
 11
71.634666
 21
129.945192
 31
0.0
  0
LINE
  5
1BB
330
1F
100
AcDbEntity
  8
LAYERGROUP-1
  6
CONTINUOUS
 62
     3
100
AcDbLine
 10
71.634666
 20
129.582692
 30
0.0
 11
71.009666
 21
129.582692
 31
0.0
  0
LINE
  5
1BC
330
1F
100
AcDbEntity
  8
LAYERGROUP-1
  6
CONTINUOUS
 62
     3
100
AcDbLine
 10
74.112552
 20
130.307692
 30
0.0
 11
72.884666
 21
130.307692
 31
0.0
  0
ARC
  5
1BD
330
1F
100
AcDbEntity
  8
LAYERGROUP-1
  6
CONTINUOUS
 62
     3
100
AcDbCircle
 10
72.259666
 20
129.582692
 30
0.0
 40
0.625
100
AcDbArc
 50
180.0
 51
360.0
  0
LINE
  5
1BE
330
1F
100
AcDbEntity
  8
LAYERGROUP-1
  6
CONTINUOUS
 62
     3
100
AcDbLine
 10
83.134666
 20
164.182692
 30
0.0
 11
83.759666
 21
164.182692
 31
0.0
  0
LINE
  5
1BF
330
1F
100
AcDbEntity
  8
LAYERGROUP-1
  6
CONTINUOUS
 62
     3
100
AcDbLine
 10
83.759666
 20
164.182692
 30
0.0
 11
83.759666
 21
167.682692
 31
0.0
  0
LINE
  5
1C0
330
1F
100
AcDbEntity
  8
LAYERGROUP-1
  6
CONTINUOUS
 62
     3
100
AcDbLine
 10
83.759666
 20
167.682692
 30
0.0
 11
83.134666
 21
168.307692
 31
0.0
  0
LINE
  5
1C1
330
1F
100
AcDbEntity
  8
LAYERGROUP-1
  6
CONTINUOUS
 62
     3
100
AcDbLine
 10
83.134666
 20
168.307692
 30
0.0
 11
83.134666
 21
169.032692
 31
0.0
  0
LINE
  5
1C2
330
1F
100
AcDbEntity
  8
LAYERGROUP-1
  6
CONTINUOUS
 62
     3
100
AcDbLine
 10
84.384666
 20
169.032692
 30
0.0
 11
84.384666
 21
168.670192
 31
0.0
  0
LINE
  5
1C3
330
1F
100
AcDbEntity
  8
LAYERGROUP-1
  6
CONTINUOUS
 62
     3
100
AcDbLine
 10
84.384666
 20
169.032692
 30
0.0
 11
85.009666
 21
169.032692
 31
0.0
  0
LINE
  5
1C4
330
1F
100
AcDbEntity
  8
LAYERGROUP-1
  6
CONTINUOUS
 62
     3
100
AcDbLine
 10
81.90678
 20
168.307692
 30
0.0
 11
83.134666
 21
168.307692
 31
0.0
  0
ARC
  5
1C5
330
1F
100
AcDbEntity
  8
LAYERGROUP-1
  6
CONTINUOUS
 62
     3
100
AcDbCircle
 10
83.759666
 20
169.032692
 30
0.0
 40
0.625
100
AcDbArc
 50
0.0
 51
180.0
  0
LINE
  5
1C6
330
1F
100
AcDbEntity
  8
LAYERGROUP-1
  6
CONTINUOUS
 62
     3
100
AcDbLine
 10
72.884666
 20
164.182692
 30
0.0
 11
72.259666
 21
164.182692
 31
0.0
  0
LINE
  5
1C7
330
1F
100
AcDbEntity
  8
LAYERGROUP-1
  6
CONTINUOUS
 62
     3
100
AcDbLine
 10
72.259666
 20
164.182692
 30
0.0
 11
72.259666
 21
167.682692
 31
0.0
  0
LINE
  5
1C8
330
1F
100
AcDbEntity
  8
LAYERGROUP-1
  6
CONTINUOUS
 62
     3
100
AcDbLine
 10
72.259666
 20
167.682692
 30
0.0
 11
72.884666
 21
168.307692
 31
0.0
  0
LINE
  5
1C9
330
1F
100
AcDbEntity
  8
LAYERGROUP-1
  6
CONTINUOUS
 62
     3
100
AcDbLine
 10
72.884666
 20
168.307692
 30
0.0
 11
72.884666
 21
169.032692
 31
0.0
  0
LINE
  5
1CA
330
1F
100
AcDbEntity
  8
LAYERGROUP-1
  6
CONTINUOUS
 62
     3
100
AcDbLine
 10
71.634666
 20
169.032692
 30
0.0
 11
71.634666
 21
168.670192
 31
0.0
  0
LINE
  5
1CB
330
1F
100
AcDbEntity
  8
LAYERGROUP-1
  6
CONTINUOUS
 62
     3
100
AcDbLine
 10
71.634666
 20
169.032692
 30
0.0
 11
71.009666
 21
169.032692
 31
0.0
  0
LINE
  5
1CC
330
1F
100
AcDbEntity
  8
LAYERGROUP-1
  6
CONTINUOUS
 62
     3
100
AcDbLine
 10
74.112552
 20
168.307692
 30
0.0
 11
72.884666
 21
168.307692
 31
0.0
  0
ARC
  5
1CD
330
1F
100
AcDbEntity
  8
LAYERGROUP-1
  6
CONTINUOUS
 62
     3
100
AcDbCircle
 10
72.259666
 20
169.032692
 30
0.0
 40
0.625
100
AcDbArc
 50
0.0
 51
180.0
  0
CIRCLE
  5
1CE
330
1F
100
AcDbEntity
  8
LAYERGROUP-1
  6
CONTINUOUS
 62
     3
100
AcDbCircle
 10
290.701814
 20
149.307692
 30
0.0
 40
23.475
  0
HATCH
  5
1CF
330
1F
100
AcDbEntity
  8
LAYERGROUP-1
  6
CONTINUOUS
 62
     6
100
AcDbHatch
 10
0.0
 20
0.0
 30
0.0
210
0.0
220
0.0
230
1.0
  2

 70
     0
 71
     1
 91
        2
 92
        0
 93
       58
 72
     2
 10
116.0096659835485
 20
184.0745456368447
 40
4.0
 50
0.0000000000004071
 51
21.3149964928074
 73
     1
 72
     1
 10
119.736050459383
 20
185.5285259456041
 11
109.4378863394434
 21
214.725415594961
 72
     2
 10
117.0096659835486
 20
217.3076923076924
 40
8.0
 50
135.6967074338084
 51
198.8314088917322
 73
     0
 72
     1
 10
111.2844452051102
 20
222.8953436065958
 11
115.656623775463
 21
227.3751663906231
 72
     2
 10
113.5096659835486
 20
229.4705356277119
 40
3.0
 50
315.6967074338083
 51
360.0
 73
     1
 72
     1
 10
116.5096659835486
 20
229.4705356277119
 11
116.5096659835485
 21
235.7076923076923
 72
     2
 10
112.9096659835486
 20
235.7076923076922
 40
3.6
 50
0.0000000000004523
 51
90.00000000000046
 73
     1
 72
     1
 10
112.9096659835485
 20
239.3076923076923
 11
99.10966598354854
 21
239.3076923076922
 72
     2
 10
99.10966598354854
 20
240.3076923076922
 40
1.0
 50
180.0
 51
270.0
 73
     0
 72
     1
 10
98.10966598354852
 20
240.3076923076922
 11
98.10966598354851
 21
241.8076923076923
 72
     1
 10
98.10966598354851
 20
241.8076923076923
 11
95.50966598354856
 21
241.8076923076923
 72
     1
 10
95.50966598354856
 20
241.8076923076923
 11
92.90966598354861
 21
241.8076923076923
 72
     1
 10
92.90966598354861
 20
241.8076923076923
 11
92.90966598354862
 21
240.3076923076922
 72
     2
 10
91.90966598354861
 20
240.3076923076922
 40
1.0
 50
270.0
 51
360.0
 73
     0
 72
     1
 10
91.90966598354861
 20
239.3076923076922
 11
78.10966598354861
 21
239.3076923076923
 72
     2
 10
78.1096659835486
 20
235.7076923076922
 40
3.6
 50
89.99999999999977
 51
179.9999999999996
 73
     1
 72
     1
 10
74.5096659835486
 20
235.7076923076923
 11
74.50966598354857
 21
229.4705356277119
 72
     2
 10
77.50966598354857
 20
229.4705356277119
 40
3.0
 50
180.0
 51
224.3032925661916
 73
     1
 72
     1
 10
75.36270819163416
 20
227.3751663906231
 11
79.734886761987
 21
222.8953436065958
 72
     2
 10
74.00966598354857
 20
217.3076923076924
 40
8.0
 50
341.1685911082676
 51
404.3032925661917
 73
     0
 72
     1
 10
81.58144562765371
 20
214.7254155949609
 11
71.1956802019895
 21
185.2801626813763
 72
     2
 10
75.0096659835486
 20
184.0745456368447
 40
4.0
 50
162.4580341646469
 51
179.9999999999996
 73
     1
 72
     1
 10
71.0096659835486
 20
184.0745456368447
 11
71.00966598354857
 21
177.3826923076923
 72
     2
 10
75.60966598354857
 20
177.3826923076923
 40
4.6
 50
179.9999999999996
 51
270.0
 73
     1
 72
     1
 10
75.60966598354857
 20
172.7826923076923
 11
84.20966598354859
 21
172.7826923076923
 72
     2
 10
84.20966598354859
 20
171.9826923076923
 40
0.8
 50
0.0
 51
90.0
 73
     0
 72
     1
 10
85.00966598354859
 20
171.9826923076923
 11
85.00966598354859
 21
169.8076923076923
 72
     1
 10
85.00966598354859
 20
169.8076923076923
 11
87.00966598354857
 21
169.8076923076923
 72
     1
 10
87.00966598354857
 20
169.8076923076923
 11
87.00966598354857
 21
171.9826923076923
 72
     2
 10
84.20966598354859
 20
171.9826923076923
 40
2.8
 50
0.0
 51
90.0
 73
     1
 72
     1
 10
84.20966598354859
 20
174.7826923076923
 11
75.60966598354858
 21
174.7826923076923
 72
     2
 10
75.60966598354858
 20
176.7826923076923
 40
2.0
 50
180.0
 51
270.0
 73
     0
 72
     1
 10
73.60966598354858
 20
176.7826923076923
 11
73.60966598354861
 21
184.3076923076924
 72
     1
 10
73.60966598354861
 20
184.3076923076924
 11
84.03758465190948
 21
213.8724561905181
 72
     2
 10
74.00966598354857
 20
217.3076923076924
 40
10.6
 50
341.090221504298
 51
404.3032925661913
 73
     1
 72
     1
 10
81.59558351497951
 20
224.7113302787393
 11
77.10966598354862
 21
229.3076923076923
 72
     1
 10
77.10966598354862
 20
229.3076923076923
 11
77.10966598354862
 21
235.7076923076922
 72
     2
 10
78.1096659835486
 20
235.7076923076922
 40
1.0
 50
90.0
 51
180.0
 73
     0
 72
     1
 10
78.1096659835486
 20
236.7076923076922
 11
91.90966598354862
 21
236.7076923076922
 72
     2
 10
91.90966598354861
 20
240.3076923076922
 40
3.6
 50
270.0000000000002
 51
360.0
 73
     1
 72
     2
 10
99.10966598354854
 20
240.3076923076922
 40
3.6
 50
180.0
 51
269.9999999999998
 73
     1
 72
     1
 10
99.10966598354852
 20
236.7076923076922
 11
112.9096659835486
 21
236.7076923076922
 72
     2
 10
112.9096659835486
 20
235.7076923076922
 40
1.0
 50
0.0
 51
90.0
 73
     0
 72
     1
 10
113.9096659835485
 20
235.7076923076922
 11
113.9096659835485
 21
229.3076923076923
 72
     1
 10
113.9096659835485
 20
229.3076923076923
 11
109.4237484521177
 21
224.7113302787394
 72
     2
 10
117.0096659835486
 20
217.3076923076924
 40
10.6
 50
135.6967074338084
 51
198.9097784957025
 73
     1
 72
     1
 10
106.9817473151877
 20
213.872456190518
 11
117.4096659835485
 21
184.3076923076924
 72
     1
 10
117.4096659835485
 20
184.3076923076924
 11
117.4096659835485
 21
176.7826923076923
 72
     2
 10
115.4096659835485
 20
176.7826923076923
 40
2.0
 50
270.0
 51
360.0
 73
     0
 72
     1
 10
115.4096659835485
 20
174.7826923076923
 11
106.8096659835486
 21
174.7826923076923
 72
     2
 10
106.8096659835486
 20
171.9826923076923
 40
2.8
 50
90.0
 51
180.0
 73
     1
 72
     1
 10
104.0096659835486
 20
171.9826923076923
 11
104.0096659835486
 21
169.8076923076923
 72
     1
 10
104.0096659835486
 20
169.8076923076923
 11
106.0096659835486
 21
169.8076923076923
 72
     1
 10
106.0096659835486
 20
169.8076923076923
 11
106.0096659835486
 21
171.9826923076923
 72
     2
 10
106.8096659835486
 20
171.9826923076923
 40
0.8
 50
90.0
 51
180.0
 73
     0
 72
     1
 10
106.8096659835486
 20
172.7826923076923
 11
115.4096659835486
 21
172.7826923076923
 72
     2
 10
115.4096659835486
 20
177.3826923076923
 40
4.6
 50
270.0
 51
360.0000000000003
 73
     1
 72
     1
 10
120.0096659835486
 20
177.3826923076923
 11
120.0096659835485
 21
184.0745456368447
 97
        0
 92
        0
 93
       58
 72
     1
 10
115.4096659835485
 20
123.8326923076924
 11
106.8096659835486
 21
123.8326923076924
 72
     2
 10
106.8096659835486
 20
126.6326923076924
 40
2.8
 50
180.0
 51
270.0
 73
     0
 72
     1
 10
104.0096659835486
 20
126.6326923076924
 11
104.0096659835486
 21
128.8076923076923
 72
     1
 10
104.0096659835486
 20
128.8076923076923
 11
106.0096659835486
 21
128.8076923076923
 72
     1
 10
106.0096659835486
 20
128.8076923076923
 11
106.0096659835486
 21
126.6326923076924
 72
     2
 10
106.8096659835486
 20
126.6326923076924
 40
0.8
 50
180.0
 51
270.0
 73
     1
 72
     1
 10
106.8096659835486
 20
125.8326923076924
 11
115.4096659835486
 21
125.8326923076924
 72
     2
 10
115.4096659835486
 20
121.2326923076924
 40
4.6
 50
359.9999999999997
 51
450.0
 73
     0
 72
     1
 10
120.0096659835486
 20
121.2326923076923
 11
120.0096659835485
 21
114.54083897854
 72
     2
 10
116.0096659835485
 20
114.54083897854
 40
4.0
 50
338.6850035071946
 51
359.9999999999998
 73
     0
 72
     1
 10
119.736050459383
 20
113.0868586697807
 11
109.4378863394433
 21
83.88996902042324
 72
     2
 10
117.0096659835486
 20
81.30769230769229
 40
8.0
 50
161.1685911082712
 51
224.3032925661916
 73
     1
 72
     1
 10
111.2844452051102
 20
75.72004100878888
 11
115.656623775463
 21
71.24021822476161
 72
     2
 10
113.5096659835486
 20
69.14484898767284
 40
3.0
 50
359.9999999999997
 51
404.3032925661917
 73
     0
 72
     1
 10
116.5096659835486
 20
69.14484898767283
 11
116.5096659835485
 21
62.90769230769239
 72
     2
 10
112.9096659835486
 20
62.9076923076924
 40
3.6
 50
269.9999999999996
 51
359.9999999999998
 73
     0
 72
     1
 10
112.9096659835485
 20
59.30769230769238
 11
99.10966598354854
 21
59.30769230769243
 72
     2
 10
99.10966598354854
 20
58.30769230769243
 40
1.0
 50
90.0
 51
179.9999999999992
 73
     1
 72
     1
 10
98.10966598354852
 20
58.30769230769245
 11
98.10966598354851
 21
56.80769230769238
 72
     1
 10
98.10966598354851
 20
56.80769230769238
 11
95.50966598354856
 21
56.80769230769238
 72
     1
 10
95.50966598354856
 20
56.80769230769238
 11
92.90966598354861
 21
56.80769230769238
 72
     1
 10
92.90966598354861
 20
56.80769230769238
 11
92.90966598354862
 21
58.30769230769242
 72
     2
 10
91.90966598354861
 20
58.30769230769243
 40
1.0
 50
359.9999999999992
 51
450.0
 73
     1
 72
     1
 10
91.90966598354861
 20
59.30769230769243
 11
78.10966598354861
 21
59.30769230769238
 72
     2
 10
78.1096659835486
 20
62.9076923076924
 40
3.6
 50
180.0000000000002
 51
270.0000000000002
 73
     0
 72
     1
 10
74.5096659835486
 20
62.90769230769239
 11
74.50966598354857
 21
69.14484898767283
 72
     2
 10
77.50966598354857
 20
69.14484898767284
 40
3.0
 50
135.6967074338084
 51
180.0000000000003
 73
     0
 72
     1
 10
75.36270819163418
 20
71.24021822476161
 11
79.734886761987
 21
75.72004100878887
 72
     2
 10
74.00966598354857
 20
81.30769230769229
 40
8.0
 50
315.6967074338083
 51
378.8314088917286
 73
     1
 72
     1
 10
81.58144562765389
 20
83.88996902042321
 11
71.19568020198958
 21
113.3352219340082
 72
     2
 10
75.0096659835486
 20
114.54083897854
 40
4.0
 50
180.0000000000002
 51
197.5419658353567
 73
     0
 72
     1
 10
71.0096659835486
 20
114.54083897854
 11
71.00966598354857
 21
121.2326923076923
 72
     2
 10
75.60966598354857
 20
121.2326923076924
 40
4.6
 50
90.0
 51
180.0000000000003
 73
     0
 72
     1
 10
75.60966598354857
 20
125.8326923076924
 11
84.20966598354859
 21
125.8326923076924
 72
     2
 10
84.20966598354859
 20
126.6326923076924
 40
0.8
 50
270.0
 51
360.0
 73
     1
 72
     1
 10
85.00966598354859
 20
126.6326923076924
 11
85.00966598354859
 21
128.8076923076923
 72
     1
 10
85.00966598354859
 20
128.8076923076923
 11
87.00966598354857
 21
128.8076923076923
 72
     1
 10
87.00966598354857
 20
128.8076923076923
 11
87.00966598354857
 21
126.6326923076924
 72
     2
 10
84.20966598354859
 20
126.6326923076924
 40
2.8
 50
270.0000000000003
 51
360.0
 73
     0
 72
     1
 10
84.2096659835486
 20
123.8326923076924
 11
75.60966598354858
 21
123.8326923076924
 72
     2
 10
75.60966598354858
 20
121.8326923076924
 40
2.0
 50
90.0
 51
180.0
 73
     1
 72
     1
 10
73.60966598354858
 20
121.8326923076924
 11
73.60966598354861
 21
114.3076923076923
 72
     1
 10
73.60966598354861
 20
114.3076923076923
 11
84.03758465190948
 21
84.74292842486656
 72
     2
 10
74.00966598354857
 20
81.30769230769229
 40
10.6
 50
315.6967074338086
 51
378.909778495702
 73
     0
 72
     1
 10
81.59558351497951
 20
73.90405433664532
 11
77.10966598354862
 21
69.30769230769232
 72
     1
 10
77.10966598354862
 20
69.30769230769232
 11
77.10966598354862
 21
62.9076923076924
 72
     2
 10
78.1096659835486
 20
62.9076923076924
 40
1.0
 50
180.0
 51
270.0
 73
     1
 72
     1
 10
78.1096659835486
 20
61.90769230769237
 11
91.90966598354859
 21
61.9076923076924
 72
     2
 10
91.90966598354861
 20
58.30769230769243
 40
3.6
 50
0.0
 51
90.00000000000023
 73
     0
 72
     2
 10
99.10966598354854
 20
58.30769230769243
 40
3.6
 50
89.99999999999977
 51
180.0
 73
     0
 72
     1
 10
99.10966598354855
 20
61.9076923076924
 11
112.9096659835486
 21
61.90769230769237
 72
     2
 10
112.9096659835486
 20
62.9076923076924
 40
1.0
 50
270.0
 51
360.0
 73
     1
 72
     1
 10
113.9096659835485
 20
62.9076923076924
 11
113.9096659835485
 21
69.30769230769235
 72
     1
 10
113.9096659835485
 20
69.30769230769235
 11
109.4237484521177
 21
73.90405433664529
 72
     2
 10
117.0096659835486
 20
81.30769230769229
 40
10.6
 50
161.0902215042976
 51
224.3032925661916
 73
     0
 72
     1
 10
106.9817473151877
 20
84.74292842486665
 11
117.4096659835485
 21
114.3076923076923
 72
     1
 10
117.4096659835485
 20
114.3076923076923
 11
117.4096659835485
 21
121.8326923076924
 72
     2
 10
115.4096659835485
 20
121.8326923076924
 40
2.0
 50
0.0
 51
90.0
 73
     1
 97
        0
 75
     0
 76
     0
 52
45.0
 41
2.0
 77
     0
 78
     1
 53
45.0
 43
0.0
 44
0.0
 45
-1.414213562373095
 46
1.414213562373095
 79
     0
 98
        0
  0
LINE
  5
1D0
330
1F
100
AcDbEntity
  8
LAYERGROUP-1
  6
CONTINUOUS
 62
     3
100
AcDbLine
 10
123.009666
 20
134.807692
 30
0.0
 11
123.009666
 21
163.807692
 31
0.0
  0
LINE
  5
1D1
330
1F
100
AcDbEntity
  8
LAYERGROUP-1
  6
CONTINUOUS
 62
     3
100
AcDbLine
 10
106.009666
 20
126.632692
 30
0.0
 11
106.009666
 21
171.982692
 31
0.0
  0
ARC
  5
1D2
330
1F
100
AcDbEntity
  8
LAYERGROUP-1
  6
CONTINUOUS
 62
     3
100
AcDbCircle
 10
122.009666
 20
138.307692
 30
0.0
 40
1.0
100
AcDbArc
 50
0.0
 51
90.0
  0
ARC
  5
1D3
330
1F
100
AcDbEntity
  8
LAYERGROUP-1
  6
CONTINUOUS
 62
     3
100
AcDbCircle
 10
122.009666
 20
160.307692
 30
0.0
 40
1.0
100
AcDbArc
 50
270.0
 51
360.0
  0
LINE
  5
1D4
330
1F
100
AcDbEntity
  8
LAYERGROUP-1
  6
CONTINUOUS
 62
     3
100
AcDbLine
 10
107.009666
 20
125.807692
 30
0.0
 11
119.009666
 21
125.807692
 31
0.0
  0
LINE
  5
1D5
330
1F
100
AcDbEntity
  8
LAYERGROUP-1
  6
CONTINUOUS
 62
     3
100
AcDbLine
 10
120.009666
 20
126.807692
 30
0.0
 11
120.009666
 21
134.807692
 31
0.0
  0
LINE
  5
1D6
330
1F
100
AcDbEntity
  8
LAYERGROUP-1
  6
CONTINUOUS
 62
     3
100
AcDbLine
 10
106.009666
 20
134.807692
 30
0.0
 11
109.112552
 21
134.807692
 31
0.0
  0
LINE
  5
1D7
330
1F
100
AcDbEntity
  8
LAYERGROUP-1
  6
CONTINUOUS
 62
     3
100
AcDbLine
 10
116.90678
 20
134.807692
 30
0.0
 11
123.009666
 21
134.807692
 31
0.0
  0
CIRCLE
  5
1D8
330
1F
100
AcDbEntity
  8
LAYERGROUP-1
  6
CONTINUOUS
 62
     3
100
AcDbCircle
 10
113.009666
 20
132.557692
 30
0.0
 40
4.5
  0
LINE
  5
1D9
330
1F
100
AcDbEntity
  8
LAYERGROUP-1
  6
CONTINUOUS
 62
     3
100
AcDbLine
 10
107.009666
 20
139.307692
 30
0.0
 11
122.009666
 21
139.307692
 31
0.0
  0
ARC
  5
1DA
330
1F
100
AcDbEntity
  8
LAYERGROUP-1
  6
CONTINUOUS
 62
     3
100
AcDbCircle
 10
107.009666
 20
126.807692
 30
0.0
 40
1.0
100
AcDbArc
 50
180.0
 51
270.0
  0
ARC
  5
1DB
330
1F
100
AcDbEntity
  8
LAYERGROUP-1
  6
CONTINUOUS
 62
     3
100
AcDbCircle
 10
119.009666
 20
126.807692
 30
0.0
 40
1.0
100
AcDbArc
 50
270.0
 51
360.0
  0
ARC
  5
1DC
330
1F
100
AcDbEntity
  8
LAYERGROUP-1
  6
CONTINUOUS
 62
     3
100
AcDbCircle
 10
107.009666
 20
138.307692
 30
0.0
 40
1.0
100
AcDbArc
 50
90.0
 51
180.0
  0
LINE
  5
1DD
330
1F
100
AcDbEntity
  8
LAYERGROUP-1
  6
CONTINUOUS
 62
     3
100
AcDbLine
 10
107.009666
 20
159.307692
 30
0.0
 11
122.009666
 21
159.307692
 31
0.0
  0
LINE
  5
1DE
330
1F
100
AcDbEntity
  8
LAYERGROUP-1
  6
CONTINUOUS
 62
     3
100
AcDbLine
 10
120.009666
 20
163.807692
 30
0.0
 11
120.009666
 21
171.807692
 31
0.0
  0
LINE
  5
1DF
330
1F
100
AcDbEntity
  8
LAYERGROUP-1
  6
CONTINUOUS
 62
     3
100
AcDbLine
 10
106.009666
 20
163.807692
 30
0.0
 11
109.112552
 21
163.807692
 31
0.0
  0
LINE
  5
1E0
330
1F
100
AcDbEntity
  8
LAYERGROUP-1
  6
CONTINUOUS
 62
     3
100
AcDbLine
 10
116.90678
 20
163.807692
 30
0.0
 11
123.009666
 21
163.807692
 31
0.0
  0
CIRCLE
  5
1E1
330
1F
100
AcDbEntity
  8
LAYERGROUP-1
  6
CONTINUOUS
 62
     3
100
AcDbCircle
 10
113.009666
 20
166.057692
 30
0.0
 40
4.5
  0
LINE
  5
1E2
330
1F
100
AcDbEntity
  8
LAYERGROUP-1
  6
CONTINUOUS
 62
     3
100
AcDbLine
 10
107.009666
 20
172.807692
 30
0.0
 11
119.009666
 21
172.807692
 31
0.0
  0
ARC
  5
1E3
330
1F
100
AcDbEntity
  8
LAYERGROUP-1
  6
CONTINUOUS
 62
     3
100
AcDbCircle
 10
107.009666
 20
160.307692
 30
0.0
 40
1.0
100
AcDbArc
 50
180.0
 51
270.0
  0
ARC
  5
1E4
330
1F
100
AcDbEntity
  8
LAYERGROUP-1
  6
CONTINUOUS
 62
     3
100
AcDbCircle
 10
107.009666
 20
171.807692
 30
0.0
 40
1.0
100
AcDbArc
 50
90.0
 51
180.0
  0
ARC
  5
1E5
330
1F
100
AcDbEntity
  8
LAYERGROUP-1
  6
CONTINUOUS
 62
     3
100
AcDbCircle
 10
119.009666
 20
171.807692
 30
0.0
 40
1.0
100
AcDbArc
 50
0.0
 51
90.0
  0
LINE
  5
1E6
330
1F
100
AcDbEntity
  8
LAYERGROUP-1
  6
CONTINUOUS
 62
     3
100
AcDbLine
 10
107.884666
 20
134.432692
 30
0.0
 11
107.259666
 21
134.432692
 31
0.0
  0
LINE
  5
1E7
330
1F
100
AcDbEntity
  8
LAYERGROUP-1
  6
CONTINUOUS
 62
     3
100
AcDbLine
 10
107.259666
 20
134.432692
 30
0.0
 11
107.259666
 21
130.932692
 31
0.0
  0
LINE
  5
1E8
330
1F
100
AcDbEntity
  8
LAYERGROUP-1
  6
CONTINUOUS
 62
     3
100
AcDbLine
 10
107.259666
 20
130.932692
 30
0.0
 11
107.884666
 21
130.307692
 31
0.0
  0
LINE
  5
1E9
330
1F
100
AcDbEntity
  8
LAYERGROUP-1
  6
CONTINUOUS
 62
     3
100
AcDbLine
 10
107.884666
 20
130.307692
 30
0.0
 11
107.884666
 21
129.582692
 31
0.0
  0
LINE
  5
1EA
330
1F
100
AcDbEntity
  8
LAYERGROUP-1
  6
CONTINUOUS
 62
     3
100
AcDbLine
 10
106.634666
 20
129.582692
 30
0.0
 11
106.634666
 21
129.945192
 31
0.0
  0
LINE
  5
1EB
330
1F
100
AcDbEntity
  8
LAYERGROUP-1
  6
CONTINUOUS
 62
     3
100
AcDbLine
 10
106.634666
 20
129.582692
 30
0.0
 11
106.009666
 21
129.582692
 31
0.0
  0
LINE
  5
1EC
330
1F
100
AcDbEntity
  8
LAYERGROUP-1
  6
CONTINUOUS
 62
     3
100
AcDbLine
 10
109.112552
 20
130.307692
 30
0.0
 11
107.884666
 21
130.307692
 31
0.0
  0
ARC
  5
1ED
330
1F
100
AcDbEntity
  8
LAYERGROUP-1
  6
CONTINUOUS
 62
     3
100
AcDbCircle
 10
107.259666
 20
129.582692
 30
0.0
 40
0.625
100
AcDbArc
 50
180.0
 51
360.0
  0
LINE
  5
1EE
330
1F
100
AcDbEntity
  8
LAYERGROUP-1
  6
CONTINUOUS
 62
     3
100
AcDbLine
 10
118.134666
 20
134.432692
 30
0.0
 11
118.759666
 21
134.432692
 31
0.0
  0
LINE
  5
1EF
330
1F
100
AcDbEntity
  8
LAYERGROUP-1
  6
CONTINUOUS
 62
     3
100
AcDbLine
 10
118.759666
 20
134.432692
 30
0.0
 11
118.759666
 21
130.932692
 31
0.0
  0
LINE
  5
1F0
330
1F
100
AcDbEntity
  8
LAYERGROUP-1
  6
CONTINUOUS
 62
     3
100
AcDbLine
 10
118.759666
 20
130.932692
 30
0.0
 11
118.134666
 21
130.307692
 31
0.0
  0
LINE
  5
1F1
330
1F
100
AcDbEntity
  8
LAYERGROUP-1
  6
CONTINUOUS
 62
     3
100
AcDbLine
 10
118.134666
 20
130.307692
 30
0.0
 11
118.134666
 21
129.582692
 31
0.0
  0
LINE
  5
1F2
330
1F
100
AcDbEntity
  8
LAYERGROUP-1
  6
CONTINUOUS
 62
     3
100
AcDbLine
 10
119.384666
 20
129.582692
 30
0.0
 11
119.384666
 21
129.945192
 31
0.0
  0
LINE
  5
1F3
330
1F
100
AcDbEntity
  8
LAYERGROUP-1
  6
CONTINUOUS
 62
     3
100
AcDbLine
 10
119.384666
 20
129.582692
 30
0.0
 11
120.009666
 21
129.582692
 31
0.0
  0
LINE
  5
1F4
330
1F
100
AcDbEntity
  8
LAYERGROUP-1
  6
CONTINUOUS
 62
     3
100
AcDbLine
 10
116.90678
 20
130.307692
 30
0.0
 11
118.134666
 21
130.307692
 31
0.0
  0
ARC
  5
1F5
330
1F
100
AcDbEntity
  8
LAYERGROUP-1
  6
CONTINUOUS
 62
     3
100
AcDbCircle
 10
118.759666
 20
129.582692
 30
0.0
 40
0.625
100
AcDbArc
 50
180.0
 51
360.0
  0
LINE
  5
1F6
330
1F
100
AcDbEntity
  8
LAYERGROUP-1
  6
CONTINUOUS
 62
     3
100
AcDbLine
 10
107.884666
 20
164.182692
 30
0.0
 11
107.259666
 21
164.182692
 31
0.0
  0
LINE
  5
1F7
330
1F
100
AcDbEntity
  8
LAYERGROUP-1
  6
CONTINUOUS
 62
     3
100
AcDbLine
 10
107.259666
 20
164.182692
 30
0.0
 11
107.259666
 21
167.682692
 31
0.0
  0
LINE
  5
1F8
330
1F
100
AcDbEntity
  8
LAYERGROUP-1
  6
CONTINUOUS
 62
     3
100
AcDbLine
 10
107.259666
 20
167.682692
 30
0.0
 11
107.884666
 21
168.307692
 31
0.0
  0
LINE
  5
1F9
330
1F
100
AcDbEntity
  8
LAYERGROUP-1
  6
CONTINUOUS
 62
     3
100
AcDbLine
 10
107.884666
 20
168.307692
 30
0.0
 11
107.884666
 21
169.032692
 31
0.0
  0
LINE
  5
1FA
330
1F
100
AcDbEntity
  8
LAYERGROUP-1
  6
CONTINUOUS
 62
     3
100
AcDbLine
 10
106.634666
 20
169.032692
 30
0.0
 11
106.634666
 21
168.670192
 31
0.0
  0
LINE
  5
1FB
330
1F
100
AcDbEntity
  8
LAYERGROUP-1
  6
CONTINUOUS
 62
     3
100
AcDbLine
 10
106.634666
 20
169.032692
 30
0.0
 11
106.009666
 21
169.032692
 31
0.0
  0
LINE
  5
1FC
330
1F
100
AcDbEntity
  8
LAYERGROUP-1
  6
CONTINUOUS
 62
     3
100
AcDbLine
 10
109.112552
 20
168.307692
 30
0.0
 11
107.884666
 21
168.307692
 31
0.0
  0
ARC
  5
1FD
330
1F
100
AcDbEntity
  8
LAYERGROUP-1
  6
CONTINUOUS
 62
     3
100
AcDbCircle
 10
107.259666
 20
169.032692
 30
0.0
 40
0.625
100
AcDbArc
 50
0.0
 51
180.0
  0
LINE
  5
1FE
330
1F
100
AcDbEntity
  8
LAYERGROUP-1
  6
CONTINUOUS
 62
     3
100
AcDbLine
 10
118.134666
 20
164.182692
 30
0.0
 11
118.759666
 21
164.182692
 31
0.0
  0
LINE
  5
1FF
330
1F
100
AcDbEntity
  8
LAYERGROUP-1
  6
CONTINUOUS
 62
     3
100
AcDbLine
 10
118.759666
 20
164.182692
 30
0.0
 11
118.759666
 21
167.682692
 31
0.0
  0
LINE
  5
200
330
1F
100
AcDbEntity
  8
LAYERGROUP-1
  6
CONTINUOUS
 62
     3
100
AcDbLine
 10
118.759666
 20
167.682692
 30
0.0
 11
118.134666
 21
168.307692
 31
0.0
  0
LINE
  5
201
330
1F
100
AcDbEntity
  8
LAYERGROUP-1
  6
CONTINUOUS
 62
     3
100
AcDbLine
 10
118.134666
 20
168.307692
 30
0.0
 11
118.134666
 21
169.032692
 31
0.0
  0
LINE
  5
202
330
1F
100
AcDbEntity
  8
LAYERGROUP-1
  6
CONTINUOUS
 62
     3
100
AcDbLine
 10
119.384666
 20
169.032692
 30
0.0
 11
119.384666
 21
168.670192
 31
0.0
  0
LINE
  5
203
330
1F
100
AcDbEntity
  8
LAYERGROUP-1
  6
CONTINUOUS
 62
     3
100
AcDbLine
 10
119.384666
 20
169.032692
 30
0.0
 11
120.009666
 21
169.032692
 31
0.0
  0
LINE
  5
204
330
1F
100
AcDbEntity
  8
LAYERGROUP-1
  6
CONTINUOUS
 62
     3
100
AcDbLine
 10
116.90678
 20
168.307692
 30
0.0
 11
118.134666
 21
168.307692
 31
0.0
  0
ARC
  5
205
330
1F
100
AcDbEntity
  8
LAYERGROUP-1
  6
CONTINUOUS
 62
     3
100
AcDbCircle
 10
118.759666
 20
169.032692
 30
0.0
 40
0.625
100
AcDbArc
 50
0.0
 51
180.0
  0
CIRCLE
  5
206
330
1F
100
AcDbEntity
  8
LAYERGROUP-1
  6
CONTINUOUS
 62
     6
100
AcDbCircle
 10
290.701814
 20
149.307692
 30
0.0
 40
100.0
  0
LINE
  5
207
330
1F
100
AcDbEntity
  8
LAYERGROUP-1
  6
CONTINUOUS
 62
     3
100
AcDbLine
 10
74.509666
 20
59.307692
 30
0.0
 11
79.705818
 21
50.307692
 31
0.0
  0
LINE
  5
208
330
1F
100
AcDbEntity
  8
LAYERGROUP-1
  6
CONTINUOUS
 62
     3
100
AcDbLine
 10
81.437869
 20
49.307692
 30
0.0
 11
109.581463
 21
49.307692
 31
0.0
  0
ARC
  5
209
330
1F
100
AcDbEntity
  8
LAYERGROUP-1
  6
CONTINUOUS
 62
     3
100
AcDbCircle
 10
81.437869
 20
51.307692
 30
0.0
 40
2.0
100
AcDbArc
 50
210.0
 51
270.0
  0
LINE
  5
20A
330
1F
100
AcDbEntity
  8
LAYERGROUP-1
  6
CONTINUOUS
 62
     3
100
AcDbLine
 10
116.503307
 20
62.693818
 30
0.0
 11
116.509666
 21
59.307692
 31
0.0
  0
LINE
  5
20B
330
1F
100
AcDbEntity
  8
LAYERGROUP-1
  6
CONTINUOUS
 62
     3
100
AcDbLine
 10
116.509666
 20
59.307692
 30
0.0
 11
111.313514
 21
50.307692
 31
0.0
  0
ARC
  5
20C
330
1F
100
AcDbEntity
  8
LAYERGROUP-1
  6
CONTINUOUS
 62
     3
100
AcDbCircle
 10
109.581463
 20
51.307692
 30
0.0
 40
2.0
100
AcDbArc
 50
270.0
 51
330.0
  0
LINE
  5
20D
330
1F
100
AcDbEntity
  8
LAYERGROUP-1
  6
CONTINUOUS
 62
     3
100
AcDbLine
 10
74.516025
 20
62.693818
 30
0.0
 11
74.509666
 21
59.307692
 31
0.0
  0
CIRCLE
  5
20E
330
1F
100
AcDbEntity
  8
GR1-1
  6
CONTINUOUS
 62
     6
100
AcDbCircle
 10
290.701814
 20
149.307692
 30
0.0
 40
89.99999999999997
  0
CIRCLE
  5
20F
330
1F
100
AcDbEntity
  8
LAYERGROUP-1
  6
CONTINUOUS
 62
     3
100
AcDbCircle
 10
290.701814
 20
149.307692
 30
0.0
 40
100.0
  0
LINE
  5
210
330
1F
100
AcDbEntity
  8
LAYERGROUP-1
  6
CONTINUOUS
 62
     3
100
AcDbLine
 10
74.509666
 20
239.307692
 30
0.0
 11
79.705818
 21
248.307692
 31
0.0
  0
LINE
  5
211
330
1F
100
AcDbEntity
  8
LAYERGROUP-1
  6
CONTINUOUS
 62
     3
100
AcDbLine
 10
81.437869
 20
249.307692
 30
0.0
 11
109.581463
 21
249.307692
 31
0.0
  0
ARC
  5
212
330
1F
100
AcDbEntity
  8
LAYERGROUP-1
  6
CONTINUOUS
 62
     3
100
AcDbCircle
 10
81.437869
 20
247.307692
 30
0.0
 40
2.0
100
AcDbArc
 50
90.0
 51
150.0
  0
LINE
  5
213
330
1F
100
AcDbEntity
  8
LAYERGROUP-1
  6
CONTINUOUS
 62
     3
100
AcDbLine
 10
116.503307
 20
235.921567
 30
0.0
 11
116.509666
 21
239.307692
 31
0.0
  0
LINE
  5
214
330
1F
100
AcDbEntity
  8
LAYERGROUP-1
  6
CONTINUOUS
 62
     3
100
AcDbLine
 10
116.509666
 20
239.307692
 30
0.0
 11
111.313514
 21
248.307692
 31
0.0
  0
ARC
  5
215
330
1F
100
AcDbEntity
  8
LAYERGROUP-1
  6
CONTINUOUS
 62
     3
100
AcDbCircle
 10
109.581463
 20
247.307692
 30
0.0
 40
2.0
100
AcDbArc
 50
30.0
 51
90.0
  0
LINE
  5
216
330
1F
100
AcDbEntity
  8
LAYERGROUP-1
  6
CONTINUOUS
 62
     3
100
AcDbLine
 10
74.516025
 20
235.921567
 30
0.0
 11
74.509666
 21
239.307692
 31
0.0
  0
CIRCLE
  5
217
330
1F
100
AcDbEntity
  8
LAYERGROUP-1
  6
CONTINUOUS
 62
     3
100
AcDbCircle
 10
290.701814
 20
149.307692
 30
0.0
 40
86.61387457977585
  0
CIRCLE
  5
218
330
1F
100
AcDbEntity
  8
LAYERGROUP-1
  6
CONTINUOUS
 62
     3
100
AcDbCircle
 10
290.701814
 20
149.307692
 30
0.0
 40
11.00000000000003
  0
CIRCLE
  5
219
330
1F
100
AcDbEntity
  8
LAYERGROUP-1
  6
CONTINUOUS
 62
     3
100
AcDbCircle
 10
290.701814
 20
149.307692
 30
0.0
 40
14.5
  0
CIRCLE
  5
21A
330
1F
100
AcDbEntity
  8
LAYERGROUP-1
  6
CONTINUOUS
 62
     3
100
AcDbCircle
 10
290.701814
 20
149.307692
 30
0.0
 40
10.00000000000003
  0
CIRCLE
  5
21B
330
1F
100
AcDbEntity
  8
LAYERGROUP-1
  6
CONTINUOUS
 62
     6
100
AcDbCircle
 10
290.701814
 20
149.307692
 30
0.0
 40
19.72499999999999
  0
DIMENSION
  5
21C
330
1F
100
AcDbEntity
  8
LAYERGROUP-1
100
AcDbDimension
  2
*D20
 10
136.589798
 20
159.307692
 30
0.0
 11
135.589798
 21
149.307693
 31
0.0
 70
    33
  3
FXDIMINFO
100
AcDbAlignedDimension
 13
122.009666
 23
139.307692
 33
0.0
 14
122.009666
 24
159.307692
 34
0.0
1001
ACAD
1000
DSTYLE
1002
{
1070
     7
1000
FXTIP_ARROW_E
1070
     6
1000
FXTIP_ARROW_S
1070
   173
1070
     1
1002
}
  0
DIMENSION
  5
226
330
1F
100
AcDbEntity
  8
LAYERGROUP-1
100
AcDbDimension
  2
*D21
 10
153.952076
 20
249.307692
 30
0.0
 11
152.952072
 21
149.307693
 31
0.0
 70
    33
  3
FXDIMINFO
100
AcDbAlignedDimension
 13
109.581463
 23
49.307692
 33
0.0
 14
109.581463
 24
249.307692
 34
0.0
1001
ACAD
1000
DSTYLE
1002
{
1070
     7
1000
FXTIP_ARROW_E
1070
     6
1000
FXTIP_ARROW_S
1070
   173
1070
     1
1002
}
  0
DIMENSION
  5
230
330
1F
100
AcDbEntity
  8
LAYERGROUP-1
100
AcDbDimension
  2
*D22
 10
116.509666
 20
260.825148
 30
0.0
 11
95.509666
 21
261.825134
 31
0.0
 70
    33
  3
FXDIMINFO
100
AcDbAlignedDimension
 13
74.509666
 23
239.307692
 33
0.0
 14
116.509666
 24
239.307692
 34
0.0
1001
ACAD
1000
DSTYLE
1002
{
1070
     7
1000
FXTIP_ARROW_E
1070
     6
1000
FXTIP_ARROW_S
1070
   173
1070
     1
1002
}
  0
DIMENSION
  5
23A
330
1F
100
AcDbEntity
  8
LAYERGROUP-1
100
AcDbDimension
  2
*D23
 10
123.009666
 20
269.827811
 30
0.0
 11
95.509666
 21
270.82782
 31
0.0
 70
    33
  3
FXDIMINFO
100
AcDbAlignedDimension
 13
68.009666
 23
163.807692
 33
0.0
 14
123.009666
 24
163.807692
 34
0.0
1001
ACAD
1000
DSTYLE
1002
{
1070
     7
1000
FXTIP_ARROW_E
1070
     6
1000
FXTIP_ARROW_S
1070
   173
1070
     1
1002
}
  0
TEXT
  5
244
330
1F
100
AcDbEntity
  8
}}ﾊﾊGG血CCТ
  6
CONTINUOUS
 62
     7
100
AcDbText
 10
155.146072
 20
12.0
 30
0.0
 40
6.0
  1
Ｗ－２００　ＵＢ
 41
0.794326
  7
FX_VECTOR
 72
     5
 11
187.146072
 21
12.0
 31
0.0
100
AcDbText
  0
TEXT
  5
245
330
1F
100
AcDbEntity
  8
}}ﾊﾊGG血CCТ
  6
CONTINUOUS
 62
     7
100
AcDbText
 10
255.314117
 20
12.0
 30
0.0
 40
6.0
  1
1W50FBEA-C02
 41
0.688525
  7
FX_VECTOR
 72
     5
 11
303.314117
 21
12.0
 31
0.0
100
AcDbText
  0
INSERT
  5
249
330
1F
100
AcDbEntity
  8
0
100
AcDbBlockReference
  2
BLKF026
 10
0.0
 20
0.0
 30
0.0
  0
ENDSEC
  0
SECTION
  2
OBJECTS
  0
DICTIONARY
  5
C
330
0
100
AcDbDictionary
  3
ACAD_GROUP
350
D
  3
ACAD_LAYOUT
350
1A
  3
ACAD_MLINESTYLE
350
17
  3
ACAD_PLOTSETTINGS
350
19
  3
ACDBHEADERROUNDTRIPXREC
350
274
  0
DICTIONARY
  5
D
102
{ACAD_REACTORS
330
C
102
}
330
C
100
AcDbDictionary
  0
DICTIONARY
  5
1A
102
{ACAD_REACTORS
330
C
102
}
330
C
100
AcDbDictionary
  0
DICTIONARY
  5
17
102
{ACAD_REACTORS
330
C
102
}
330
C
100
AcDbDictionary
  3
STANDARD
350
18
  0
DICTIONARY
  5
19
102
{ACAD_REACTORS
330
C
102
}
330
C
100
AcDbDictionary
  0
DICTIONARY
  5
274
102
{ACAD_REACTORS
330
C
102
}
330
C
100
AcDbDictionary
  3
CEPSNTYPE
350
27D
  3
DIMSTYLEDATA
350
293
  3
FINGERPRINTGUID
350
27E
  3
HYPERLINKBASE
350
277
  3
INSUNITS
350
27C
  3
LAYOUTDICT
350
279
  3
LWETCUNION
350
27B
  3
PLOTSETDICT
350
27A
  3
PSVPSCALE
350
280
  3
PUCSBASE
350
283
  3
PUCSORGBACK
350
289
  3
PUCSORGBOTTOM
350
285
  3
PUCSORGFRONT
350
288
  3
PUCSORGLEFT
350
286
  3
PUCSORGRIGHT
350
287
  3
PUCSORGTOP
350
284
  3
PUCSORTHOREF
350
281
  3
PUCSORTHOVIEW
350
282
  3
STYLESHEET
350
278
  3
TSTACKALIGN
350
275
  3
TSTACKSIZE
350
276
  3
UCSBASE
350
28C
  3
UCSORGBACK
350
292
  3
UCSORGBOTTOM
350
28E
  3
UCSORGFRONT
350
291
  3
UCSORGLEFT
350
28F
  3
UCSORGRIGHT
350
290
  3
UCSORGTOP
350
28D
  3
UCSORTHOREF
350
28A
  3
UCSORTHOVIEW
350
28B
  3
VERSIONGUID
350
27F
  0
MLINESTYLE
  5
18
102
{ACAD_REACTORS
330
17
102
}
330
17
100
AcDbMlineStyle
  2
Standard
 70
     0
  3

 62
   256
 51
90.0
 52
90.0
 71
     2
 49
0.5
 62
   256
  6
BYLAYER
 49
-0.5
 62
   256
  6
BYLAYER
  0
XRECORD
  5
27D
102
{ACAD_REACTORS
330
274
102
}
330
274
100
AcDbXrecord
 90
        0
  0
XRECORD
  5
293
102
{ACAD_REACTORS
330
274
102
}
330
274
100
AcDbXrecord
1000
DSTYLE
1002
{
1070
   179
 70
     2
1070
   171
 70
     3
1070
   143
 40
0.03937
1070
   274
 70
     3
1070
    41
 40
4.0
1070
   343
340
41
1070
   344
340
47
1070
   141
 40
2.5
1070
   176
 70
     7
1070
   177
 70
     7
1070
   178
 70
     7
1070
   271
 70
     2
1070
    46
 40
6.0
1070
    43
 40
10.0
1070
    44
 40
1.0
1070
    42
 40
1.0
1070
   147
 40
1.0
1070
   341
340
41
1070
   173
 70
     1
1070
    77
 70
     1
1070
   272
 70
     2
1070
    73
 70
     0
1070
   172
 70
     1
1070
    74
 70
     0
1070
   283
 70
     0
1070
   340
340
3F
1070
   140
 40
4.0
1070
   284
 70
     8
1070
    78
 70
     8
1002
}
  0
XRECORD
  5
27E
102
{ACAD_REACTORS
330
274
102
}
330
274
100
AcDbXrecord
  1
{935852C0-6D38-4559-9C7B-181DA539E94C}
  0
XRECORD
  5
277
102
{ACAD_REACTORS
330
274
102
}
330
274
100
AcDbXrecord
  1

  0
XRECORD
  5
27C
102
{ACAD_REACTORS
330
274
102
}
330
274
100
AcDbXrecord
 90
        1
  0
XRECORD
  5
279
102
{ACAD_REACTORS
330
274
102
}
330
274
100
AcDbXrecord
340
1A
  0
XRECORD
  5
27B
102
{ACAD_REACTORS
330
274
102
}
330
274
100
AcDbXrecord
 90
    10781
  0
XRECORD
  5
27A
102
{ACAD_REACTORS
330
274
102
}
330
274
100
AcDbXrecord
340
19
  0
XRECORD
  5
280
102
{ACAD_REACTORS
330
274
102
}
330
274
100
AcDbXrecord
 40
0.0
  0
XRECORD
  5
283
102
{ACAD_REACTORS
330
274
102
}
330
274
100
AcDbXrecord
340
0
  0
XRECORD
  5
289
102
{ACAD_REACTORS
330
274
102
}
330
274
100
AcDbXrecord
 10
0.0
 20
0.0
 30
0.0
  0
XRECORD
  5
285
102
{ACAD_REACTORS
330
274
102
}
330
274
100
AcDbXrecord
 10
0.0
 20
0.0
 30
0.0
  0
XRECORD
  5
288
102
{ACAD_REACTORS
330
274
102
}
330
274
100
AcDbXrecord
 10
0.0
 20
0.0
 30
0.0
  0
XRECORD
  5
286
102
{ACAD_REACTORS
330
274
102
}
330
274
100
AcDbXrecord
 10
0.0
 20
0.0
 30
0.0
  0
XRECORD
  5
287
102
{ACAD_REACTORS
330
274
102
}
330
274
100
AcDbXrecord
 10
0.0
 20
0.0
 30
0.0
  0
XRECORD
  5
284
102
{ACAD_REACTORS
330
274
102
}
330
274
100
AcDbXrecord
 10
0.0
 20
0.0
 30
0.0
  0
XRECORD
  5
281
102
{ACAD_REACTORS
330
274
102
}
330
274
100
AcDbXrecord
340
0
  0
XRECORD
  5
282
102
{ACAD_REACTORS
330
274
102
}
330
274
100
AcDbXrecord
 70
     0
  0
XRECORD
  5
278
102
{ACAD_REACTORS
330
274
102
}
330
274
100
AcDbXrecord
  1

  0
XRECORD
  5
275
102
{ACAD_REACTORS
330
274
102
}
330
274
100
AcDbXrecord
 90
        1
  0
XRECORD
  5
276
102
{ACAD_REACTORS
330
274
102
}
330
274
100
AcDbXrecord
 90
       70
  0
XRECORD
  5
28C
102
{ACAD_REACTORS
330
274
102
}
330
274
100
AcDbXrecord
340
0
  0
XRECORD
  5
292
102
{ACAD_REACTORS
330
274
102
}
330
274
100
AcDbXrecord
 10
0.0
 20
0.0
 30
0.0
  0
XRECORD
  5
28E
102
{ACAD_REACTORS
330
274
102
}
330
274
100
AcDbXrecord
 10
0.0
 20
0.0
 30
0.0
  0
XRECORD
  5
291
102
{ACAD_REACTORS
330
274
102
}
330
274
100
AcDbXrecord
 10
0.0
 20
0.0
 30
0.0
  0
XRECORD
  5
28F
102
{ACAD_REACTORS
330
274
102
}
330
274
100
AcDbXrecord
 10
0.0
 20
0.0
 30
0.0
  0
XRECORD
  5
290
102
{ACAD_REACTORS
330
274
102
}
330
274
100
AcDbXrecord
 10
0.0
 20
0.0
 30
0.0
  0
XRECORD
  5
28D
102
{ACAD_REACTORS
330
274
102
}
330
274
100
AcDbXrecord
 10
0.0
 20
0.0
 30
0.0
  0
XRECORD
  5
28A
102
{ACAD_REACTORS
330
274
102
}
330
274
100
AcDbXrecord
340
0
  0
XRECORD
  5
28B
102
{ACAD_REACTORS
330
274
102
}
330
274
100
AcDbXrecord
 70
     0
  0
XRECORD
  5
27F
102
{ACAD_REACTORS
330
274
102
}
330
274
100
AcDbXrecord
  1
{FAEB1C32-E019-11D5-929B-00C0DF256EC4}
  0
ENDSEC
  0
EOF
