  0
SECTION
  2
HEADER
  9
$ACADVER
  1
AC1014
  9
$ACADMAINTVER
 70
     9
  9
$DWGCODEPAGE
  3
ANSI_932
  9
$INSBASE
 10
0.0
 20
0.0
 30
0.0
  9
$EXTMIN
 10
0.0
 20
0.0
 30
0.0
  9
$EXTMAX
 10
420.0
 20
297.0
 30
0.0
  9
$LIMMIN
 10
0.0
 20
0.0
  9
$LIMMAX
 10
420.0
 20
297.0
  9
$ORTHOMODE
 70
     0
  9
$REGENMODE
 70
     1
  9
$FILLMODE
 70
     1
  9
$QTEXTMODE
 70
     0
  9
$MIRRTEXT
 70
     1
  9
$DRAGMODE
 70
     2
  9
$LTSCALE
 40
1.0
  9
$OSMODE
 70
    37
  9
$ATTMODE
 70
     1
  9
$TEXTSIZE
 40
0.2
  9
$TRACEWID
 40
0.05
  9
$TEXTSTYLE
  7
STYLE1
  9
$CLAYER
  8
0
  9
$CELTYPE
  6
BYLAYER
  9
$CECOLOR
 62
   256
  9
$CELTSCALE
 40
1.0
  9
$DELOBJ
 70
     1
  9
$DISPSILH
 70
     0
  9
$DIMSCALE
 40
1.0
  9
$DIMASZ
 40
4.0
  9
$DIMEXO
 40
1.0
  9
$DIMDLI
 40
10.0
  9
$DIMRND
 40
0.0
  9
$DIMDLE
 40
6.0
  9
$DIMEXE
 40
1.0
  9
$DIMTP
 40
0.0
  9
$DIMTM
 40
0.0
  9
$DIMTXT
 40
4.0
  9
$DIMCEN
 40
2.5
  9
$DIMTSZ
 40
0.0
  9
$DIMTOL
 70
     0
  9
$DIMLIM
 70
     0
  9
$DIMTIH
 70
     0
  9
$DIMTOH
 70
     0
  9
$DIMSE1
 70
     0
  9
$DIMSE2
 70
     0
  9
$DIMTAD
 70
     1
  9
$DIMZIN
 70
     8
  9
$DIMBLK
  1

  9
$DIMASO
 70
     1
  9
$DIMSHO
 70
     1
  9
$DIMPOST
  1

  9
$DIMAPOST
  1

  9
$DIMALT
 70
     0
  9
$DIMALTD
 70
     3
  9
$DIMALTF
 40
0.03937
  9
$DIMLFAC
 40
1.0
  9
$DIMTOFL
 70
     1
  9
$DIMTVP
 40
0.0
  9
$DIMTIX
 70
     0
  9
$DIMSOXD
 70
     0
  9
$DIMSAH
 70
     1
  9
$DIMBLK1
  1
FXTIP_ARROW_S
  9
$DIMBLK2
  1
FXTIP_ARROW_E
  9
$DIMSTYLE
  2
FXDIMINFO
  9
$DIMCLRD
 70
     7
  9
$DIMCLRE
 70
     7
  9
$DIMCLRT
 70
     7
  9
$DIMTFAC
 40
1.0
  9
$DIMGAP
 40
1.0
  9
$DIMJUST
 70
     0
  9
$DIMSD1
 70
     0
  9
$DIMSD2
 70
     0
  9
$DIMTOLJ
 70
     0
  9
$DIMTZIN
 70
     8
  9
$DIMALTZ
 70
     0
  9
$DIMALTTZ
 70
     0
  9
$DIMFIT
 70
     3
  9
$DIMUPT
 70
     0
  9
$DIMUNIT
 70
     2
  9
$DIMDEC
 70
     2
  9
$DIMTDEC
 70
     2
  9
$DIMALTU
 70
     2
  9
$DIMALTTD
 70
     3
  9
$DIMTXSTY
  7
STYLE1
  9
$DIMAUNIT
 70
     0
  9
$LUNITS
 70
     2
  9
$LUPREC
 70
     4
  9
$SKETCHINC
 40
0.1
  9
$FILLETRAD
 40
0.5
  9
$AUNITS
 70
     0
  9
$AUPREC
 70
     0
  9
$MENU
  1
.
  9
$ELEVATION
 40
0.0
  9
$PELEVATION
 40
0.0
  9
$THICKNESS
 40
0.0
  9
$LIMCHECK
 70
     0
  9
$CHAMFERA
 40
0.5
  9
$CHAMFERB
 40
0.5
  9
$CHAMFERC
 40
1.0
  9
$CHAMFERD
 40
0.0
  9
$SKPOLY
 70
     0
  9
$TDCREATE
 40
2455301.47626088
  9
$TDUPDATE
 40
2455301.476260891
  9
$TDINDWG
 40
0.0000000116
  9
$TDUSRTIMER
 40
0.0000000116
  9
$USRTIMER
 70
     1
  9
$ANGBASE
 50
0.0
  9
$ANGDIR
 70
     0
  9
$PDMODE
 70
     0
  9
$PDSIZE
 40
0.0
  9
$PLINEWID
 40
0.0
  9
$COORDS
 70
     1
  9
$SPLFRAME
 70
     0
  9
$SPLINETYPE
 70
     6
  9
$SPLINESEGS
 70
     8
  9
$ATTDIA
 70
     0
  9
$ATTREQ
 70
     1
  9
$HANDLING
 70
     1
  9
$HANDSEED
  5
4A7
  9
$SURFTAB1
 70
     6
  9
$SURFTAB2
 70
     6
  9
$SURFTYPE
 70
     6
  9
$SURFU
 70
     6
  9
$SURFV
 70
     6
  9
$UCSNAME
  2

  9
$UCSORG
 10
0.0
 20
0.0
 30
0.0
  9
$UCSXDIR
 10
1.0
 20
0.0
 30
0.0
  9
$UCSYDIR
 10
0.0
 20
1.0
 30
0.0
  9
$PUCSNAME
  2

  9
$PUCSORG
 10
0.0
 20
0.0
 30
0.0
  9
$PUCSXDIR
 10
1.0
 20
0.0
 30
0.0
  9
$PUCSYDIR
 10
0.0
 20
1.0
 30
0.0
  9
$USERI1
 70
     0
  9
$USERI2
 70
     0
  9
$USERI3
 70
     0
  9
$USERI4
 70
     0
  9
$USERI5
 70
     0
  9
$USERR1
 40
0.0
  9
$USERR2
 40
0.0
  9
$USERR3
 40
0.0
  9
$USERR4
 40
0.0
  9
$USERR5
 40
0.0
  9
$WORLDVIEW
 70
     1
  9
$SHADEDGE
 70
     3
  9
$SHADEDIF
 70
    70
  9
$TILEMODE
 70
     1
  9
$MAXACTVP
 70
    64
  9
$PINSBASE
 10
0.0
 20
0.0
 30
0.0
  9
$PLIMCHECK
 70
     0
  9
$PEXTMIN
 10
1.000000E+20
 20
1.000000E+20
 30
1.000000E+20
  9
$PEXTMAX
 10
-1.000000E+20
 20
-1.000000E+20
 30
-1.000000E+20
  9
$PLIMMIN
 10
0.0
 20
0.0
  9
$PLIMMAX
 10
12.0
 20
9.0
  9
$UNITMODE
 70
     0
  9
$VISRETAIN
 70
     1
  9
$PLINEGEN
 70
     0
  9
$PSLTSCALE
 70
     1
  9
$TREEDEPTH
 70
  3020
  9
$PICKSTYLE
 70
     1
  9
$CMLSTYLE
  2
STANDARD
  9
$CMLJUST
 70
     0
  9
$CMLSCALE
 40
1.0
  9
$PROXYGRAPHICS
 70
     1
  9
$MEASUREMENT
 70
     0
  0
ENDSEC
  0
SECTION
  2
CLASSES
  0
CLASS
  1
ACDBDICTIONARYWDFLT
  2
AcDbDictionaryWithDefault
  3
ObjectDBX Classes
 90
        0
280
     0
281
     0
  0
CLASS
  1
XRECORD
  2
AcDbXrecord
  3
AutoCAD 2000
 90
        0
280
     0
281
     0
  0
CLASS
  1
LWPOLYLINE
  2
AcDbPolyline
  3
AutoCAD 2000
 90
        0
280
     0
281
     1
  0
CLASS
  1
HATCH
  2
AcDbHatch
  3
AutoCAD 2000
 90
        0
280
     0
281
     1
  0
CLASS
  1
ACDBPLACEHOLDER
  2
AcDbPlaceHolder
  3
ObjectDBX Classes
 90
        0
280
     0
281
     0
  0
CLASS
  1
LAYOUT
  2
AcDbLayout
  3
ObjectDBX Classes
 90
        0
280
     0
281
     0
  0
ENDSEC
  0
SECTION
  2
TABLES
  0
TABLE
  2
VPORT
  5
8
330
0
100
AcDbSymbolTable
 70
     1
  0
VPORT
  5
29
330
8
100
AcDbSymbolTableRecord
100
AcDbViewportTableRecord
  2
*ACTIVE
 70
     0
 10
0.0
 20
0.0
 11
1.0
 21
1.0
 12
210.0
 22
148.5
 13
0.0
 23
0.0
 14
0.5
 24
0.5
 15
0.5
 25
0.5
 16
0.0
 26
0.0
 36
1.0
 17
0.0
 27
0.0
 37
0.0
 40
297.0
 41
1.414141
 42
50.0
 43
0.0
 44
0.0
 50
0.0
 51
0.0
 71
     0
 72
   100
 73
     1
 74
     3
 75
     0
 76
     0
 77
     0
 78
     0
  0
ENDTAB
  0
TABLE
  2
LTYPE
  5
5
330
0
100
AcDbSymbolTable
 70
     4
  0
LTYPE
  5
14
330
5
100
AcDbSymbolTableRecord
100
AcDbLinetypeTableRecord
  2
BYBLOCK
 70
     0
  3

 72
    65
 73
     0
 40
0.0
  0
LTYPE
  5
15
330
5
100
AcDbSymbolTableRecord
100
AcDbLinetypeTableRecord
  2
BYLAYER
 70
     0
  3

 72
    65
 73
     0
 40
0.0
  0
LTYPE
  5
16
330
5
100
AcDbSymbolTableRecord
100
AcDbLinetypeTableRecord
  2
CONTINUOUS
 70
     0
  3
--------------------
 72
    65
 73
     0
 40
0.0
  0
LTYPE
  5
2A
330
5
100
AcDbSymbolTableRecord
100
AcDbLinetypeTableRecord
  2
CENTER
 70
     0
  3
Center ____ _ ____ _ ____ _ ____ _ ____ _ ____
 72
    65
 73
     4
 40
13.0
 49
10.0
 74
     0
 49
-1.0
 74
     0
 49
1.0
 74
     0
 49
-1.0
 74
     0
  0
ENDTAB
  0
TABLE
  2
LAYER
  5
2
330
0
100
AcDbSymbolTable
 70
    20
  0
LAYER
  5
10
330
2
100
AcDbSymbolTableRecord
100
AcDbLayerTableRecord
  2
0
 70
     0
 62
     7
  6
CONTINUOUS
  0
LAYER
  5
3D
330
2
100
AcDbSymbolTableRecord
100
AcDbLayerTableRecord
  2
}}ﾊﾊGG血CCТ
 70
     0
 62
     3
  6
CONTINUOUS
  0
LAYER
  5
AD
330
2
100
AcDbSymbolTableRecord
100
AcDbLayerTableRecord
  2
GR1-1
 70
     0
 62
     7
  6
CONTINUOUS
  0
LAYER
  5
469
330
2
100
AcDbSymbolTableRecord
100
AcDbLayerTableRecord
  2
0-1
 70
     0
 62
     7
  6
CONTINUOUS
  0
ENDTAB
  0
TABLE
  2
STYLE
  5
3
330
0
100
AcDbSymbolTable
 70
     4
  0
STYLE
  5
11
330
3
100
AcDbSymbolTableRecord
100
AcDbTextStyleTableRecord
  2
STANDARD
 70
     0
 40
0.0
 41
1.0
 50
0.0
 71
     0
 42
0.2
  3
txt
  4

  0
STYLE
  5
3F
330
3
100
AcDbSymbolTableRecord
100
AcDbTextStyleTableRecord
  2
STYLE1
 70
     0
 40
0.0
 41
1.0
 50
0.0
 71
     0
 42
0.2
  3
MONOTXT.SHX
  4
extfont.shx
  0
STYLE
  5
40
330
3
100
AcDbSymbolTableRecord
100
AcDbTextStyleTableRecord
  2
FX_VECTOR
 70
     0
 40
0.0
 41
1.0
 50
0.0
 71
     0
 42
0.2
  3
MONOTXT.SHX
  4
BIGFONT.SHX
  0
ENDTAB
  0
TABLE
  2
VIEW
  5
6
330
0
100
AcDbSymbolTable
 70
     0
  0
ENDTAB
  0
TABLE
  2
UCS
  5
7
330
0
100
AcDbSymbolTable
 70
     0
  0
ENDTAB
  0
TABLE
  2
APPID
  5
9
330
0
100
AcDbSymbolTable
 70
     1
  0
APPID
  5
12
330
9
100
AcDbSymbolTableRecord
100
AcDbRegAppTableRecord
  2
ACAD
 70
     0
  0
ENDTAB
  0
TABLE
  2
DIMSTYLE
  5
A
330
0
100
AcDbSymbolTable
 70
     2
  0
DIMSTYLE
105
27
330
A
100
AcDbSymbolTableRecord
100
AcDbDimStyleTableRecord
  2
STANDARD
 70
     0
  3

  4

  5

  6

  7

 40
1.0
 41
0.18
 42
0.0625
 43
0.38
 44
0.18
 45
0.0
 46
0.0
 47
0.0
 48
0.0
140
0.18
141
0.09
142
0.0
143
25.4
144
1.0
145
0.0
146
1.0
147
0.09
 71
     0
 72
     0
 73
     1
 74
     1
 75
     0
 76
     0
 77
     0
 78
     0
170
     0
171
     2
172
     0
173
     0
174
     0
175
     0
176
     0
177
     0
178
     0
270
     2
271
     4
272
     4
273
     2
274
     2
340
11
275
     0
280
     0
281
     0
282
     0
283
     1
284
     0
285
     0
286
     0
287
     3
288
     0
  0
DIMSTYLE
105
A7
102
{ACAD_REACTORS
330
CD
330
D7
330
E1
330
EB
330
F5
102
}
330
A
100
AcDbSymbolTableRecord
100
AcDbDimStyleTableRecord
  2
FXDIMINFO
 70
     0
  3

  4

  5

  6
FXTIP_ARROW_S
  7
FXTIP_ARROW_E
 40
1.0
 41
4.0
 42
1.0
 43
10.0
 44
1.0
 45
0.0
 46
6.0
 47
0.0
 48
0.0
140
4.0
141
2.5
142
0.0
143
0.03937
144
1.0
145
0.0
146
1.0
147
1.0
 71
     0
 72
     0
 73
     0
 74
     0
 75
     0
 76
     0
 77
     1
 78
     8
170
     0
171
     3
172
     1
173
     1
174
     0
175
     0
176
     7
177
     7
178
     7
179
     2
270
     2
271
     2
272
     2
273
     2
274
     3
340
3F
275
     0
280
     0
281
     0
282
     0
283
     0
284
     8
285
     0
286
     0
287
     3
288
     0
  0
ENDTAB
  0
TABLE
  2
BLOCK_RECORD
  5
1
330
0
100
AcDbSymbolTable
 70
    48
  0
BLOCK_RECORD
  5
1F
330
1
100
AcDbSymbolTableRecord
100
AcDbBlockTableRecord
  2
*MODEL_SPACE
  0
BLOCK_RECORD
  5
1B
330
1
100
AcDbSymbolTableRecord
100
AcDbBlockTableRecord
  2
*PAPER_SPACE
  0
BLOCK_RECORD
  5
41
330
1
100
AcDbSymbolTableRecord
100
AcDbBlockTableRecord
  2
FXTIP_ARROW_S
  0
BLOCK_RECORD
  5
47
330
1
100
AcDbSymbolTableRecord
100
AcDbBlockTableRecord
  2
FXTIP_ARROW_E
  0
BLOCK_RECORD
  5
4D
330
1
100
AcDbSymbolTableRecord
100
AcDbBlockTableRecord
  2
FXTIP_BLACKDOT_S
  0
BLOCK_RECORD
  5
53
330
1
100
AcDbSymbolTableRecord
100
AcDbBlockTableRecord
  2
FXTIP_BLACKDOT_E
  0
BLOCK_RECORD
  5
59
330
1
100
AcDbSymbolTableRecord
100
AcDbBlockTableRecord
  2
FXTIP_TRIANGLE_S
  0
BLOCK_RECORD
  5
60
330
1
100
AcDbSymbolTableRecord
100
AcDbBlockTableRecord
  2
FXTIP_TRIANGLE_E
  0
BLOCK_RECORD
  5
67
330
1
100
AcDbSymbolTableRecord
100
AcDbBlockTableRecord
  2
FXTIP_ARCHITECT_S
  0
BLOCK_RECORD
  5
6D
330
1
100
AcDbSymbolTableRecord
100
AcDbBlockTableRecord
  2
FXTIP_ARCHITECT_E
  0
BLOCK_RECORD
  5
73
330
1
100
AcDbSymbolTableRecord
100
AcDbBlockTableRecord
  2
FXTIP_CIVIL_S
  0
BLOCK_RECORD
  5
79
330
1
100
AcDbSymbolTableRecord
100
AcDbBlockTableRecord
  2
FXTIP_CIVIL_E
  0
BLOCK_RECORD
  5
7F
330
1
100
AcDbSymbolTableRecord
100
AcDbBlockTableRecord
  2
FXTIP_WHITEDOT_S
  0
BLOCK_RECORD
  5
84
330
1
100
AcDbSymbolTableRecord
100
AcDbBlockTableRecord
  2
FXTIP_WHITEDOT_E
  0
BLOCK_RECORD
  5
89
330
1
100
AcDbSymbolTableRecord
100
AcDbBlockTableRecord
  2
FXTIP_UPARROW_S
  0
BLOCK_RECORD
  5
8E
330
1
100
AcDbSymbolTableRecord
100
AcDbBlockTableRecord
  2
FXTIP_UPARROW_E
  0
BLOCK_RECORD
  5
93
330
1
100
AcDbSymbolTableRecord
100
AcDbBlockTableRecord
  2
FXTIP_DOWNARROW_S
  0
BLOCK_RECORD
  5
98
330
1
100
AcDbSymbolTableRecord
100
AcDbBlockTableRecord
  2
FXTIP_DOWNARROW_E
  0
BLOCK_RECORD
  5
9D
330
1
100
AcDbSymbolTableRecord
100
AcDbBlockTableRecord
  2
FXTIP_BLACKTRIANGLE_S
  0
BLOCK_RECORD
  5
A2
330
1
100
AcDbSymbolTableRecord
100
AcDbBlockTableRecord
  2
FXTIP_BLACKTRIANGLE_E
  0
BLOCK_RECORD
  5
A9
330
1
100
AcDbSymbolTableRecord
100
AcDbBlockTableRecord
  2
BLKF021
  0
BLOCK_RECORD
  5
BB
330
1
100
AcDbSymbolTableRecord
100
AcDbBlockTableRecord
  2
BLKF022
  0
BLOCK_RECORD
  5
CE
330
1
100
AcDbSymbolTableRecord
100
AcDbBlockTableRecord
  2
*D21
  0
BLOCK_RECORD
  5
D8
330
1
100
AcDbSymbolTableRecord
100
AcDbBlockTableRecord
  2
*D22
  0
BLOCK_RECORD
  5
E2
330
1
100
AcDbSymbolTableRecord
100
AcDbBlockTableRecord
  2
*D23
  0
BLOCK_RECORD
  5
EC
330
1
100
AcDbSymbolTableRecord
100
AcDbBlockTableRecord
  2
*D24
  0
BLOCK_RECORD
  5
F6
330
1
100
AcDbSymbolTableRecord
100
AcDbBlockTableRecord
  2
*D25
  0
BLOCK_RECORD
  5
FF
330
1
100
AcDbSymbolTableRecord
100
AcDbBlockTableRecord
  2
BLKF028
  0
BLOCK_RECORD
  5
10A
330
1
100
AcDbSymbolTableRecord
100
AcDbBlockTableRecord
  2
BLKF029
  0
BLOCK_RECORD
  5
121
330
1
100
AcDbSymbolTableRecord
100
AcDbBlockTableRecord
  2
BLKF030
  0
BLOCK_RECORD
  5
145
330
1
100
AcDbSymbolTableRecord
100
AcDbBlockTableRecord
  2
BLKF031
  0
BLOCK_RECORD
  5
243
330
1
100
AcDbSymbolTableRecord
100
AcDbBlockTableRecord
  2
BLKF032
  0
BLOCK_RECORD
  5
254
330
1
100
AcDbSymbolTableRecord
100
AcDbBlockTableRecord
  2
BLKF033
  0
BLOCK_RECORD
  5
266
330
1
100
AcDbSymbolTableRecord
100
AcDbBlockTableRecord
  2
BLKF034
  0
BLOCK_RECORD
  5
271
330
1
100
AcDbSymbolTableRecord
100
AcDbBlockTableRecord
  2
BLKF035
  0
BLOCK_RECORD
  5
288
330
1
100
AcDbSymbolTableRecord
100
AcDbBlockTableRecord
  2
BLKF036
  0
BLOCK_RECORD
  5
2F4
330
1
100
AcDbSymbolTableRecord
100
AcDbBlockTableRecord
  2
BLKF037
  0
BLOCK_RECORD
  5
305
330
1
100
AcDbSymbolTableRecord
100
AcDbBlockTableRecord
  2
BLKF038
  0
BLOCK_RECORD
  5
317
330
1
100
AcDbSymbolTableRecord
100
AcDbBlockTableRecord
  2
BLKF039
  0
BLOCK_RECORD
  5
322
330
1
100
AcDbSymbolTableRecord
100
AcDbBlockTableRecord
  2
BLKF040
  0
BLOCK_RECORD
  5
339
330
1
100
AcDbSymbolTableRecord
100
AcDbBlockTableRecord
  2
BLKF041
  0
BLOCK_RECORD
  5
3A9
330
1
100
AcDbSymbolTableRecord
100
AcDbBlockTableRecord
  2
BLKF042
  0
BLOCK_RECORD
  5
3BA
330
1
100
AcDbSymbolTableRecord
100
AcDbBlockTableRecord
  2
BLKF043
  0
BLOCK_RECORD
  5
3CC
330
1
100
AcDbSymbolTableRecord
100
AcDbBlockTableRecord
  2
BLKF044
  0
BLOCK_RECORD
  5
3D7
330
1
100
AcDbSymbolTableRecord
100
AcDbBlockTableRecord
  2
BLKF045
  0
BLOCK_RECORD
  5
3EE
330
1
100
AcDbSymbolTableRecord
100
AcDbBlockTableRecord
  2
BLKF046
  0
BLOCK_RECORD
  5
459
330
1
100
AcDbSymbolTableRecord
100
AcDbBlockTableRecord
  2
BLKF047
  0
BLOCK_RECORD
  5
465
330
1
100
AcDbSymbolTableRecord
100
AcDbBlockTableRecord
  2
BLKF048
  0
BLOCK_RECORD
  5
46E
330
1
100
AcDbSymbolTableRecord
100
AcDbBlockTableRecord
  2
BLKF049
  0
ENDTAB
  0
ENDSEC
  0
SECTION
  2
BLOCKS
  0
BLOCK
  5
20
330
1F
100
AcDbEntity
  8
0
100
AcDbBlockBegin
  2
*MODEL_SPACE
 70
     0
 71
     0
 10
0.0
 20
0.0
 30
0.0
  3
*MODEL_SPACE
  1

  0
ENDBLK
  5
21
330
1F
100
AcDbEntity
  8
0
100
AcDbBlockEnd
  0
BLOCK
  5
1C
330
1B
100
AcDbEntity
 67
     1
  8
0
100
AcDbBlockBegin
  2
*PAPER_SPACE
 70
     0
 71
     0
 10
0.0
 20
0.0
 30
0.0
  3
*PAPER_SPACE
  1

  0
ENDBLK
  5
1D
330
1B
100
AcDbEntity
 67
     1
  8
0
100
AcDbBlockEnd
  0
BLOCK
  5
42
330
41
100
AcDbEntity
  8
0
100
AcDbBlockBegin
  2
FXTIP_ARROW_S
 70
     0
 71
     0
 10
0.0
 20
0.0
 30
0.0
  3
FXTIP_ARROW_S
  1

  0
LINE
  5
44
330
41
100
AcDbEntity
  8
0
  6
CONTINUOUS
 62
     0
100
AcDbLine
 10
0.0
 20
0.0
 30
0.0
 11
-1.0
 21
0.0
 31
0.0
  0
LINE
  5
45
330
41
100
AcDbEntity
  8
0
  6
CONTINUOUS
 62
     0
100
AcDbLine
 10
0.0
 20
0.0
 30
0.0
 11
-0.965926
 21
-0.258819
 31
0.0
  0
LINE
  5
46
330
41
100
AcDbEntity
  8
0
  6
CONTINUOUS
 62
     0
100
AcDbLine
 10
0.0
 20
0.0
 30
0.0
 11
-0.965926
 21
0.258819
 31
0.0
  0
ENDBLK
  5
43
330
41
100
AcDbEntity
  8
0
100
AcDbBlockEnd
  0
BLOCK
  5
48
330
47
100
AcDbEntity
  8
0
100
AcDbBlockBegin
  2
FXTIP_ARROW_E
 70
     0
 71
     0
 10
0.0
 20
0.0
 30
0.0
  3
FXTIP_ARROW_E
  1

  0
LINE
  5
4A
330
47
100
AcDbEntity
  8
0
  6
CONTINUOUS
 62
     0
100
AcDbLine
 10
0.0
 20
0.0
 30
0.0
 11
-1.0
 21
0.0
 31
0.0
  0
LINE
  5
4B
330
47
100
AcDbEntity
  8
0
  6
CONTINUOUS
 62
     0
100
AcDbLine
 10
0.0
 20
0.0
 30
0.0
 11
-0.965926
 21
0.258819
 31
0.0
  0
LINE
  5
4C
330
47
100
AcDbEntity
  8
0
  6
CONTINUOUS
 62
     0
100
AcDbLine
 10
0.0
 20
0.0
 30
0.0
 11
-0.965926
 21
-0.258819
 31
0.0
  0
ENDBLK
  5
49
330
47
100
AcDbEntity
  8
0
100
AcDbBlockEnd
  0
BLOCK
  5
4E
330
4D
100
AcDbEntity
  8
0
100
AcDbBlockBegin
  2
FXTIP_BLACKDOT_S
 70
     0
 71
     0
 10
0.0
 20
0.0
 30
0.0
  3
FXTIP_BLACKDOT_S
  1

  0
LINE
  5
50
330
4D
100
AcDbEntity
  8
0
  6
CONTINUOUS
 62
     0
100
AcDbLine
 10
0.0
 20
0.0
 30
0.0
 11
-1.0
 21
0.0
 31
0.0
  0
LWPOLYLINE
  5
51
330
4D
100
AcDbEntity
  8
0
  6
CONTINUOUS
 62
     0
100
AcDbPolyline
 90
        2
 70
     1
 10
-0.25
 20
0.0
 40
0.5
 41
0.5
 42
1.0
 10
0.25
 20
0.0
 40
0.5
 41
0.5
 42
1.0
  0
CIRCLE
  5
52
330
4D
100
AcDbEntity
  8
0
  6
CONTINUOUS
 62
     0
100
AcDbCircle
 10
0.0
 20
0.0
 30
0.0
 40
0.5
  0
ENDBLK
  5
4F
330
4D
100
AcDbEntity
  8
0
100
AcDbBlockEnd
  0
BLOCK
  5
54
330
53
100
AcDbEntity
  8
0
100
AcDbBlockBegin
  2
FXTIP_BLACKDOT_E
 70
     0
 71
     0
 10
0.0
 20
0.0
 30
0.0
  3
FXTIP_BLACKDOT_E
  1

  0
LINE
  5
56
330
53
100
AcDbEntity
  8
0
  6
CONTINUOUS
 62
     0
100
AcDbLine
 10
0.0
 20
0.0
 30
0.0
 11
-1.0
 21
0.0
 31
0.0
  0
LWPOLYLINE
  5
57
330
53
100
AcDbEntity
  8
0
  6
CONTINUOUS
 62
     0
100
AcDbPolyline
 90
        2
 70
     1
 10
-0.25
 20
0.0
 40
0.5
 41
0.5
 42
1.0
 10
0.25
 20
0.0
 40
0.5
 41
0.5
 42
1.0
  0
CIRCLE
  5
58
330
53
100
AcDbEntity
  8
0
  6
CONTINUOUS
 62
     0
100
AcDbCircle
 10
0.0
 20
0.0
 30
0.0
 40
0.5
  0
ENDBLK
  5
55
330
53
100
AcDbEntity
  8
0
100
AcDbBlockEnd
  0
BLOCK
  5
5A
330
59
100
AcDbEntity
  8
0
100
AcDbBlockBegin
  2
FXTIP_TRIANGLE_S
 70
     0
 71
     0
 10
0.0
 20
0.0
 30
0.0
  3
FXTIP_TRIANGLE_S
  1

  0
LINE
  5
5C
330
59
100
AcDbEntity
  8
0
  6
CONTINUOUS
 62
     0
100
AcDbLine
 10
0.0
 20
0.0
 30
0.0
 11
-1.0
 21
0.0
 31
0.0
  0
LINE
  5
5D
330
59
100
AcDbEntity
  8
0
  6
CONTINUOUS
 62
     0
100
AcDbLine
 10
0.0
 20
0.0
 30
0.0
 11
-0.965926
 21
-0.258819
 31
0.0
  0
LINE
  5
5E
330
59
100
AcDbEntity
  8
0
  6
CONTINUOUS
 62
     0
100
AcDbLine
 10
0.0
 20
0.0
 30
0.0
 11
-0.965926
 21
0.258819
 31
0.0
  0
LINE
  5
5F
330
59
100
AcDbEntity
  8
0
  6
CONTINUOUS
 62
     0
100
AcDbLine
 10
-0.965926
 20
-0.258819
 30
0.0
 11
-0.965926
 21
0.258819
 31
0.0
  0
ENDBLK
  5
5B
330
59
100
AcDbEntity
  8
0
100
AcDbBlockEnd
  0
BLOCK
  5
61
330
60
100
AcDbEntity
  8
0
100
AcDbBlockBegin
  2
FXTIP_TRIANGLE_E
 70
     0
 71
     0
 10
0.0
 20
0.0
 30
0.0
  3
FXTIP_TRIANGLE_E
  1

  0
LINE
  5
63
330
60
100
AcDbEntity
  8
0
  6
CONTINUOUS
 62
     0
100
AcDbLine
 10
0.0
 20
0.0
 30
0.0
 11
-1.0
 21
0.0
 31
0.0
  0
LINE
  5
64
330
60
100
AcDbEntity
  8
0
  6
CONTINUOUS
 62
     0
100
AcDbLine
 10
0.0
 20
0.0
 30
0.0
 11
-0.965926
 21
0.258819
 31
0.0
  0
LINE
  5
65
330
60
100
AcDbEntity
  8
0
  6
CONTINUOUS
 62
     0
100
AcDbLine
 10
0.0
 20
0.0
 30
0.0
 11
-0.965926
 21
-0.258819
 31
0.0
  0
LINE
  5
66
330
60
100
AcDbEntity
  8
0
  6
CONTINUOUS
 62
     0
100
AcDbLine
 10
-0.965926
 20
0.258819
 30
0.0
 11
-0.965926
 21
-0.258819
 31
0.0
  0
ENDBLK
  5
62
330
60
100
AcDbEntity
  8
0
100
AcDbBlockEnd
  0
BLOCK
  5
68
330
67
100
AcDbEntity
  8
0
100
AcDbBlockBegin
  2
FXTIP_ARCHITECT_S
 70
     0
 71
     0
 10
0.0
 20
0.0
 30
0.0
  3
FXTIP_ARCHITECT_S
  1

  0
LINE
  5
6A
330
67
100
AcDbEntity
  8
0
  6
CONTINUOUS
 62
     0
100
AcDbLine
 10
0.0
 20
0.0
 30
0.0
 11
-1.0
 21
0.0
 31
0.0
  0
LINE
  5
6B
330
67
100
AcDbEntity
  8
0
  6
CONTINUOUS
 62
     0
100
AcDbLine
 10
0.0
 20
0.0
 30
0.0
 11
-0.707107
 21
-0.707107
 31
0.0
  0
LINE
  5
6C
330
67
100
AcDbEntity
  8
0
  6
CONTINUOUS
 62
     0
100
AcDbLine
 10
0.0
 20
0.0
 30
0.0
 11
0.707107
 21
0.707107
 31
0.0
  0
ENDBLK
  5
69
330
67
100
AcDbEntity
  8
0
100
AcDbBlockEnd
  0
BLOCK
  5
6E
330
6D
100
AcDbEntity
  8
0
100
AcDbBlockBegin
  2
FXTIP_ARCHITECT_E
 70
     0
 71
     0
 10
0.0
 20
0.0
 30
0.0
  3
FXTIP_ARCHITECT_E
  1

  0
LINE
  5
70
330
6D
100
AcDbEntity
  8
0
  6
CONTINUOUS
 62
     0
100
AcDbLine
 10
0.0
 20
0.0
 30
0.0
 11
-1.0
 21
0.0
 31
0.0
  0
LINE
  5
71
330
6D
100
AcDbEntity
  8
0
  6
CONTINUOUS
 62
     0
100
AcDbLine
 10
0.0
 20
0.0
 30
0.0
 11
0.707107
 21
0.707107
 31
0.0
  0
LINE
  5
72
330
6D
100
AcDbEntity
  8
0
  6
CONTINUOUS
 62
     0
100
AcDbLine
 10
0.0
 20
0.0
 30
0.0
 11
-0.707107
 21
-0.707107
 31
0.0
  0
ENDBLK
  5
6F
330
6D
100
AcDbEntity
  8
0
100
AcDbBlockEnd
  0
BLOCK
  5
74
330
73
100
AcDbEntity
  8
0
100
AcDbBlockBegin
  2
FXTIP_CIVIL_S
 70
     0
 71
     0
 10
0.0
 20
0.0
 30
0.0
  3
FXTIP_CIVIL_S
  1

  0
LINE
  5
76
330
73
100
AcDbEntity
  8
0
  6
CONTINUOUS
 62
     0
100
AcDbLine
 10
0.0
 20
0.0
 30
0.0
 11
-1.0
 21
0.0
 31
0.0
  0
LINE
  5
77
330
73
100
AcDbEntity
  8
0
  6
CONTINUOUS
 62
     0
100
AcDbLine
 10
0.0
 20
-0.0625
 30
0.0
 11
-1.0
 21
-0.0625
 31
0.0
  0
LINE
  5
78
330
73
100
AcDbEntity
  8
0
  6
CONTINUOUS
 62
     0
100
AcDbLine
 10
0.0
 20
-0.125
 30
0.0
 11
-1.0
 21
-0.125
 31
0.0
  0
ENDBLK
  5
75
330
73
100
AcDbEntity
  8
0
100
AcDbBlockEnd
  0
BLOCK
  5
7A
330
79
100
AcDbEntity
  8
0
100
AcDbBlockBegin
  2
FXTIP_CIVIL_E
 70
     0
 71
     0
 10
0.0
 20
0.0
 30
0.0
  3
FXTIP_CIVIL_E
  1

  0
LINE
  5
7C
330
79
100
AcDbEntity
  8
0
  6
CONTINUOUS
 62
     0
100
AcDbLine
 10
0.0
 20
0.0
 30
0.0
 11
-1.0
 21
0.0
 31
0.0
  0
LINE
  5
7D
330
79
100
AcDbEntity
  8
0
  6
CONTINUOUS
 62
     0
100
AcDbLine
 10
0.0
 20
0.0625
 30
0.0
 11
-1.0
 21
0.0625
 31
0.0
  0
LINE
  5
7E
330
79
100
AcDbEntity
  8
0
  6
CONTINUOUS
 62
     0
100
AcDbLine
 10
0.0
 20
0.125
 30
0.0
 11
-1.0
 21
0.125
 31
0.0
  0
ENDBLK
  5
7B
330
79
100
AcDbEntity
  8
0
100
AcDbBlockEnd
  0
BLOCK
  5
80
330
7F
100
AcDbEntity
  8
0
100
AcDbBlockBegin
  2
FXTIP_WHITEDOT_S
 70
     0
 71
     0
 10
0.0
 20
0.0
 30
0.0
  3
FXTIP_WHITEDOT_S
  1

  0
LINE
  5
82
330
7F
100
AcDbEntity
  8
0
  6
CONTINUOUS
 62
     0
100
AcDbLine
 10
0.0
 20
0.0
 30
0.0
 11
-1.0
 21
0.0
 31
0.0
  0
CIRCLE
  5
83
330
7F
100
AcDbEntity
  8
0
  6
CONTINUOUS
 62
     0
100
AcDbCircle
 10
0.0
 20
0.0
 30
0.0
 40
0.5
  0
ENDBLK
  5
81
330
7F
100
AcDbEntity
  8
0
100
AcDbBlockEnd
  0
BLOCK
  5
85
330
84
100
AcDbEntity
  8
0
100
AcDbBlockBegin
  2
FXTIP_WHITEDOT_E
 70
     0
 71
     0
 10
0.0
 20
0.0
 30
0.0
  3
FXTIP_WHITEDOT_E
  1

  0
LINE
  5
87
330
84
100
AcDbEntity
  8
0
  6
CONTINUOUS
 62
     0
100
AcDbLine
 10
0.0
 20
0.0
 30
0.0
 11
-1.0
 21
0.0
 31
0.0
  0
CIRCLE
  5
88
330
84
100
AcDbEntity
  8
0
  6
CONTINUOUS
 62
     0
100
AcDbCircle
 10
0.0
 20
0.0
 30
0.0
 40
0.5
  0
ENDBLK
  5
86
330
84
100
AcDbEntity
  8
0
100
AcDbBlockEnd
  0
BLOCK
  5
8A
330
89
100
AcDbEntity
  8
0
100
AcDbBlockBegin
  2
FXTIP_UPARROW_S
 70
     0
 71
     0
 10
0.0
 20
0.0
 30
0.0
  3
FXTIP_UPARROW_S
  1

  0
LINE
  5
8C
330
89
100
AcDbEntity
  8
0
  6
CONTINUOUS
 62
     0
100
AcDbLine
 10
0.0
 20
0.0
 30
0.0
 11
-1.0
 21
0.0
 31
0.0
  0
LINE
  5
8D
330
89
100
AcDbEntity
  8
0
  6
CONTINUOUS
 62
     0
100
AcDbLine
 10
0.0
 20
0.0
 30
0.0
 11
-0.965926
 21
-0.258819
 31
0.0
  0
ENDBLK
  5
8B
330
89
100
AcDbEntity
  8
0
100
AcDbBlockEnd
  0
BLOCK
  5
8F
330
8E
100
AcDbEntity
  8
0
100
AcDbBlockBegin
  2
FXTIP_UPARROW_E
 70
     0
 71
     0
 10
0.0
 20
0.0
 30
0.0
  3
FXTIP_UPARROW_E
  1

  0
LINE
  5
91
330
8E
100
AcDbEntity
  8
0
  6
CONTINUOUS
 62
     0
100
AcDbLine
 10
0.0
 20
0.0
 30
0.0
 11
-1.0
 21
0.0
 31
0.0
  0
LINE
  5
92
330
8E
100
AcDbEntity
  8
0
  6
CONTINUOUS
 62
     0
100
AcDbLine
 10
0.0
 20
0.0
 30
0.0
 11
-0.965926
 21
0.258819
 31
0.0
  0
ENDBLK
  5
90
330
8E
100
AcDbEntity
  8
0
100
AcDbBlockEnd
  0
BLOCK
  5
94
330
93
100
AcDbEntity
  8
0
100
AcDbBlockBegin
  2
FXTIP_DOWNARROW_S
 70
     0
 71
     0
 10
0.0
 20
0.0
 30
0.0
  3
FXTIP_DOWNARROW_S
  1

  0
LINE
  5
96
330
93
100
AcDbEntity
  8
0
  6
CONTINUOUS
 62
     0
100
AcDbLine
 10
0.0
 20
0.0
 30
0.0
 11
-1.0
 21
0.0
 31
0.0
  0
LINE
  5
97
330
93
100
AcDbEntity
  8
0
  6
CONTINUOUS
 62
     0
100
AcDbLine
 10
0.0
 20
0.0
 30
0.0
 11
-0.965926
 21
0.258819
 31
0.0
  0
ENDBLK
  5
95
330
93
100
AcDbEntity
  8
0
100
AcDbBlockEnd
  0
BLOCK
  5
99
330
98
100
AcDbEntity
  8
0
100
AcDbBlockBegin
  2
FXTIP_DOWNARROW_E
 70
     0
 71
     0
 10
0.0
 20
0.0
 30
0.0
  3
FXTIP_DOWNARROW_E
  1

  0
LINE
  5
9B
330
98
100
AcDbEntity
  8
0
  6
CONTINUOUS
 62
     0
100
AcDbLine
 10
0.0
 20
0.0
 30
0.0
 11
-1.0
 21
0.0
 31
0.0
  0
LINE
  5
9C
330
98
100
AcDbEntity
  8
0
  6
CONTINUOUS
 62
     0
100
AcDbLine
 10
0.0
 20
0.0
 30
0.0
 11
-0.965926
 21
-0.258819
 31
0.0
  0
ENDBLK
  5
9A
330
98
100
AcDbEntity
  8
0
100
AcDbBlockEnd
  0
BLOCK
  5
9E
330
9D
100
AcDbEntity
  8
0
100
AcDbBlockBegin
  2
FXTIP_BLACKTRIANGLE_S
 70
     0
 71
     0
 10
0.0
 20
0.0
 30
0.0
  3
FXTIP_BLACKTRIANGLE_S
  1

  0
LINE
  5
A0
330
9D
100
AcDbEntity
  8
0
  6
CONTINUOUS
 62
     0
100
AcDbLine
 10
0.0
 20
0.0
 30
0.0
 11
-1.0
 21
0.0
 31
0.0
  0
SOLID
  5
A1
330
9D
100
AcDbEntity
  8
0
  6
CONTINUOUS
 62
     0
100
AcDbTrace
 10
0.0
 20
0.0
 30
0.0
 11
-0.965926
 21
-0.258819
 31
0.0
 12
-0.965926
 22
0.258819
 32
0.0
 13
-0.965926
 23
0.258819
 33
0.0
  0
ENDBLK
  5
9F
330
9D
100
AcDbEntity
  8
0
100
AcDbBlockEnd
  0
BLOCK
  5
A3
330
A2
100
AcDbEntity
  8
0
100
AcDbBlockBegin
  2
FXTIP_BLACKTRIANGLE_E
 70
     0
 71
     0
 10
0.0
 20
0.0
 30
0.0
  3
FXTIP_BLACKTRIANGLE_E
  1

  0
LINE
  5
A5
330
A2
100
AcDbEntity
  8
0
  6
CONTINUOUS
 62
     0
100
AcDbLine
 10
0.0
 20
0.0
 30
0.0
 11
-1.0
 21
0.0
 31
0.0
  0
SOLID
  5
A6
330
A2
100
AcDbEntity
  8
0
  6
CONTINUOUS
 62
     0
100
AcDbTrace
 10
0.0
 20
0.0
 30
0.0
 11
-0.965926
 21
0.258819
 31
0.0
 12
-0.965926
 22
-0.258819
 32
0.0
 13
-0.965926
 23
-0.258819
 33
0.0
  0
ENDBLK
  5
A4
330
A2
100
AcDbEntity
  8
0
100
AcDbBlockEnd
  0
BLOCK
  5
AA
330
A9
100
AcDbEntity
  8
0
100
AcDbBlockBegin
  2
BLKF021
 70
     0
 71
     0
 10
0.0
 20
0.0
 30
0.0
  3
BLKF021
  1

  0
LINE
  5
AE
330
A9
100
AcDbEntity
  8
GR1-1
  6
CONTINUOUS
 62
     6
100
AcDbLine
 10
127.088228
 20
132.318979
 30
0.0
 11
129.03641
 21
134.267162
 31
0.0
  0
LINE
  5
AF
330
A9
100
AcDbEntity
  8
GR1-1
  6
CONTINUOUS
 62
     6
100
AcDbLine
 10
127.391463
 20
131.208
 30
0.0
 11
130.414869
 21
134.231407
 31
0.0
  0
LINE
  5
B0
330
A9
100
AcDbEntity
  8
GR1-1
  6
CONTINUOUS
 62
     6
100
AcDbLine
 10
128.11686
 20
130.519184
 30
0.0
 11
132.354334
 21
134.756658
 31
0.0
  0
LINE
  5
B1
330
A9
100
AcDbEntity
  8
GR1-1
  6
CONTINUOUS
 62
     6
100
AcDbLine
 10
135.098909
 20
137.501233
 30
0.0
 11
135.465082
 21
137.867406
 31
0.0
  0
LINE
  5
B2
330
A9
100
AcDbEntity
  8
GR1-1
  6
CONTINUOUS
 62
     6
100
AcDbLine
 10
129.279706
 20
130.267816
 30
0.0
 11
131.279706
 21
132.267816
 31
0.0
  0
LINE
  5
B3
330
A9
100
AcDbEntity
  8
GR1-1
  6
CONTINUOUS
 62
     6
100
AcDbLine
 10
131.357959
 20
132.34607
 30
0.0
 11
136.687164
 21
137.675275
 31
0.0
  0
LINE
  5
B4
330
A9
100
AcDbEntity
  8
GR1-1
  6
CONTINUOUS
 62
     6
100
AcDbLine
 10
130.693919
 20
130.267816
 30
0.0
 11
132.693919
 21
132.267816
 31
0.0
  0
LINE
  5
B5
330
A9
100
AcDbEntity
  8
GR1-1
  6
CONTINUOUS
 62
     6
100
AcDbLine
 10
133.541038
 20
133.114935
 30
0.0
 11
136.740632
 21
136.314529
 31
0.0
  0
LINE
  5
B6
330
A9
100
AcDbEntity
  8
GR1-1
  6
CONTINUOUS
 62
     6
100
AcDbLine
 10
132.108133
 20
130.267816
 30
0.0
 11
134.108133
 21
132.267816
 31
0.0
  0
LINE
  5
B7
330
A9
100
AcDbEntity
  8
GR1-1
  6
CONTINUOUS
 62
     6
100
AcDbLine
 10
133.522346
 20
130.267816
 30
0.0
 11
135.522346
 21
132.267816
 31
0.0
  0
LINE
  5
B8
330
A9
100
AcDbEntity
  8
GR1-1
  6
CONTINUOUS
 62
     6
100
AcDbLine
 10
134.93656
 20
130.267816
 30
0.0
 11
136.93656
 21
132.267816
 31
0.0
  0
LINE
  5
B9
330
A9
100
AcDbEntity
  8
GR1-1
  6
CONTINUOUS
 62
     6
100
AcDbLine
 10
136.350773
 20
130.267816
 30
0.0
 11
137.087573
 21
131.004616
 31
0.0
  0
LINE
  5
BA
330
A9
100
AcDbEntity
  8
GR1-1
  6
CONTINUOUS
 62
     6
100
AcDbLine
 10
137.072604
 20
129.575433
 30
0.0
 11
137.087573
 21
129.590402
 31
0.0
  0
ENDBLK
  5
AB
330
A9
100
AcDbEntity
  8
0
100
AcDbBlockEnd
  0
BLOCK
  5
BC
330
BB
100
AcDbEntity
  8
0
100
AcDbBlockBegin
  2
BLKF022
 70
     0
 71
     0
 10
0.0
 20
0.0
 30
0.0
  3
BLKF022
  1

  0
LINE
  5
BF
330
BB
100
AcDbEntity
  8
GR1-1
  6
CONTINUOUS
 62
     6
100
AcDbLine
 10
122.687573
 20
141.453603
 30
0.0
 11
124.101787
 21
142.867816
 31
0.0
  0
LINE
  5
C0
330
BB
100
AcDbEntity
  8
GR1-1
  6
CONTINUOUS
 62
     6
100
AcDbLine
 10
123.001787
 20
140.353603
 30
0.0
 11
125.516001
 21
142.867816
 31
0.0
  0
LINE
  5
C1
330
BB
100
AcDbEntity
  8
GR1-1
  6
CONTINUOUS
 62
     6
100
AcDbLine
 10
124.230214
 20
140.167816
 30
0.0
 11
126.930214
 21
142.867816
 31
0.0
  0
LINE
  5
C2
330
BB
100
AcDbEntity
  8
GR1-1
  6
CONTINUOUS
 62
     6
100
AcDbLine
 10
124.844428
 20
139.367816
 30
0.0
 11
128.344428
 21
142.867816
 31
0.0
  0
LINE
  5
C3
330
BB
100
AcDbEntity
  8
GR1-1
  6
CONTINUOUS
 62
     6
100
AcDbLine
 10
126.258641
 20
139.367816
 30
0.0
 11
129.758641
 21
142.867816
 31
0.0
  0
LINE
  5
C4
330
BB
100
AcDbEntity
  8
GR1-1
  6
CONTINUOUS
 62
     6
100
AcDbLine
 10
127.672855
 20
139.367816
 30
0.0
 11
131.172855
 21
142.867816
 31
0.0
  0
LINE
  5
C5
330
BB
100
AcDbEntity
  8
GR1-1
  6
CONTINUOUS
 62
     6
100
AcDbLine
 10
130.286975
 20
140.567722
 30
0.0
 11
132.587068
 21
142.867816
 31
0.0
  0
LINE
  5
C6
330
BB
100
AcDbEntity
  8
GR1-1
  6
CONTINUOUS
 62
     6
100
AcDbLine
 10
131.464847
 20
140.331381
 30
0.0
 11
134.001282
 21
142.867816
 31
0.0
  0
LINE
  5
C7
330
BB
100
AcDbEntity
  8
GR1-1
  6
CONTINUOUS
 62
     6
100
AcDbLine
 10
132.340815
 20
139.793136
 30
0.0
 11
135.415495
 21
142.867816
 31
0.0
  0
LINE
  5
C8
330
BB
100
AcDbEntity
  8
GR1-1
  6
CONTINUOUS
 62
     6
100
AcDbLine
 10
133.329709
 20
139.367816
 30
0.0
 11
136.829709
 21
142.867816
 31
0.0
  0
LINE
  5
C9
330
BB
100
AcDbEntity
  8
GR1-1
  6
CONTINUOUS
 62
     6
100
AcDbLine
 10
134.743923
 20
139.367816
 30
0.0
 11
138.243923
 21
142.867816
 31
0.0
  0
LINE
  5
CA
330
BB
100
AcDbEntity
  8
GR1-1
  6
CONTINUOUS
 62
     6
100
AcDbLine
 10
136.158136
 20
139.367816
 30
0.0
 11
139.422855
 21
142.632535
 31
0.0
  0
LINE
  5
CB
330
BB
100
AcDbEntity
  8
GR1-1
  6
CONTINUOUS
 62
     6
100
AcDbLine
 10
137.57235
 20
139.367816
 30
0.0
 11
139.687573
 21
141.48304
 31
0.0
  0
LINE
  5
CC
330
BB
100
AcDbEntity
  8
GR1-1
  6
CONTINUOUS
 62
     6
100
AcDbLine
 10
138.986563
 20
139.367816
 30
0.0
 11
139.687573
 21
140.068826
 31
0.0
  0
ENDBLK
  5
BD
330
BB
100
AcDbEntity
  8
0
100
AcDbBlockEnd
  0
BLOCK
  5
CF
330
CE
100
AcDbEntity
  8
0
100
AcDbBlockBegin
  2
*D21
 70
     1
 71
     0
 10
0.0
 20
0.0
 30
0.0
  3
*D21
  1

  0
TEXT
  5
D1
330
CE
100
AcDbEntity
  8
GR1-1
  6
CONTINUOUS
 62
     7
100
AcDbText
 10
168.359924
 20
146.867813
 30
0.0
 40
4.0
  1
%%c180
 50
90.0
 41
0.828947
  7
FX_VECTOR
 72
     5
 11
168.359924
 21
158.867813
 31
0.0
100
AcDbText
  0
LINE
  5
D2
330
CE
100
AcDbEntity
  8
GR1-1
  6
CONTINUOUS
 62
     7
100
AcDbLine
 10
113.187573
 20
242.867816
 30
0.0
 11
170.359932
 21
242.867816
 31
0.0
  0
LINE
  5
D3
330
CE
100
AcDbEntity
  8
GR1-1
  6
CONTINUOUS
 62
     7
100
AcDbLine
 10
113.187573
 20
62.867816
 30
0.0
 11
170.359932
 21
62.867816
 31
0.0
  0
LINE
  5
D4
330
CE
100
AcDbEntity
  8
GR1-1
  6
CONTINUOUS
 62
     7
100
AcDbLine
 10
169.359932
 20
242.867816
 30
0.0
 11
169.359932
 21
62.867816
 31
0.0
  0
INSERT
  5
D5
330
CE
100
AcDbEntity
  8
GR1-1
  6
CONTINUOUS
 62
     7
100
AcDbBlockReference
  2
FXTIP_ARROW_S
 10
169.359932
 20
242.867816
 30
0.0
 41
4.0
 42
4.0
 50
90.0
  0
INSERT
  5
D6
330
CE
100
AcDbEntity
  8
GR1-1
  6
CONTINUOUS
 62
     7
100
AcDbBlockReference
  2
FXTIP_ARROW_E
 10
169.359932
 20
62.867816
 30
0.0
 41
4.0
 42
4.0
 50
270.0
  0
ENDBLK
  5
D0
330
CE
100
AcDbEntity
  8
0
100
AcDbBlockEnd
  0
BLOCK
  5
D9
330
D8
100
AcDbEntity
  8
0
100
AcDbBlockBegin
  2
*D22
 70
     1
 71
     0
 10
0.0
 20
0.0
 30
0.0
  3
*D22
  1

  0
TEXT
  5
DB
330
D8
100
AcDbEntity
  8
GR1-1
  6
CONTINUOUS
 62
     7
100
AcDbText
 10
158.359924
 20
146.867813
 30
0.0
 40
4.0
  1
%%c151
 50
90.0
 41
0.9
  7
FX_VECTOR
 72
     5
 11
158.359924
 21
158.867813
 31
0.0
100
AcDbText
  0
LINE
  5
DC
330
D8
100
AcDbEntity
  8
GR1-1
  6
CONTINUOUS
 62
     7
100
AcDbLine
 10
135.687573
 20
228.367816
 30
0.0
 11
160.359932
 21
228.367816
 31
0.0
  0
LINE
  5
DD
330
D8
100
AcDbEntity
  8
GR1-1
  6
CONTINUOUS
 62
     7
100
AcDbLine
 10
135.687573
 20
77.367816
 30
0.0
 11
160.359932
 21
77.367816
 31
0.0
  0
LINE
  5
DE
330
D8
100
AcDbEntity
  8
GR1-1
  6
CONTINUOUS
 62
     7
100
AcDbLine
 10
159.359932
 20
228.367816
 30
0.0
 11
159.359932
 21
77.367816
 31
0.0
  0
INSERT
  5
DF
330
D8
100
AcDbEntity
  8
GR1-1
  6
CONTINUOUS
 62
     7
100
AcDbBlockReference
  2
FXTIP_ARROW_S
 10
159.359932
 20
228.367816
 30
0.0
 41
4.0
 42
4.0
 50
90.0
  0
INSERT
  5
E0
330
D8
100
AcDbEntity
  8
GR1-1
  6
CONTINUOUS
 62
     7
100
AcDbBlockReference
  2
FXTIP_ARROW_E
 10
159.359932
 20
77.367816
 30
0.0
 41
4.0
 42
4.0
 50
270.0
  0
ENDBLK
  5
DA
330
D8
100
AcDbEntity
  8
0
100
AcDbBlockEnd
  0
BLOCK
  5
E3
330
E2
100
AcDbEntity
  8
0
100
AcDbBlockBegin
  2
*D23
 70
     1
 71
     0
 10
0.0
 20
0.0
 30
0.0
  3
*D23
  1

  0
TEXT
  5
E5
330
E2
100
AcDbEntity
  8
GR1-1
  6
CONTINUOUS
 62
     7
100
AcDbText
 10
148.359924
 20
148.367813
 30
0.0
 40
4.0
  1
%%c20
 50
90.0
 41
0.84375
  7
FX_VECTOR
 72
     5
 11
148.359924
 21
157.367813
 31
0.0
100
AcDbText
  0
LINE
  5
E6
330
E2
100
AcDbEntity
  8
GR1-1
  6
CONTINUOUS
 62
     7
100
AcDbLine
 10
140.187573
 20
142.867816
 30
0.0
 11
150.359932
 21
142.867816
 31
0.0
  0
LINE
  5
E7
330
E2
100
AcDbEntity
  8
GR1-1
  6
CONTINUOUS
 62
     7
100
AcDbLine
 10
140.187573
 20
162.867816
 30
0.0
 11
150.359932
 21
162.867816
 31
0.0
  0
LINE
  5
E8
330
E2
100
AcDbEntity
  8
GR1-1
  6
CONTINUOUS
 62
     7
100
AcDbLine
 10
149.359932
 20
142.867816
 30
0.0
 11
149.359932
 21
162.867816
 31
0.0
  0
INSERT
  5
E9
330
E2
100
AcDbEntity
  8
GR1-1
  6
CONTINUOUS
 62
     7
100
AcDbBlockReference
  2
FXTIP_ARROW_S
 10
149.359932
 20
142.867816
 30
0.0
 41
4.0
 42
4.0
 50
270.0
  0
INSERT
  5
EA
330
E2
100
AcDbEntity
  8
GR1-1
  6
CONTINUOUS
 62
     7
100
AcDbBlockReference
  2
FXTIP_ARROW_E
 10
149.359932
 20
162.867816
 30
0.0
 41
4.0
 42
4.0
 50
90.0
  0
ENDBLK
  5
E4
330
E2
100
AcDbEntity
  8
0
100
AcDbBlockEnd
  0
BLOCK
  5
ED
330
EC
100
AcDbEntity
  8
0
100
AcDbBlockBegin
  2
*D24
 70
     1
 71
     0
 10
0.0
 20
0.0
 30
0.0
  3
*D24
  1

  0
TEXT
  5
EF
330
EC
100
AcDbEntity
  8
GR1-1
  6
CONTINUOUS
 62
     7
100
AcDbText
 10
109.187576
 20
255.351334
 30
0.0
 40
4.0
  1
45
 41
0.851351
  7
FX_VECTOR
 72
     5
 11
115.187576
 21
255.351334
 31
0.0
100
AcDbText
  0
LINE
  5
F0
330
EC
100
AcDbEntity
  8
GR1-1
  6
CONTINUOUS
 62
     7
100
AcDbLine
 10
89.687573
 20
229.367816
 30
0.0
 11
89.687573
 21
255.351349
 31
0.0
  0
LINE
  5
F1
330
EC
100
AcDbEntity
  8
GR1-1
  6
CONTINUOUS
 62
     7
100
AcDbLine
 10
134.687573
 20
229.367816
 30
0.0
 11
134.687573
 21
255.351349
 31
0.0
  0
LINE
  5
F2
330
EC
100
AcDbEntity
  8
GR1-1
  6
CONTINUOUS
 62
     7
100
AcDbLine
 10
89.687573
 20
254.351349
 30
0.0
 11
134.687573
 21
254.351349
 31
0.0
  0
INSERT
  5
F3
330
EC
100
AcDbEntity
  8
GR1-1
  6
CONTINUOUS
 62
     7
100
AcDbBlockReference
  2
FXTIP_ARROW_S
 10
89.687573
 20
254.351349
 30
0.0
 41
4.0
 42
4.0
 50
180.0
  0
INSERT
  5
F4
330
EC
100
AcDbEntity
  8
GR1-1
  6
CONTINUOUS
 62
     7
100
AcDbBlockReference
  2
FXTIP_ARROW_E
 10
134.687573
 20
254.351349
 30
0.0
 41
4.0
 42
4.0
 50
360.0
  0
ENDBLK
  5
EE
330
EC
100
AcDbEntity
  8
0
100
AcDbBlockEnd
  0
BLOCK
  5
F7
330
F6
100
AcDbEntity
  8
0
100
AcDbBlockBegin
  2
*D25
 70
     1
 71
     0
 10
0.0
 20
0.0
 30
0.0
  3
*D25
  1

  0
TEXT
  5
F9
330
F6
100
AcDbEntity
  8
GR1-1
  6
CONTINUOUS
 62
     7
100
AcDbText
 10
109.187576
 20
53.89016
 30
0.0
 40
4.0
  1
55
 41
0.851351
  7
FX_VECTOR
 72
     5
 11
115.187576
 21
53.89016
 31
0.0
100
AcDbText
  0
LINE
  5
FA
330
F6
100
AcDbEntity
  8
GR1-1
  6
CONTINUOUS
 62
     7
100
AcDbLine
 10
84.687573
 20
138.667816
 30
0.0
 11
84.687573
 21
51.890159
 31
0.0
  0
LINE
  5
FB
330
F6
100
AcDbEntity
  8
GR1-1
  6
CONTINUOUS
 62
     7
100
AcDbLine
 10
139.687573
 20
138.667816
 30
0.0
 11
139.687573
 21
51.890159
 31
0.0
  0
LINE
  5
FC
330
F6
100
AcDbEntity
  8
GR1-1
  6
CONTINUOUS
 62
     7
100
AcDbLine
 10
84.687573
 20
52.890159
 30
0.0
 11
139.687573
 21
52.890159
 31
0.0
  0
INSERT
  5
FD
330
F6
100
AcDbEntity
  8
GR1-1
  6
CONTINUOUS
 62
     7
100
AcDbBlockReference
  2
FXTIP_ARROW_S
 10
84.687573
 20
52.890159
 30
0.0
 41
4.0
 42
4.0
 50
180.0
  0
INSERT
  5
FE
330
F6
100
AcDbEntity
  8
GR1-1
  6
CONTINUOUS
 62
     7
100
AcDbBlockReference
  2
FXTIP_ARROW_E
 10
139.687573
 20
52.890159
 30
0.0
 41
4.0
 42
4.0
 50
360.0
  0
ENDBLK
  5
F8
330
F6
100
AcDbEntity
  8
0
100
AcDbBlockEnd
  0
BLOCK
  5
100
330
FF
100
AcDbEntity
  8
0
100
AcDbBlockBegin
  2
BLKF028
 70
     0
 71
     0
 10
0.0
 20
0.0
 30
0.0
  3
BLKF028
  1

  0
LINE
  5
103
330
FF
100
AcDbEntity
  8
GR1-1
  6
CONTINUOUS
 62
     6
100
AcDbLine
 10
125.087573
 20
131.68203
 30
0.0
 11
126.501787
 21
130.267816
 31
0.0
  0
LINE
  5
104
330
FF
100
AcDbEntity
  8
GR1-1
  6
CONTINUOUS
 62
     6
100
AcDbLine
 10
125.087573
 20
133.096243
 30
0.0
 11
127.087573
 21
131.096243
 31
0.0
  0
LINE
  5
105
330
FF
100
AcDbEntity
  8
GR1-1
  6
CONTINUOUS
 62
     6
100
AcDbLine
 10
125.087573
 20
134.510457
 30
0.0
 11
127.087573
 21
132.510457
 31
0.0
  0
LINE
  5
106
330
FF
100
AcDbEntity
  8
GR1-1
  6
CONTINUOUS
 62
     6
100
AcDbLine
 10
125.087573
 20
135.92467
 30
0.0
 11
127.087573
 21
133.92467
 31
0.0
  0
LINE
  5
107
330
FF
100
AcDbEntity
  8
GR1-1
  6
CONTINUOUS
 62
     6
100
AcDbLine
 10
125.087573
 20
137.338884
 30
0.0
 11
127.087573
 21
135.338884
 31
0.0
  0
LINE
  5
108
330
FF
100
AcDbEntity
  8
GR1-1
  6
CONTINUOUS
 62
     6
100
AcDbLine
 10
125.180214
 20
138.660457
 30
0.0
 11
127.087573
 21
136.753097
 31
0.0
  0
LINE
  5
109
330
FF
100
AcDbEntity
  8
GR1-1
  6
CONTINUOUS
 62
     6
100
AcDbLine
 10
126.387068
 20
138.867816
 30
0.0
 11
127.087573
 21
138.167311
 31
0.0
  0
ENDBLK
  5
101
330
FF
100
AcDbEntity
  8
0
100
AcDbBlockEnd
  0
BLOCK
  5
10B
330
10A
100
AcDbEntity
  8
0
100
AcDbBlockBegin
  2
BLKF029
 70
     0
 71
     0
 10
0.0
 20
0.0
 30
0.0
  3
BLKF029
  1

  0
LINE
  5
10E
330
10A
100
AcDbEntity
  8
GR1-1
  6
CONTINUOUS
 62
     6
100
AcDbLine
 10
124.187573
 20
131.860457
 30
0.0
 11
125.164259
 21
130.883771
 31
0.0
  0
LINE
  5
10F
330
10A
100
AcDbEntity
  8
GR1-1
  6
CONTINUOUS
 62
     6
100
AcDbLine
 10
125.703529
 20
130.344502
 30
0.0
 11
126.680214
 21
129.367816
 31
0.0
  0
LINE
  5
110
330
10A
100
AcDbEntity
  8
GR1-1
  6
CONTINUOUS
 62
     6
100
AcDbLine
 10
124.187573
 20
133.27467
 30
0.0
 11
125.087573
 21
132.37467
 31
0.0
  0
LINE
  5
111
330
10A
100
AcDbEntity
  8
GR1-1
  6
CONTINUOUS
 62
     6
100
AcDbLine
 10
127.194428
 20
130.267816
 30
0.0
 11
128.094428
 21
129.367816
 31
0.0
  0
LINE
  5
112
330
10A
100
AcDbEntity
  8
GR1-1
  6
CONTINUOUS
 62
     6
100
AcDbLine
 10
125.008641
 20
133.867816
 30
0.0
 11
125.087573
 21
133.788884
 31
0.0
  0
LINE
  5
113
330
10A
100
AcDbEntity
  8
GR1-1
  6
CONTINUOUS
 62
     6
100
AcDbLine
 10
128.608641
 20
130.267816
 30
0.0
 11
129.508641
 21
129.367816
 31
0.0
  0
LINE
  5
114
330
10A
100
AcDbEntity
  8
GR1-1
  6
CONTINUOUS
 62
     6
100
AcDbLine
 10
130.022855
 20
130.267816
 30
0.0
 11
130.922855
 21
129.367816
 31
0.0
  0
LINE
  5
115
330
10A
100
AcDbEntity
  8
GR1-1
  6
CONTINUOUS
 62
     6
100
AcDbLine
 10
131.437068
 20
130.267816
 30
0.0
 11
132.337068
 21
129.367816
 31
0.0
  0
LINE
  5
116
330
10A
100
AcDbEntity
  8
GR1-1
  6
CONTINUOUS
 62
     6
100
AcDbLine
 10
132.851282
 20
130.267816
 30
0.0
 11
133.751282
 21
129.367816
 31
0.0
  0
LINE
  5
117
330
10A
100
AcDbEntity
  8
GR1-1
  6
CONTINUOUS
 62
     6
100
AcDbLine
 10
134.265495
 20
130.267816
 30
0.0
 11
135.165495
 21
129.367816
 31
0.0
  0
LINE
  5
118
330
10A
100
AcDbEntity
  8
GR1-1
  6
CONTINUOUS
 62
     6
100
AcDbLine
 10
135.687573
 20
128.845738
 30
0.0
 11
136.913654
 21
127.619658
 31
0.0
  0
LINE
  5
119
330
10A
100
AcDbEntity
  8
GR1-1
  6
CONTINUOUS
 62
     6
100
AcDbLine
 10
135.679709
 20
130.267816
 30
0.0
 11
137.90859
 21
128.038935
 31
0.0
  0
LINE
  5
11A
330
10A
100
AcDbEntity
  8
GR1-1
  6
CONTINUOUS
 62
     6
100
AcDbLine
 10
137.087573
 20
130.274165
 30
0.0
 11
137.987573
 21
129.374165
 31
0.0
  0
LINE
  5
11B
330
10A
100
AcDbEntity
  8
GR1-1
  6
CONTINUOUS
 62
     6
100
AcDbLine
 10
137.087573
 20
131.688379
 30
0.0
 11
137.987573
 21
130.788379
 31
0.0
  0
LINE
  5
11C
330
10A
100
AcDbEntity
  8
GR1-1
  6
CONTINUOUS
 62
     6
100
AcDbLine
 10
137.087573
 20
133.102592
 30
0.0
 11
137.987573
 21
132.202592
 31
0.0
  0
LINE
  5
11D
330
10A
100
AcDbEntity
  8
GR1-1
  6
CONTINUOUS
 62
     6
100
AcDbLine
 10
137.087573
 20
134.516806
 30
0.0
 11
137.987573
 21
133.616806
 31
0.0
  0
LINE
  5
11E
330
10A
100
AcDbEntity
  8
GR1-1
  6
CONTINUOUS
 62
     6
100
AcDbLine
 10
137.087573
 20
135.93102
 30
0.0
 11
137.987573
 21
135.03102
 31
0.0
  0
LINE
  5
11F
330
10A
100
AcDbEntity
  8
GR1-1
  6
CONTINUOUS
 62
     6
100
AcDbLine
 10
137.087573
 20
137.345233
 30
0.0
 11
137.987573
 21
136.445233
 31
0.0
  0
LINE
  5
120
330
10A
100
AcDbEntity
  8
GR1-1
  6
CONTINUOUS
 62
     6
100
AcDbLine
 10
137.229204
 20
138.617816
 30
0.0
 11
137.987573
 21
137.859447
 31
0.0
  0
ENDBLK
  5
10C
330
10A
100
AcDbEntity
  8
0
100
AcDbBlockEnd
  0
BLOCK
  5
122
330
121
100
AcDbEntity
  8
0
100
AcDbBlockBegin
  2
BLKF030
 70
     0
 71
     0
 10
0.0
 20
0.0
 30
0.0
  3
BLKF030
  1

  0
LINE
  5
125
330
121
100
AcDbEntity
  8
GR1-1
  6
CONTINUOUS
 62
     6
100
AcDbLine
 10
133.566253
 20
77.367816
 30
0.0
 11
134.687573
 21
78.489136
 31
0.0
  0
LINE
  5
126
330
121
100
AcDbEntity
  8
GR1-1
  6
CONTINUOUS
 62
     6
100
AcDbLine
 10
132.887573
 20
78.810457
 30
0.0
 11
134.398554
 21
80.321437
 31
0.0
  0
LINE
  5
127
330
121
100
AcDbEntity
  8
GR1-1
  6
CONTINUOUS
 62
     6
100
AcDbLine
 10
132.269445
 20
80.313649
 30
0.0
 11
133.542408
 21
81.586612
 31
0.0
  0
LINE
  5
128
330
121
100
AcDbEntity
  8
GR1-1
  6
CONTINUOUS
 62
     6
100
AcDbLine
 10
130.702292
 20
80.867816
 30
0.0
 11
132.249752
 21
82.415276
 31
0.0
  0
LINE
  5
129
330
121
100
AcDbEntity
  8
GR1-1
  6
CONTINUOUS
 62
     6
100
AcDbLine
 10
128.580972
 20
80.867816
 30
0.0
 11
130.380972
 21
82.667816
 31
0.0
  0
LINE
  5
12A
330
121
100
AcDbEntity
  8
GR1-1
  6
CONTINUOUS
 62
     6
100
AcDbLine
 10
126.459651
 20
80.867816
 30
0.0
 11
128.259651
 21
82.667816
 31
0.0
  0
LINE
  5
12B
330
121
100
AcDbEntity
  8
GR1-1
  6
CONTINUOUS
 62
     6
100
AcDbLine
 10
124.338331
 20
80.867816
 30
0.0
 11
126.138331
 21
82.667816
 31
0.0
  0
LINE
  5
12C
330
121
100
AcDbEntity
  8
GR1-1
  6
CONTINUOUS
 62
     6
100
AcDbLine
 10
122.217011
 20
80.867816
 30
0.0
 11
124.017011
 21
82.667816
 31
0.0
  0
LINE
  5
12D
330
121
100
AcDbEntity
  8
GR1-1
  6
CONTINUOUS
 62
     6
100
AcDbLine
 10
120.09569
 20
80.867816
 30
0.0
 11
121.89569
 21
82.667816
 31
0.0
  0
LINE
  5
12E
330
121
100
AcDbEntity
  8
GR1-1
  6
CONTINUOUS
 62
     6
100
AcDbLine
 10
117.97437
 20
80.867816
 30
0.0
 11
119.77437
 21
82.667816
 31
0.0
  0
LINE
  5
12F
330
121
100
AcDbEntity
  8
GR1-1
  6
CONTINUOUS
 62
     6
100
AcDbLine
 10
115.85305
 20
80.867816
 30
0.0
 11
117.65305
 21
82.667816
 31
0.0
  0
LINE
  5
130
330
121
100
AcDbEntity
  8
GR1-1
  6
CONTINUOUS
 62
     6
100
AcDbLine
 10
113.936496
 20
81.072583
 30
0.0
 11
115.531729
 21
82.667816
 31
0.0
  0
LINE
  5
131
330
121
100
AcDbEntity
  8
GR1-1
  6
CONTINUOUS
 62
     6
100
AcDbLine
 10
112.740236
 20
81.997644
 30
0.0
 11
114.053452
 21
83.31086
 31
0.0
  0
LINE
  5
132
330
121
100
AcDbEntity
  8
GR1-1
  6
CONTINUOUS
 62
     6
100
AcDbLine
 10
112.18935
 20
83.568078
 30
0.0
 11
113.987573
 21
85.366301
 31
0.0
  0
LINE
  5
133
330
121
100
AcDbEntity
  8
GR1-1
  6
CONTINUOUS
 62
     6
100
AcDbLine
 10
112.187573
 20
85.687621
 30
0.0
 11
113.987573
 21
87.487621
 31
0.0
  0
LINE
  5
134
330
121
100
AcDbEntity
  8
GR1-1
  6
CONTINUOUS
 62
     6
100
AcDbLine
 10
112.187573
 20
87.808942
 30
0.0
 11
113.987573
 21
89.608942
 31
0.0
  0
LINE
  5
135
330
121
100
AcDbEntity
  8
GR1-1
  6
CONTINUOUS
 62
     6
100
AcDbLine
 10
112.187573
 20
89.930262
 30
0.0
 11
114.509926
 21
92.252615
 31
0.0
  0
LINE
  5
136
330
121
100
AcDbEntity
  8
GR1-1
  6
CONTINUOUS
 62
     6
100
AcDbLine
 10
112.705761
 20
92.569769
 30
0.0
 11
115.794735
 21
95.658743
 31
0.0
  0
LINE
  5
137
330
121
100
AcDbEntity
  8
GR1-1
  6
CONTINUOUS
 62
     6
100
AcDbLine
 10
113.990569
 20
95.975898
 30
0.0
 11
119.653688
 21
101.639017
 31
0.0
  0
LINE
  5
138
330
121
100
AcDbEntity
  8
GR1-1
  6
CONTINUOUS
 62
     6
100
AcDbLine
 10
117.849522
 20
101.956172
 30
0.0
 11
120.938496
 21
105.045146
 31
0.0
  0
LINE
  5
139
330
121
100
AcDbEntity
  8
GR1-1
  6
CONTINUOUS
 62
     6
100
AcDbLine
 10
119.134331
 20
105.362301
 30
0.0
 11
122.223305
 21
108.451275
 31
0.0
  0
LINE
  5
13A
330
121
100
AcDbEntity
  8
GR1-1
  6
CONTINUOUS
 62
     6
100
AcDbLine
 10
120.419139
 20
108.768429
 30
0.0
 11
123.508113
 21
111.857404
 31
0.0
  0
LINE
  5
13B
330
121
100
AcDbEntity
  8
GR1-1
  6
CONTINUOUS
 62
     6
100
AcDbLine
 10
121.703948
 20
112.174558
 30
0.0
 11
124.792922
 21
115.263532
 31
0.0
  0
LINE
  5
13C
330
121
100
AcDbEntity
  8
GR1-1
  6
CONTINUOUS
 62
     6
100
AcDbLine
 10
122.988756
 20
115.580687
 30
0.0
 11
126.069629
 21
118.66156
 31
0.0
  0
LINE
  5
13D
330
121
100
AcDbEntity
  8
GR1-1
  6
CONTINUOUS
 62
     6
100
AcDbLine
 10
135.125885
 20
127.717816
 30
0.0
 11
135.687573
 21
128.279504
 31
0.0
  0
LINE
  5
13E
330
121
100
AcDbEntity
  8
GR1-1
  6
CONTINUOUS
 62
     6
100
AcDbLine
 10
124.273564
 20
118.986816
 30
0.0
 11
126.354228
 21
121.067479
 31
0.0
  0
LINE
  5
13F
330
121
100
AcDbEntity
  8
GR1-1
  6
CONTINUOUS
 62
     6
100
AcDbLine
 10
133.004565
 20
127.717816
 30
0.0
 11
134.804565
 21
129.517816
 31
0.0
  0
LINE
  5
140
330
121
100
AcDbEntity
  8
GR1-1
  6
CONTINUOUS
 62
     6
100
AcDbLine
 10
124.502652
 20
121.337224
 30
0.0
 11
126.073202
 21
122.907773
 31
0.0
  0
LINE
  5
141
330
121
100
AcDbEntity
  8
GR1-1
  6
CONTINUOUS
 62
     6
100
AcDbLine
 10
130.883244
 20
127.717816
 30
0.0
 11
132.683244
 21
129.517816
 31
0.0
  0
LINE
  5
142
330
121
100
AcDbEntity
  8
GR1-1
  6
CONTINUOUS
 62
     6
100
AcDbLine
 10
124.279706
 20
123.235598
 30
0.0
 11
127.35801
 21
126.313902
 31
0.0
  0
LINE
  5
143
330
121
100
AcDbEntity
  8
GR1-1
  6
CONTINUOUS
 62
     6
100
AcDbLine
 10
128.761924
 20
127.717816
 30
0.0
 11
130.561924
 21
129.517816
 31
0.0
  0
LINE
  5
144
330
121
100
AcDbEntity
  8
GR1-1
  6
CONTINUOUS
 62
     6
100
AcDbLine
 10
125.553845
 20
126.631057
 30
0.0
 11
128.436993
 21
129.514205
 31
0.0
  0
ENDBLK
  5
123
330
121
100
AcDbEntity
  8
0
100
AcDbBlockEnd
  0
BLOCK
  5
146
330
145
100
AcDbEntity
  8
0
100
AcDbBlockBegin
  2
BLKF031
 70
     0
 71
     0
 10
0.0
 20
0.0
 30
0.0
  3
BLKF031
  1

  0
LINE
  5
149
330
145
100
AcDbEntity
  8
GR1-1
  6
CONTINUOUS
 62
     7
100
AcDbLine
 10
238.832443
 20
217.163738
 30
0.0
 11
238.895017
 21
217.558813
 31
0.0
  0
LINE
  5
14A
330
145
100
AcDbEntity
  8
GR1-1
  6
CONTINUOUS
 62
     7
100
AcDbLine
 10
238.603618
 20
216.997487
 30
0.0
 11
238.728766
 21
217.787638
 31
0.0
  0
LINE
  5
14B
330
145
100
AcDbEntity
  8
GR1-1
  6
CONTINUOUS
 62
     7
100
AcDbLine
 10
238.374794
 20
216.831237
 30
0.0
 11
238.562515
 21
218.016463
 31
0.0
  0
LINE
  5
14C
330
145
100
AcDbEntity
  8
GR1-1
  6
CONTINUOUS
 62
     7
100
AcDbLine
 10
238.145969
 20
216.664986
 30
0.0
 11
238.396264
 21
218.245287
 31
0.0
  0
LINE
  5
14D
330
145
100
AcDbEntity
  8
GR1-1
  6
CONTINUOUS
 62
     7
100
AcDbLine
 10
237.917145
 20
216.498735
 30
0.0
 11
238.132996
 21
217.861566
 31
0.0
  0
LINE
  5
14E
330
145
100
AcDbEntity
  8
GR1-1
  6
CONTINUOUS
 62
     7
100
AcDbLine
 10
238.192056
 20
218.234458
 30
0.0
 11
238.230013
 21
218.474112
 31
0.0
  0
LINE
  5
14F
330
145
100
AcDbEntity
  8
GR1-1
  6
CONTINUOUS
 62
     7
100
AcDbLine
 10
237.68832
 20
216.332484
 30
0.0
 11
237.904171
 21
217.695315
 31
0.0
  0
LINE
  5
150
330
145
100
AcDbEntity
  8
GR1-1
  6
CONTINUOUS
 62
     7
100
AcDbLine
 10
238.025805
 20
218.463283
 30
0.0
 11
238.063763
 21
218.702936
 31
0.0
  0
LINE
  5
151
330
145
100
AcDbEntity
  8
GR1-1
  6
CONTINUOUS
 62
     7
100
AcDbLine
 10
237.459495
 20
216.166233
 30
0.0
 11
237.675347
 21
217.529065
 31
0.0
  0
LINE
  5
152
330
145
100
AcDbEntity
  8
GR1-1
  6
CONTINUOUS
 62
     7
100
AcDbLine
 10
237.859555
 20
218.692107
 30
0.0
 11
237.897512
 21
218.931761
 31
0.0
  0
LINE
  5
153
330
145
100
AcDbEntity
  8
GR1-1
  6
CONTINUOUS
 62
     7
100
AcDbLine
 10
237.230671
 20
215.999983
 30
0.0
 11
237.472072
 21
217.52413
 31
0.0
  0
LINE
  5
154
330
145
100
AcDbEntity
  8
GR1-1
  6
CONTINUOUS
 62
     7
100
AcDbLine
 10
237.693304
 20
218.920932
 30
0.0
 11
237.731261
 21
219.160585
 31
0.0
  0
LINE
  5
155
330
145
100
AcDbEntity
  8
GR1-1
  6
CONTINUOUS
 62
     7
100
AcDbLine
 10
237.001846
 20
215.833732
 30
0.0
 11
237.305821
 21
217.752954
 31
0.0
  0
LINE
  5
156
330
145
100
AcDbEntity
  8
GR1-1
  6
CONTINUOUS
 62
     7
100
AcDbLine
 10
237.527053
 20
219.149757
 30
0.0
 11
237.56501
 21
219.38941
 31
0.0
  0
LINE
  5
157
330
145
100
AcDbEntity
  8
GR1-1
  6
CONTINUOUS
 62
     7
100
AcDbLine
 10
236.773022
 20
215.667481
 30
0.0
 11
237.13957
 21
217.981779
 31
0.0
  0
LINE
  5
158
330
145
100
AcDbEntity
  8
GR1-1
  6
CONTINUOUS
 62
     7
100
AcDbLine
 10
237.360802
 20
219.378581
 30
0.0
 11
237.39876
 21
219.618235
 31
0.0
  0
LINE
  5
159
330
145
100
AcDbEntity
  8
GR1-1
  6
CONTINUOUS
 62
     7
100
AcDbLine
 10
236.544197
 20
215.50123
 30
0.0
 11
236.955038
 21
218.095176
 31
0.0
  0
LINE
  5
15A
330
145
100
AcDbEntity
  8
GR1-1
  6
CONTINUOUS
 62
     7
100
AcDbLine
 10
237.194551
 20
219.607406
 30
0.0
 11
237.232509
 21
219.847059
 31
0.0
  0
LINE
  5
15B
330
145
100
AcDbEntity
  8
GR1-1
  6
CONTINUOUS
 62
     7
100
AcDbLine
 10
236.315373
 20
215.33498
 30
0.0
 11
236.377946
 21
215.730055
 31
0.0
  0
LINE
  5
15C
330
145
100
AcDbEntity
  8
GR1-1
  6
CONTINUOUS
 62
     7
100
AcDbLine
 10
236.979068
 20
219.525386
 30
0.0
 11
237.066258
 21
220.075884
 31
0.0
  0
LINE
  5
15D
330
145
100
AcDbEntity
  8
GR1-1
  6
CONTINUOUS
 62
     7
100
AcDbLine
 10
236.086548
 20
215.168729
 30
0.0
 11
236.180409
 21
215.761342
 31
0.0
  0
LINE
  5
15E
330
145
100
AcDbEntity
  8
GR1-1
  6
CONTINUOUS
 62
     7
100
AcDbLine
 10
236.750243
 20
219.359136
 30
0.0
 11
236.900007
 21
220.304708
 31
0.0
  0
LINE
  5
15F
330
145
100
AcDbEntity
  8
GR1-1
  6
CONTINUOUS
 62
     7
100
AcDbLine
 10
235.857723
 20
215.002478
 30
0.0
 11
235.982871
 21
215.792629
 31
0.0
  0
LINE
  5
160
330
145
100
AcDbEntity
  8
GR1-1
  6
CONTINUOUS
 62
     7
100
AcDbLine
 10
236.521419
 20
219.192885
 30
0.0
 11
236.587788
 21
219.611925
 31
0.0
  0
LINE
  5
161
330
145
100
AcDbEntity
  8
GR1-1
  6
CONTINUOUS
 62
     7
100
AcDbLine
 10
236.608609
 20
219.743382
 30
0.0
 11
236.733756
 21
220.533533
 31
0.0
  0
LINE
  5
162
330
145
100
AcDbEntity
  8
GR1-1
  6
CONTINUOUS
 62
     7
100
AcDbLine
 10
235.628899
 20
214.836227
 30
0.0
 11
235.785333
 21
215.823916
 31
0.0
  0
LINE
  5
163
330
145
100
AcDbEntity
  8
GR1-1
  6
CONTINUOUS
 62
     7
100
AcDbLine
 10
236.292594
 20
219.026634
 30
0.0
 11
236.358964
 21
219.445675
 31
0.0
  0
LINE
  5
164
330
145
100
AcDbEntity
  8
GR1-1
  6
CONTINUOUS
 62
     7
100
AcDbLine
 10
236.411071
 20
219.774669
 30
0.0
 11
236.567506
 21
220.762357
 31
0.0
  0
LINE
  5
165
330
145
100
AcDbEntity
  8
GR1-1
  6
CONTINUOUS
 62
     7
100
AcDbLine
 10
235.400074
 20
214.669977
 30
0.0
 11
235.587796
 21
215.855203
 31
0.0
  0
LINE
  5
166
330
145
100
AcDbEntity
  8
GR1-1
  6
CONTINUOUS
 62
     7
100
AcDbLine
 10
236.06377
 20
218.860383
 30
0.0
 11
236.130139
 21
219.279424
 31
0.0
  0
LINE
  5
167
330
145
100
AcDbEntity
  8
GR1-1
  6
CONTINUOUS
 62
     7
100
AcDbLine
 10
236.213534
 20
219.805956
 30
0.0
 11
236.401255
 21
220.991182
 31
0.0
  0
LINE
  5
168
330
145
100
AcDbEntity
  8
GR1-1
  6
CONTINUOUS
 62
     7
100
AcDbLine
 10
235.17125
 20
214.503726
 30
0.0
 11
235.390258
 21
215.886489
 31
0.0
  0
LINE
  5
169
330
145
100
AcDbEntity
  8
GR1-1
  6
CONTINUOUS
 62
     7
100
AcDbLine
 10
235.546693
 20
216.874178
 30
0.0
 11
235.723993
 21
217.99361
 31
0.0
  0
LINE
  5
16A
330
145
100
AcDbEntity
  8
GR1-1
  6
CONTINUOUS
 62
     7
100
AcDbLine
 10
235.834945
 20
218.694132
 30
0.0
 11
235.901315
 21
219.113173
 31
0.0
  0
LINE
  5
16B
330
145
100
AcDbEntity
  8
GR1-1
  6
CONTINUOUS
 62
     7
100
AcDbLine
 10
236.015996
 20
219.837243
 30
0.0
 11
236.235004
 21
221.220006
 31
0.0
  0
LINE
  5
16C
330
145
100
AcDbEntity
  8
GR1-1
  6
CONTINUOUS
 62
     7
100
AcDbLine
 10
234.942425
 20
214.337475
 30
0.0
 11
235.19272
 21
215.917776
 31
0.0
  0
LINE
  5
16D
330
145
100
AcDbEntity
  8
GR1-1
  6
CONTINUOUS
 62
     7
100
AcDbLine
 10
235.349155
 20
216.905465
 30
0.0
 11
235.495505
 21
217.829481
 31
0.0
  0
LINE
  5
16E
330
145
100
AcDbEntity
  8
GR1-1
  6
CONTINUOUS
 62
     7
100
AcDbLine
 10
235.60612
 20
218.527882
 30
0.0
 11
235.67249
 21
218.946922
 31
0.0
  0
LINE
  5
16F
330
145
100
AcDbEntity
  8
GR1-1
  6
CONTINUOUS
 62
     7
100
AcDbLine
 10
235.818458
 20
219.86853
 30
0.0
 11
236.068753
 21
221.448831
 31
0.0
  0
LINE
  5
170
330
145
100
AcDbEntity
  8
GR1-1
  6
CONTINUOUS
 62
     7
100
AcDbLine
 10
234.713601
 20
214.171224
 30
0.0
 11
234.995183
 21
215.949063
 31
0.0
  0
LINE
  5
171
330
145
100
AcDbEntity
  8
GR1-1
  6
CONTINUOUS
 62
     7
100
AcDbLine
 10
235.151617
 20
216.936752
 30
0.0
 11
235.26668
 21
217.66323
 31
0.0
  0
LINE
  5
172
330
145
100
AcDbEntity
  8
GR1-1
  6
CONTINUOUS
 62
     7
100
AcDbLine
 10
235.377296
 20
218.361631
 30
0.0
 11
235.464486
 21
218.912128
 31
0.0
  0
LINE
  5
173
330
145
100
AcDbEntity
  8
GR1-1
  6
CONTINUOUS
 62
     7
100
AcDbLine
 10
235.620921
 20
219.899817
 30
0.0
 11
235.902503
 21
221.677656
 31
0.0
  0
LINE
  5
174
330
145
100
AcDbEntity
  8
GR1-1
  6
CONTINUOUS
 62
     7
100
AcDbLine
 10
234.484776
 20
214.004973
 30
0.0
 11
234.797645
 21
215.98035
 31
0.0
  0
LINE
  5
175
330
145
100
AcDbEntity
  8
GR1-1
  6
CONTINUOUS
 62
     7
100
AcDbLine
 10
234.954079
 20
216.968038
 30
0.0
 11
235.072557
 21
217.716073
 31
0.0
  0
LINE
  5
176
330
145
100
AcDbEntity
  8
GR1-1
  6
CONTINUOUS
 62
     7
100
AcDbLine
 10
235.148471
 20
218.19538
 30
0.0
 11
235.266948
 21
218.943415
 31
0.0
  0
LINE
  5
177
330
145
100
AcDbEntity
  8
GR1-1
  6
CONTINUOUS
 62
     7
100
AcDbLine
 10
235.423383
 20
219.931103
 30
0.0
 11
235.736252
 21
221.90648
 31
0.0
  0
LINE
  5
178
330
145
100
AcDbEntity
  8
GR1-1
  6
CONTINUOUS
 62
     7
100
AcDbLine
 10
234.255952
 20
213.838723
 30
0.0
 11
234.600107
 21
216.011637
 31
0.0
  0
LINE
  5
179
330
145
100
AcDbEntity
  8
GR1-1
  6
CONTINUOUS
 62
     7
100
AcDbLine
 10
234.756542
 20
216.999325
 30
0.0
 11
234.906306
 21
217.944898
 31
0.0
  0
LINE
  5
17A
330
145
100
AcDbEntity
  8
GR1-1
  6
CONTINUOUS
 62
     7
100
AcDbLine
 10
234.919647
 20
218.029129
 30
0.0
 11
235.069411
 21
218.974702
 31
0.0
  0
LINE
  5
17B
330
145
100
AcDbEntity
  8
GR1-1
  6
CONTINUOUS
 62
     7
100
AcDbLine
 10
235.225845
 20
219.96239
 30
0.0
 11
235.570001
 21
222.135305
 31
0.0
  0
LINE
  5
17C
330
145
100
AcDbEntity
  8
GR1-1
  6
CONTINUOUS
 62
     7
100
AcDbLine
 10
234.07636
 20
213.983316
 30
0.0
 11
234.40257
 21
216.042924
 31
0.0
  0
LINE
  5
17D
330
145
100
AcDbEntity
  8
GR1-1
  6
CONTINUOUS
 62
     7
100
AcDbLine
 10
234.559004
 20
217.030612
 30
0.0
 11
234.871873
 21
219.005989
 31
0.0
  0
LINE
  5
17E
330
145
100
AcDbEntity
  8
GR1-1
  6
CONTINUOUS
 62
     7
100
AcDbLine
 10
235.028308
 20
219.993677
 30
0.0
 11
235.354517
 21
222.053285
 31
0.0
  0
LINE
  5
17F
330
145
100
AcDbEntity
  8
GR1-1
  6
CONTINUOUS
 62
     7
100
AcDbLine
 10
233.910109
 20
214.21214
 30
0.0
 11
234.205032
 21
216.074211
 31
0.0
  0
LINE
  5
180
330
145
100
AcDbEntity
  8
GR1-1
  6
CONTINUOUS
 62
     7
100
AcDbLine
 10
234.361466
 20
217.061899
 30
0.0
 11
234.674335
 21
219.037276
 31
0.0
  0
LINE
  5
181
330
145
100
AcDbEntity
  8
GR1-1
  6
CONTINUOUS
 62
     7
100
AcDbLine
 10
234.83077
 20
220.024964
 30
0.0
 11
235.125693
 21
221.887035
 31
0.0
  0
LINE
  5
182
330
145
100
AcDbEntity
  8
GR1-1
  6
CONTINUOUS
 62
     7
100
AcDbLine
 10
233.743858
 20
214.440965
 30
0.0
 11
234.007494
 21
216.105498
 31
0.0
  0
LINE
  5
183
330
145
100
AcDbEntity
  8
GR1-1
  6
CONTINUOUS
 62
     7
100
AcDbLine
 10
234.163929
 20
217.093186
 30
0.0
 11
234.476798
 21
219.068563
 31
0.0
  0
LINE
  5
184
330
145
100
AcDbEntity
  8
GR1-1
  6
CONTINUOUS
 62
     7
100
AcDbLine
 10
234.633232
 20
220.056251
 30
0.0
 11
234.896868
 21
221.720784
 31
0.0
  0
LINE
  5
185
330
145
100
AcDbEntity
  8
GR1-1
  6
CONTINUOUS
 62
     7
100
AcDbLine
 10
233.577607
 20
214.669789
 30
0.0
 11
233.809957
 21
216.136785
 31
0.0
  0
LINE
  5
186
330
145
100
AcDbEntity
  8
GR1-1
  6
CONTINUOUS
 62
     7
100
AcDbLine
 10
233.966391
 20
217.124473
 30
0.0
 11
234.27926
 21
219.09985
 31
0.0
  0
LINE
  5
187
330
145
100
AcDbEntity
  8
GR1-1
  6
CONTINUOUS
 62
     7
100
AcDbLine
 10
234.435695
 20
220.087538
 30
0.0
 11
234.668044
 21
221.554533
 31
0.0
  0
LINE
  5
188
330
145
100
AcDbEntity
  8
GR1-1
  6
CONTINUOUS
 62
     7
100
AcDbLine
 10
233.411357
 20
214.898614
 30
0.0
 11
233.612419
 21
216.168071
 31
0.0
  0
LINE
  5
189
330
145
100
AcDbEntity
  8
GR1-1
  6
CONTINUOUS
 62
     7
100
AcDbLine
 10
233.768853
 20
217.15576
 30
0.0
 11
234.081722
 21
219.131136
 31
0.0
  0
LINE
  5
18A
330
145
100
AcDbEntity
  8
GR1-1
  6
CONTINUOUS
 62
     7
100
AcDbLine
 10
234.238157
 20
220.118825
 30
0.0
 11
234.439219
 21
221.388282
 31
0.0
  0
LINE
  5
18B
330
145
100
AcDbEntity
  8
GR1-1
  6
CONTINUOUS
 62
     7
100
AcDbLine
 10
233.245106
 20
215.127439
 30
0.0
 11
233.414881
 21
216.199358
 31
0.0
  0
LINE
  5
18C
330
145
100
AcDbEntity
  8
GR1-1
  6
CONTINUOUS
 62
     7
100
AcDbLine
 10
234.040619
 20
220.150112
 30
0.0
 11
234.210395
 21
221.222031
 31
0.0
  0
LINE
  5
18D
330
145
100
AcDbEntity
  8
GR1-1
  6
CONTINUOUS
 62
     7
100
AcDbLine
 10
233.078855
 20
215.356263
 30
0.0
 11
233.217344
 21
216.230645
 31
0.0
  0
LINE
  5
18E
330
145
100
AcDbEntity
  8
GR1-1
  6
CONTINUOUS
 62
     7
100
AcDbLine
 10
233.843082
 20
220.181399
 30
0.0
 11
233.98157
 21
221.055781
 31
0.0
  0
LINE
  5
18F
330
145
100
AcDbEntity
  8
GR1-1
  6
CONTINUOUS
 62
     7
100
AcDbLine
 10
232.912604
 20
215.585088
 30
0.0
 11
233.019806
 21
216.261932
 31
0.0
  0
LINE
  5
190
330
145
100
AcDbEntity
  8
GR1-1
  6
CONTINUOUS
 62
     7
100
AcDbLine
 10
233.645544
 20
220.212685
 30
0.0
 11
233.752746
 21
220.88953
 31
0.0
  0
LINE
  5
191
330
145
100
AcDbEntity
  8
GR1-1
  6
CONTINUOUS
 62
     7
100
AcDbLine
 10
232.746354
 20
215.813912
 30
0.0
 11
232.822268
 21
216.293219
 31
0.0
  0
LINE
  5
192
330
145
100
AcDbEntity
  8
GR1-1
  6
CONTINUOUS
 62
     7
100
AcDbLine
 10
233.448006
 20
220.243972
 30
0.0
 11
233.523921
 21
220.723279
 31
0.0
  0
LINE
  5
193
330
145
100
AcDbEntity
  8
GR1-1
  6
CONTINUOUS
 62
     7
100
AcDbLine
 10
232.580103
 20
216.042737
 30
0.0
 11
232.624731
 21
216.324506
 31
0.0
  0
LINE
  5
194
330
145
100
AcDbEntity
  8
GR1-1
  6
CONTINUOUS
 62
     7
100
AcDbLine
 10
233.250469
 20
220.275259
 30
0.0
 11
233.295096
 21
220.557028
 31
0.0
  0
LINE
  5
195
330
145
100
AcDbEntity
  8
GR1-1
  6
CONTINUOUS
 62
     7
100
AcDbLine
 10
232.413852
 20
216.271561
 30
0.0
 11
233.066272
 21
220.390778
 31
0.0
  0
LINE
  5
196
330
145
100
AcDbEntity
  8
GR1-1
  6
CONTINUOUS
 62
     7
100
AcDbLine
 10
232.247601
 20
216.500386
 30
0.0
 11
232.837447
 21
220.224527
 31
0.0
  0
LINE
  5
197
330
145
100
AcDbEntity
  8
GR1-1
  6
CONTINUOUS
 62
     7
100
AcDbLine
 10
232.081351
 20
216.729211
 30
0.0
 11
232.608623
 21
220.058276
 31
0.0
  0
LINE
  5
198
330
145
100
AcDbEntity
  8
GR1-1
  6
CONTINUOUS
 62
     7
100
AcDbLine
 10
231.9151
 20
216.958035
 30
0.0
 11
232.379798
 21
219.892025
 31
0.0
  0
LINE
  5
199
330
145
100
AcDbEntity
  8
GR1-1
  6
CONTINUOUS
 62
     7
100
AcDbLine
 10
231.748849
 20
217.18686
 30
0.0
 11
232.150974
 21
219.725774
 31
0.0
  0
LINE
  5
19A
330
145
100
AcDbEntity
  8
GR1-1
  6
CONTINUOUS
 62
     7
100
AcDbLine
 10
231.582598
 20
217.415684
 30
0.0
 11
231.922149
 21
219.559524
 31
0.0
  0
LINE
  5
19B
330
145
100
AcDbEntity
  8
GR1-1
  6
CONTINUOUS
 62
     7
100
AcDbLine
 10
231.416347
 20
217.644509
 30
0.0
 11
231.693324
 21
219.393273
 31
0.0
  0
LINE
  5
19C
330
145
100
AcDbEntity
  8
GR1-1
  6
CONTINUOUS
 62
     7
100
AcDbLine
 10
231.250097
 20
217.873333
 30
0.0
 11
231.4645
 21
219.227022
 31
0.0
  0
LINE
  5
19D
330
145
100
AcDbEntity
  8
GR1-1
  6
CONTINUOUS
 62
     7
100
AcDbLine
 10
231.083846
 20
218.102158
 30
0.0
 11
231.235675
 21
219.060771
 31
0.0
  0
LINE
  5
19E
330
145
100
AcDbEntity
  8
GR1-1
  6
CONTINUOUS
 62
     7
100
AcDbLine
 10
230.917595
 20
218.330982
 30
0.0
 11
231.006851
 21
218.894521
 31
0.0
  0
LINE
  5
19F
330
145
100
AcDbEntity
  8
GR1-1
  6
CONTINUOUS
 62
     7
100
AcDbLine
 10
230.751344
 20
218.559807
 30
0.0
 11
230.778026
 21
218.72827
 31
0.0
  0
ENDBLK
  5
147
330
145
100
AcDbEntity
  8
0
100
AcDbBlockEnd
  0
BLOCK
  5
244
330
243
100
AcDbEntity
  8
0
100
AcDbBlockBegin
  2
BLKF032
 70
     0
 71
     0
 10
0.0
 20
0.0
 30
0.0
  3
BLKF032
  1

  0
LINE
  5
247
330
243
100
AcDbEntity
  8
GR1-1
  6
CONTINUOUS
 62
     6
100
AcDbLine
 10
97.286919
 20
132.318979
 30
0.0
 11
95.338736
 21
134.267162
 31
0.0
  0
LINE
  5
248
330
243
100
AcDbEntity
  8
GR1-1
  6
CONTINUOUS
 62
     6
100
AcDbLine
 10
96.983684
 20
131.208
 30
0.0
 11
93.960277
 21
134.231407
 31
0.0
  0
LINE
  5
249
330
243
100
AcDbEntity
  8
GR1-1
  6
CONTINUOUS
 62
     6
100
AcDbLine
 10
96.258287
 20
130.519184
 30
0.0
 11
92.020813
 21
134.756658
 31
0.0
  0
LINE
  5
24A
330
243
100
AcDbEntity
  8
GR1-1
  6
CONTINUOUS
 62
     6
100
AcDbLine
 10
89.276238
 20
137.501233
 30
0.0
 11
88.910065
 21
137.867406
 31
0.0
  0
LINE
  5
24B
330
243
100
AcDbEntity
  8
GR1-1
  6
CONTINUOUS
 62
     6
100
AcDbLine
 10
95.095441
 20
130.267816
 30
0.0
 11
93.095441
 21
132.267816
 31
0.0
  0
LINE
  5
24C
330
243
100
AcDbEntity
  8
GR1-1
  6
CONTINUOUS
 62
     6
100
AcDbLine
 10
93.017188
 20
132.34607
 30
0.0
 11
87.687982
 21
137.675275
 31
0.0
  0
LINE
  5
24D
330
243
100
AcDbEntity
  8
GR1-1
  6
CONTINUOUS
 62
     6
100
AcDbLine
 10
93.681228
 20
130.267816
 30
0.0
 11
91.681228
 21
132.267816
 31
0.0
  0
LINE
  5
24E
330
243
100
AcDbEntity
  8
GR1-1
  6
CONTINUOUS
 62
     6
100
AcDbLine
 10
90.834109
 20
133.114935
 30
0.0
 11
87.634515
 21
136.314529
 31
0.0
  0
LINE
  5
24F
330
243
100
AcDbEntity
  8
GR1-1
  6
CONTINUOUS
 62
     6
100
AcDbLine
 10
92.267014
 20
130.267816
 30
0.0
 11
90.267014
 21
132.267816
 31
0.0
  0
LINE
  5
250
330
243
100
AcDbEntity
  8
GR1-1
  6
CONTINUOUS
 62
     6
100
AcDbLine
 10
90.8528
 20
130.267816
 30
0.0
 11
88.8528
 21
132.267816
 31
0.0
  0
LINE
  5
251
330
243
100
AcDbEntity
  8
GR1-1
  6
CONTINUOUS
 62
     6
100
AcDbLine
 10
89.438587
 20
130.267816
 30
0.0
 11
87.438587
 21
132.267816
 31
0.0
  0
LINE
  5
252
330
243
100
AcDbEntity
  8
GR1-1
  6
CONTINUOUS
 62
     6
100
AcDbLine
 10
88.024373
 20
130.267816
 30
0.0
 11
87.287573
 21
131.004616
 31
0.0
  0
LINE
  5
253
330
243
100
AcDbEntity
  8
GR1-1
  6
CONTINUOUS
 62
     6
100
AcDbLine
 10
87.302543
 20
129.575433
 30
0.0
 11
87.287573
 21
129.590402
 31
0.0
  0
ENDBLK
  5
245
330
243
100
AcDbEntity
  8
0
100
AcDbBlockEnd
  0
BLOCK
  5
255
330
254
100
AcDbEntity
  8
0
100
AcDbBlockBegin
  2
BLKF033
 70
     0
 71
     0
 10
0.0
 20
0.0
 30
0.0
  3
BLKF033
  1

  0
LINE
  5
258
330
254
100
AcDbEntity
  8
GR1-1
  6
CONTINUOUS
 62
     6
100
AcDbLine
 10
101.687573
 20
141.453603
 30
0.0
 11
100.27336
 21
142.867816
 31
0.0
  0
LINE
  5
259
330
254
100
AcDbEntity
  8
GR1-1
  6
CONTINUOUS
 62
     6
100
AcDbLine
 10
101.37336
 20
140.353603
 30
0.0
 11
98.859146
 21
142.867816
 31
0.0
  0
LINE
  5
25A
330
254
100
AcDbEntity
  8
GR1-1
  6
CONTINUOUS
 62
     6
100
AcDbLine
 10
100.144933
 20
140.167816
 30
0.0
 11
97.444933
 21
142.867816
 31
0.0
  0
LINE
  5
25B
330
254
100
AcDbEntity
  8
GR1-1
  6
CONTINUOUS
 62
     6
100
AcDbLine
 10
99.530719
 20
139.367816
 30
0.0
 11
96.030719
 21
142.867816
 31
0.0
  0
LINE
  5
25C
330
254
100
AcDbEntity
  8
GR1-1
  6
CONTINUOUS
 62
     6
100
AcDbLine
 10
98.116506
 20
139.367816
 30
0.0
 11
94.616506
 21
142.867816
 31
0.0
  0
LINE
  5
25D
330
254
100
AcDbEntity
  8
GR1-1
  6
CONTINUOUS
 62
     6
100
AcDbLine
 10
96.702292
 20
139.367816
 30
0.0
 11
93.202292
 21
142.867816
 31
0.0
  0
LINE
  5
25E
330
254
100
AcDbEntity
  8
GR1-1
  6
CONTINUOUS
 62
     6
100
AcDbLine
 10
94.088172
 20
140.567722
 30
0.0
 11
91.788078
 21
142.867816
 31
0.0
  0
LINE
  5
25F
330
254
100
AcDbEntity
  8
GR1-1
  6
CONTINUOUS
 62
     6
100
AcDbLine
 10
92.9103
 20
140.331381
 30
0.0
 11
90.373865
 21
142.867816
 31
0.0
  0
LINE
  5
260
330
254
100
AcDbEntity
  8
GR1-1
  6
CONTINUOUS
 62
     6
100
AcDbLine
 10
92.034331
 20
139.793136
 30
0.0
 11
88.959651
 21
142.867816
 31
0.0
  0
LINE
  5
261
330
254
100
AcDbEntity
  8
GR1-1
  6
CONTINUOUS
 62
     6
100
AcDbLine
 10
91.045438
 20
139.367816
 30
0.0
 11
87.545438
 21
142.867816
 31
0.0
  0
LINE
  5
262
330
254
100
AcDbEntity
  8
GR1-1
  6
CONTINUOUS
 62
     6
100
AcDbLine
 10
89.631224
 20
139.367816
 30
0.0
 11
86.131224
 21
142.867816
 31
0.0
  0
LINE
  5
263
330
254
100
AcDbEntity
  8
GR1-1
  6
CONTINUOUS
 62
     6
100
AcDbLine
 10
88.217011
 20
139.367816
 30
0.0
 11
84.952292
 21
142.632535
 31
0.0
  0
LINE
  5
264
330
254
100
AcDbEntity
  8
GR1-1
  6
CONTINUOUS
 62
     6
100
AcDbLine
 10
86.802797
 20
139.367816
 30
0.0
 11
84.687573
 21
141.48304
 31
0.0
  0
LINE
  5
265
330
254
100
AcDbEntity
  8
GR1-1
  6
CONTINUOUS
 62
     6
100
AcDbLine
 10
85.388584
 20
139.367816
 30
0.0
 11
84.687573
 21
140.068826
 31
0.0
  0
ENDBLK
  5
256
330
254
100
AcDbEntity
  8
0
100
AcDbBlockEnd
  0
BLOCK
  5
267
330
266
100
AcDbEntity
  8
0
100
AcDbBlockBegin
  2
BLKF034
 70
     0
 71
     0
 10
0.0
 20
0.0
 30
0.0
  3
BLKF034
  1

  0
LINE
  5
26A
330
266
100
AcDbEntity
  8
GR1-1
  6
CONTINUOUS
 62
     6
100
AcDbLine
 10
99.287573
 20
131.68203
 30
0.0
 11
97.87336
 21
130.267816
 31
0.0
  0
LINE
  5
26B
330
266
100
AcDbEntity
  8
GR1-1
  6
CONTINUOUS
 62
     6
100
AcDbLine
 10
99.287573
 20
133.096243
 30
0.0
 11
97.287573
 21
131.096243
 31
0.0
  0
LINE
  5
26C
330
266
100
AcDbEntity
  8
GR1-1
  6
CONTINUOUS
 62
     6
100
AcDbLine
 10
99.287573
 20
134.510457
 30
0.0
 11
97.287573
 21
132.510457
 31
0.0
  0
LINE
  5
26D
330
266
100
AcDbEntity
  8
GR1-1
  6
CONTINUOUS
 62
     6
100
AcDbLine
 10
99.287573
 20
135.92467
 30
0.0
 11
97.287573
 21
133.92467
 31
0.0
  0
LINE
  5
26E
330
266
100
AcDbEntity
  8
GR1-1
  6
CONTINUOUS
 62
     6
100
AcDbLine
 10
99.287573
 20
137.338884
 30
0.0
 11
97.287573
 21
135.338884
 31
0.0
  0
LINE
  5
26F
330
266
100
AcDbEntity
  8
GR1-1
  6
CONTINUOUS
 62
     6
100
AcDbLine
 10
99.194933
 20
138.660457
 30
0.0
 11
97.287573
 21
136.753097
 31
0.0
  0
LINE
  5
270
330
266
100
AcDbEntity
  8
GR1-1
  6
CONTINUOUS
 62
     6
100
AcDbLine
 10
97.988078
 20
138.867816
 30
0.0
 11
97.287573
 21
138.167311
 31
0.0
  0
ENDBLK
  5
268
330
266
100
AcDbEntity
  8
0
100
AcDbBlockEnd
  0
BLOCK
  5
272
330
271
100
AcDbEntity
  8
0
100
AcDbBlockBegin
  2
BLKF035
 70
     0
 71
     0
 10
0.0
 20
0.0
 30
0.0
  3
BLKF035
  1

  0
LINE
  5
275
330
271
100
AcDbEntity
  8
GR1-1
  6
CONTINUOUS
 62
     6
100
AcDbLine
 10
100.187573
 20
131.860457
 30
0.0
 11
99.210888
 21
130.883771
 31
0.0
  0
LINE
  5
276
330
271
100
AcDbEntity
  8
GR1-1
  6
CONTINUOUS
 62
     6
100
AcDbLine
 10
98.671618
 20
130.344502
 30
0.0
 11
97.694933
 21
129.367816
 31
0.0
  0
LINE
  5
277
330
271
100
AcDbEntity
  8
GR1-1
  6
CONTINUOUS
 62
     6
100
AcDbLine
 10
100.187573
 20
133.27467
 30
0.0
 11
99.287573
 21
132.37467
 31
0.0
  0
LINE
  5
278
330
271
100
AcDbEntity
  8
GR1-1
  6
CONTINUOUS
 62
     6
100
AcDbLine
 10
97.180719
 20
130.267816
 30
0.0
 11
96.280719
 21
129.367816
 31
0.0
  0
LINE
  5
279
330
271
100
AcDbEntity
  8
GR1-1
  6
CONTINUOUS
 62
     6
100
AcDbLine
 10
99.366506
 20
133.867816
 30
0.0
 11
99.287573
 21
133.788884
 31
0.0
  0
LINE
  5
27A
330
271
100
AcDbEntity
  8
GR1-1
  6
CONTINUOUS
 62
     6
100
AcDbLine
 10
95.766506
 20
130.267816
 30
0.0
 11
94.866506
 21
129.367816
 31
0.0
  0
LINE
  5
27B
330
271
100
AcDbEntity
  8
GR1-1
  6
CONTINUOUS
 62
     6
100
AcDbLine
 10
94.352292
 20
130.267816
 30
0.0
 11
93.452292
 21
129.367816
 31
0.0
  0
LINE
  5
27C
330
271
100
AcDbEntity
  8
GR1-1
  6
CONTINUOUS
 62
     6
100
AcDbLine
 10
92.938078
 20
130.267816
 30
0.0
 11
92.038078
 21
129.367816
 31
0.0
  0
LINE
  5
27D
330
271
100
AcDbEntity
  8
GR1-1
  6
CONTINUOUS
 62
     6
100
AcDbLine
 10
91.523865
 20
130.267816
 30
0.0
 11
90.623865
 21
129.367816
 31
0.0
  0
LINE
  5
27E
330
271
100
AcDbEntity
  8
GR1-1
  6
CONTINUOUS
 62
     6
100
AcDbLine
 10
90.109651
 20
130.267816
 30
0.0
 11
89.209651
 21
129.367816
 31
0.0
  0
LINE
  5
27F
330
271
100
AcDbEntity
  8
GR1-1
  6
CONTINUOUS
 62
     6
100
AcDbLine
 10
88.687573
 20
128.845738
 30
0.0
 11
87.461493
 21
127.619658
 31
0.0
  0
LINE
  5
280
330
271
100
AcDbEntity
  8
GR1-1
  6
CONTINUOUS
 62
     6
100
AcDbLine
 10
88.695438
 20
130.267816
 30
0.0
 11
86.466556
 21
128.038935
 31
0.0
  0
LINE
  5
281
330
271
100
AcDbEntity
  8
GR1-1
  6
CONTINUOUS
 62
     6
100
AcDbLine
 10
87.287573
 20
130.274165
 30
0.0
 11
86.387573
 21
129.374165
 31
0.0
  0
LINE
  5
282
330
271
100
AcDbEntity
  8
GR1-1
  6
CONTINUOUS
 62
     6
100
AcDbLine
 10
87.287573
 20
131.688379
 30
0.0
 11
86.387573
 21
130.788379
 31
0.0
  0
LINE
  5
283
330
271
100
AcDbEntity
  8
GR1-1
  6
CONTINUOUS
 62
     6
100
AcDbLine
 10
87.287573
 20
133.102592
 30
0.0
 11
86.387573
 21
132.202592
 31
0.0
  0
LINE
  5
284
330
271
100
AcDbEntity
  8
GR1-1
  6
CONTINUOUS
 62
     6
100
AcDbLine
 10
87.287573
 20
134.516806
 30
0.0
 11
86.387573
 21
133.616806
 31
0.0
  0
LINE
  5
285
330
271
100
AcDbEntity
  8
GR1-1
  6
CONTINUOUS
 62
     6
100
AcDbLine
 10
87.287573
 20
135.93102
 30
0.0
 11
86.387573
 21
135.03102
 31
0.0
  0
LINE
  5
286
330
271
100
AcDbEntity
  8
GR1-1
  6
CONTINUOUS
 62
     6
100
AcDbLine
 10
87.287573
 20
137.345233
 30
0.0
 11
86.387573
 21
136.445233
 31
0.0
  0
LINE
  5
287
330
271
100
AcDbEntity
  8
GR1-1
  6
CONTINUOUS
 62
     6
100
AcDbLine
 10
87.145943
 20
138.617816
 30
0.0
 11
86.387573
 21
137.859447
 31
0.0
  0
ENDBLK
  5
273
330
271
100
AcDbEntity
  8
0
100
AcDbBlockEnd
  0
BLOCK
  5
289
330
288
100
AcDbEntity
  8
0
100
AcDbBlockBegin
  2
BLKF036
 70
     0
 71
     0
 10
0.0
 20
0.0
 30
0.0
  3
BLKF036
  1

  0
LINE
  5
28C
330
288
100
AcDbEntity
  8
GR1-1
  6
CONTINUOUS
 62
     6
100
AcDbLine
 10
90.808894
 20
77.367816
 30
0.0
 11
89.687573
 21
78.489136
 31
0.0
  0
LINE
  5
28D
330
288
100
AcDbEntity
  8
GR1-1
  6
CONTINUOUS
 62
     6
100
AcDbLine
 10
91.487573
 20
78.810457
 30
0.0
 11
89.976593
 21
80.321437
 31
0.0
  0
LINE
  5
28E
330
288
100
AcDbEntity
  8
GR1-1
  6
CONTINUOUS
 62
     6
100
AcDbLine
 10
92.105702
 20
80.313649
 30
0.0
 11
90.832738
 21
81.586612
 31
0.0
  0
LINE
  5
28F
330
288
100
AcDbEntity
  8
GR1-1
  6
CONTINUOUS
 62
     6
100
AcDbLine
 10
93.672855
 20
80.867816
 30
0.0
 11
92.125395
 21
82.415276
 31
0.0
  0
LINE
  5
290
330
288
100
AcDbEntity
  8
GR1-1
  6
CONTINUOUS
 62
     6
100
AcDbLine
 10
95.794175
 20
80.867816
 30
0.0
 11
93.994175
 21
82.667816
 31
0.0
  0
LINE
  5
291
330
288
100
AcDbEntity
  8
GR1-1
  6
CONTINUOUS
 62
     6
100
AcDbLine
 10
97.915495
 20
80.867816
 30
0.0
 11
96.115495
 21
82.667816
 31
0.0
  0
LINE
  5
292
330
288
100
AcDbEntity
  8
GR1-1
  6
CONTINUOUS
 62
     6
100
AcDbLine
 10
100.036816
 20
80.867816
 30
0.0
 11
98.236816
 21
82.667816
 31
0.0
  0
LINE
  5
293
330
288
100
AcDbEntity
  8
GR1-1
  6
CONTINUOUS
 62
     6
100
AcDbLine
 10
102.158136
 20
80.867816
 30
0.0
 11
100.358136
 21
82.667816
 31
0.0
  0
LINE
  5
294
330
288
100
AcDbEntity
  8
GR1-1
  6
CONTINUOUS
 62
     6
100
AcDbLine
 10
104.279456
 20
80.867816
 30
0.0
 11
102.479456
 21
82.667816
 31
0.0
  0
LINE
  5
295
330
288
100
AcDbEntity
  8
GR1-1
  6
CONTINUOUS
 62
     6
100
AcDbLine
 10
106.400777
 20
80.867816
 30
0.0
 11
104.600777
 21
82.667816
 31
0.0
  0
LINE
  5
296
330
288
100
AcDbEntity
  8
GR1-1
  6
CONTINUOUS
 62
     6
100
AcDbLine
 10
108.522097
 20
80.867816
 30
0.0
 11
106.722097
 21
82.667816
 31
0.0
  0
LINE
  5
297
330
288
100
AcDbEntity
  8
GR1-1
  6
CONTINUOUS
 62
     6
100
AcDbLine
 10
110.438651
 20
81.072583
 30
0.0
 11
108.843418
 21
82.667816
 31
0.0
  0
LINE
  5
298
330
288
100
AcDbEntity
  8
GR1-1
  6
CONTINUOUS
 62
     6
100
AcDbLine
 10
111.63491
 20
81.997644
 30
0.0
 11
110.321694
 21
83.31086
 31
0.0
  0
LINE
  5
299
330
288
100
AcDbEntity
  8
GR1-1
  6
CONTINUOUS
 62
     6
100
AcDbLine
 10
112.185796
 20
83.568078
 30
0.0
 11
110.387573
 21
85.366301
 31
0.0
  0
LINE
  5
29A
330
288
100
AcDbEntity
  8
GR1-1
  6
CONTINUOUS
 62
     6
100
AcDbLine
 10
112.187573
 20
85.687621
 30
0.0
 11
110.387573
 21
87.487621
 31
0.0
  0
LINE
  5
29B
330
288
100
AcDbEntity
  8
GR1-1
  6
CONTINUOUS
 62
     6
100
AcDbLine
 10
112.187573
 20
87.808942
 30
0.0
 11
110.387573
 21
89.608942
 31
0.0
  0
LINE
  5
29C
330
288
100
AcDbEntity
  8
GR1-1
  6
CONTINUOUS
 62
     6
100
AcDbLine
 10
112.187573
 20
89.930262
 30
0.0
 11
109.865221
 21
92.252615
 31
0.0
  0
LINE
  5
29D
330
288
100
AcDbEntity
  8
GR1-1
  6
CONTINUOUS
 62
     6
100
AcDbLine
 10
111.669386
 20
92.569769
 30
0.0
 11
108.580412
 21
95.658743
 31
0.0
  0
LINE
  5
29E
330
288
100
AcDbEntity
  8
GR1-1
  6
CONTINUOUS
 62
     6
100
AcDbLine
 10
110.384578
 20
95.975898
 30
0.0
 11
104.721459
 21
101.639017
 31
0.0
  0
LINE
  5
29F
330
288
100
AcDbEntity
  8
GR1-1
  6
CONTINUOUS
 62
     6
100
AcDbLine
 10
106.525624
 20
101.956172
 30
0.0
 11
103.43665
 21
105.045146
 31
0.0
  0
LINE
  5
2A0
330
288
100
AcDbEntity
  8
GR1-1
  6
CONTINUOUS
 62
     6
100
AcDbLine
 10
105.240816
 20
105.362301
 30
0.0
 11
102.151842
 21
108.451275
 31
0.0
  0
LINE
  5
2A1
330
288
100
AcDbEntity
  8
GR1-1
  6
CONTINUOUS
 62
     6
100
AcDbLine
 10
103.956008
 20
108.768429
 30
0.0
 11
100.867034
 21
111.857404
 31
0.0
  0
LINE
  5
2A2
330
288
100
AcDbEntity
  8
GR1-1
  6
CONTINUOUS
 62
     6
100
AcDbLine
 10
102.671199
 20
112.174558
 30
0.0
 11
99.582225
 21
115.263532
 31
0.0
  0
LINE
  5
2A3
330
288
100
AcDbEntity
  8
GR1-1
  6
CONTINUOUS
 62
     6
100
AcDbLine
 10
101.386391
 20
115.580687
 30
0.0
 11
98.305518
 21
118.66156
 31
0.0
  0
LINE
  5
2A4
330
288
100
AcDbEntity
  8
GR1-1
  6
CONTINUOUS
 62
     6
100
AcDbLine
 10
89.249262
 20
127.717816
 30
0.0
 11
88.687573
 21
128.279504
 31
0.0
  0
LINE
  5
2A5
330
288
100
AcDbEntity
  8
GR1-1
  6
CONTINUOUS
 62
     6
100
AcDbLine
 10
100.101582
 20
118.986816
 30
0.0
 11
98.020919
 21
121.067479
 31
0.0
  0
LINE
  5
2A6
330
288
100
AcDbEntity
  8
GR1-1
  6
CONTINUOUS
 62
     6
100
AcDbLine
 10
91.370582
 20
127.717816
 30
0.0
 11
89.570582
 21
129.517816
 31
0.0
  0
LINE
  5
2A7
330
288
100
AcDbEntity
  8
GR1-1
  6
CONTINUOUS
 62
     6
100
AcDbLine
 10
99.872495
 20
121.337224
 30
0.0
 11
98.301945
 21
122.907773
 31
0.0
  0
LINE
  5
2A8
330
288
100
AcDbEntity
  8
GR1-1
  6
CONTINUOUS
 62
     6
100
AcDbLine
 10
93.491902
 20
127.717816
 30
0.0
 11
91.691902
 21
129.517816
 31
0.0
  0
LINE
  5
2A9
330
288
100
AcDbEntity
  8
GR1-1
  6
CONTINUOUS
 62
     6
100
AcDbLine
 10
100.095441
 20
123.235598
 30
0.0
 11
97.017137
 21
126.313902
 31
0.0
  0
LINE
  5
2AA
330
288
100
AcDbEntity
  8
GR1-1
  6
CONTINUOUS
 62
     6
100
AcDbLine
 10
95.613223
 20
127.717816
 30
0.0
 11
93.813223
 21
129.517816
 31
0.0
  0
LINE
  5
2AB
330
288
100
AcDbEntity
  8
GR1-1
  6
CONTINUOUS
 62
     6
100
AcDbLine
 10
98.821302
 20
126.631057
 30
0.0
 11
95.938154
 21
129.514205
 31
0.0
  0
ENDBLK
  5
28A
330
288
100
AcDbEntity
  8
0
100
AcDbBlockEnd
  0
BLOCK
  5
2F5
330
2F4
100
AcDbEntity
  8
0
100
AcDbBlockBegin
  2
BLKF037
 70
     0
 71
     0
 10
0.0
 20
0.0
 30
0.0
  3
BLKF037
  1

  0
LINE
  5
2F8
330
2F4
100
AcDbEntity
  8
GR1-1
  6
CONTINUOUS
 62
     6
100
AcDbLine
 10
127.088228
 20
173.416653
 30
0.0
 11
129.03641
 21
171.468471
 31
0.0
  0
LINE
  5
2F9
330
2F4
100
AcDbEntity
  8
GR1-1
  6
CONTINUOUS
 62
     6
100
AcDbLine
 10
127.391463
 20
174.527632
 30
0.0
 11
130.414869
 21
171.504225
 31
0.0
  0
LINE
  5
2FA
330
2F4
100
AcDbEntity
  8
GR1-1
  6
CONTINUOUS
 62
     6
100
AcDbLine
 10
128.11686
 20
175.216448
 30
0.0
 11
132.354334
 21
170.978974
 31
0.0
  0
LINE
  5
2FB
330
2F4
100
AcDbEntity
  8
GR1-1
  6
CONTINUOUS
 62
     6
100
AcDbLine
 10
135.098909
 20
168.2344
 30
0.0
 11
135.465082
 21
167.868226
 31
0.0
  0
LINE
  5
2FC
330
2F4
100
AcDbEntity
  8
GR1-1
  6
CONTINUOUS
 62
     6
100
AcDbLine
 10
129.279706
 20
175.467816
 30
0.0
 11
131.279706
 21
173.467816
 31
0.0
  0
LINE
  5
2FD
330
2F4
100
AcDbEntity
  8
GR1-1
  6
CONTINUOUS
 62
     6
100
AcDbLine
 10
131.357959
 20
173.389563
 30
0.0
 11
136.687164
 21
168.060357
 31
0.0
  0
LINE
  5
2FE
330
2F4
100
AcDbEntity
  8
GR1-1
  6
CONTINUOUS
 62
     6
100
AcDbLine
 10
130.693919
 20
175.467816
 30
0.0
 11
132.693919
 21
173.467816
 31
0.0
  0
LINE
  5
2FF
330
2F4
100
AcDbEntity
  8
GR1-1
  6
CONTINUOUS
 62
     6
100
AcDbLine
 10
133.541038
 20
172.620698
 30
0.0
 11
136.740632
 21
169.421103
 31
0.0
  0
LINE
  5
300
330
2F4
100
AcDbEntity
  8
GR1-1
  6
CONTINUOUS
 62
     6
100
AcDbLine
 10
132.108133
 20
175.467816
 30
0.0
 11
134.108133
 21
173.467816
 31
0.0
  0
LINE
  5
301
330
2F4
100
AcDbEntity
  8
GR1-1
  6
CONTINUOUS
 62
     6
100
AcDbLine
 10
133.522346
 20
175.467816
 30
0.0
 11
135.522346
 21
173.467816
 31
0.0
  0
LINE
  5
302
330
2F4
100
AcDbEntity
  8
GR1-1
  6
CONTINUOUS
 62
     6
100
AcDbLine
 10
134.93656
 20
175.467816
 30
0.0
 11
136.93656
 21
173.467816
 31
0.0
  0
LINE
  5
303
330
2F4
100
AcDbEntity
  8
GR1-1
  6
CONTINUOUS
 62
     6
100
AcDbLine
 10
136.350773
 20
175.467816
 30
0.0
 11
137.087573
 21
174.731016
 31
0.0
  0
LINE
  5
304
330
2F4
100
AcDbEntity
  8
GR1-1
  6
CONTINUOUS
 62
     6
100
AcDbLine
 10
137.072604
 20
176.160199
 30
0.0
 11
137.087573
 21
176.14523
 31
0.0
  0
ENDBLK
  5
2F6
330
2F4
100
AcDbEntity
  8
0
100
AcDbBlockEnd
  0
BLOCK
  5
306
330
305
100
AcDbEntity
  8
0
100
AcDbBlockBegin
  2
BLKF038
 70
     0
 71
     0
 10
0.0
 20
0.0
 30
0.0
  3
BLKF038
  1

  0
LINE
  5
309
330
305
100
AcDbEntity
  8
GR1-1
  6
CONTINUOUS
 62
     6
100
AcDbLine
 10
122.687573
 20
164.28203
 30
0.0
 11
124.101787
 21
162.867816
 31
0.0
  0
LINE
  5
30A
330
305
100
AcDbEntity
  8
GR1-1
  6
CONTINUOUS
 62
     6
100
AcDbLine
 10
123.001787
 20
165.38203
 30
0.0
 11
125.516001
 21
162.867816
 31
0.0
  0
LINE
  5
30B
330
305
100
AcDbEntity
  8
GR1-1
  6
CONTINUOUS
 62
     6
100
AcDbLine
 10
124.230214
 20
165.567816
 30
0.0
 11
126.930214
 21
162.867816
 31
0.0
  0
LINE
  5
30C
330
305
100
AcDbEntity
  8
GR1-1
  6
CONTINUOUS
 62
     6
100
AcDbLine
 10
124.844428
 20
166.367816
 30
0.0
 11
128.344428
 21
162.867816
 31
0.0
  0
LINE
  5
30D
330
305
100
AcDbEntity
  8
GR1-1
  6
CONTINUOUS
 62
     6
100
AcDbLine
 10
126.258641
 20
166.367816
 30
0.0
 11
129.758641
 21
162.867816
 31
0.0
  0
LINE
  5
30E
330
305
100
AcDbEntity
  8
GR1-1
  6
CONTINUOUS
 62
     6
100
AcDbLine
 10
127.672855
 20
166.367816
 30
0.0
 11
131.172855
 21
162.867816
 31
0.0
  0
LINE
  5
30F
330
305
100
AcDbEntity
  8
GR1-1
  6
CONTINUOUS
 62
     6
100
AcDbLine
 10
130.286975
 20
165.16791
 30
0.0
 11
132.587068
 21
162.867816
 31
0.0
  0
LINE
  5
310
330
305
100
AcDbEntity
  8
GR1-1
  6
CONTINUOUS
 62
     6
100
AcDbLine
 10
131.464847
 20
165.404251
 30
0.0
 11
134.001282
 21
162.867816
 31
0.0
  0
LINE
  5
311
330
305
100
AcDbEntity
  8
GR1-1
  6
CONTINUOUS
 62
     6
100
AcDbLine
 10
132.340815
 20
165.942496
 30
0.0
 11
135.415495
 21
162.867816
 31
0.0
  0
LINE
  5
312
330
305
100
AcDbEntity
  8
GR1-1
  6
CONTINUOUS
 62
     6
100
AcDbLine
 10
133.329709
 20
166.367816
 30
0.0
 11
136.829709
 21
162.867816
 31
0.0
  0
LINE
  5
313
330
305
100
AcDbEntity
  8
GR1-1
  6
CONTINUOUS
 62
     6
100
AcDbLine
 10
134.743923
 20
166.367816
 30
0.0
 11
138.243923
 21
162.867816
 31
0.0
  0
LINE
  5
314
330
305
100
AcDbEntity
  8
GR1-1
  6
CONTINUOUS
 62
     6
100
AcDbLine
 10
136.158136
 20
166.367816
 30
0.0
 11
139.422855
 21
163.103097
 31
0.0
  0
LINE
  5
315
330
305
100
AcDbEntity
  8
GR1-1
  6
CONTINUOUS
 62
     6
100
AcDbLine
 10
137.57235
 20
166.367816
 30
0.0
 11
139.687573
 21
164.252592
 31
0.0
  0
LINE
  5
316
330
305
100
AcDbEntity
  8
GR1-1
  6
CONTINUOUS
 62
     6
100
AcDbLine
 10
138.986563
 20
166.367816
 30
0.0
 11
139.687573
 21
165.666806
 31
0.0
  0
ENDBLK
  5
307
330
305
100
AcDbEntity
  8
0
100
AcDbBlockEnd
  0
BLOCK
  5
318
330
317
100
AcDbEntity
  8
0
100
AcDbBlockBegin
  2
BLKF039
 70
     0
 71
     0
 10
0.0
 20
0.0
 30
0.0
  3
BLKF039
  1

  0
LINE
  5
31B
330
317
100
AcDbEntity
  8
GR1-1
  6
CONTINUOUS
 62
     6
100
AcDbLine
 10
125.087573
 20
174.053603
 30
0.0
 11
126.501787
 21
175.467816
 31
0.0
  0
LINE
  5
31C
330
317
100
AcDbEntity
  8
GR1-1
  6
CONTINUOUS
 62
     6
100
AcDbLine
 10
125.087573
 20
172.639389
 30
0.0
 11
127.087573
 21
174.639389
 31
0.0
  0
LINE
  5
31D
330
317
100
AcDbEntity
  8
GR1-1
  6
CONTINUOUS
 62
     6
100
AcDbLine
 10
125.087573
 20
171.225175
 30
0.0
 11
127.087573
 21
173.225175
 31
0.0
  0
LINE
  5
31E
330
317
100
AcDbEntity
  8
GR1-1
  6
CONTINUOUS
 62
     6
100
AcDbLine
 10
125.087573
 20
169.810962
 30
0.0
 11
127.087573
 21
171.810962
 31
0.0
  0
LINE
  5
31F
330
317
100
AcDbEntity
  8
GR1-1
  6
CONTINUOUS
 62
     6
100
AcDbLine
 10
125.087573
 20
168.396748
 30
0.0
 11
127.087573
 21
170.396748
 31
0.0
  0
LINE
  5
320
330
317
100
AcDbEntity
  8
GR1-1
  6
CONTINUOUS
 62
     6
100
AcDbLine
 10
125.180214
 20
167.075175
 30
0.0
 11
127.087573
 21
168.982535
 31
0.0
  0
LINE
  5
321
330
317
100
AcDbEntity
  8
GR1-1
  6
CONTINUOUS
 62
     6
100
AcDbLine
 10
126.387068
 20
166.867816
 30
0.0
 11
127.087573
 21
167.568321
 31
0.0
  0
ENDBLK
  5
319
330
317
100
AcDbEntity
  8
0
100
AcDbBlockEnd
  0
BLOCK
  5
323
330
322
100
AcDbEntity
  8
0
100
AcDbBlockBegin
  2
BLKF040
 70
     0
 71
     0
 10
0.0
 20
0.0
 30
0.0
  3
BLKF040
  1

  0
LINE
  5
326
330
322
100
AcDbEntity
  8
GR1-1
  6
CONTINUOUS
 62
     6
100
AcDbLine
 10
124.187573
 20
173.875175
 30
0.0
 11
125.164259
 21
174.851861
 31
0.0
  0
LINE
  5
327
330
322
100
AcDbEntity
  8
GR1-1
  6
CONTINUOUS
 62
     6
100
AcDbLine
 10
125.703529
 20
175.391131
 30
0.0
 11
126.680214
 21
176.367816
 31
0.0
  0
LINE
  5
328
330
322
100
AcDbEntity
  8
GR1-1
  6
CONTINUOUS
 62
     6
100
AcDbLine
 10
124.187573
 20
172.460962
 30
0.0
 11
125.087573
 21
173.360962
 31
0.0
  0
LINE
  5
329
330
322
100
AcDbEntity
  8
GR1-1
  6
CONTINUOUS
 62
     6
100
AcDbLine
 10
127.194428
 20
175.467816
 30
0.0
 11
128.094428
 21
176.367816
 31
0.0
  0
LINE
  5
32A
330
322
100
AcDbEntity
  8
GR1-1
  6
CONTINUOUS
 62
     6
100
AcDbLine
 10
125.008641
 20
171.867816
 30
0.0
 11
125.087573
 21
171.946748
 31
0.0
  0
LINE
  5
32B
330
322
100
AcDbEntity
  8
GR1-1
  6
CONTINUOUS
 62
     6
100
AcDbLine
 10
128.608641
 20
175.467816
 30
0.0
 11
129.508641
 21
176.367816
 31
0.0
  0
LINE
  5
32C
330
322
100
AcDbEntity
  8
GR1-1
  6
CONTINUOUS
 62
     6
100
AcDbLine
 10
130.022855
 20
175.467816
 30
0.0
 11
130.922855
 21
176.367816
 31
0.0
  0
LINE
  5
32D
330
322
100
AcDbEntity
  8
GR1-1
  6
CONTINUOUS
 62
     6
100
AcDbLine
 10
131.437068
 20
175.467816
 30
0.0
 11
132.337068
 21
176.367816
 31
0.0
  0
LINE
  5
32E
330
322
100
AcDbEntity
  8
GR1-1
  6
CONTINUOUS
 62
     6
100
AcDbLine
 10
132.851282
 20
175.467816
 30
0.0
 11
133.751282
 21
176.367816
 31
0.0
  0
LINE
  5
32F
330
322
100
AcDbEntity
  8
GR1-1
  6
CONTINUOUS
 62
     6
100
AcDbLine
 10
134.265495
 20
175.467816
 30
0.0
 11
135.165495
 21
176.367816
 31
0.0
  0
LINE
  5
330
330
322
100
AcDbEntity
  8
GR1-1
  6
CONTINUOUS
 62
     6
100
AcDbLine
 10
135.687573
 20
176.889894
 30
0.0
 11
136.913654
 21
178.115975
 31
0.0
  0
LINE
  5
331
330
322
100
AcDbEntity
  8
GR1-1
  6
CONTINUOUS
 62
     6
100
AcDbLine
 10
135.679709
 20
175.467816
 30
0.0
 11
137.90859
 21
177.696697
 31
0.0
  0
LINE
  5
332
330
322
100
AcDbEntity
  8
GR1-1
  6
CONTINUOUS
 62
     6
100
AcDbLine
 10
137.087573
 20
175.461467
 30
0.0
 11
137.987573
 21
176.361467
 31
0.0
  0
LINE
  5
333
330
322
100
AcDbEntity
  8
GR1-1
  6
CONTINUOUS
 62
     6
100
AcDbLine
 10
137.087573
 20
174.047253
 30
0.0
 11
137.987573
 21
174.947253
 31
0.0
  0
LINE
  5
334
330
322
100
AcDbEntity
  8
GR1-1
  6
CONTINUOUS
 62
     6
100
AcDbLine
 10
137.087573
 20
172.63304
 30
0.0
 11
137.987573
 21
173.53304
 31
0.0
  0
LINE
  5
335
330
322
100
AcDbEntity
  8
GR1-1
  6
CONTINUOUS
 62
     6
100
AcDbLine
 10
137.087573
 20
171.218826
 30
0.0
 11
137.987573
 21
172.118826
 31
0.0
  0
LINE
  5
336
330
322
100
AcDbEntity
  8
GR1-1
  6
CONTINUOUS
 62
     6
100
AcDbLine
 10
137.087573
 20
169.804613
 30
0.0
 11
137.987573
 21
170.704613
 31
0.0
  0
LINE
  5
337
330
322
100
AcDbEntity
  8
GR1-1
  6
CONTINUOUS
 62
     6
100
AcDbLine
 10
137.087573
 20
168.390399
 30
0.0
 11
137.987573
 21
169.290399
 31
0.0
  0
LINE
  5
338
330
322
100
AcDbEntity
  8
GR1-1
  6
CONTINUOUS
 62
     6
100
AcDbLine
 10
137.229204
 20
167.117816
 30
0.0
 11
137.987573
 21
167.876186
 31
0.0
  0
ENDBLK
  5
324
330
322
100
AcDbEntity
  8
0
100
AcDbBlockEnd
  0
BLOCK
  5
33A
330
339
100
AcDbEntity
  8
0
100
AcDbBlockBegin
  2
BLKF041
 70
     0
 71
     0
 10
0.0
 20
0.0
 30
0.0
  3
BLKF041
  1

  0
LINE
  5
33D
330
339
100
AcDbEntity
  8
GR1-1
  6
CONTINUOUS
 62
     6
100
AcDbLine
 10
133.566253
 20
228.367816
 30
0.0
 11
134.687573
 21
227.246496
 31
0.0
  0
LINE
  5
33E
330
339
100
AcDbEntity
  8
GR1-1
  6
CONTINUOUS
 62
     6
100
AcDbLine
 10
132.887573
 20
226.925175
 30
0.0
 11
134.398554
 21
225.414195
 31
0.0
  0
LINE
  5
33F
330
339
100
AcDbEntity
  8
GR1-1
  6
CONTINUOUS
 62
     6
100
AcDbLine
 10
132.269445
 20
225.421984
 30
0.0
 11
133.542408
 21
224.14902
 31
0.0
  0
LINE
  5
340
330
339
100
AcDbEntity
  8
GR1-1
  6
CONTINUOUS
 62
     6
100
AcDbLine
 10
130.702292
 20
224.867816
 30
0.0
 11
132.249752
 21
223.320356
 31
0.0
  0
LINE
  5
341
330
339
100
AcDbEntity
  8
GR1-1
  6
CONTINUOUS
 62
     6
100
AcDbLine
 10
128.580972
 20
224.867816
 30
0.0
 11
130.380972
 21
223.067816
 31
0.0
  0
LINE
  5
342
330
339
100
AcDbEntity
  8
GR1-1
  6
CONTINUOUS
 62
     6
100
AcDbLine
 10
126.459651
 20
224.867816
 30
0.0
 11
128.259651
 21
223.067816
 31
0.0
  0
LINE
  5
343
330
339
100
AcDbEntity
  8
GR1-1
  6
CONTINUOUS
 62
     6
100
AcDbLine
 10
124.338331
 20
224.867816
 30
0.0
 11
126.138331
 21
223.067816
 31
0.0
  0
LINE
  5
344
330
339
100
AcDbEntity
  8
GR1-1
  6
CONTINUOUS
 62
     6
100
AcDbLine
 10
122.217011
 20
224.867816
 30
0.0
 11
124.017011
 21
223.067816
 31
0.0
  0
LINE
  5
345
330
339
100
AcDbEntity
  8
GR1-1
  6
CONTINUOUS
 62
     6
100
AcDbLine
 10
120.09569
 20
224.867816
 30
0.0
 11
121.89569
 21
223.067816
 31
0.0
  0
LINE
  5
346
330
339
100
AcDbEntity
  8
GR1-1
  6
CONTINUOUS
 62
     6
100
AcDbLine
 10
117.97437
 20
224.867816
 30
0.0
 11
119.77437
 21
223.067816
 31
0.0
  0
LINE
  5
347
330
339
100
AcDbEntity
  8
GR1-1
  6
CONTINUOUS
 62
     6
100
AcDbLine
 10
115.85305
 20
224.867816
 30
0.0
 11
117.65305
 21
223.067816
 31
0.0
  0
LINE
  5
348
330
339
100
AcDbEntity
  8
GR1-1
  6
CONTINUOUS
 62
     6
100
AcDbLine
 10
113.936496
 20
224.663049
 30
0.0
 11
115.531729
 21
223.067816
 31
0.0
  0
LINE
  5
349
330
339
100
AcDbEntity
  8
GR1-1
  6
CONTINUOUS
 62
     6
100
AcDbLine
 10
112.740236
 20
223.737989
 30
0.0
 11
114.053452
 21
222.424773
 31
0.0
  0
LINE
  5
34A
330
339
100
AcDbEntity
  8
GR1-1
  6
CONTINUOUS
 62
     6
100
AcDbLine
 10
112.18935
 20
222.167554
 30
0.0
 11
113.987573
 21
220.369331
 31
0.0
  0
LINE
  5
34B
330
339
100
AcDbEntity
  8
GR1-1
  6
CONTINUOUS
 62
     6
100
AcDbLine
 10
112.187573
 20
220.048011
 30
0.0
 11
113.987573
 21
218.248011
 31
0.0
  0
LINE
  5
34C
330
339
100
AcDbEntity
  8
GR1-1
  6
CONTINUOUS
 62
     6
100
AcDbLine
 10
112.187573
 20
217.926691
 30
0.0
 11
113.987573
 21
216.126691
 31
0.0
  0
LINE
  5
34D
330
339
100
AcDbEntity
  8
GR1-1
  6
CONTINUOUS
 62
     6
100
AcDbLine
 10
112.187573
 20
215.80537
 30
0.0
 11
114.509926
 21
213.483017
 31
0.0
  0
LINE
  5
34E
330
339
100
AcDbEntity
  8
GR1-1
  6
CONTINUOUS
 62
     6
100
AcDbLine
 10
112.705761
 20
213.165863
 30
0.0
 11
115.794735
 21
210.076889
 31
0.0
  0
LINE
  5
34F
330
339
100
AcDbEntity
  8
GR1-1
  6
CONTINUOUS
 62
     6
100
AcDbLine
 10
113.990569
 20
209.759734
 30
0.0
 11
119.653688
 21
204.096615
 31
0.0
  0
LINE
  5
350
330
339
100
AcDbEntity
  8
GR1-1
  6
CONTINUOUS
 62
     6
100
AcDbLine
 10
117.849522
 20
203.77946
 30
0.0
 11
120.938496
 21
200.690486
 31
0.0
  0
LINE
  5
351
330
339
100
AcDbEntity
  8
GR1-1
  6
CONTINUOUS
 62
     6
100
AcDbLine
 10
119.134331
 20
200.373331
 30
0.0
 11
122.223305
 21
197.284357
 31
0.0
  0
LINE
  5
352
330
339
100
AcDbEntity
  8
GR1-1
  6
CONTINUOUS
 62
     6
100
AcDbLine
 10
120.419139
 20
196.967203
 30
0.0
 11
123.508113
 21
193.878229
 31
0.0
  0
LINE
  5
353
330
339
100
AcDbEntity
  8
GR1-1
  6
CONTINUOUS
 62
     6
100
AcDbLine
 10
121.703948
 20
193.561074
 30
0.0
 11
124.792922
 21
190.4721
 31
0.0
  0
LINE
  5
354
330
339
100
AcDbEntity
  8
GR1-1
  6
CONTINUOUS
 62
     6
100
AcDbLine
 10
122.988756
 20
190.154945
 30
0.0
 11
126.069629
 21
187.074072
 31
0.0
  0
LINE
  5
355
330
339
100
AcDbEntity
  8
GR1-1
  6
CONTINUOUS
 62
     6
100
AcDbLine
 10
135.125885
 20
178.017816
 30
0.0
 11
135.687573
 21
177.456128
 31
0.0
  0
LINE
  5
356
330
339
100
AcDbEntity
  8
GR1-1
  6
CONTINUOUS
 62
     6
100
AcDbLine
 10
124.273564
 20
186.748816
 30
0.0
 11
126.354228
 21
184.668153
 31
0.0
  0
LINE
  5
357
330
339
100
AcDbEntity
  8
GR1-1
  6
CONTINUOUS
 62
     6
100
AcDbLine
 10
133.004565
 20
178.017816
 30
0.0
 11
134.804565
 21
176.217816
 31
0.0
  0
LINE
  5
358
330
339
100
AcDbEntity
  8
GR1-1
  6
CONTINUOUS
 62
     6
100
AcDbLine
 10
124.502652
 20
184.398409
 30
0.0
 11
126.073202
 21
182.827859
 31
0.0
  0
LINE
  5
359
330
339
100
AcDbEntity
  8
GR1-1
  6
CONTINUOUS
 62
     6
100
AcDbLine
 10
130.883244
 20
178.017816
 30
0.0
 11
132.683244
 21
176.217816
 31
0.0
  0
LINE
  5
35A
330
339
100
AcDbEntity
  8
GR1-1
  6
CONTINUOUS
 62
     6
100
AcDbLine
 10
124.279706
 20
182.500034
 30
0.0
 11
127.35801
 21
179.42173
 31
0.0
  0
LINE
  5
35B
330
339
100
AcDbEntity
  8
GR1-1
  6
CONTINUOUS
 62
     6
100
AcDbLine
 10
128.761924
 20
178.017816
 30
0.0
 11
130.561924
 21
176.217816
 31
0.0
  0
LINE
  5
35C
330
339
100
AcDbEntity
  8
GR1-1
  6
CONTINUOUS
 62
     6
100
AcDbLine
 10
125.553845
 20
179.104575
 30
0.0
 11
128.436993
 21
176.221427
 31
0.0
  0
ENDBLK
  5
33B
330
339
100
AcDbEntity
  8
0
100
AcDbBlockEnd
  0
BLOCK
  5
3AA
330
3A9
100
AcDbEntity
  8
0
100
AcDbBlockBegin
  2
BLKF042
 70
     0
 71
     0
 10
0.0
 20
0.0
 30
0.0
  3
BLKF042
  1

  0
LINE
  5
3AD
330
3A9
100
AcDbEntity
  8
GR1-1
  6
CONTINUOUS
 62
     6
100
AcDbLine
 10
97.286919
 20
173.416653
 30
0.0
 11
95.338736
 21
171.468471
 31
0.0
  0
LINE
  5
3AE
330
3A9
100
AcDbEntity
  8
GR1-1
  6
CONTINUOUS
 62
     6
100
AcDbLine
 10
96.983684
 20
174.527632
 30
0.0
 11
93.960277
 21
171.504225
 31
0.0
  0
LINE
  5
3AF
330
3A9
100
AcDbEntity
  8
GR1-1
  6
CONTINUOUS
 62
     6
100
AcDbLine
 10
96.258287
 20
175.216448
 30
0.0
 11
92.020813
 21
170.978974
 31
0.0
  0
LINE
  5
3B0
330
3A9
100
AcDbEntity
  8
GR1-1
  6
CONTINUOUS
 62
     6
100
AcDbLine
 10
89.276238
 20
168.2344
 30
0.0
 11
88.910065
 21
167.868226
 31
0.0
  0
LINE
  5
3B1
330
3A9
100
AcDbEntity
  8
GR1-1
  6
CONTINUOUS
 62
     6
100
AcDbLine
 10
95.095441
 20
175.467816
 30
0.0
 11
93.095441
 21
173.467816
 31
0.0
  0
LINE
  5
3B2
330
3A9
100
AcDbEntity
  8
GR1-1
  6
CONTINUOUS
 62
     6
100
AcDbLine
 10
93.017188
 20
173.389563
 30
0.0
 11
87.687982
 21
168.060357
 31
0.0
  0
LINE
  5
3B3
330
3A9
100
AcDbEntity
  8
GR1-1
  6
CONTINUOUS
 62
     6
100
AcDbLine
 10
93.681228
 20
175.467816
 30
0.0
 11
91.681228
 21
173.467816
 31
0.0
  0
LINE
  5
3B4
330
3A9
100
AcDbEntity
  8
GR1-1
  6
CONTINUOUS
 62
     6
100
AcDbLine
 10
90.834109
 20
172.620698
 30
0.0
 11
87.634515
 21
169.421103
 31
0.0
  0
LINE
  5
3B5
330
3A9
100
AcDbEntity
  8
GR1-1
  6
CONTINUOUS
 62
     6
100
AcDbLine
 10
92.267014
 20
175.467816
 30
0.0
 11
90.267014
 21
173.467816
 31
0.0
  0
LINE
  5
3B6
330
3A9
100
AcDbEntity
  8
GR1-1
  6
CONTINUOUS
 62
     6
100
AcDbLine
 10
90.8528
 20
175.467816
 30
0.0
 11
88.8528
 21
173.467816
 31
0.0
  0
LINE
  5
3B7
330
3A9
100
AcDbEntity
  8
GR1-1
  6
CONTINUOUS
 62
     6
100
AcDbLine
 10
89.438587
 20
175.467816
 30
0.0
 11
87.438587
 21
173.467816
 31
0.0
  0
LINE
  5
3B8
330
3A9
100
AcDbEntity
  8
GR1-1
  6
CONTINUOUS
 62
     6
100
AcDbLine
 10
88.024373
 20
175.467816
 30
0.0
 11
87.287573
 21
174.731016
 31
0.0
  0
LINE
  5
3B9
330
3A9
100
AcDbEntity
  8
GR1-1
  6
CONTINUOUS
 62
     6
100
AcDbLine
 10
87.302543
 20
176.160199
 30
0.0
 11
87.287573
 21
176.14523
 31
0.0
  0
ENDBLK
  5
3AB
330
3A9
100
AcDbEntity
  8
0
100
AcDbBlockEnd
  0
BLOCK
  5
3BB
330
3BA
100
AcDbEntity
  8
0
100
AcDbBlockBegin
  2
BLKF043
 70
     0
 71
     0
 10
0.0
 20
0.0
 30
0.0
  3
BLKF043
  1

  0
LINE
  5
3BE
330
3BA
100
AcDbEntity
  8
GR1-1
  6
CONTINUOUS
 62
     6
100
AcDbLine
 10
101.687573
 20
164.28203
 30
0.0
 11
100.27336
 21
162.867816
 31
0.0
  0
LINE
  5
3BF
330
3BA
100
AcDbEntity
  8
GR1-1
  6
CONTINUOUS
 62
     6
100
AcDbLine
 10
101.37336
 20
165.38203
 30
0.0
 11
98.859146
 21
162.867816
 31
0.0
  0
LINE
  5
3C0
330
3BA
100
AcDbEntity
  8
GR1-1
  6
CONTINUOUS
 62
     6
100
AcDbLine
 10
100.144933
 20
165.567816
 30
0.0
 11
97.444933
 21
162.867816
 31
0.0
  0
LINE
  5
3C1
330
3BA
100
AcDbEntity
  8
GR1-1
  6
CONTINUOUS
 62
     6
100
AcDbLine
 10
99.530719
 20
166.367816
 30
0.0
 11
96.030719
 21
162.867816
 31
0.0
  0
LINE
  5
3C2
330
3BA
100
AcDbEntity
  8
GR1-1
  6
CONTINUOUS
 62
     6
100
AcDbLine
 10
98.116506
 20
166.367816
 30
0.0
 11
94.616506
 21
162.867816
 31
0.0
  0
LINE
  5
3C3
330
3BA
100
AcDbEntity
  8
GR1-1
  6
CONTINUOUS
 62
     6
100
AcDbLine
 10
96.702292
 20
166.367816
 30
0.0
 11
93.202292
 21
162.867816
 31
0.0
  0
LINE
  5
3C4
330
3BA
100
AcDbEntity
  8
GR1-1
  6
CONTINUOUS
 62
     6
100
AcDbLine
 10
94.088172
 20
165.16791
 30
0.0
 11
91.788078
 21
162.867816
 31
0.0
  0
LINE
  5
3C5
330
3BA
100
AcDbEntity
  8
GR1-1
  6
CONTINUOUS
 62
     6
100
AcDbLine
 10
92.9103
 20
165.404251
 30
0.0
 11
90.373865
 21
162.867816
 31
0.0
  0
LINE
  5
3C6
330
3BA
100
AcDbEntity
  8
GR1-1
  6
CONTINUOUS
 62
     6
100
AcDbLine
 10
92.034331
 20
165.942496
 30
0.0
 11
88.959651
 21
162.867816
 31
0.0
  0
LINE
  5
3C7
330
3BA
100
AcDbEntity
  8
GR1-1
  6
CONTINUOUS
 62
     6
100
AcDbLine
 10
91.045438
 20
166.367816
 30
0.0
 11
87.545438
 21
162.867816
 31
0.0
  0
LINE
  5
3C8
330
3BA
100
AcDbEntity
  8
GR1-1
  6
CONTINUOUS
 62
     6
100
AcDbLine
 10
89.631224
 20
166.367816
 30
0.0
 11
86.131224
 21
162.867816
 31
0.0
  0
LINE
  5
3C9
330
3BA
100
AcDbEntity
  8
GR1-1
  6
CONTINUOUS
 62
     6
100
AcDbLine
 10
88.217011
 20
166.367816
 30
0.0
 11
84.952292
 21
163.103097
 31
0.0
  0
LINE
  5
3CA
330
3BA
100
AcDbEntity
  8
GR1-1
  6
CONTINUOUS
 62
     6
100
AcDbLine
 10
86.802797
 20
166.367816
 30
0.0
 11
84.687573
 21
164.252592
 31
0.0
  0
LINE
  5
3CB
330
3BA
100
AcDbEntity
  8
GR1-1
  6
CONTINUOUS
 62
     6
100
AcDbLine
 10
85.388584
 20
166.367816
 30
0.0
 11
84.687573
 21
165.666806
 31
0.0
  0
ENDBLK
  5
3BC
330
3BA
100
AcDbEntity
  8
0
100
AcDbBlockEnd
  0
BLOCK
  5
3CD
330
3CC
100
AcDbEntity
  8
0
100
AcDbBlockBegin
  2
BLKF044
 70
     0
 71
     0
 10
0.0
 20
0.0
 30
0.0
  3
BLKF044
  1

  0
LINE
  5
3D0
330
3CC
100
AcDbEntity
  8
GR1-1
  6
CONTINUOUS
 62
     6
100
AcDbLine
 10
99.287573
 20
174.053603
 30
0.0
 11
97.87336
 21
175.467816
 31
0.0
  0
LINE
  5
3D1
330
3CC
100
AcDbEntity
  8
GR1-1
  6
CONTINUOUS
 62
     6
100
AcDbLine
 10
99.287573
 20
172.639389
 30
0.0
 11
97.287573
 21
174.639389
 31
0.0
  0
LINE
  5
3D2
330
3CC
100
AcDbEntity
  8
GR1-1
  6
CONTINUOUS
 62
     6
100
AcDbLine
 10
99.287573
 20
171.225175
 30
0.0
 11
97.287573
 21
173.225175
 31
0.0
  0
LINE
  5
3D3
330
3CC
100
AcDbEntity
  8
GR1-1
  6
CONTINUOUS
 62
     6
100
AcDbLine
 10
99.287573
 20
169.810962
 30
0.0
 11
97.287573
 21
171.810962
 31
0.0
  0
LINE
  5
3D4
330
3CC
100
AcDbEntity
  8
GR1-1
  6
CONTINUOUS
 62
     6
100
AcDbLine
 10
99.287573
 20
168.396748
 30
0.0
 11
97.287573
 21
170.396748
 31
0.0
  0
LINE
  5
3D5
330
3CC
100
AcDbEntity
  8
GR1-1
  6
CONTINUOUS
 62
     6
100
AcDbLine
 10
99.194933
 20
167.075175
 30
0.0
 11
97.287573
 21
168.982535
 31
0.0
  0
LINE
  5
3D6
330
3CC
100
AcDbEntity
  8
GR1-1
  6
CONTINUOUS
 62
     6
100
AcDbLine
 10
97.988078
 20
166.867816
 30
0.0
 11
97.287573
 21
167.568321
 31
0.0
  0
ENDBLK
  5
3CE
330
3CC
100
AcDbEntity
  8
0
100
AcDbBlockEnd
  0
BLOCK
  5
3D8
330
3D7
100
AcDbEntity
  8
0
100
AcDbBlockBegin
  2
BLKF045
 70
     0
 71
     0
 10
0.0
 20
0.0
 30
0.0
  3
BLKF045
  1

  0
LINE
  5
3DB
330
3D7
100
AcDbEntity
  8
GR1-1
  6
CONTINUOUS
 62
     6
100
AcDbLine
 10
100.187573
 20
173.875175
 30
0.0
 11
99.210888
 21
174.851861
 31
0.0
  0
LINE
  5
3DC
330
3D7
100
AcDbEntity
  8
GR1-1
  6
CONTINUOUS
 62
     6
100
AcDbLine
 10
98.671618
 20
175.391131
 30
0.0
 11
97.694933
 21
176.367816
 31
0.0
  0
LINE
  5
3DD
330
3D7
100
AcDbEntity
  8
GR1-1
  6
CONTINUOUS
 62
     6
100
AcDbLine
 10
100.187573
 20
172.460962
 30
0.0
 11
99.287573
 21
173.360962
 31
0.0
  0
LINE
  5
3DE
330
3D7
100
AcDbEntity
  8
GR1-1
  6
CONTINUOUS
 62
     6
100
AcDbLine
 10
97.180719
 20
175.467816
 30
0.0
 11
96.280719
 21
176.367816
 31
0.0
  0
LINE
  5
3DF
330
3D7
100
AcDbEntity
  8
GR1-1
  6
CONTINUOUS
 62
     6
100
AcDbLine
 10
99.366506
 20
171.867816
 30
0.0
 11
99.287573
 21
171.946748
 31
0.0
  0
LINE
  5
3E0
330
3D7
100
AcDbEntity
  8
GR1-1
  6
CONTINUOUS
 62
     6
100
AcDbLine
 10
95.766506
 20
175.467816
 30
0.0
 11
94.866506
 21
176.367816
 31
0.0
  0
LINE
  5
3E1
330
3D7
100
AcDbEntity
  8
GR1-1
  6
CONTINUOUS
 62
     6
100
AcDbLine
 10
94.352292
 20
175.467816
 30
0.0
 11
93.452292
 21
176.367816
 31
0.0
  0
LINE
  5
3E2
330
3D7
100
AcDbEntity
  8
GR1-1
  6
CONTINUOUS
 62
     6
100
AcDbLine
 10
92.938078
 20
175.467816
 30
0.0
 11
92.038078
 21
176.367816
 31
0.0
  0
LINE
  5
3E3
330
3D7
100
AcDbEntity
  8
GR1-1
  6
CONTINUOUS
 62
     6
100
AcDbLine
 10
91.523865
 20
175.467816
 30
0.0
 11
90.623865
 21
176.367816
 31
0.0
  0
LINE
  5
3E4
330
3D7
100
AcDbEntity
  8
GR1-1
  6
CONTINUOUS
 62
     6
100
AcDbLine
 10
90.109651
 20
175.467816
 30
0.0
 11
89.209651
 21
176.367816
 31
0.0
  0
LINE
  5
3E5
330
3D7
100
AcDbEntity
  8
GR1-1
  6
CONTINUOUS
 62
     6
100
AcDbLine
 10
88.687573
 20
176.889894
 30
0.0
 11
87.461493
 21
178.115975
 31
0.0
  0
LINE
  5
3E6
330
3D7
100
AcDbEntity
  8
GR1-1
  6
CONTINUOUS
 62
     6
100
AcDbLine
 10
88.695438
 20
175.467816
 30
0.0
 11
86.466556
 21
177.696697
 31
0.0
  0
LINE
  5
3E7
330
3D7
100
AcDbEntity
  8
GR1-1
  6
CONTINUOUS
 62
     6
100
AcDbLine
 10
87.287573
 20
175.461467
 30
0.0
 11
86.387573
 21
176.361467
 31
0.0
  0
LINE
  5
3E8
330
3D7
100
AcDbEntity
  8
GR1-1
  6
CONTINUOUS
 62
     6
100
AcDbLine
 10
87.287573
 20
174.047253
 30
0.0
 11
86.387573
 21
174.947253
 31
0.0
  0
LINE
  5
3E9
330
3D7
100
AcDbEntity
  8
GR1-1
  6
CONTINUOUS
 62
     6
100
AcDbLine
 10
87.287573
 20
172.63304
 30
0.0
 11
86.387573
 21
173.53304
 31
0.0
  0
LINE
  5
3EA
330
3D7
100
AcDbEntity
  8
GR1-1
  6
CONTINUOUS
 62
     6
100
AcDbLine
 10
87.287573
 20
171.218826
 30
0.0
 11
86.387573
 21
172.118826
 31
0.0
  0
LINE
  5
3EB
330
3D7
100
AcDbEntity
  8
GR1-1
  6
CONTINUOUS
 62
     6
100
AcDbLine
 10
87.287573
 20
169.804613
 30
0.0
 11
86.387573
 21
170.704613
 31
0.0
  0
LINE
  5
3EC
330
3D7
100
AcDbEntity
  8
GR1-1
  6
CONTINUOUS
 62
     6
100
AcDbLine
 10
87.287573
 20
168.390399
 30
0.0
 11
86.387573
 21
169.290399
 31
0.0
  0
LINE
  5
3ED
330
3D7
100
AcDbEntity
  8
GR1-1
  6
CONTINUOUS
 62
     6
100
AcDbLine
 10
87.145943
 20
167.117816
 30
0.0
 11
86.387573
 21
167.876186
 31
0.0
  0
ENDBLK
  5
3D9
330
3D7
100
AcDbEntity
  8
0
100
AcDbBlockEnd
  0
BLOCK
  5
3EF
330
3EE
100
AcDbEntity
  8
0
100
AcDbBlockBegin
  2
BLKF046
 70
     0
 71
     0
 10
0.0
 20
0.0
 30
0.0
  3
BLKF046
  1

  0
LINE
  5
3F2
330
3EE
100
AcDbEntity
  8
GR1-1
  6
CONTINUOUS
 62
     6
100
AcDbLine
 10
90.808894
 20
228.367816
 30
0.0
 11
89.687573
 21
227.246496
 31
0.0
  0
LINE
  5
3F3
330
3EE
100
AcDbEntity
  8
GR1-1
  6
CONTINUOUS
 62
     6
100
AcDbLine
 10
91.487573
 20
226.925175
 30
0.0
 11
89.976593
 21
225.414195
 31
0.0
  0
LINE
  5
3F4
330
3EE
100
AcDbEntity
  8
GR1-1
  6
CONTINUOUS
 62
     6
100
AcDbLine
 10
92.105702
 20
225.421984
 30
0.0
 11
90.832738
 21
224.14902
 31
0.0
  0
LINE
  5
3F5
330
3EE
100
AcDbEntity
  8
GR1-1
  6
CONTINUOUS
 62
     6
100
AcDbLine
 10
93.672855
 20
224.867816
 30
0.0
 11
92.125395
 21
223.320356
 31
0.0
  0
LINE
  5
3F6
330
3EE
100
AcDbEntity
  8
GR1-1
  6
CONTINUOUS
 62
     6
100
AcDbLine
 10
95.794175
 20
224.867816
 30
0.0
 11
93.994175
 21
223.067816
 31
0.0
  0
LINE
  5
3F7
330
3EE
100
AcDbEntity
  8
GR1-1
  6
CONTINUOUS
 62
     6
100
AcDbLine
 10
97.915495
 20
224.867816
 30
0.0
 11
96.115495
 21
223.067816
 31
0.0
  0
LINE
  5
3F8
330
3EE
100
AcDbEntity
  8
GR1-1
  6
CONTINUOUS
 62
     6
100
AcDbLine
 10
100.036816
 20
224.867816
 30
0.0
 11
98.236816
 21
223.067816
 31
0.0
  0
LINE
  5
3F9
330
3EE
100
AcDbEntity
  8
GR1-1
  6
CONTINUOUS
 62
     6
100
AcDbLine
 10
102.158136
 20
224.867816
 30
0.0
 11
100.358136
 21
223.067816
 31
0.0
  0
LINE
  5
3FA
330
3EE
100
AcDbEntity
  8
GR1-1
  6
CONTINUOUS
 62
     6
100
AcDbLine
 10
104.279456
 20
224.867816
 30
0.0
 11
102.479456
 21
223.067816
 31
0.0
  0
LINE
  5
3FB
330
3EE
100
AcDbEntity
  8
GR1-1
  6
CONTINUOUS
 62
     6
100
AcDbLine
 10
106.400777
 20
224.867816
 30
0.0
 11
104.600777
 21
223.067816
 31
0.0
  0
LINE
  5
3FC
330
3EE
100
AcDbEntity
  8
GR1-1
  6
CONTINUOUS
 62
     6
100
AcDbLine
 10
108.522097
 20
224.867816
 30
0.0
 11
106.722097
 21
223.067816
 31
0.0
  0
LINE
  5
3FD
330
3EE
100
AcDbEntity
  8
GR1-1
  6
CONTINUOUS
 62
     6
100
AcDbLine
 10
110.438651
 20
224.663049
 30
0.0
 11
108.843418
 21
223.067816
 31
0.0
  0
LINE
  5
3FE
330
3EE
100
AcDbEntity
  8
GR1-1
  6
CONTINUOUS
 62
     6
100
AcDbLine
 10
111.63491
 20
223.737989
 30
0.0
 11
110.321694
 21
222.424773
 31
0.0
  0
LINE
  5
3FF
330
3EE
100
AcDbEntity
  8
GR1-1
  6
CONTINUOUS
 62
     6
100
AcDbLine
 10
112.185796
 20
222.167554
 30
0.0
 11
110.387573
 21
220.369331
 31
0.0
  0
LINE
  5
400
330
3EE
100
AcDbEntity
  8
GR1-1
  6
CONTINUOUS
 62
     6
100
AcDbLine
 10
112.187573
 20
220.048011
 30
0.0
 11
110.387573
 21
218.248011
 31
0.0
  0
LINE
  5
401
330
3EE
100
AcDbEntity
  8
GR1-1
  6
CONTINUOUS
 62
     6
100
AcDbLine
 10
112.187573
 20
217.926691
 30
0.0
 11
110.387573
 21
216.126691
 31
0.0
  0
LINE
  5
402
330
3EE
100
AcDbEntity
  8
GR1-1
  6
CONTINUOUS
 62
     6
100
AcDbLine
 10
112.187573
 20
215.80537
 30
0.0
 11
109.865221
 21
213.483017
 31
0.0
  0
LINE
  5
403
330
3EE
100
AcDbEntity
  8
GR1-1
  6
CONTINUOUS
 62
     6
100
AcDbLine
 10
111.669386
 20
213.165863
 30
0.0
 11
108.580412
 21
210.076889
 31
0.0
  0
LINE
  5
404
330
3EE
100
AcDbEntity
  8
GR1-1
  6
CONTINUOUS
 62
     6
100
AcDbLine
 10
110.384578
 20
209.759734
 30
0.0
 11
104.721459
 21
204.096615
 31
0.0
  0
LINE
  5
405
330
3EE
100
AcDbEntity
  8
GR1-1
  6
CONTINUOUS
 62
     6
100
AcDbLine
 10
106.525624
 20
203.77946
 30
0.0
 11
103.43665
 21
200.690486
 31
0.0
  0
LINE
  5
406
330
3EE
100
AcDbEntity
  8
GR1-1
  6
CONTINUOUS
 62
     6
100
AcDbLine
 10
105.240816
 20
200.373331
 30
0.0
 11
102.151842
 21
197.284357
 31
0.0
  0
LINE
  5
407
330
3EE
100
AcDbEntity
  8
GR1-1
  6
CONTINUOUS
 62
     6
100
AcDbLine
 10
103.956008
 20
196.967203
 30
0.0
 11
100.867034
 21
193.878229
 31
0.0
  0
LINE
  5
408
330
3EE
100
AcDbEntity
  8
GR1-1
  6
CONTINUOUS
 62
     6
100
AcDbLine
 10
102.671199
 20
193.561074
 30
0.0
 11
99.582225
 21
190.4721
 31
0.0
  0
LINE
  5
409
330
3EE
100
AcDbEntity
  8
GR1-1
  6
CONTINUOUS
 62
     6
100
AcDbLine
 10
101.386391
 20
190.154945
 30
0.0
 11
98.305518
 21
187.074072
 31
0.0
  0
LINE
  5
40A
330
3EE
100
AcDbEntity
  8
GR1-1
  6
CONTINUOUS
 62
     6
100
AcDbLine
 10
89.249262
 20
178.017816
 30
0.0
 11
88.687573
 21
177.456128
 31
0.0
  0
LINE
  5
40B
330
3EE
100
AcDbEntity
  8
GR1-1
  6
CONTINUOUS
 62
     6
100
AcDbLine
 10
100.101582
 20
186.748816
 30
0.0
 11
98.020919
 21
184.668153
 31
0.0
  0
LINE
  5
40C
330
3EE
100
AcDbEntity
  8
GR1-1
  6
CONTINUOUS
 62
     6
100
AcDbLine
 10
91.370582
 20
178.017816
 30
0.0
 11
89.570582
 21
176.217816
 31
0.0
  0
LINE
  5
40D
330
3EE
100
AcDbEntity
  8
GR1-1
  6
CONTINUOUS
 62
     6
100
AcDbLine
 10
99.872495
 20
184.398409
 30
0.0
 11
98.301945
 21
182.827859
 31
0.0
  0
LINE
  5
40E
330
3EE
100
AcDbEntity
  8
GR1-1
  6
CONTINUOUS
 62
     6
100
AcDbLine
 10
93.491902
 20
178.017816
 30
0.0
 11
91.691902
 21
176.217816
 31
0.0
  0
LINE
  5
40F
330
3EE
100
AcDbEntity
  8
GR1-1
  6
CONTINUOUS
 62
     6
100
AcDbLine
 10
100.095441
 20
182.500034
 30
0.0
 11
97.017137
 21
179.42173
 31
0.0
  0
LINE
  5
410
330
3EE
100
AcDbEntity
  8
GR1-1
  6
CONTINUOUS
 62
     6
100
AcDbLine
 10
95.613223
 20
178.017816
 30
0.0
 11
93.813223
 21
176.217816
 31
0.0
  0
LINE
  5
411
330
3EE
100
AcDbEntity
  8
GR1-1
  6
CONTINUOUS
 62
     6
100
AcDbLine
 10
98.821302
 20
179.104575
 30
0.0
 11
95.938154
 21
176.221427
 31
0.0
  0
ENDBLK
  5
3F0
330
3EE
100
AcDbEntity
  8
0
100
AcDbBlockEnd
  0
BLOCK
  5
45A
330
459
100
AcDbEntity
  8
0
100
AcDbBlockBegin
  2
BLKF047
 70
     0
 71
     0
 10
0.0
 20
0.0
 30
0.0
  3
BLKF047
  1

  0
LINE
  5
45D
330
459
100
AcDbEntity
  8
}}ﾊﾊGG血CCТ
  6
CONTINUOUS
 62
     7
100
AcDbLine
 10
10.0
 20
10.0
 30
0.0
 11
410.0
 21
10.0
 31
0.0
  0
LINE
  5
45E
330
459
100
AcDbEntity
  8
}}ﾊﾊGG血CCТ
  6
CONTINUOUS
 62
     7
100
AcDbLine
 10
10.0
 20
10.0
 30
0.0
 11
10.0
 21
287.0
 31
0.0
  0
LINE
  5
45F
330
459
100
AcDbEntity
  8
}}ﾊﾊGG血CCТ
  6
CONTINUOUS
 62
     7
100
AcDbLine
 10
10.0
 20
287.0
 30
0.0
 11
410.0
 21
287.0
 31
0.0
  0
LINE
  5
460
330
459
100
AcDbEntity
  8
}}ﾊﾊGG血CCТ
  6
CONTINUOUS
 62
     7
100
AcDbLine
 10
410.0
 20
287.0
 30
0.0
 11
410.0
 21
10.0
 31
0.0
  0
LINE
  5
461
330
459
100
AcDbEntity
  8
}}ﾊﾊGG血CCТ
  6
CONTINUOUS
 62
     7
100
AcDbLine
 10
153.0
 20
10.0
 30
0.0
 11
153.0
 21
20.0
 31
0.0
  0
TEXT
  5
462
330
459
100
AcDbEntity
  8
}}ﾊﾊGG血CCТ
  6
CONTINUOUS
 62
     7
100
AcDbText
 10
137.738815
 20
11.596879
 30
0.0
 40
6.648749
  1
品名
 41
1.083413
  7
FX_VECTOR
 72
     5
 11
149.058355
 21
11.596879
 31
0.0
100
AcDbText
  0
LINE
  5
463
330
459
100
AcDbEntity
  8
}}ﾊﾊGG血CCТ
  6
CONTINUOUS
 62
     7
100
AcDbLine
 10
233.0
 20
20.0
 30
0.0
 11
233.0
 21
10.0
 31
0.0
  0
LINE
  5
464
330
459
100
AcDbEntity
  8
}}ﾊﾊGG血CCТ
  6
CONTINUOUS
 62
     7
100
AcDbLine
 10
133.0
 20
20.0
 30
0.0
 11
410.0
 21
20.0
 31
0.0
  0
INSERT
  5
468
330
459
100
AcDbEntity
  8
0
100
AcDbBlockReference
  2
BLKF048
 10
0.0
 20
0.0
 30
0.0
  0
INSERT
  5
471
330
459
100
AcDbEntity
  8
0
100
AcDbBlockReference
  2
BLKF049
 10
0.0
 20
0.0
 30
0.0
  0
HATCH
  5
481
330
459
100
AcDbEntity
  8
GR1-1
  6
CONTINUOUS
 62
     7
100
AcDbHatch
 10
0.0
 20
0.0
 30
0.0
210
0.0
220
0.0
230
1.0
  2

 70
     0
 71
     1
 91
        2
 92
        0
 93
        4
 72
     1
 10
338.8018997861325
 20
17.91346152
 11
344.8018997861325
 21
17.91346152
 72
     1
 10
344.8018997861325
 20
17.91346152
 11
344.8018997861325
 21
11.91346152
 72
     1
 10
344.8018997861325
 20
11.91346152
 11
338.8018997861325
 21
11.91346152
 72
     1
 10
338.8018997861325
 20
11.91346152
 11
338.8018997861325
 21
17.91346152
 97
        0
 92
        0
 93
       15
 72
     1
 10
341.8018997861325
 20
17.76923076000002
 11
338.9461305461325
 21
14.91346152
 72
     1
 10
338.9461305461325
 20
14.91346152
 11
341.8018997861325
 21
12.05769228000001
 72
     1
 10
341.8018997861325
 20
12.05769228000001
 11
343.3595920661325
 21
13.61538462
 72
     1
 10
343.3595920661325
 20
13.61538462
 11
343.3595920661325
 21
12.98076924
 72
     1
 10
343.3595920661325
 20
12.98076924
 11
344.2249766861325
 21
12.98076924
 72
     1
 10
344.2249766861325
 20
12.98076924
 11
344.2249766861325
 21
15.00000000000001
 72
     1
 10
344.2249766861325
 20
15.00000000000001
 11
341.8018997861325
 21
15.00000000000001
 72
     1
 10
341.8018997861325
 20
15.00000000000001
 11
341.8018997861325
 21
14.13461538000001
 72
     1
 10
341.8018997861325
 20
14.13461538000001
 11
342.2461305461325
 21
14.13461538000001
 72
     1
 10
342.2461305461325
 20
14.13461538000001
 11
341.8018997861325
 21
13.69038462
 72
     1
 10
341.8018997861325
 20
13.69038462
 11
340.5788228861325
 21
14.91346152
 72
     1
 10
340.5788228861325
 20
14.91346152
 11
341.8018997861325
 21
16.13653842000003
 72
     1
 10
341.8018997861325
 20
16.13653842000003
 11
342.5922844061325
 21
15.3461538
 72
     1
 10
342.5922844061325
 20
15.3461538
 11
344.2249766861325
 21
15.3461538
 72
     1
 10
344.2249766861325
 20
15.3461538
 11
341.8018997861325
 21
17.76923076000002
 97
        0
 75
     0
 76
     0
 52
45.0
 41
0.05
 77
     0
 78
     1
 53
45.0
 43
0.0
 44
0.0
 45
-0.0353553390593274
 46
0.0353553390593274
 79
     0
 98
        0
  0
TEXT
  5
482
330
459
100
AcDbEntity
  8
}}ﾊﾊGG血CCТ
  6
CONTINUOUS
 62
     7
100
AcDbText
 10
349.225769
 20
11.461285
 30
0.0
 40
6.0
  1
GOLD CASTER
 41
0.719626
  7
FX_VECTOR
 72
     5
 11
393.225769
 21
11.461285
 31
0.0
100
AcDbText
  0
LINE
  5
483
330
459
100
AcDbEntity
  8
}}ﾊﾊGG血CCТ
  6
CONTINUOUS
 62
     7
100
AcDbLine
 10
253.0
 20
10.0
 30
0.0
 11
253.0
 21
20.0
 31
0.0
  0
TEXT
  5
484
330
459
100
AcDbEntity
  8
}}ﾊﾊGG血CCТ
  6
CONTINUOUS
 62
     7
100
AcDbText
 10
237.738815
 20
11.596879
 30
0.0
 40
6.648749
  1
図番
 41
1.083413
  7
FX_VECTOR
 72
     5
 11
249.058355
 21
11.596879
 31
0.0
100
AcDbText
  0
LINE
  5
485
330
459
100
AcDbEntity
  8
}}ﾊﾊGG血CCТ
  6
CONTINUOUS
 62
     7
100
AcDbLine
 10
333.0
 20
20.0
 30
0.0
 11
333.0
 21
10.0
 31
0.0
  0
LINE
  5
486
330
459
100
AcDbEntity
  8
}}ﾊﾊGG血CCТ
  6
CONTINUOUS
 62
     7
100
AcDbLine
 10
133.0
 20
20.0
 30
0.0
 11
133.0
 21
10.0
 31
0.0
  0
ENDBLK
  5
45B
330
459
100
AcDbEntity
  8
0
100
AcDbBlockEnd
  0
BLOCK
  5
466
330
465
100
AcDbEntity
  8
0
100
AcDbBlockBegin
  2
BLKF048
 70
     0
 71
     0
 10
0.0
 20
0.0
 30
0.0
  3
BLKF048
  1

  0
LINE
  5
46A
330
465
100
AcDbEntity
  8
0-1
  6
CONTINUOUS
 62
     7
100
AcDbLine
 10
344.8019
 20
17.913462
 30
0.0
 11
338.8019
 21
17.913462
 31
0.0
  0
LINE
  5
46B
330
465
100
AcDbEntity
  8
0-1
  6
CONTINUOUS
 62
     7
100
AcDbLine
 10
338.8019
 20
17.913462
 30
0.0
 11
338.8019
 21
11.913462
 31
0.0
  0
LINE
  5
46C
330
465
100
AcDbEntity
  8
0-1
  6
CONTINUOUS
 62
     7
100
AcDbLine
 10
338.8019
 20
11.913462
 30
0.0
 11
344.8019
 21
11.913462
 31
0.0
  0
LINE
  5
46D
330
465
100
AcDbEntity
  8
0-1
  6
CONTINUOUS
 62
     7
100
AcDbLine
 10
344.8019
 20
11.913462
 30
0.0
 11
344.8019
 21
17.913462
 31
0.0
  0
ENDBLK
  5
467
330
465
100
AcDbEntity
  8
0
100
AcDbBlockEnd
  0
BLOCK
  5
46F
330
46E
100
AcDbEntity
  8
0
100
AcDbBlockBegin
  2
BLKF049
 70
     0
 71
     0
 10
0.0
 20
0.0
 30
0.0
  3
BLKF049
  1

  0
LINE
  5
472
330
46E
100
AcDbEntity
  8
0-1
  6
CONTINUOUS
 62
     7
100
AcDbLine
 10
344.224977
 20
15.346154
 30
0.0
 11
341.8019
 21
17.769231
 31
0.0
  0
LINE
  5
473
330
46E
100
AcDbEntity
  8
0-1
  6
CONTINUOUS
 62
     7
100
AcDbLine
 10
341.8019
 20
17.769231
 30
0.0
 11
338.946131
 21
14.913462
 31
0.0
  0
LINE
  5
474
330
46E
100
AcDbEntity
  8
0-1
  6
CONTINUOUS
 62
     7
100
AcDbLine
 10
338.946131
 20
14.913462
 30
0.0
 11
341.8019
 21
12.057692
 31
0.0
  0
LINE
  5
475
330
46E
100
AcDbEntity
  8
0-1
  6
CONTINUOUS
 62
     7
100
AcDbLine
 10
341.8019
 20
12.057692
 30
0.0
 11
343.359592
 21
13.615385
 31
0.0
  0
LINE
  5
476
330
46E
100
AcDbEntity
  8
0-1
  6
CONTINUOUS
 62
     7
100
AcDbLine
 10
343.359592
 20
13.615385
 30
0.0
 11
343.359592
 21
12.980769
 31
0.0
  0
LINE
  5
477
330
46E
100
AcDbEntity
  8
0-1
  6
CONTINUOUS
 62
     7
100
AcDbLine
 10
343.359592
 20
12.980769
 30
0.0
 11
344.224977
 21
12.980769
 31
0.0
  0
LINE
  5
478
330
46E
100
AcDbEntity
  8
0-1
  6
CONTINUOUS
 62
     7
100
AcDbLine
 10
344.224977
 20
12.980769
 30
0.0
 11
344.224977
 21
15.0
 31
0.0
  0
LINE
  5
479
330
46E
100
AcDbEntity
  8
0-1
  6
CONTINUOUS
 62
     7
100
AcDbLine
 10
344.224977
 20
15.0
 30
0.0
 11
341.8019
 21
15.0
 31
0.0
  0
LINE
  5
47A
330
46E
100
AcDbEntity
  8
0-1
  6
CONTINUOUS
 62
     7
100
AcDbLine
 10
341.8019
 20
15.0
 30
0.0
 11
341.8019
 21
14.134615
 31
0.0
  0
LINE
  5
47B
330
46E
100
AcDbEntity
  8
0-1
  6
CONTINUOUS
 62
     7
100
AcDbLine
 10
341.8019
 20
14.134615
 30
0.0
 11
342.246131
 21
14.134615
 31
0.0
  0
LINE
  5
47C
330
46E
100
AcDbEntity
  8
0-1
  6
CONTINUOUS
 62
     7
100
AcDbLine
 10
342.246131
 20
14.134615
 30
0.0
 11
341.8019
 21
13.690385
 31
0.0
  0
LINE
  5
47D
330
46E
100
AcDbEntity
  8
0-1
  6
CONTINUOUS
 62
     7
100
AcDbLine
 10
341.8019
 20
13.690385
 30
0.0
 11
340.578823
 21
14.913462
 31
0.0
  0
LINE
  5
47E
330
46E
100
AcDbEntity
  8
0-1
  6
CONTINUOUS
 62
     7
100
AcDbLine
 10
340.578823
 20
14.913462
 30
0.0
 11
341.8019
 21
16.136538
 31
0.0
  0
LINE
  5
47F
330
46E
100
AcDbEntity
  8
0-1
  6
CONTINUOUS
 62
     7
100
AcDbLine
 10
341.8019
 20
16.136538
 30
0.0
 11
342.592284
 21
15.346154
 31
0.0
  0
LINE
  5
480
330
46E
100
AcDbEntity
  8
0-1
  6
CONTINUOUS
 62
     7
100
AcDbLine
 10
342.592284
 20
15.346154
 30
0.0
 11
344.224977
 21
15.346154
 31
0.0
  0
ENDBLK
  5
470
330
46E
100
AcDbEntity
  8
0
100
AcDbBlockEnd
  0
ENDSEC
  0
SECTION
  2
ENTITIES
  0
TEXT
  5
A8
330
1F
100
AcDbEntity
  8
}}ﾊﾊGG血CCТ
  6
CONTINUOUS
 62
     7
100
AcDbText
 10
155.146072
 20
12.0
 30
0.0
 40
6.0
  1
Ｗ－１８０　ＲＢ
 41
0.794326
  7
FX_VECTOR
 72
     5
 11
187.146072
 21
12.0
 31
0.0
100
AcDbText
  0
INSERT
  5
AC
330
1F
100
AcDbEntity
  8
0
100
AcDbBlockReference
  2
BLKF021
 10
0.0
 20
0.0
 30
0.0
  0
INSERT
  5
BE
330
1F
100
AcDbEntity
  8
0
100
AcDbBlockReference
  2
BLKF022
 10
0.0
 20
0.0
 30
0.0
  0
DIMENSION
  5
CD
330
1F
100
AcDbEntity
  8
GR1-1
100
AcDbDimension
  2
*D21
 10
169.359932
 20
62.867816
 30
0.0
 11
168.359924
 21
152.867813
 31
0.0
 70
    33
  3
FXDIMINFO
100
AcDbAlignedDimension
 13
112.187573
 23
242.867816
 33
0.0
 14
112.187573
 24
62.867816
 34
0.0
1001
ACAD
1000
DSTYLE
1002
{
1070
     7
1000
FXTIP_ARROW_E
1070
     6
1000
FXTIP_ARROW_S
1070
   173
1070
     1
1002
}
  0
DIMENSION
  5
D7
330
1F
100
AcDbEntity
  8
GR1-1
100
AcDbDimension
  2
*D22
 10
159.359932
 20
77.367816
 30
0.0
 11
158.359924
 21
152.867813
 31
0.0
 70
    33
  3
FXDIMINFO
100
AcDbAlignedDimension
 13
134.687573
 23
228.367816
 33
0.0
 14
134.687573
 24
77.367816
 34
0.0
1001
ACAD
1000
DSTYLE
1002
{
1070
     7
1000
FXTIP_ARROW_E
1070
     6
1000
FXTIP_ARROW_S
1070
   173
1070
     1
1002
}
  0
DIMENSION
  5
E1
330
1F
100
AcDbEntity
  8
GR1-1
100
AcDbDimension
  2
*D23
 10
149.359932
 20
162.867816
 30
0.0
 11
148.359924
 21
152.867813
 31
0.0
 70
    33
  3
FXDIMINFO
100
AcDbAlignedDimension
 13
139.187573
 23
142.867816
 33
0.0
 14
139.187573
 24
162.867816
 34
0.0
1001
ACAD
1000
DSTYLE
1002
{
1070
     7
1000
FXTIP_ARROW_E
1070
     6
1000
FXTIP_ARROW_S
1070
   173
1070
     1
1002
}
  0
DIMENSION
  5
EB
330
1F
100
AcDbEntity
  8
GR1-1
100
AcDbDimension
  2
*D24
 10
134.687573
 20
254.351349
 30
0.0
 11
112.187576
 21
255.351334
 31
0.0
 70
    33
  3
FXDIMINFO
100
AcDbAlignedDimension
 13
89.687573
 23
228.367816
 33
0.0
 14
134.687573
 24
228.367816
 34
0.0
1001
ACAD
1000
DSTYLE
1002
{
1070
     7
1000
FXTIP_ARROW_E
1070
     6
1000
FXTIP_ARROW_S
1070
   173
1070
     1
1002
}
  0
DIMENSION
  5
F5
330
1F
100
AcDbEntity
  8
GR1-1
100
AcDbDimension
  2
*D25
 10
139.687573
 20
52.890159
 30
0.0
 11
112.187576
 21
53.89016
 31
0.0
 70
    33
  3
FXDIMINFO
100
AcDbAlignedDimension
 13
84.687573
 23
139.667816
 33
0.0
 14
139.687573
 24
139.667816
 34
0.0
1001
ACAD
1000
DSTYLE
1002
{
1070
     7
1000
FXTIP_ARROW_E
1070
     6
1000
FXTIP_ARROW_S
1070
   173
1070
     1
1002
}
  0
INSERT
  5
102
330
1F
100
AcDbEntity
  8
0
100
AcDbBlockReference
  2
BLKF028
 10
0.0
 20
0.0
 30
0.0
  0
INSERT
  5
10D
330
1F
100
AcDbEntity
  8
0
100
AcDbBlockReference
  2
BLKF029
 10
0.0
 20
0.0
 30
0.0
  0
INSERT
  5
124
330
1F
100
AcDbEntity
  8
0
100
AcDbBlockReference
  2
BLKF030
 10
0.0
 20
0.0
 30
0.0
  0
INSERT
  5
148
330
1F
100
AcDbEntity
  8
0
100
AcDbBlockReference
  2
BLKF031
 10
0.0
 20
0.0
 30
0.0
  0
ARC
  5
1A0
330
1F
100
AcDbEntity
  8
GR1-1
  6
CONTINUOUS
 62
     3
100
AcDbCircle
 10
118.813058
 20
73.420345
 30
0.0
 40
10.0
100
AcDbArc
 50
279.534248
 51
335.0
  0
LINE
  5
1A1
330
1F
100
AcDbEntity
  8
GR1-1
  6
CONTINUOUS
 62
     3
100
AcDbLine
 10
127.876136
 20
69.194163
 30
0.0
 11
131.149751
 21
76.214452
 31
0.0
  0
LINE
  5
1A2
330
1F
100
AcDbEntity
  8
GR1-1
  6
CONTINUOUS
 62
     3
100
AcDbLine
 10
132.887573
 20
77.367816
 30
0.0
 11
134.687573
 21
77.367816
 31
0.0
  0
LINE
  5
1A3
330
1F
100
AcDbEntity
  8
GR1-1
  6
CONTINUOUS
 62
     3
100
AcDbLine
 10
134.687573
 20
77.367816
 30
0.0
 11
134.687573
 21
127.717816
 31
0.0
  0
ARC
  5
1A4
330
1F
100
AcDbEntity
  8
GR1-1
  6
CONTINUOUS
 62
     3
100
AcDbCircle
 10
130.887573
 20
78.867816
 30
0.0
 40
3.8
100
AcDbArc
 50
0.0
 51
90.0
  0
LINE
  5
1A5
330
1F
100
AcDbEntity
  8
GR1-1
  6
CONTINUOUS
 62
     3
100
AcDbLine
 10
130.887573
 20
82.667816
 30
0.0
 11
114.987573
 21
82.667816
 31
0.0
  0
ARC
  5
1A6
330
1F
100
AcDbEntity
  8
GR1-1
  6
CONTINUOUS
 62
     3
100
AcDbCircle
 10
114.987573
 20
83.667816
 30
0.0
 40
1.0
100
AcDbArc
 50
180.0
 51
270.0
  0
LINE
  5
1A7
330
1F
100
AcDbEntity
  8
GR1-1
  6
CONTINUOUS
 62
     3
100
AcDbLine
 10
113.987573
 20
83.667816
 30
0.0
 11
113.987573
 21
90.867816
 31
0.0
  0
LINE
  5
1A8
330
1F
100
AcDbEntity
  8
GR1-1
  6
CONTINUOUS
 62
     3
100
AcDbLine
 10
113.987573
 20
90.867816
 30
0.0
 11
116.458093
 21
97.41736
 31
0.0
  0
ARC
  5
1A9
330
1F
100
AcDbEntity
  8
GR1-1
  6
CONTINUOUS
 62
     3
100
AcDbCircle
 10
113.648325
 20
102.718794
 30
0.0
 40
6.0
100
AcDbArc
 50
297.923657
 51
339.33328
  0
LINE
  5
1AA
330
1F
100
AcDbEntity
  8
GR1-1
  6
CONTINUOUS
 62
     3
100
AcDbLine
 10
119.262221
 20
100.601206
 30
0.0
 11
125.990063
 21
118.437249
 31
0.0
  0
ARC
  5
1AB
330
1F
100
AcDbEntity
  8
GR1-1
  6
CONTINUOUS
 62
     3
100
AcDbCircle
 10
120.376168
 20
120.554837
 30
0.0
 40
6.0
100
AcDbArc
 50
-20.66672
 51
20.742902
  0
LINE
  5
1AC
330
1F
100
AcDbEntity
  8
GR1-1
  6
CONTINUOUS
 62
     3
100
AcDbLine
 10
125.987242
 20
122.679888
 30
0.0
 11
127.643496
 21
127.070748
 31
0.0
  0
LINE
  5
1AD
330
1F
100
AcDbEntity
  8
GR1-1
  6
CONTINUOUS
 62
     3
100
AcDbLine
 10
128.579145
 20
127.717816
 30
0.0
 11
135.687573
 21
127.717816
 31
0.0
  0
LINE
  5
1AE
330
1F
100
AcDbEntity
  8
GR1-1
  6
CONTINUOUS
 62
     3
100
AcDbLine
 10
135.687573
 20
127.717816
 30
0.0
 11
135.687573
 21
129.517816
 31
0.0
  0
LINE
  5
1AF
330
1F
100
AcDbEntity
  8
GR1-1
  6
CONTINUOUS
 62
     3
100
AcDbLine
 10
135.687573
 20
129.517816
 30
0.0
 11
128.579145
 21
129.517816
 31
0.0
  0
ARC
  5
1B0
330
1F
100
AcDbEntity
  8
GR1-1
  6
CONTINUOUS
 62
     3
100
AcDbCircle
 10
128.579145
 20
126.717816
 30
0.0
 40
2.8
100
AcDbArc
 50
90.0
 51
159.33328
  0
LINE
  5
1B1
330
1F
100
AcDbEntity
  8
GR1-1
  6
CONTINUOUS
 62
     3
100
AcDbLine
 10
125.959327
 20
127.706024
 30
0.0
 11
124.329504
 21
123.385232
 31
0.0
  0
ARC
  5
1B2
330
1F
100
AcDbEntity
  8
GR1-1
  6
CONTINUOUS
 62
     3
100
AcDbCircle
 10
126.200802
 20
122.679369
 30
0.0
 40
2.0
100
AcDbArc
 50
159.33328
 51
200.039414
  0
ARC
  5
1B3
330
1F
100
AcDbEntity
  8
GR1-1
  6
CONTINUOUS
 62
     3
100
AcDbCircle
 10
120.376168
 20
120.554837
 30
0.0
 40
4.199999999999999
100
AcDbArc
 50
-20.66672
 51
20.742902
  0
LINE
  5
1B4
330
1F
100
AcDbEntity
  8
GR1-1
  6
CONTINUOUS
 62
     3
100
AcDbLine
 10
124.305894
 20
119.072525
 30
0.0
 11
117.578052
 21
101.236482
 31
0.0
  0
ARC
  5
1B5
330
1F
100
AcDbEntity
  8
GR1-1
  6
CONTINUOUS
 62
     3
100
AcDbCircle
 10
116.618794
 20
97.276707
 30
0.0
 40
2.0
100
AcDbArc
 50
118.627145
 51
159.33328
  0
LINE
  5
1B6
330
1F
100
AcDbEntity
  8
GR1-1
  6
CONTINUOUS
 62
     3
100
AcDbLine
 10
114.747495
 20
97.98257
 30
0.0
 11
112.444977
 21
91.878411
 31
0.0
  0
ARC
  5
1B7
330
1F
100
AcDbEntity
  8
GR1-1
  6
CONTINUOUS
 62
     3
100
AcDbCircle
 10
116.187573
 20
90.466685
 30
0.0
 40
4.0
100
AcDbArc
 50
159.33328
 51
180.0
  0
LINE
  5
1B8
330
1F
100
AcDbEntity
  8
GR1-1
  6
CONTINUOUS
 62
     3
100
AcDbLine
 10
112.187573
 20
90.466685
 30
0.0
 11
112.187573
 21
83.667816
 31
0.0
  0
ARC
  5
1B9
330
1F
100
AcDbEntity
  8
GR1-1
  6
CONTINUOUS
 62
     3
100
AcDbCircle
 10
114.987573
 20
83.667816
 30
0.0
 40
2.8
100
AcDbArc
 50
180.0
 51
270.0
  0
LINE
  5
1BA
330
1F
100
AcDbEntity
  8
GR1-1
  6
CONTINUOUS
 62
     3
100
AcDbLine
 10
114.987573
 20
80.867816
 30
0.0
 11
130.887573
 21
80.867816
 31
0.0
  0
ARC
  5
1BB
330
1F
100
AcDbEntity
  8
GR1-1
  6
CONTINUOUS
 62
     3
100
AcDbCircle
 10
130.887573
 20
78.867816
 30
0.0
 40
2.0
100
AcDbArc
 50
0.0
 51
90.0
  0
LINE
  5
1BC
330
1F
100
AcDbEntity
  8
GR1-1
  6
CONTINUOUS
 62
     3
100
AcDbLine
 10
132.887573
 20
78.867816
 30
0.0
 11
132.887573
 21
77.367816
 31
0.0
  0
ARC
  5
1BD
330
1F
100
AcDbEntity
  8
GR1-1
  6
CONTINUOUS
 62
     3
100
AcDbCircle
 10
132.962366
 20
75.369215
 30
0.0
 40
2.0
100
AcDbArc
 50
92.143158
 51
155.0
  0
ARC
  5
1BE
330
1F
100
AcDbEntity
  8
GR1-1
  6
CONTINUOUS
 62
     3
100
AcDbCircle
 10
113.648325
 20
102.718794
 30
0.0
 40
4.199999999999999
100
AcDbArc
 50
298.627145
 51
339.33328
  0
ARC
  5
1BF
330
1F
100
AcDbEntity
  8
GR1-1
  6
CONTINUOUS
 62
     3
100
AcDbCircle
 10
91.412781
 20
75.369215
 30
0.0
 40
2.0
100
AcDbArc
 50
25.0
 51
87.856842
  0
LINE
  5
1C0
330
1F
100
AcDbEntity
  8
GR1-1
  6
CONTINUOUS
 62
     3
100
AcDbLine
 10
93.225396
 20
76.214452
 30
0.0
 11
96.499011
 21
69.194163
 31
0.0
  0
ARC
  5
1C1
330
1F
100
AcDbEntity
  8
GR1-1
  6
CONTINUOUS
 62
     3
100
AcDbCircle
 10
105.562088
 20
73.420345
 30
0.0
 40
10.0
100
AcDbArc
 50
205.0
 51
260.465752
  0
ARC
  5
1C2
330
1F
100
AcDbEntity
  8
GR1-1
  6
CONTINUOUS
 62
     3
100
AcDbCircle
 10
112.187573
 20
112.867816
 30
0.0
 40
50.0
100
AcDbArc
 50
260.465752
 51
279.534248
  0
LINE
  5
1C3
330
1F
100
AcDbEntity
  8
GR1-1
  6
CONTINUOUS
 62
     3
100
AcDbLine
 10
139.187573
 20
142.867816
 30
0.0
 11
139.687573
 21
142.367816
 31
0.0
  0
LINE
  5
1C4
330
1F
100
AcDbEntity
  8
GR1-1
  6
CONTINUOUS
 62
     3
100
AcDbLine
 10
139.687573
 20
139.667816
 30
0.0
 11
139.687573
 21
166.067816
 31
0.0
  0
LINE
  5
1C5
330
1F
100
AcDbEntity
  8
GR1-1
  6
CONTINUOUS
 62
     3
100
AcDbLine
 10
139.687573
 20
139.667816
 30
0.0
 11
139.387573
 21
139.367816
 31
0.0
  0
LINE
  5
1C6
330
1F
100
AcDbEntity
  8
GR1-1
  6
CONTINUOUS
 62
     3
100
AcDbLine
 10
139.387573
 20
139.367816
 30
0.0
 11
132.748534
 21
139.367816
 31
0.0
  0
CIRCLE
  5
1C7
330
1F
100
AcDbEntity
  8
GR1-1
  6
CONTINUOUS
 62
     3
100
AcDbCircle
 10
130.262573
 20
137.392816
 30
0.0
 40
3.175
  0
ARC
  5
1C8
330
1F
100
AcDbEntity
  8
GR1-1
  6
CONTINUOUS
 62
     3
100
AcDbCircle
 10
135.937153
 20
136.887398
 30
0.0
 40
1.087780806115128
100
AcDbArc
 50
1.108663
 51
134.823039
  0
LINE
  5
1C9
330
1F
100
AcDbEntity
  8
GR1-1
  6
CONTINUOUS
 62
     3
100
AcDbLine
 10
137.087573
 20
138.617816
 30
0.0
 11
137.987573
 21
138.617816
 31
0.0
  0
LINE
  5
1CA
330
1F
100
AcDbEntity
  8
GR1-1
  6
CONTINUOUS
 62
     3
100
AcDbLine
 10
137.987573
 20
138.617816
 30
0.0
 11
137.987573
 21
128.117816
 31
0.0
  0
LINE
  5
1CB
330
1F
100
AcDbEntity
  8
GR1-1
  6
CONTINUOUS
 62
     3
100
AcDbLine
 10
137.087573
 20
128.517816
 30
0.0
 11
137.087573
 21
138.617816
 31
0.0
  0
LINE
  5
1CC
330
1F
100
AcDbEntity
  8
GR1-1
  6
CONTINUOUS
 62
     3
100
AcDbLine
 10
139.187573
 20
142.867816
 30
0.0
 11
123.187573
 21
142.867816
 31
0.0
  0
LINE
  5
1CD
330
1F
100
AcDbEntity
  8
GR1-1
  6
CONTINUOUS
 62
     3
100
AcDbLine
 10
123.187573
 20
142.867816
 30
0.0
 11
122.687573
 21
142.367816
 31
0.0
  0
LINE
  5
1CE
330
1F
100
AcDbEntity
  8
GR1-1
  6
CONTINUOUS
 62
     3
100
AcDbLine
 10
122.687573
 20
140.667816
 30
0.0
 11
122.687573
 21
165.067816
 31
0.0
  0
LINE
  5
1CF
330
1F
100
AcDbEntity
  8
GR1-1
  6
CONTINUOUS
 62
     3
100
AcDbLine
 10
122.687573
 20
140.667816
 30
0.0
 11
123.187573
 21
140.167816
 31
0.0
  0
LINE
  5
1D0
330
1F
100
AcDbEntity
  8
GR1-1
  6
CONTINUOUS
 62
     3
100
AcDbLine
 10
123.187573
 20
140.167816
 30
0.0
 11
124.487573
 21
140.167816
 31
0.0
  0
LINE
  5
1D1
330
1F
100
AcDbEntity
  8
GR1-1
  6
CONTINUOUS
 62
     3
100
AcDbLine
 10
124.487573
 20
140.167816
 30
0.0
 11
124.487573
 21
139.367816
 31
0.0
  0
LINE
  5
1D2
330
1F
100
AcDbEntity
  8
GR1-1
  6
CONTINUOUS
 62
     3
100
AcDbLine
 10
124.487573
 20
139.367816
 30
0.0
 11
127.776613
 21
139.367816
 31
0.0
  0
LINE
  5
1D3
330
1F
100
AcDbEntity
  8
GR1-1
  6
CONTINUOUS
 62
     3
100
AcDbLine
 10
127.087573
 20
138.567816
 30
0.0
 11
126.787573
 21
138.867816
 31
0.0
  0
LINE
  5
1D4
330
1F
100
AcDbEntity
  8
GR1-1
  6
CONTINUOUS
 62
     3
100
AcDbLine
 10
126.787573
 20
138.867816
 30
0.0
 11
125.387573
 21
138.867816
 31
0.0
  0
LINE
  5
1D5
330
1F
100
AcDbEntity
  8
GR1-1
  6
CONTINUOUS
 62
     3
100
AcDbLine
 10
125.387573
 20
138.867816
 30
0.0
 11
125.087573
 21
138.567816
 31
0.0
  0
LINE
  5
1D6
330
1F
100
AcDbEntity
  8
GR1-1
  6
CONTINUOUS
 62
     3
100
AcDbLine
 10
125.087573
 20
138.567816
 30
0.0
 11
125.087573
 21
131.267816
 31
0.0
  0
ARC
  5
1D7
330
1F
100
AcDbEntity
  8
GR1-1
  6
CONTINUOUS
 62
     3
100
AcDbCircle
 10
126.087573
 20
131.267816
 30
0.0
 40
1.0
100
AcDbArc
 50
180.0
 51
270.0
  0
LINE
  5
1D8
330
1F
100
AcDbEntity
  8
GR1-1
  6
CONTINUOUS
 62
     3
100
AcDbLine
 10
126.087573
 20
130.267816
 30
0.0
 11
137.087573
 21
130.267816
 31
0.0
  0
ARC
  5
1D9
330
1F
100
AcDbEntity
  8
GR1-1
  6
CONTINUOUS
 62
     3
100
AcDbCircle
 10
135.687573
 20
128.867816
 30
0.0
 40
1.4
100
AcDbArc
 50
0.0
 51
90.0
  0
LINE
  5
1DA
330
1F
100
AcDbEntity
  8
GR1-1
  6
CONTINUOUS
 62
     3
100
AcDbLine
 10
135.187573
 20
129.367816
 30
0.0
 11
126.187573
 21
129.367816
 31
0.0
  0
LINE
  5
1DB
330
1F
100
AcDbEntity
  8
GR1-1
  6
CONTINUOUS
 62
     3
100
AcDbLine
 10
126.787573
 20
130.267816
 30
0.0
 11
127.087573
 21
130.567816
 31
0.0
  0
LINE
  5
1DC
330
1F
100
AcDbEntity
  8
GR1-1
  6
CONTINUOUS
 62
     3
100
AcDbLine
 10
127.087573
 20
130.567816
 30
0.0
 11
127.087573
 21
138.567816
 31
0.0
  0
ARC
  5
1DD
330
1F
100
AcDbEntity
  8
GR1-1
  6
CONTINUOUS
 62
     3
100
AcDbCircle
 10
129.087573
 20
132.267816
 30
0.0
 40
2.0
100
AcDbArc
 50
90.0
 51
270.0
  0
LINE
  5
1DE
330
1F
100
AcDbEntity
  8
GR1-1
  6
CONTINUOUS
 62
     3
100
AcDbLine
 10
129.087573
 20
132.267816
 30
0.0
 11
137.087573
 21
132.267816
 31
0.0
  0
ARC
  5
1DF
330
1F
100
AcDbEntity
  8
GR1-1
  6
CONTINUOUS
 62
     3
100
AcDbCircle
 10
135.187573
 20
128.867816
 30
0.0
 40
0.5
100
AcDbArc
 50
0.0
 51
90.0
  0
ARC
  5
1E0
330
1F
100
AcDbEntity
  8
GR1-1
  6
CONTINUOUS
 62
     3
100
AcDbCircle
 10
136.837573
 20
129.190316
 30
0.0
 40
1.572500000000017
100
AcDbArc
 50
223.002869
 51
316.997131
  0
ARC
  5
1E1
330
1F
100
AcDbEntity
  8
GR1-1
  6
CONTINUOUS
 62
     3
100
AcDbCircle
 10
129.907535
 20
139.948032
 30
0.0
 40
7.739092689906714
100
AcDbArc
 50
277.071995
 51
336.873889
  0
ARC
  5
1E2
330
1F
100
AcDbEntity
  8
GR1-1
  6
CONTINUOUS
 62
     3
100
AcDbCircle
 10
129.907535
 20
139.948032
 30
0.0
 40
5.739092689906714
100
AcDbArc
 50
261.785869
 51
336.493179
  0
LINE
  5
1E3
330
1F
100
AcDbEntity
  8
GR1-1
  6
CONTINUOUS
 62
     3
100
AcDbLine
 10
125.087573
 20
133.867816
 30
0.0
 11
124.187573
 21
133.867816
 31
0.0
  0
LINE
  5
1E4
330
1F
100
AcDbEntity
  8
GR1-1
  6
CONTINUOUS
 62
     3
100
AcDbLine
 10
124.187573
 20
133.867816
 30
0.0
 11
124.187573
 21
131.367816
 31
0.0
  0
ARC
  5
1E5
330
1F
100
AcDbEntity
  8
GR1-1
  6
CONTINUOUS
 62
     3
100
AcDbCircle
 10
126.187573
 20
131.367816
 30
0.0
 40
2.0
100
AcDbArc
 50
180.0
 51
270.0
  0
ARC
  5
1E6
330
1F
100
AcDbEntity
  8
GR1-1
  6
CONTINUOUS
 62
     3
100
AcDbCircle
 10
128.579145
 20
126.717816
 30
0.0
 40
1.0
100
AcDbArc
 50
90.0
 51
159.33328
  0
CIRCLE
  5
1E7
330
1F
100
AcDbEntity
  8
GR1-1
  6
CONTINUOUS
 62
     3
100
AcDbCircle
 10
282.187573
 20
152.867816
 30
0.0
 40
90.0
  0
CIRCLE
  5
1E8
330
1F
100
AcDbEntity
  8
GR1-1
  6
CONTINUOUS
 62
     3
100
AcDbCircle
 10
282.187573
 20
152.867816
 30
0.0
 40
75.5
  0
CIRCLE
  5
1E9
330
1F
100
AcDbEntity
  8
GR1-1
  6
CONTINUOUS
 62
     3
100
AcDbCircle
 10
282.187573
 20
152.867816
 30
0.0
 40
25.25
  0
CIRCLE
  5
1EA
330
1F
100
AcDbEntity
  8
GR1-1
  6
CONTINUOUS
 62
     3
100
AcDbCircle
 10
282.187573
 20
152.867816
 30
0.0
 40
10.0
  0
TEXT
  5
1EB
330
1F
100
AcDbEntity
  8
GR1-1
  6
CONTINUOUS
 62
     7
100
AcDbText
 10
247.844711
 20
221.911209
 30
0.0
 40
7.375806
  1
G
 50
24.0
 41
1.131783
  7
FX_VECTOR
 72
     5
 11
254.381372
 21
224.821518
 31
0.0
100
AcDbText
  0
TEXT
  5
1EC
330
1F
100
AcDbEntity
  8
GR1-1
  6
CONTINUOUS
 62
     7
100
AcDbText
 10
255.249832
 20
225.122787
 30
0.0
 40
7.375806
  1
O
 50
18.0
 41
1.072215
  7
FX_VECTOR
 72
     5
 11
262.054895
 21
227.333886
 31
0.0
100
AcDbText
  0
TEXT
  5
1ED
330
1F
100
AcDbEntity
  8
GR1-1
  6
CONTINUOUS
 62
     7
100
AcDbText
 10
262.950134
 20
227.542725
 30
0.0
 40
7.375806
  1
L
 50
12.0
 41
1.273256
  7
FX_VECTOR
 72
     5
 11
269.949041
 21
229.030388
 31
0.0
100
AcDbText
  0
TEXT
  5
1EE
330
1F
100
AcDbEntity
  8
GR1-1
  6
CONTINUOUS
 62
     7
100
AcDbText
 10
270.861176
 20
229.144516
 30
0.0
 40
7.375806
  1
D
 50
6.0
 41
1.131783
  7
FX_VECTOR
 72
     5
 11
277.977245
 21
229.892445
 31
0.0
100
AcDbText
  0
TEXT
  5
1EF
330
1F
100
AcDbEntity
  8
GR1-1
  6
CONTINUOUS
 62
     7
100
AcDbText
 10
286.967468
 20
229.832581
 30
0.0
 40
7.375806
  1
C
 50
354.0
 41
1.131783
  7
FX_VECTOR
 72
     5
 11
294.083537
 21
229.084652
 31
0.0
100
AcDbText
  0
TEXT
  5
1F0
330
1F
100
AcDbEntity
  8
GR1-1
  6
CONTINUOUS
 62
     7
100
AcDbText
 10
294.986298
 20
228.911331
 30
0.0
 40
7.375806
  1
A
 50
348.0
 41
1.198358
  7
FX_VECTOR
 72
     5
 11
301.985204
 21
227.423668
 31
0.0
100
AcDbText
  0
TEXT
  5
1F1
330
1F
100
AcDbEntity
  8
GR1-1
  6
CONTINUOUS
 62
     7
100
AcDbText
 10
302.864899
 20
227.156921
 30
0.0
 40
7.375806
  1
S
 50
342.0
 41
1.198358
  7
FX_VECTOR
 72
     5
 11
309.669961
 21
224.945823
 31
0.0
100
AcDbText
  0
TEXT
  5
1F2
330
1F
100
AcDbEntity
  8
GR1-1
  6
CONTINUOUS
 62
     7
100
AcDbText
 10
310.516937
 20
224.588593
 30
0.0
 40
7.375806
  1
T
 50
336.0
 41
1.358139
  7
FX_VECTOR
 72
     5
 11
317.053598
 21
221.678284
 31
0.0
100
AcDbText
  0
TEXT
  5
1F3
330
1F
100
AcDbEntity
  8
GR1-1
  6
CONTINUOUS
 62
     7
100
AcDbText
 10
317.858612
 20
221.234467
 30
0.0
 40
7.375806
  1
E
 50
330.0
 41
1.198358
  7
FX_VECTOR
 72
     5
 11
324.055254
 21
217.656833
 31
0.0
100
AcDbText
  0
TEXT
  5
1F4
330
1F
100
AcDbEntity
  8
GR1-1
  6
CONTINUOUS
 62
     7
100
AcDbText
 10
324.809479
 20
217.131317
 30
0.0
 40
7.375806
  1
R
 50
324.0
 41
1.131783
  7
FX_VECTOR
 72
     5
 11
330.598211
 21
212.925557
 31
0.0
100
AcDbText
  0
TEXT
  5
1F5
330
1F
100
AcDbEntity
  8
GR1-1
  6
CONTINUOUS
 62
     7
100
AcDbText
 10
308.457367
 20
80.366089
 30
0.0
 40
7.272017
  1
1
 50
197.5
 41
1.707561
  7
FX_VECTOR
 72
     5
 11
302.25405
 21
78.41019
 31
0.0
100
AcDbText
  0
TEXT
  5
1F6
330
1F
100
AcDbEntity
  8
GR1-1
  6
CONTINUOUS
 62
     7
100
AcDbText
 10
299.425812
 20
77.705017
 30
0.0
 40
7.272017
  1
8
 50
190.5
 41
1.104892
  7
FX_VECTOR
 72
     5
 11
293.030369
 21
76.519692
 31
0.0
100
AcDbText
  0
TEXT
  5
1F7
330
1F
100
AcDbEntity
  8
GR1-1
  6
CONTINUOUS
 62
     7
100
AcDbText
 10
290.137268
 20
76.164459
 30
0.0
 40
7.272017
  1
0
 50
183.5
 41
1.104892
  7
FX_VECTOR
 72
     5
 11
283.645041
 21
75.767378
 31
0.0
100
AcDbText
  0
TEXT
  5
1F8
330
1F
100
AcDbEntity
  8
GR1-1
  6
CONTINUOUS
 62
     7
100
AcDbText
 10
280.730225
 20
75.767365
 30
0.0
 40
7.272017
  1
X
 50
176.5
 41
1.104892
  7
FX_VECTOR
 72
     5
 11
274.237998
 21
76.164446
 31
0.0
100
AcDbText
  0
TEXT
  5
1F9
330
1F
100
AcDbEntity
  8
GR1-1
  6
CONTINUOUS
 62
     7
100
AcDbText
 10
271.34494
 20
76.519669
 30
0.0
 40
7.272017
  1
4
 50
169.5
 41
1.043509
  7
FX_VECTOR
 72
     5
 11
264.949498
 21
77.704994
 31
0.0
100
AcDbText
  0
TEXT
  5
1FA
330
1F
100
AcDbEntity
  8
GR1-1
  6
CONTINUOUS
 62
     7
100
AcDbText
 10
262.121277
 20
78.410141
 30
0.0
 40
7.272017
  1
5
 50
162.5
 41
1.104892
  7
FX_VECTOR
 72
     5
 11
255.91796
 21
80.366039
 31
0.0
100
AcDbText
  0
LINE
  5
1FB
330
1F
100
AcDbEntity
  8
GR1-1
  6
CONTINUOUS
 62
     6
100
AcDbLine
 10
130.262573
 20
135.58776
 30
0.0
 11
130.262573
 21
139.385342
 31
0.0
  0
LINE
  5
1FC
330
1F
100
AcDbEntity
  8
GR1-1
  6
CONTINUOUS
 62
     6
100
AcDbLine
 10
131.972441
 20
137.392816
 30
0.0
 11
128.30581
 21
137.392816
 31
0.0
  0
LINE
  5
1FD
330
1F
100
AcDbEntity
  8
GR1-1
  6
CONTINUOUS
 62
     7
100
AcDbLine
 10
230.680454
 20
218.657379
 30
0.0
 11
235.534556
 21
222.184091
 31
0.0
  0
LINE
  5
1FE
330
1F
100
AcDbEntity
  8
GR1-1
  6
CONTINUOUS
 62
     7
100
AcDbLine
 10
235.534556
 20
222.184091
 30
0.0
 11
239.061267
 21
217.329989
 31
0.0
  0
LINE
  5
1FF
330
1F
100
AcDbEntity
  8
GR1-1
  6
CONTINUOUS
 62
     7
100
AcDbLine
 10
239.061267
 20
217.329989
 30
0.0
 11
234.207165
 21
213.803277
 31
0.0
  0
LINE
  5
200
330
1F
100
AcDbEntity
  8
GR1-1
  6
CONTINUOUS
 62
     7
100
AcDbLine
 10
234.207165
 20
213.803277
 30
0.0
 11
230.680454
 21
218.657379
 31
0.0
  0
LINE
  5
201
330
1F
100
AcDbEntity
  8
GR1-1
  6
CONTINUOUS
 62
     7
100
AcDbLine
 10
233.208353
 20
220.28193
 30
0.0
 11
232.582615
 21
216.331176
 31
0.0
  0
LINE
  5
202
330
1F
100
AcDbEntity
  8
GR1-1
  6
CONTINUOUS
 62
     7
100
AcDbLine
 10
232.582615
 20
216.331176
 30
0.0
 11
236.533368
 21
215.705439
 31
0.0
  0
LINE
  5
203
330
1F
100
AcDbEntity
  8
GR1-1
  6
CONTINUOUS
 62
     7
100
AcDbLine
 10
236.533368
 20
215.705439
 30
0.0
 11
236.900108
 21
218.020941
 31
0.0
  0
ARC
  5
204
330
1F
100
AcDbEntity
  8
GR1-1
  6
CONTINUOUS
 62
     7
100
AcDbCircle
 10
236.998877
 20
218.005297
 30
0.0
 40
0.1
100
AcDbArc
 50
36.0
 51
171.0
  0
LINE
  5
205
330
1F
100
AcDbEntity
  8
GR1-1
  6
CONTINUOUS
 62
     7
100
AcDbLine
 10
237.079778
 20
218.064076
 30
0.0
 11
237.539955
 21
217.430697
 31
0.0
  0
LINE
  5
206
330
1F
100
AcDbEntity
  8
GR1-1
  6
CONTINUOUS
 62
     7
100
AcDbLine
 10
237.539955
 20
217.430697
 30
0.0
 11
238.348972
 21
218.018482
 31
0.0
  0
LINE
  5
207
330
1F
100
AcDbEntity
  8
GR1-1
  6
CONTINUOUS
 62
     7
100
AcDbLine
 10
238.348972
 20
218.018482
 30
0.0
 11
237.159106
 21
219.656192
 31
0.0
  0
LINE
  5
208
330
1F
100
AcDbEntity
  8
GR1-1
  6
CONTINUOUS
 62
     7
100
AcDbLine
 10
237.159106
 20
219.656192
 30
0.0
 11
234.870861
 21
217.993684
 31
0.0
  0
LINE
  5
209
330
1F
100
AcDbEntity
  8
GR1-1
  6
CONTINUOUS
 62
     7
100
AcDbLine
 10
234.870861
 20
217.993684
 30
0.0
 11
235.164753
 21
217.589176
 31
0.0
  0
LINE
  5
20A
330
1F
100
AcDbEntity
  8
GR1-1
  6
CONTINUOUS
 62
     7
100
AcDbLine
 10
235.164753
 20
217.589176
 30
0.0
 11
235.709054
 21
217.984633
 31
0.0
  0
LINE
  5
20B
330
1F
100
AcDbEntity
  8
GR1-1
  6
CONTINUOUS
 62
     7
100
AcDbLine
 10
235.866601
 20
217.888088
 30
0.0
 11
235.702114
 21
216.849561
 31
0.0
  0
LINE
  5
20C
330
1F
100
AcDbEntity
  8
GR1-1
  6
CONTINUOUS
 62
     7
100
AcDbLine
 10
235.702114
 20
216.849561
 30
0.0
 11
233.726738
 21
217.16243
 31
0.0
  0
LINE
  5
20D
330
1F
100
AcDbEntity
  8
GR1-1
  6
CONTINUOUS
 62
     7
100
AcDbLine
 10
233.726738
 20
217.16243
 30
0.0
 11
234.039607
 21
219.137807
 31
0.0
  0
LINE
  5
20E
330
1F
100
AcDbEntity
  8
GR1-1
  6
CONTINUOUS
 62
     7
100
AcDbLine
 10
234.039607
 20
219.137807
 30
0.0
 11
235.595943
 21
218.891308
 31
0.0
  0
LINE
  5
20F
330
1F
100
AcDbEntity
  8
GR1-1
  6
CONTINUOUS
 62
     7
100
AcDbLine
 10
235.595943
 20
218.891308
 30
0.0
 11
236.740066
 21
219.722561
 31
0.0
  0
LINE
  5
210
330
1F
100
AcDbEntity
  8
GR1-1
  6
CONTINUOUS
 62
     7
100
AcDbLine
 10
236.740066
 20
219.722561
 30
0.0
 11
233.208353
 21
220.28193
 31
0.0
  0
ARC
  5
211
330
1F
100
AcDbEntity
  8
GR1-1
  6
CONTINUOUS
 62
     7
100
AcDbCircle
 10
235.767832
 20
217.903731
 30
0.0
 40
0.1
100
AcDbArc
 50
-9.0
 51
126.0
  0
LINE
  5
212
330
1F
100
AcDbEntity
  8
GR1-1
  6
CONTINUOUS
 62
     6
100
AcDbLine
 10
114.747495
 20
97.98257
 30
0.0
 11
124.329504
 21
123.385232
 31
0.0
  0
LINE
  5
213
330
1F
100
AcDbEntity
  8
GR1-1
  6
CENTER
 62
     6
100
AcDbLine
 10
112.187573
 20
60.428389
 30
0.0
 11
112.187573
 21
245.354153
 31
0.0
  0
LINE
  5
214
330
1F
100
AcDbEntity
  8
GR1-1
  6
CONTINUOUS
 62
     3
100
AcDbLine
 10
139.187573
 20
142.867816
 30
0.0
 11
139.187573
 21
162.867816
 31
0.0
  0
LINE
  5
215
330
1F
100
AcDbEntity
  8
GR1-1
  6
CENTER
 62
     6
100
AcDbLine
 10
141.502864
 20
152.867816
 30
0.0
 11
81.379217
 21
152.867816
 31
0.0
  0
LINE
  5
216
330
1F
100
AcDbEntity
  8
GR1-1
  6
CONTINUOUS
 62
     3
100
AcDbLine
 10
123.187573
 20
142.867816
 30
0.0
 11
123.187573
 21
162.867816
 31
0.0
  0
LINE
  5
217
330
1F
100
AcDbEntity
  8
GR1-1
  6
CONTINUOUS
 62
     6
100
AcDbLine
 10
127.087573
 20
139.367816
 30
0.0
 11
127.087573
 21
138.567816
 31
0.0
  0
LINE
  5
218
330
1F
100
AcDbEntity
  8
GR1-1
  6
CONTINUOUS
 62
     6
100
AcDbLine
 10
125.087573
 20
138.567816
 30
0.0
 11
125.087573
 21
139.367816
 31
0.0
  0
LINE
  5
219
330
1F
100
AcDbEntity
  8
GR1-1
  6
CONTINUOUS
 62
     6
100
AcDbLine
 10
137.087573
 20
139.367816
 30
0.0
 11
137.087573
 21
138.617816
 31
0.0
  0
LINE
  5
21A
330
1F
100
AcDbEntity
  8
GR1-1
  6
CONTINUOUS
 62
     6
100
AcDbLine
 10
137.987573
 20
138.617816
 30
0.0
 11
137.987573
 21
139.367816
 31
0.0
  0
LINE
  5
21B
330
1F
100
AcDbEntity
  8
GR1-1
  6
CENTER
 62
     6
100
AcDbLine
 10
188.438199
 20
152.867816
 30
0.0
 11
376.438467
 21
152.867816
 31
0.0
  0
CIRCLE
  5
21C
330
1F
100
AcDbEntity
  8
GR1-1
  6
CONTINUOUS
 62
     6
100
AcDbCircle
 10
282.187573
 20
152.867816
 30
0.0
 40
70.19999999999996
  0
CIRCLE
  5
21D
330
1F
100
AcDbEntity
  8
GR1-1
  6
CONTINUOUS
 62
     6
100
AcDbCircle
 10
282.187573
 20
152.867816
 30
0.0
 40
62.0
  0
LINE
  5
21E
330
1F
100
AcDbEntity
  8
GR1-1
  6
CONTINUOUS
 62
     6
100
AcDbLine
 10
332.138029
 20
158.367816
 30
0.0
 11
317.875501
 21
158.367816
 31
0.0
  0
ARC
  5
21F
330
1F
100
AcDbEntity
  8
GR1-1
  6
CONTINUOUS
 62
     6
100
AcDbCircle
 10
317.875501
 20
152.867816
 30
0.0
 40
5.5
100
AcDbArc
 50
90.0
 51
270.0
  0
LINE
  5
220
330
1F
100
AcDbEntity
  8
GR1-1
  6
CONTINUOUS
 62
     6
100
AcDbLine
 10
317.875501
 20
147.367816
 30
0.0
 11
332.138029
 21
147.367816
 31
0.0
  0
ARC
  5
221
330
1F
100
AcDbEntity
  8
GR1-1
  6
CONTINUOUS
 62
     6
100
AcDbCircle
 10
332.138029
 20
152.867816
 30
0.0
 40
5.5
100
AcDbArc
 50
-90.0
 51
90.0
  0
LINE
  5
222
330
1F
100
AcDbEntity
  8
GR1-1
  6
CONTINUOUS
 62
     6
100
AcDbLine
 10
311.311836
 20
174.213904
 30
0.0
 11
321.396967
 21
184.299035
 31
0.0
  0
ARC
  5
223
330
1F
100
AcDbEntity
  8
GR1-1
  6
CONTINUOUS
 62
     6
100
AcDbCircle
 10
317.507879
 20
188.188122
 30
0.0
 40
5.5
100
AcDbArc
 50
-45.0
 51
135.0
  0
LINE
  5
224
330
1F
100
AcDbEntity
  8
GR1-1
  6
CONTINUOUS
 62
     6
100
AcDbLine
 10
313.618792
 20
192.077209
 30
0.0
 11
303.533662
 21
181.992079
 31
0.0
  0
ARC
  5
225
330
1F
100
AcDbEntity
  8
GR1-1
  6
CONTINUOUS
 62
     6
100
AcDbCircle
 10
307.422749
 20
178.102992
 30
0.0
 40
5.5
100
AcDbArc
 50
135.0
 51
315.0
  0
CIRCLE
  5
226
330
1F
100
AcDbEntity
  8
GR1-1
  6
CONTINUOUS
 62
     6
100
AcDbCircle
 10
282.187573
 20
152.867816
 30
0.0
 40
14.25
  0
CIRCLE
  5
227
330
1F
100
AcDbEntity
  8
GR1-1
  6
CONTINUOUS
 62
     3
100
AcDbCircle
 10
282.187573
 20
152.867816
 30
0.0
 40
13.5
  0
ARC
  5
228
330
1F
100
AcDbEntity
  8
GR1-1
  6
CONTINUOUS
 62
     6
100
AcDbCircle
 10
307.422749
 20
127.63264
 30
0.0
 40
5.5
100
AcDbArc
 50
45.0
 51
225.0
  0
LINE
  5
229
330
1F
100
AcDbEntity
  8
GR1-1
  6
CONTINUOUS
 62
     6
100
AcDbLine
 10
303.533662
 20
123.743553
 30
0.0
 11
313.618792
 21
113.658423
 31
0.0
  0
ARC
  5
22A
330
1F
100
AcDbEntity
  8
GR1-1
  6
CONTINUOUS
 62
     6
100
AcDbCircle
 10
317.507879
 20
117.54751
 30
0.0
 40
5.5
100
AcDbArc
 50
-135.0
 51
45.0
  0
LINE
  5
22B
330
1F
100
AcDbEntity
  8
GR1-1
  6
CONTINUOUS
 62
     6
100
AcDbLine
 10
321.396967
 20
121.436597
 30
0.0
 11
311.311836
 21
131.521728
 31
0.0
  0
ARC
  5
22C
330
1F
100
AcDbEntity
  8
GR1-1
  6
CONTINUOUS
 62
     6
100
AcDbCircle
 10
282.187573
 20
117.179888
 30
0.0
 40
5.5
100
AcDbArc
 50
0.0
 51
180.0
  0
LINE
  5
22D
330
1F
100
AcDbEntity
  8
GR1-1
  6
CONTINUOUS
 62
     6
100
AcDbLine
 10
276.687573
 20
117.179888
 30
0.0
 11
276.687573
 21
102.91736
 31
0.0
  0
ARC
  5
22E
330
1F
100
AcDbEntity
  8
GR1-1
  6
CONTINUOUS
 62
     6
100
AcDbCircle
 10
282.187573
 20
102.91736
 30
0.0
 40
5.5
100
AcDbArc
 50
180.0
 51
360.0
  0
LINE
  5
22F
330
1F
100
AcDbEntity
  8
GR1-1
  6
CONTINUOUS
 62
     6
100
AcDbLine
 10
287.687573
 20
102.91736
 30
0.0
 11
287.687573
 21
117.179888
 31
0.0
  0
ARC
  5
230
330
1F
100
AcDbEntity
  8
GR1-1
  6
CONTINUOUS
 62
     6
100
AcDbCircle
 10
256.952398
 20
127.63264
 30
0.0
 40
5.5
100
AcDbArc
 50
-45.0
 51
135.0
  0
LINE
  5
231
330
1F
100
AcDbEntity
  8
GR1-1
  6
CONTINUOUS
 62
     6
100
AcDbLine
 10
253.06331
 20
131.521728
 30
0.0
 11
242.97818
 21
121.436597
 31
0.0
  0
ARC
  5
232
330
1F
100
AcDbEntity
  8
GR1-1
  6
CONTINUOUS
 62
     6
100
AcDbCircle
 10
246.867267
 20
117.54751
 30
0.0
 40
5.5
100
AcDbArc
 50
135.0
 51
315.0
  0
LINE
  5
233
330
1F
100
AcDbEntity
  8
GR1-1
  6
CONTINUOUS
 62
     6
100
AcDbLine
 10
250.756355
 20
113.658423
 30
0.0
 11
260.841485
 21
123.743553
 31
0.0
  0
ARC
  5
234
330
1F
100
AcDbEntity
  8
GR1-1
  6
CONTINUOUS
 62
     6
100
AcDbCircle
 10
246.499646
 20
152.867816
 30
0.0
 40
5.5
100
AcDbArc
 50
-90.0
 51
90.0
  0
LINE
  5
235
330
1F
100
AcDbEntity
  8
GR1-1
  6
CONTINUOUS
 62
     6
100
AcDbLine
 10
246.499646
 20
158.367816
 30
0.0
 11
232.237118
 21
158.367816
 31
0.0
  0
ARC
  5
236
330
1F
100
AcDbEntity
  8
GR1-1
  6
CONTINUOUS
 62
     6
100
AcDbCircle
 10
232.237118
 20
152.867816
 30
0.0
 40
5.5
100
AcDbArc
 50
90.0
 51
270.0
  0
LINE
  5
237
330
1F
100
AcDbEntity
  8
GR1-1
  6
CONTINUOUS
 62
     6
100
AcDbLine
 10
232.237118
 20
147.367816
 30
0.0
 11
246.499646
 21
147.367816
 31
0.0
  0
LINE
  5
238
330
1F
100
AcDbEntity
  8
GR1-1
  6
CONTINUOUS
 62
     6
100
AcDbLine
 10
253.06331
 20
174.213904
 30
0.0
 11
242.97818
 21
184.299035
 31
0.0
  0
ARC
  5
239
330
1F
100
AcDbEntity
  8
GR1-1
  6
CONTINUOUS
 62
     6
100
AcDbCircle
 10
246.867267
 20
188.188122
 30
0.0
 40
5.5
100
AcDbArc
 50
45.0
 51
225.0
  0
LINE
  5
23A
330
1F
100
AcDbEntity
  8
GR1-1
  6
CONTINUOUS
 62
     6
100
AcDbLine
 10
250.756355
 20
192.077209
 30
0.0
 11
260.841485
 21
181.992079
 31
0.0
  0
ARC
  5
23B
330
1F
100
AcDbEntity
  8
GR1-1
  6
CONTINUOUS
 62
     6
100
AcDbCircle
 10
256.952398
 20
178.102992
 30
0.0
 40
5.5
100
AcDbArc
 50
-135.0
 51
45.0
  0
LINE
  5
23C
330
1F
100
AcDbEntity
  8
GR1-1
  6
CONTINUOUS
 62
     6
100
AcDbLine
 10
276.687573
 20
188.555744
 30
0.0
 11
276.687573
 21
202.818272
 31
0.0
  0
LINE
  5
23D
330
1F
100
AcDbEntity
  8
GR1-1
  6
CONTINUOUS
 62
     6
100
AcDbLine
 10
287.687573
 20
202.818272
 30
0.0
 11
287.687573
 21
188.555744
 31
0.0
  0
ARC
  5
23E
330
1F
100
AcDbEntity
  8
GR1-1
  6
CONTINUOUS
 62
     6
100
AcDbCircle
 10
282.187573
 20
188.555744
 30
0.0
 40
5.5
100
AcDbArc
 50
180.0
 51
360.0
  0
ARC
  5
23F
330
1F
100
AcDbEntity
  8
GR1-1
  6
CONTINUOUS
 62
     6
100
AcDbCircle
 10
282.187573
 20
202.818272
 30
0.0
 40
5.5
100
AcDbArc
 50
0.0
 51
180.0
  0
LINE
  5
240
330
1F
100
AcDbEntity
  8
GR1-1
  6
CENTER
 62
     6
100
AcDbLine
 10
321.822082
 20
113.233308
 30
0.0
 11
302.240068
 21
132.815321
 31
0.0
  0
LINE
  5
241
330
1F
100
AcDbEntity
  8
GR1-1
  6
CENTER
 62
     6
100
AcDbLine
 10
242.32614
 20
113.006382
 30
0.0
 11
261.731739
 21
132.411981
 31
0.0
  0
LINE
  5
242
330
1F
100
AcDbEntity
  8
GR1-1
  6
CENTER
 62
     6
100
AcDbLine
 10
282.187573
 20
245.749853
 30
0.0
 11
282.187573
 21
59.229901
 31
0.0
  0
INSERT
  5
246
330
1F
100
AcDbEntity
  8
0
100
AcDbBlockReference
  2
BLKF032
 10
0.0
 20
0.0
 30
0.0
  0
INSERT
  5
257
330
1F
100
AcDbEntity
  8
0
100
AcDbBlockReference
  2
BLKF033
 10
0.0
 20
0.0
 30
0.0
  0
INSERT
  5
269
330
1F
100
AcDbEntity
  8
0
100
AcDbBlockReference
  2
BLKF034
 10
0.0
 20
0.0
 30
0.0
  0
INSERT
  5
274
330
1F
100
AcDbEntity
  8
0
100
AcDbBlockReference
  2
BLKF035
 10
0.0
 20
0.0
 30
0.0
  0
INSERT
  5
28B
330
1F
100
AcDbEntity
  8
0
100
AcDbBlockReference
  2
BLKF036
 10
0.0
 20
0.0
 30
0.0
  0
LINE
  5
2AC
330
1F
100
AcDbEntity
  8
GR1-1
  6
CONTINUOUS
 62
     3
100
AcDbLine
 10
91.487573
 20
77.367816
 30
0.0
 11
89.687573
 21
77.367816
 31
0.0
  0
LINE
  5
2AD
330
1F
100
AcDbEntity
  8
GR1-1
  6
CONTINUOUS
 62
     3
100
AcDbLine
 10
89.687573
 20
77.367816
 30
0.0
 11
89.687573
 21
127.717816
 31
0.0
  0
ARC
  5
2AE
330
1F
100
AcDbEntity
  8
GR1-1
  6
CONTINUOUS
 62
     3
100
AcDbCircle
 10
93.487573
 20
78.867816
 30
0.0
 40
3.8
100
AcDbArc
 50
90.0
 51
180.0
  0
LINE
  5
2AF
330
1F
100
AcDbEntity
  8
GR1-1
  6
CONTINUOUS
 62
     3
100
AcDbLine
 10
93.487573
 20
82.667816
 30
0.0
 11
109.387573
 21
82.667816
 31
0.0
  0
ARC
  5
2B0
330
1F
100
AcDbEntity
  8
GR1-1
  6
CONTINUOUS
 62
     3
100
AcDbCircle
 10
109.387573
 20
83.667816
 30
0.0
 40
1.0
100
AcDbArc
 50
270.0
 51
360.0
  0
LINE
  5
2B1
330
1F
100
AcDbEntity
  8
GR1-1
  6
CONTINUOUS
 62
     3
100
AcDbLine
 10
110.387573
 20
83.667816
 30
0.0
 11
110.387573
 21
90.867816
 31
0.0
  0
LINE
  5
2B2
330
1F
100
AcDbEntity
  8
GR1-1
  6
CONTINUOUS
 62
     3
100
AcDbLine
 10
110.387573
 20
90.867816
 30
0.0
 11
107.917053
 21
97.41736
 31
0.0
  0
ARC
  5
2B3
330
1F
100
AcDbEntity
  8
GR1-1
  6
CONTINUOUS
 62
     3
100
AcDbCircle
 10
110.726821
 20
102.718794
 30
0.0
 40
6.0
100
AcDbArc
 50
200.66672
 51
242.076343
  0
LINE
  5
2B4
330
1F
100
AcDbEntity
  8
GR1-1
  6
CONTINUOUS
 62
     3
100
AcDbLine
 10
105.112926
 20
100.601206
 30
0.0
 11
98.385084
 21
118.437249
 31
0.0
  0
ARC
  5
2B5
330
1F
100
AcDbEntity
  8
GR1-1
  6
CONTINUOUS
 62
     3
100
AcDbCircle
 10
103.998979
 20
120.554837
 30
0.0
 40
6.0
100
AcDbArc
 50
159.257098
 51
200.66672
  0
LINE
  5
2B6
330
1F
100
AcDbEntity
  8
GR1-1
  6
CONTINUOUS
 62
     3
100
AcDbLine
 10
98.387904
 20
122.679888
 30
0.0
 11
96.731651
 21
127.070748
 31
0.0
  0
LINE
  5
2B7
330
1F
100
AcDbEntity
  8
GR1-1
  6
CONTINUOUS
 62
     3
100
AcDbLine
 10
95.796002
 20
127.717816
 30
0.0
 11
88.687573
 21
127.717816
 31
0.0
  0
LINE
  5
2B8
330
1F
100
AcDbEntity
  8
GR1-1
  6
CONTINUOUS
 62
     3
100
AcDbLine
 10
88.687573
 20
127.717816
 30
0.0
 11
88.687573
 21
129.517816
 31
0.0
  0
LINE
  5
2B9
330
1F
100
AcDbEntity
  8
GR1-1
  6
CONTINUOUS
 62
     3
100
AcDbLine
 10
88.687573
 20
129.517816
 30
0.0
 11
95.796002
 21
129.517816
 31
0.0
  0
ARC
  5
2BA
330
1F
100
AcDbEntity
  8
GR1-1
  6
CONTINUOUS
 62
     3
100
AcDbCircle
 10
95.796002
 20
126.717816
 30
0.0
 40
2.8
100
AcDbArc
 50
20.66672
 51
90.0
  0
LINE
  5
2BB
330
1F
100
AcDbEntity
  8
GR1-1
  6
CONTINUOUS
 62
     3
100
AcDbLine
 10
98.415819
 20
127.706024
 30
0.0
 11
100.045643
 21
123.385232
 31
0.0
  0
ARC
  5
2BC
330
1F
100
AcDbEntity
  8
GR1-1
  6
CONTINUOUS
 62
     3
100
AcDbCircle
 10
98.174345
 20
122.679369
 30
0.0
 40
2.0
100
AcDbArc
 50
-20.039414
 51
20.66672
  0
ARC
  5
2BD
330
1F
100
AcDbEntity
  8
GR1-1
  6
CONTINUOUS
 62
     3
100
AcDbCircle
 10
103.998979
 20
120.554837
 30
0.0
 40
4.199999999999999
100
AcDbArc
 50
159.257098
 51
200.66672
  0
LINE
  5
2BE
330
1F
100
AcDbEntity
  8
GR1-1
  6
CONTINUOUS
 62
     3
100
AcDbLine
 10
100.069252
 20
119.072525
 30
0.0
 11
106.797095
 21
101.236482
 31
0.0
  0
ARC
  5
2BF
330
1F
100
AcDbEntity
  8
GR1-1
  6
CONTINUOUS
 62
     3
100
AcDbCircle
 10
107.756353
 20
97.276707
 30
0.0
 40
2.0
100
AcDbArc
 50
20.66672
 51
61.372855
  0
LINE
  5
2C0
330
1F
100
AcDbEntity
  8
GR1-1
  6
CONTINUOUS
 62
     3
100
AcDbLine
 10
109.627652
 20
97.98257
 30
0.0
 11
111.93017
 21
91.878411
 31
0.0
  0
ARC
  5
2C1
330
1F
100
AcDbEntity
  8
GR1-1
  6
CONTINUOUS
 62
     3
100
AcDbCircle
 10
108.187573
 20
90.466685
 30
0.0
 40
4.0
100
AcDbArc
 50
0.0
 51
20.66672
  0
ARC
  5
2C2
330
1F
100
AcDbEntity
  8
GR1-1
  6
CONTINUOUS
 62
     3
100
AcDbCircle
 10
109.387573
 20
83.667816
 30
0.0
 40
2.8
100
AcDbArc
 50
270.0
 51
360.0
  0
LINE
  5
2C3
330
1F
100
AcDbEntity
  8
GR1-1
  6
CONTINUOUS
 62
     3
100
AcDbLine
 10
109.387573
 20
80.867816
 30
0.0
 11
93.487573
 21
80.867816
 31
0.0
  0
ARC
  5
2C4
330
1F
100
AcDbEntity
  8
GR1-1
  6
CONTINUOUS
 62
     3
100
AcDbCircle
 10
93.487573
 20
78.867816
 30
0.0
 40
2.0
100
AcDbArc
 50
90.0
 51
180.0
  0
LINE
  5
2C5
330
1F
100
AcDbEntity
  8
GR1-1
  6
CONTINUOUS
 62
     3
100
AcDbLine
 10
91.487573
 20
78.867816
 30
0.0
 11
91.487573
 21
77.367816
 31
0.0
  0
ARC
  5
2C6
330
1F
100
AcDbEntity
  8
GR1-1
  6
CONTINUOUS
 62
     3
100
AcDbCircle
 10
110.726821
 20
102.718794
 30
0.0
 40
4.199999999999999
100
AcDbArc
 50
200.66672
 51
241.372855
  0
LINE
  5
2C7
330
1F
100
AcDbEntity
  8
GR1-1
  6
CONTINUOUS
 62
     3
100
AcDbLine
 10
85.187573
 20
142.867816
 30
0.0
 11
84.687573
 21
142.367816
 31
0.0
  0
LINE
  5
2C8
330
1F
100
AcDbEntity
  8
GR1-1
  6
CONTINUOUS
 62
     3
100
AcDbLine
 10
84.687573
 20
139.667816
 30
0.0
 11
84.687573
 21
166.067816
 31
0.0
  0
LINE
  5
2C9
330
1F
100
AcDbEntity
  8
GR1-1
  6
CONTINUOUS
 62
     3
100
AcDbLine
 10
84.687573
 20
139.667816
 30
0.0
 11
84.987573
 21
139.367816
 31
0.0
  0
LINE
  5
2CA
330
1F
100
AcDbEntity
  8
GR1-1
  6
CONTINUOUS
 62
     3
100
AcDbLine
 10
84.987573
 20
139.367816
 30
0.0
 11
91.626613
 21
139.367816
 31
0.0
  0
CIRCLE
  5
2CB
330
1F
100
AcDbEntity
  8
GR1-1
  6
CONTINUOUS
 62
     3
100
AcDbCircle
 10
94.112573
 20
137.392816
 30
0.0
 40
3.175
  0
ARC
  5
2CC
330
1F
100
AcDbEntity
  8
GR1-1
  6
CONTINUOUS
 62
     3
100
AcDbCircle
 10
88.437994
 20
136.887398
 30
0.0
 40
1.087780806115128
100
AcDbArc
 50
45.176961
 51
178.891337
  0
LINE
  5
2CD
330
1F
100
AcDbEntity
  8
GR1-1
  6
CONTINUOUS
 62
     3
100
AcDbLine
 10
87.287573
 20
138.617816
 30
0.0
 11
86.387573
 21
138.617816
 31
0.0
  0
LINE
  5
2CE
330
1F
100
AcDbEntity
  8
GR1-1
  6
CONTINUOUS
 62
     3
100
AcDbLine
 10
86.387573
 20
138.617816
 30
0.0
 11
86.387573
 21
128.117816
 31
0.0
  0
LINE
  5
2CF
330
1F
100
AcDbEntity
  8
GR1-1
  6
CONTINUOUS
 62
     3
100
AcDbLine
 10
87.287573
 20
128.517816
 30
0.0
 11
87.287573
 21
138.617816
 31
0.0
  0
LINE
  5
2D0
330
1F
100
AcDbEntity
  8
GR1-1
  6
CONTINUOUS
 62
     3
100
AcDbLine
 10
85.187573
 20
142.867816
 30
0.0
 11
101.187573
 21
142.867816
 31
0.0
  0
LINE
  5
2D1
330
1F
100
AcDbEntity
  8
GR1-1
  6
CONTINUOUS
 62
     3
100
AcDbLine
 10
101.187573
 20
142.867816
 30
0.0
 11
101.687573
 21
142.367816
 31
0.0
  0
LINE
  5
2D2
330
1F
100
AcDbEntity
  8
GR1-1
  6
CONTINUOUS
 62
     3
100
AcDbLine
 10
101.687573
 20
140.667816
 30
0.0
 11
101.687573
 21
165.067816
 31
0.0
  0
LINE
  5
2D3
330
1F
100
AcDbEntity
  8
GR1-1
  6
CONTINUOUS
 62
     3
100
AcDbLine
 10
101.687573
 20
140.667816
 30
0.0
 11
101.187573
 21
140.167816
 31
0.0
  0
LINE
  5
2D4
330
1F
100
AcDbEntity
  8
GR1-1
  6
CONTINUOUS
 62
     3
100
AcDbLine
 10
101.187573
 20
140.167816
 30
0.0
 11
99.887573
 21
140.167816
 31
0.0
  0
LINE
  5
2D5
330
1F
100
AcDbEntity
  8
GR1-1
  6
CONTINUOUS
 62
     3
100
AcDbLine
 10
99.887573
 20
140.167816
 30
0.0
 11
99.887573
 21
139.367816
 31
0.0
  0
LINE
  5
2D6
330
1F
100
AcDbEntity
  8
GR1-1
  6
CONTINUOUS
 62
     3
100
AcDbLine
 10
99.887573
 20
139.367816
 30
0.0
 11
96.598534
 21
139.367816
 31
0.0
  0
LINE
  5
2D7
330
1F
100
AcDbEntity
  8
GR1-1
  6
CONTINUOUS
 62
     3
100
AcDbLine
 10
97.287573
 20
138.567816
 30
0.0
 11
97.587573
 21
138.867816
 31
0.0
  0
LINE
  5
2D8
330
1F
100
AcDbEntity
  8
GR1-1
  6
CONTINUOUS
 62
     3
100
AcDbLine
 10
97.587573
 20
138.867816
 30
0.0
 11
98.987573
 21
138.867816
 31
0.0
  0
LINE
  5
2D9
330
1F
100
AcDbEntity
  8
GR1-1
  6
CONTINUOUS
 62
     3
100
AcDbLine
 10
98.987573
 20
138.867816
 30
0.0
 11
99.287573
 21
138.567816
 31
0.0
  0
LINE
  5
2DA
330
1F
100
AcDbEntity
  8
GR1-1
  6
CONTINUOUS
 62
     3
100
AcDbLine
 10
99.287573
 20
138.567816
 30
0.0
 11
99.287573
 21
131.267816
 31
0.0
  0
ARC
  5
2DB
330
1F
100
AcDbEntity
  8
GR1-1
  6
CONTINUOUS
 62
     3
100
AcDbCircle
 10
98.287573
 20
131.267816
 30
0.0
 40
1.0
100
AcDbArc
 50
270.0
 51
360.0
  0
LINE
  5
2DC
330
1F
100
AcDbEntity
  8
GR1-1
  6
CONTINUOUS
 62
     3
100
AcDbLine
 10
98.287573
 20
130.267816
 30
0.0
 11
87.287573
 21
130.267816
 31
0.0
  0
ARC
  5
2DD
330
1F
100
AcDbEntity
  8
GR1-1
  6
CONTINUOUS
 62
     3
100
AcDbCircle
 10
88.687573
 20
128.867816
 30
0.0
 40
1.4
100
AcDbArc
 50
90.0
 51
180.0
  0
LINE
  5
2DE
330
1F
100
AcDbEntity
  8
GR1-1
  6
CONTINUOUS
 62
     3
100
AcDbLine
 10
89.187573
 20
129.367816
 30
0.0
 11
98.187573
 21
129.367816
 31
0.0
  0
LINE
  5
2DF
330
1F
100
AcDbEntity
  8
GR1-1
  6
CONTINUOUS
 62
     3
100
AcDbLine
 10
97.587573
 20
130.267816
 30
0.0
 11
97.287573
 21
130.567816
 31
0.0
  0
LINE
  5
2E0
330
1F
100
AcDbEntity
  8
GR1-1
  6
CONTINUOUS
 62
     3
100
AcDbLine
 10
97.287573
 20
130.567816
 30
0.0
 11
97.287573
 21
138.567816
 31
0.0
  0
ARC
  5
2E1
330
1F
100
AcDbEntity
  8
GR1-1
  6
CONTINUOUS
 62
     3
100
AcDbCircle
 10
95.287573
 20
132.267816
 30
0.0
 40
2.0
100
AcDbArc
 50
-90.0
 51
90.0
  0
LINE
  5
2E2
330
1F
100
AcDbEntity
  8
GR1-1
  6
CONTINUOUS
 62
     3
100
AcDbLine
 10
95.287573
 20
132.267816
 30
0.0
 11
87.287573
 21
132.267816
 31
0.0
  0
ARC
  5
2E3
330
1F
100
AcDbEntity
  8
GR1-1
  6
CONTINUOUS
 62
     3
100
AcDbCircle
 10
89.187573
 20
128.867816
 30
0.0
 40
0.5
100
AcDbArc
 50
90.0
 51
180.0
  0
ARC
  5
2E4
330
1F
100
AcDbEntity
  8
GR1-1
  6
CONTINUOUS
 62
     3
100
AcDbCircle
 10
87.537573
 20
129.190316
 30
0.0
 40
1.572500000000017
100
AcDbArc
 50
223.002869
 51
316.997131
  0
ARC
  5
2E5
330
1F
100
AcDbEntity
  8
GR1-1
  6
CONTINUOUS
 62
     3
100
AcDbCircle
 10
94.467612
 20
139.948032
 30
0.0
 40
7.739092689906714
100
AcDbArc
 50
203.126111
 51
262.928005
  0
ARC
  5
2E6
330
1F
100
AcDbEntity
  8
GR1-1
  6
CONTINUOUS
 62
     3
100
AcDbCircle
 10
94.467612
 20
139.948032
 30
0.0
 40
5.739092689906714
100
AcDbArc
 50
203.506821
 51
278.214131
  0
LINE
  5
2E7
330
1F
100
AcDbEntity
  8
GR1-1
  6
CONTINUOUS
 62
     3
100
AcDbLine
 10
99.287573
 20
133.867816
 30
0.0
 11
100.187573
 21
133.867816
 31
0.0
  0
LINE
  5
2E8
330
1F
100
AcDbEntity
  8
GR1-1
  6
CONTINUOUS
 62
     3
100
AcDbLine
 10
100.187573
 20
133.867816
 30
0.0
 11
100.187573
 21
131.367816
 31
0.0
  0
ARC
  5
2E9
330
1F
100
AcDbEntity
  8
GR1-1
  6
CONTINUOUS
 62
     3
100
AcDbCircle
 10
98.187573
 20
131.367816
 30
0.0
 40
2.0
100
AcDbArc
 50
270.0
 51
360.0
  0
ARC
  5
2EA
330
1F
100
AcDbEntity
  8
GR1-1
  6
CONTINUOUS
 62
     3
100
AcDbCircle
 10
95.796002
 20
126.717816
 30
0.0
 40
1.0
100
AcDbArc
 50
20.66672
 51
90.0
  0
LINE
  5
2EB
330
1F
100
AcDbEntity
  8
GR1-1
  6
CONTINUOUS
 62
     6
100
AcDbLine
 10
94.112573
 20
135.58776
 30
0.0
 11
94.112573
 21
139.385342
 31
0.0
  0
LINE
  5
2EC
330
1F
100
AcDbEntity
  8
GR1-1
  6
CONTINUOUS
 62
     6
100
AcDbLine
 10
92.402705
 20
137.392816
 30
0.0
 11
96.069337
 21
137.392816
 31
0.0
  0
LINE
  5
2ED
330
1F
100
AcDbEntity
  8
GR1-1
  6
CONTINUOUS
 62
     6
100
AcDbLine
 10
109.627652
 20
97.98257
 30
0.0
 11
100.045643
 21
123.385232
 31
0.0
  0
LINE
  5
2EE
330
1F
100
AcDbEntity
  8
GR1-1
  6
CONTINUOUS
 62
     3
100
AcDbLine
 10
85.187573
 20
142.867816
 30
0.0
 11
85.187573
 21
162.867816
 31
0.0
  0
LINE
  5
2EF
330
1F
100
AcDbEntity
  8
GR1-1
  6
CONTINUOUS
 62
     3
100
AcDbLine
 10
101.187573
 20
142.867816
 30
0.0
 11
101.187573
 21
162.867816
 31
0.0
  0
LINE
  5
2F0
330
1F
100
AcDbEntity
  8
GR1-1
  6
CONTINUOUS
 62
     6
100
AcDbLine
 10
97.287573
 20
139.367816
 30
0.0
 11
97.287573
 21
138.567816
 31
0.0
  0
LINE
  5
2F1
330
1F
100
AcDbEntity
  8
GR1-1
  6
CONTINUOUS
 62
     6
100
AcDbLine
 10
99.287573
 20
138.567816
 30
0.0
 11
99.287573
 21
139.367816
 31
0.0
  0
LINE
  5
2F2
330
1F
100
AcDbEntity
  8
GR1-1
  6
CONTINUOUS
 62
     6
100
AcDbLine
 10
87.287573
 20
139.367816
 30
0.0
 11
87.287573
 21
138.617816
 31
0.0
  0
LINE
  5
2F3
330
1F
100
AcDbEntity
  8
GR1-1
  6
CONTINUOUS
 62
     6
100
AcDbLine
 10
86.387573
 20
138.617816
 30
0.0
 11
86.387573
 21
139.367816
 31
0.0
  0
INSERT
  5
2F7
330
1F
100
AcDbEntity
  8
0
100
AcDbBlockReference
  2
BLKF037
 10
0.0
 20
0.0
 30
0.0
  0
INSERT
  5
308
330
1F
100
AcDbEntity
  8
0
100
AcDbBlockReference
  2
BLKF038
 10
0.0
 20
0.0
 30
0.0
  0
INSERT
  5
31A
330
1F
100
AcDbEntity
  8
0
100
AcDbBlockReference
  2
BLKF039
 10
0.0
 20
0.0
 30
0.0
  0
INSERT
  5
325
330
1F
100
AcDbEntity
  8
0
100
AcDbBlockReference
  2
BLKF040
 10
0.0
 20
0.0
 30
0.0
  0
INSERT
  5
33C
330
1F
100
AcDbEntity
  8
0
100
AcDbBlockReference
  2
BLKF041
 10
0.0
 20
0.0
 30
0.0
  0
ARC
  5
35D
330
1F
100
AcDbEntity
  8
GR1-1
  6
CONTINUOUS
 62
     3
100
AcDbCircle
 10
118.813058
 20
232.315287
 30
0.0
 40
10.0
100
AcDbArc
 50
25.0
 51
80.465752
  0
LINE
  5
35E
330
1F
100
AcDbEntity
  8
GR1-1
  6
CONTINUOUS
 62
     3
100
AcDbLine
 10
127.876136
 20
236.541469
 30
0.0
 11
131.149751
 21
229.521181
 31
0.0
  0
LINE
  5
35F
330
1F
100
AcDbEntity
  8
GR1-1
  6
CONTINUOUS
 62
     3
100
AcDbLine
 10
132.887573
 20
228.367816
 30
0.0
 11
134.687573
 21
228.367816
 31
0.0
  0
LINE
  5
360
330
1F
100
AcDbEntity
  8
GR1-1
  6
CONTINUOUS
 62
     3
100
AcDbLine
 10
134.687573
 20
228.367816
 30
0.0
 11
134.687573
 21
178.017816
 31
0.0
  0
ARC
  5
361
330
1F
100
AcDbEntity
  8
GR1-1
  6
CONTINUOUS
 62
     3
100
AcDbCircle
 10
130.887573
 20
226.867816
 30
0.0
 40
3.8
100
AcDbArc
 50
-90.0
 51
0.0
  0
LINE
  5
362
330
1F
100
AcDbEntity
  8
GR1-1
  6
CONTINUOUS
 62
     3
100
AcDbLine
 10
130.887573
 20
223.067816
 30
0.0
 11
114.987573
 21
223.067816
 31
0.0
  0
ARC
  5
363
330
1F
100
AcDbEntity
  8
GR1-1
  6
CONTINUOUS
 62
     3
100
AcDbCircle
 10
114.987573
 20
222.067816
 30
0.0
 40
1.0
100
AcDbArc
 50
90.0
 51
180.0
  0
LINE
  5
364
330
1F
100
AcDbEntity
  8
GR1-1
  6
CONTINUOUS
 62
     3
100
AcDbLine
 10
113.987573
 20
222.067816
 30
0.0
 11
113.987573
 21
214.867816
 31
0.0
  0
LINE
  5
365
330
1F
100
AcDbEntity
  8
GR1-1
  6
CONTINUOUS
 62
     3
100
AcDbLine
 10
113.987573
 20
214.867816
 30
0.0
 11
116.458093
 21
208.318272
 31
0.0
  0
ARC
  5
366
330
1F
100
AcDbEntity
  8
GR1-1
  6
CONTINUOUS
 62
     3
100
AcDbCircle
 10
113.648325
 20
203.016838
 30
0.0
 40
6.0
100
AcDbArc
 50
20.66672
 51
62.076343
  0
LINE
  5
367
330
1F
100
AcDbEntity
  8
GR1-1
  6
CONTINUOUS
 62
     3
100
AcDbLine
 10
119.262221
 20
205.134426
 30
0.0
 11
125.990063
 21
187.298384
 31
0.0
  0
ARC
  5
368
330
1F
100
AcDbEntity
  8
GR1-1
  6
CONTINUOUS
 62
     3
100
AcDbCircle
 10
120.376168
 20
185.180795
 30
0.0
 40
6.0
100
AcDbArc
 50
-20.742902
 51
20.66672
  0
LINE
  5
369
330
1F
100
AcDbEntity
  8
GR1-1
  6
CONTINUOUS
 62
     3
100
AcDbLine
 10
125.987242
 20
183.055744
 30
0.0
 11
127.643496
 21
178.664885
 31
0.0
  0
LINE
  5
36A
330
1F
100
AcDbEntity
  8
GR1-1
  6
CONTINUOUS
 62
     3
100
AcDbLine
 10
128.579145
 20
178.017816
 30
0.0
 11
135.687573
 21
178.017816
 31
0.0
  0
LINE
  5
36B
330
1F
100
AcDbEntity
  8
GR1-1
  6
CONTINUOUS
 62
     3
100
AcDbLine
 10
135.687573
 20
178.017816
 30
0.0
 11
135.687573
 21
176.217816
 31
0.0
  0
LINE
  5
36C
330
1F
100
AcDbEntity
  8
GR1-1
  6
CONTINUOUS
 62
     3
100
AcDbLine
 10
135.687573
 20
176.217816
 30
0.0
 11
128.579145
 21
176.217816
 31
0.0
  0
ARC
  5
36D
330
1F
100
AcDbEntity
  8
GR1-1
  6
CONTINUOUS
 62
     3
100
AcDbCircle
 10
128.579145
 20
179.017816
 30
0.0
 40
2.8
100
AcDbArc
 50
200.66672
 51
270.0
  0
LINE
  5
36E
330
1F
100
AcDbEntity
  8
GR1-1
  6
CONTINUOUS
 62
     3
100
AcDbLine
 10
125.959327
 20
178.029608
 30
0.0
 11
124.329504
 21
182.3504
 31
0.0
  0
ARC
  5
36F
330
1F
100
AcDbEntity
  8
GR1-1
  6
CONTINUOUS
 62
     3
100
AcDbCircle
 10
126.200802
 20
183.056263
 30
0.0
 40
2.0
100
AcDbArc
 50
159.960586
 51
200.66672
  0
ARC
  5
370
330
1F
100
AcDbEntity
  8
GR1-1
  6
CONTINUOUS
 62
     3
100
AcDbCircle
 10
120.376168
 20
185.180795
 30
0.0
 40
4.199999999999999
100
AcDbArc
 50
-20.742902
 51
20.66672
  0
LINE
  5
371
330
1F
100
AcDbEntity
  8
GR1-1
  6
CONTINUOUS
 62
     3
100
AcDbLine
 10
124.305894
 20
186.663107
 30
0.0
 11
117.578052
 21
204.49915
 31
0.0
  0
ARC
  5
372
330
1F
100
AcDbEntity
  8
GR1-1
  6
CONTINUOUS
 62
     3
100
AcDbCircle
 10
116.618794
 20
208.458925
 30
0.0
 40
2.0
100
AcDbArc
 50
200.66672
 51
241.372855
  0
LINE
  5
373
330
1F
100
AcDbEntity
  8
GR1-1
  6
CONTINUOUS
 62
     3
100
AcDbLine
 10
114.747495
 20
207.753063
 30
0.0
 11
112.444977
 21
213.857221
 31
0.0
  0
ARC
  5
374
330
1F
100
AcDbEntity
  8
GR1-1
  6
CONTINUOUS
 62
     3
100
AcDbCircle
 10
116.187573
 20
215.268947
 30
0.0
 40
4.0
100
AcDbArc
 50
180.0
 51
200.66672
  0
LINE
  5
375
330
1F
100
AcDbEntity
  8
GR1-1
  6
CONTINUOUS
 62
     3
100
AcDbLine
 10
112.187573
 20
215.268947
 30
0.0
 11
112.187573
 21
222.067816
 31
0.0
  0
ARC
  5
376
330
1F
100
AcDbEntity
  8
GR1-1
  6
CONTINUOUS
 62
     3
100
AcDbCircle
 10
114.987573
 20
222.067816
 30
0.0
 40
2.8
100
AcDbArc
 50
90.0
 51
180.0
  0
LINE
  5
377
330
1F
100
AcDbEntity
  8
GR1-1
  6
CONTINUOUS
 62
     3
100
AcDbLine
 10
114.987573
 20
224.867816
 30
0.0
 11
130.887573
 21
224.867816
 31
0.0
  0
ARC
  5
378
330
1F
100
AcDbEntity
  8
GR1-1
  6
CONTINUOUS
 62
     3
100
AcDbCircle
 10
130.887573
 20
226.867816
 30
0.0
 40
2.0
100
AcDbArc
 50
270.0
 51
360.0
  0
LINE
  5
379
330
1F
100
AcDbEntity
  8
GR1-1
  6
CONTINUOUS
 62
     3
100
AcDbLine
 10
132.887573
 20
226.867816
 30
0.0
 11
132.887573
 21
228.367816
 31
0.0
  0
ARC
  5
37A
330
1F
100
AcDbEntity
  8
GR1-1
  6
CONTINUOUS
 62
     3
100
AcDbCircle
 10
132.962366
 20
230.366417
 30
0.0
 40
2.0
100
AcDbArc
 50
205.0
 51
267.856842
  0
ARC
  5
37B
330
1F
100
AcDbEntity
  8
GR1-1
  6
CONTINUOUS
 62
     3
100
AcDbCircle
 10
113.648325
 20
203.016838
 30
0.0
 40
4.199999999999999
100
AcDbArc
 50
20.66672
 51
61.372855
  0
ARC
  5
37C
330
1F
100
AcDbEntity
  8
GR1-1
  6
CONTINUOUS
 62
     3
100
AcDbCircle
 10
91.412781
 20
230.366417
 30
0.0
 40
2.0
100
AcDbArc
 50
272.143158
 51
335.0
  0
LINE
  5
37D
330
1F
100
AcDbEntity
  8
GR1-1
  6
CONTINUOUS
 62
     3
100
AcDbLine
 10
93.225396
 20
229.521181
 30
0.0
 11
96.499011
 21
236.541469
 31
0.0
  0
ARC
  5
37E
330
1F
100
AcDbEntity
  8
GR1-1
  6
CONTINUOUS
 62
     3
100
AcDbCircle
 10
105.562088
 20
232.315287
 30
0.0
 40
10.0
100
AcDbArc
 50
99.534248
 51
155.0
  0
ARC
  5
37F
330
1F
100
AcDbEntity
  8
GR1-1
  6
CONTINUOUS
 62
     3
100
AcDbCircle
 10
112.187573
 20
192.867816
 30
0.0
 40
50.0
100
AcDbArc
 50
80.465752
 51
99.534248
  0
LINE
  5
380
330
1F
100
AcDbEntity
  8
GR1-1
  6
CONTINUOUS
 62
     3
100
AcDbLine
 10
139.187573
 20
162.867816
 30
0.0
 11
139.687573
 21
163.367816
 31
0.0
  0
LINE
  5
381
330
1F
100
AcDbEntity
  8
GR1-1
  6
CONTINUOUS
 62
     3
100
AcDbLine
 10
139.687573
 20
166.067816
 30
0.0
 11
139.387573
 21
166.367816
 31
0.0
  0
LINE
  5
382
330
1F
100
AcDbEntity
  8
GR1-1
  6
CONTINUOUS
 62
     3
100
AcDbLine
 10
139.387573
 20
166.367816
 30
0.0
 11
132.748534
 21
166.367816
 31
0.0
  0
CIRCLE
  5
383
330
1F
100
AcDbEntity
  8
GR1-1
  6
CONTINUOUS
 62
     3
100
AcDbCircle
 10
130.262573
 20
168.342816
 30
0.0
 40
3.175
  0
ARC
  5
384
330
1F
100
AcDbEntity
  8
GR1-1
  6
CONTINUOUS
 62
     3
100
AcDbCircle
 10
135.937153
 20
168.848234
 30
0.0
 40
1.087780806115128
100
AcDbArc
 50
225.176961
 51
358.891337
  0
LINE
  5
385
330
1F
100
AcDbEntity
  8
GR1-1
  6
CONTINUOUS
 62
     3
100
AcDbLine
 10
137.087573
 20
167.117816
 30
0.0
 11
137.987573
 21
167.117816
 31
0.0
  0
LINE
  5
386
330
1F
100
AcDbEntity
  8
GR1-1
  6
CONTINUOUS
 62
     3
100
AcDbLine
 10
137.987573
 20
167.117816
 30
0.0
 11
137.987573
 21
177.617816
 31
0.0
  0
LINE
  5
387
330
1F
100
AcDbEntity
  8
GR1-1
  6
CONTINUOUS
 62
     3
100
AcDbLine
 10
137.087573
 20
177.217816
 30
0.0
 11
137.087573
 21
167.117816
 31
0.0
  0
LINE
  5
388
330
1F
100
AcDbEntity
  8
GR1-1
  6
CONTINUOUS
 62
     3
100
AcDbLine
 10
139.187573
 20
162.867816
 30
0.0
 11
123.187573
 21
162.867816
 31
0.0
  0
LINE
  5
389
330
1F
100
AcDbEntity
  8
GR1-1
  6
CONTINUOUS
 62
     3
100
AcDbLine
 10
123.187573
 20
162.867816
 30
0.0
 11
122.687573
 21
163.367816
 31
0.0
  0
LINE
  5
38A
330
1F
100
AcDbEntity
  8
GR1-1
  6
CONTINUOUS
 62
     3
100
AcDbLine
 10
122.687573
 20
165.067816
 30
0.0
 11
123.187573
 21
165.567816
 31
0.0
  0
LINE
  5
38B
330
1F
100
AcDbEntity
  8
GR1-1
  6
CONTINUOUS
 62
     3
100
AcDbLine
 10
123.187573
 20
165.567816
 30
0.0
 11
124.487573
 21
165.567816
 31
0.0
  0
LINE
  5
38C
330
1F
100
AcDbEntity
  8
GR1-1
  6
CONTINUOUS
 62
     3
100
AcDbLine
 10
124.487573
 20
165.567816
 30
0.0
 11
124.487573
 21
166.367816
 31
0.0
  0
LINE
  5
38D
330
1F
100
AcDbEntity
  8
GR1-1
  6
CONTINUOUS
 62
     3
100
AcDbLine
 10
124.487573
 20
166.367816
 30
0.0
 11
127.776613
 21
166.367816
 31
0.0
  0
LINE
  5
38E
330
1F
100
AcDbEntity
  8
GR1-1
  6
CONTINUOUS
 62
     3
100
AcDbLine
 10
127.087573
 20
167.167816
 30
0.0
 11
126.787573
 21
166.867816
 31
0.0
  0
LINE
  5
38F
330
1F
100
AcDbEntity
  8
GR1-1
  6
CONTINUOUS
 62
     3
100
AcDbLine
 10
126.787573
 20
166.867816
 30
0.0
 11
125.387573
 21
166.867816
 31
0.0
  0
LINE
  5
390
330
1F
100
AcDbEntity
  8
GR1-1
  6
CONTINUOUS
 62
     3
100
AcDbLine
 10
125.387573
 20
166.867816
 30
0.0
 11
125.087573
 21
167.167816
 31
0.0
  0
LINE
  5
391
330
1F
100
AcDbEntity
  8
GR1-1
  6
CONTINUOUS
 62
     3
100
AcDbLine
 10
125.087573
 20
167.167816
 30
0.0
 11
125.087573
 21
174.467816
 31
0.0
  0
ARC
  5
392
330
1F
100
AcDbEntity
  8
GR1-1
  6
CONTINUOUS
 62
     3
100
AcDbCircle
 10
126.087573
 20
174.467816
 30
0.0
 40
1.0
100
AcDbArc
 50
90.0
 51
180.0
  0
LINE
  5
393
330
1F
100
AcDbEntity
  8
GR1-1
  6
CONTINUOUS
 62
     3
100
AcDbLine
 10
126.087573
 20
175.467816
 30
0.0
 11
137.087573
 21
175.467816
 31
0.0
  0
ARC
  5
394
330
1F
100
AcDbEntity
  8
GR1-1
  6
CONTINUOUS
 62
     3
100
AcDbCircle
 10
135.687573
 20
176.867816
 30
0.0
 40
1.4
100
AcDbArc
 50
270.0
 51
360.0
  0
LINE
  5
395
330
1F
100
AcDbEntity
  8
GR1-1
  6
CONTINUOUS
 62
     3
100
AcDbLine
 10
135.187573
 20
176.367816
 30
0.0
 11
126.187573
 21
176.367816
 31
0.0
  0
LINE
  5
396
330
1F
100
AcDbEntity
  8
GR1-1
  6
CONTINUOUS
 62
     3
100
AcDbLine
 10
126.787573
 20
175.467816
 30
0.0
 11
127.087573
 21
175.167816
 31
0.0
  0
LINE
  5
397
330
1F
100
AcDbEntity
  8
GR1-1
  6
CONTINUOUS
 62
     3
100
AcDbLine
 10
127.087573
 20
175.167816
 30
0.0
 11
127.087573
 21
167.167816
 31
0.0
  0
ARC
  5
398
330
1F
100
AcDbEntity
  8
GR1-1
  6
CONTINUOUS
 62
     3
100
AcDbCircle
 10
129.087573
 20
173.467816
 30
0.0
 40
2.0
100
AcDbArc
 50
90.0
 51
270.0
  0
LINE
  5
399
330
1F
100
AcDbEntity
  8
GR1-1
  6
CONTINUOUS
 62
     3
100
AcDbLine
 10
129.087573
 20
173.467816
 30
0.0
 11
137.087573
 21
173.467816
 31
0.0
  0
ARC
  5
39A
330
1F
100
AcDbEntity
  8
GR1-1
  6
CONTINUOUS
 62
     3
100
AcDbCircle
 10
135.187573
 20
176.867816
 30
0.0
 40
0.5
100
AcDbArc
 50
270.0
 51
360.0
  0
ARC
  5
39B
330
1F
100
AcDbEntity
  8
GR1-1
  6
CONTINUOUS
 62
     3
100
AcDbCircle
 10
136.837573
 20
176.545316
 30
0.0
 40
1.572500000000017
100
AcDbArc
 50
43.002869
 51
136.997131
  0
ARC
  5
39C
330
1F
100
AcDbEntity
  8
GR1-1
  6
CONTINUOUS
 62
     3
100
AcDbCircle
 10
129.907535
 20
165.787601
 30
0.0
 40
7.739092689906714
100
AcDbArc
 50
23.126111
 51
82.928005
  0
ARC
  5
39D
330
1F
100
AcDbEntity
  8
GR1-1
  6
CONTINUOUS
 62
     3
100
AcDbCircle
 10
129.907535
 20
165.787601
 30
0.0
 40
5.739092689906714
100
AcDbArc
 50
23.506821
 51
98.214131
  0
LINE
  5
39E
330
1F
100
AcDbEntity
  8
GR1-1
  6
CONTINUOUS
 62
     3
100
AcDbLine
 10
125.087573
 20
171.867816
 30
0.0
 11
124.187573
 21
171.867816
 31
0.0
  0
LINE
  5
39F
330
1F
100
AcDbEntity
  8
GR1-1
  6
CONTINUOUS
 62
     3
100
AcDbLine
 10
124.187573
 20
171.867816
 30
0.0
 11
124.187573
 21
174.367816
 31
0.0
  0
ARC
  5
3A0
330
1F
100
AcDbEntity
  8
GR1-1
  6
CONTINUOUS
 62
     3
100
AcDbCircle
 10
126.187573
 20
174.367816
 30
0.0
 40
2.0
100
AcDbArc
 50
90.0
 51
180.0
  0
ARC
  5
3A1
330
1F
100
AcDbEntity
  8
GR1-1
  6
CONTINUOUS
 62
     3
100
AcDbCircle
 10
128.579145
 20
179.017816
 30
0.0
 40
1.0
100
AcDbArc
 50
200.66672
 51
270.0
  0
LINE
  5
3A2
330
1F
100
AcDbEntity
  8
GR1-1
  6
CONTINUOUS
 62
     6
100
AcDbLine
 10
130.262573
 20
170.147872
 30
0.0
 11
130.262573
 21
166.35029
 31
0.0
  0
LINE
  5
3A3
330
1F
100
AcDbEntity
  8
GR1-1
  6
CONTINUOUS
 62
     6
100
AcDbLine
 10
131.972441
 20
168.342816
 30
0.0
 11
128.30581
 21
168.342816
 31
0.0
  0
LINE
  5
3A4
330
1F
100
AcDbEntity
  8
GR1-1
  6
CONTINUOUS
 62
     6
100
AcDbLine
 10
114.747495
 20
207.753063
 30
0.0
 11
124.329504
 21
182.3504
 31
0.0
  0
LINE
  5
3A5
330
1F
100
AcDbEntity
  8
GR1-1
  6
CONTINUOUS
 62
     6
100
AcDbLine
 10
127.087573
 20
166.367816
 30
0.0
 11
127.087573
 21
167.167816
 31
0.0
  0
LINE
  5
3A6
330
1F
100
AcDbEntity
  8
GR1-1
  6
CONTINUOUS
 62
     6
100
AcDbLine
 10
125.087573
 20
167.167816
 30
0.0
 11
125.087573
 21
166.367816
 31
0.0
  0
LINE
  5
3A7
330
1F
100
AcDbEntity
  8
GR1-1
  6
CONTINUOUS
 62
     6
100
AcDbLine
 10
137.087573
 20
166.367816
 30
0.0
 11
137.087573
 21
167.117816
 31
0.0
  0
LINE
  5
3A8
330
1F
100
AcDbEntity
  8
GR1-1
  6
CONTINUOUS
 62
     6
100
AcDbLine
 10
137.987573
 20
167.117816
 30
0.0
 11
137.987573
 21
166.367816
 31
0.0
  0
INSERT
  5
3AC
330
1F
100
AcDbEntity
  8
0
100
AcDbBlockReference
  2
BLKF042
 10
0.0
 20
0.0
 30
0.0
  0
INSERT
  5
3BD
330
1F
100
AcDbEntity
  8
0
100
AcDbBlockReference
  2
BLKF043
 10
0.0
 20
0.0
 30
0.0
  0
INSERT
  5
3CF
330
1F
100
AcDbEntity
  8
0
100
AcDbBlockReference
  2
BLKF044
 10
0.0
 20
0.0
 30
0.0
  0
INSERT
  5
3DA
330
1F
100
AcDbEntity
  8
0
100
AcDbBlockReference
  2
BLKF045
 10
0.0
 20
0.0
 30
0.0
  0
INSERT
  5
3F1
330
1F
100
AcDbEntity
  8
0
100
AcDbBlockReference
  2
BLKF046
 10
0.0
 20
0.0
 30
0.0
  0
LINE
  5
412
330
1F
100
AcDbEntity
  8
GR1-1
  6
CONTINUOUS
 62
     3
100
AcDbLine
 10
91.487573
 20
228.367816
 30
0.0
 11
89.687573
 21
228.367816
 31
0.0
  0
LINE
  5
413
330
1F
100
AcDbEntity
  8
GR1-1
  6
CONTINUOUS
 62
     3
100
AcDbLine
 10
89.687573
 20
228.367816
 30
0.0
 11
89.687573
 21
178.017816
 31
0.0
  0
ARC
  5
414
330
1F
100
AcDbEntity
  8
GR1-1
  6
CONTINUOUS
 62
     3
100
AcDbCircle
 10
93.487573
 20
226.867816
 30
0.0
 40
3.8
100
AcDbArc
 50
180.0
 51
270.0
  0
LINE
  5
415
330
1F
100
AcDbEntity
  8
GR1-1
  6
CONTINUOUS
 62
     3
100
AcDbLine
 10
93.487573
 20
223.067816
 30
0.0
 11
109.387573
 21
223.067816
 31
0.0
  0
ARC
  5
416
330
1F
100
AcDbEntity
  8
GR1-1
  6
CONTINUOUS
 62
     3
100
AcDbCircle
 10
109.387573
 20
222.067816
 30
0.0
 40
1.0
100
AcDbArc
 50
0.0
 51
90.0
  0
LINE
  5
417
330
1F
100
AcDbEntity
  8
GR1-1
  6
CONTINUOUS
 62
     3
100
AcDbLine
 10
110.387573
 20
222.067816
 30
0.0
 11
110.387573
 21
214.867816
 31
0.0
  0
LINE
  5
418
330
1F
100
AcDbEntity
  8
GR1-1
  6
CONTINUOUS
 62
     3
100
AcDbLine
 10
110.387573
 20
214.867816
 30
0.0
 11
107.917053
 21
208.318272
 31
0.0
  0
ARC
  5
419
330
1F
100
AcDbEntity
  8
GR1-1
  6
CONTINUOUS
 62
     3
100
AcDbCircle
 10
110.726821
 20
203.016838
 30
0.0
 40
6.0
100
AcDbArc
 50
117.923657
 51
159.33328
  0
LINE
  5
41A
330
1F
100
AcDbEntity
  8
GR1-1
  6
CONTINUOUS
 62
     3
100
AcDbLine
 10
105.112926
 20
205.134426
 30
0.0
 11
98.385084
 21
187.298384
 31
0.0
  0
ARC
  5
41B
330
1F
100
AcDbEntity
  8
GR1-1
  6
CONTINUOUS
 62
     3
100
AcDbCircle
 10
103.998979
 20
185.180795
 30
0.0
 40
6.0
100
AcDbArc
 50
159.33328
 51
200.742902
  0
LINE
  5
41C
330
1F
100
AcDbEntity
  8
GR1-1
  6
CONTINUOUS
 62
     3
100
AcDbLine
 10
98.387904
 20
183.055744
 30
0.0
 11
96.731651
 21
178.664885
 31
0.0
  0
LINE
  5
41D
330
1F
100
AcDbEntity
  8
GR1-1
  6
CONTINUOUS
 62
     3
100
AcDbLine
 10
95.796002
 20
178.017816
 30
0.0
 11
88.687573
 21
178.017816
 31
0.0
  0
LINE
  5
41E
330
1F
100
AcDbEntity
  8
GR1-1
  6
CONTINUOUS
 62
     3
100
AcDbLine
 10
88.687573
 20
178.017816
 30
0.0
 11
88.687573
 21
176.217816
 31
0.0
  0
LINE
  5
41F
330
1F
100
AcDbEntity
  8
GR1-1
  6
CONTINUOUS
 62
     3
100
AcDbLine
 10
88.687573
 20
176.217816
 30
0.0
 11
95.796002
 21
176.217816
 31
0.0
  0
ARC
  5
420
330
1F
100
AcDbEntity
  8
GR1-1
  6
CONTINUOUS
 62
     3
100
AcDbCircle
 10
95.796002
 20
179.017816
 30
0.0
 40
2.8
100
AcDbArc
 50
270.0
 51
339.33328
  0
LINE
  5
421
330
1F
100
AcDbEntity
  8
GR1-1
  6
CONTINUOUS
 62
     3
100
AcDbLine
 10
98.415819
 20
178.029608
 30
0.0
 11
100.045643
 21
182.3504
 31
0.0
  0
ARC
  5
422
330
1F
100
AcDbEntity
  8
GR1-1
  6
CONTINUOUS
 62
     3
100
AcDbCircle
 10
98.174345
 20
183.056263
 30
0.0
 40
2.0
100
AcDbArc
 50
-20.66672
 51
20.039414
  0
ARC
  5
423
330
1F
100
AcDbEntity
  8
GR1-1
  6
CONTINUOUS
 62
     3
100
AcDbCircle
 10
103.998979
 20
185.180795
 30
0.0
 40
4.199999999999999
100
AcDbArc
 50
159.33328
 51
200.742902
  0
LINE
  5
424
330
1F
100
AcDbEntity
  8
GR1-1
  6
CONTINUOUS
 62
     3
100
AcDbLine
 10
100.069252
 20
186.663107
 30
0.0
 11
106.797095
 21
204.49915
 31
0.0
  0
ARC
  5
425
330
1F
100
AcDbEntity
  8
GR1-1
  6
CONTINUOUS
 62
     3
100
AcDbCircle
 10
107.756353
 20
208.458925
 30
0.0
 40
2.0
100
AcDbArc
 50
298.627145
 51
339.33328
  0
LINE
  5
426
330
1F
100
AcDbEntity
  8
GR1-1
  6
CONTINUOUS
 62
     3
100
AcDbLine
 10
109.627652
 20
207.753063
 30
0.0
 11
111.93017
 21
213.857221
 31
0.0
  0
ARC
  5
427
330
1F
100
AcDbEntity
  8
GR1-1
  6
CONTINUOUS
 62
     3
100
AcDbCircle
 10
108.187573
 20
215.268947
 30
0.0
 40
4.0
100
AcDbArc
 50
339.33328
 51
360.0
  0
ARC
  5
428
330
1F
100
AcDbEntity
  8
GR1-1
  6
CONTINUOUS
 62
     3
100
AcDbCircle
 10
109.387573
 20
222.067816
 30
0.0
 40
2.8
100
AcDbArc
 50
0.0
 51
90.0
  0
LINE
  5
429
330
1F
100
AcDbEntity
  8
GR1-1
  6
CONTINUOUS
 62
     3
100
AcDbLine
 10
109.387573
 20
224.867816
 30
0.0
 11
93.487573
 21
224.867816
 31
0.0
  0
ARC
  5
42A
330
1F
100
AcDbEntity
  8
GR1-1
  6
CONTINUOUS
 62
     3
100
AcDbCircle
 10
93.487573
 20
226.867816
 30
0.0
 40
2.0
100
AcDbArc
 50
180.0
 51
270.0
  0
LINE
  5
42B
330
1F
100
AcDbEntity
  8
GR1-1
  6
CONTINUOUS
 62
     3
100
AcDbLine
 10
91.487573
 20
226.867816
 30
0.0
 11
91.487573
 21
228.367816
 31
0.0
  0
ARC
  5
42C
330
1F
100
AcDbEntity
  8
GR1-1
  6
CONTINUOUS
 62
     3
100
AcDbCircle
 10
110.726821
 20
203.016838
 30
0.0
 40
4.199999999999999
100
AcDbArc
 50
118.627145
 51
159.33328
  0
LINE
  5
42D
330
1F
100
AcDbEntity
  8
GR1-1
  6
CONTINUOUS
 62
     3
100
AcDbLine
 10
85.187573
 20
162.867816
 30
0.0
 11
84.687573
 21
163.367816
 31
0.0
  0
LINE
  5
42E
330
1F
100
AcDbEntity
  8
GR1-1
  6
CONTINUOUS
 62
     3
100
AcDbLine
 10
84.687573
 20
166.067816
 30
0.0
 11
84.987573
 21
166.367816
 31
0.0
  0
LINE
  5
42F
330
1F
100
AcDbEntity
  8
GR1-1
  6
CONTINUOUS
 62
     3
100
AcDbLine
 10
84.987573
 20
166.367816
 30
0.0
 11
91.626613
 21
166.367816
 31
0.0
  0
CIRCLE
  5
430
330
1F
100
AcDbEntity
  8
GR1-1
  6
CONTINUOUS
 62
     3
100
AcDbCircle
 10
94.112573
 20
168.342816
 30
0.0
 40
3.175
  0
ARC
  5
431
330
1F
100
AcDbEntity
  8
GR1-1
  6
CONTINUOUS
 62
     3
100
AcDbCircle
 10
88.437994
 20
168.848234
 30
0.0
 40
1.087780806115128
100
AcDbArc
 50
181.108663
 51
314.823039
  0
LINE
  5
432
330
1F
100
AcDbEntity
  8
GR1-1
  6
CONTINUOUS
 62
     3
100
AcDbLine
 10
87.287573
 20
167.117816
 30
0.0
 11
86.387573
 21
167.117816
 31
0.0
  0
LINE
  5
433
330
1F
100
AcDbEntity
  8
GR1-1
  6
CONTINUOUS
 62
     3
100
AcDbLine
 10
86.387573
 20
167.117816
 30
0.0
 11
86.387573
 21
177.617816
 31
0.0
  0
LINE
  5
434
330
1F
100
AcDbEntity
  8
GR1-1
  6
CONTINUOUS
 62
     3
100
AcDbLine
 10
87.287573
 20
177.217816
 30
0.0
 11
87.287573
 21
167.117816
 31
0.0
  0
LINE
  5
435
330
1F
100
AcDbEntity
  8
GR1-1
  6
CONTINUOUS
 62
     3
100
AcDbLine
 10
85.187573
 20
162.867816
 30
0.0
 11
101.187573
 21
162.867816
 31
0.0
  0
LINE
  5
436
330
1F
100
AcDbEntity
  8
GR1-1
  6
CONTINUOUS
 62
     3
100
AcDbLine
 10
101.187573
 20
162.867816
 30
0.0
 11
101.687573
 21
163.367816
 31
0.0
  0
LINE
  5
437
330
1F
100
AcDbEntity
  8
GR1-1
  6
CONTINUOUS
 62
     3
100
AcDbLine
 10
101.687573
 20
165.067816
 30
0.0
 11
101.187573
 21
165.567816
 31
0.0
  0
LINE
  5
438
330
1F
100
AcDbEntity
  8
GR1-1
  6
CONTINUOUS
 62
     3
100
AcDbLine
 10
101.187573
 20
165.567816
 30
0.0
 11
99.887573
 21
165.567816
 31
0.0
  0
LINE
  5
439
330
1F
100
AcDbEntity
  8
GR1-1
  6
CONTINUOUS
 62
     3
100
AcDbLine
 10
99.887573
 20
165.567816
 30
0.0
 11
99.887573
 21
166.367816
 31
0.0
  0
LINE
  5
43A
330
1F
100
AcDbEntity
  8
GR1-1
  6
CONTINUOUS
 62
     3
100
AcDbLine
 10
99.887573
 20
166.367816
 30
0.0
 11
96.598534
 21
166.367816
 31
0.0
  0
LINE
  5
43B
330
1F
100
AcDbEntity
  8
GR1-1
  6
CONTINUOUS
 62
     3
100
AcDbLine
 10
97.287573
 20
167.167816
 30
0.0
 11
97.587573
 21
166.867816
 31
0.0
  0
LINE
  5
43C
330
1F
100
AcDbEntity
  8
GR1-1
  6
CONTINUOUS
 62
     3
100
AcDbLine
 10
97.587573
 20
166.867816
 30
0.0
 11
98.987573
 21
166.867816
 31
0.0
  0
LINE
  5
43D
330
1F
100
AcDbEntity
  8
GR1-1
  6
CONTINUOUS
 62
     3
100
AcDbLine
 10
98.987573
 20
166.867816
 30
0.0
 11
99.287573
 21
167.167816
 31
0.0
  0
LINE
  5
43E
330
1F
100
AcDbEntity
  8
GR1-1
  6
CONTINUOUS
 62
     3
100
AcDbLine
 10
99.287573
 20
167.167816
 30
0.0
 11
99.287573
 21
174.467816
 31
0.0
  0
ARC
  5
43F
330
1F
100
AcDbEntity
  8
GR1-1
  6
CONTINUOUS
 62
     3
100
AcDbCircle
 10
98.287573
 20
174.467816
 30
0.0
 40
1.0
100
AcDbArc
 50
0.0
 51
90.0
  0
LINE
  5
440
330
1F
100
AcDbEntity
  8
GR1-1
  6
CONTINUOUS
 62
     3
100
AcDbLine
 10
98.287573
 20
175.467816
 30
0.0
 11
87.287573
 21
175.467816
 31
0.0
  0
ARC
  5
441
330
1F
100
AcDbEntity
  8
GR1-1
  6
CONTINUOUS
 62
     3
100
AcDbCircle
 10
88.687573
 20
176.867816
 30
0.0
 40
1.4
100
AcDbArc
 50
180.0
 51
270.0
  0
LINE
  5
442
330
1F
100
AcDbEntity
  8
GR1-1
  6
CONTINUOUS
 62
     3
100
AcDbLine
 10
89.187573
 20
176.367816
 30
0.0
 11
98.187573
 21
176.367816
 31
0.0
  0
LINE
  5
443
330
1F
100
AcDbEntity
  8
GR1-1
  6
CONTINUOUS
 62
     3
100
AcDbLine
 10
97.587573
 20
175.467816
 30
0.0
 11
97.287573
 21
175.167816
 31
0.0
  0
LINE
  5
444
330
1F
100
AcDbEntity
  8
GR1-1
  6
CONTINUOUS
 62
     3
100
AcDbLine
 10
97.287573
 20
175.167816
 30
0.0
 11
97.287573
 21
167.167816
 31
0.0
  0
ARC
  5
445
330
1F
100
AcDbEntity
  8
GR1-1
  6
CONTINUOUS
 62
     3
100
AcDbCircle
 10
95.287573
 20
173.467816
 30
0.0
 40
2.0
100
AcDbArc
 50
-90.0
 51
90.0
  0
LINE
  5
446
330
1F
100
AcDbEntity
  8
GR1-1
  6
CONTINUOUS
 62
     3
100
AcDbLine
 10
95.287573
 20
173.467816
 30
0.0
 11
87.287573
 21
173.467816
 31
0.0
  0
ARC
  5
447
330
1F
100
AcDbEntity
  8
GR1-1
  6
CONTINUOUS
 62
     3
100
AcDbCircle
 10
89.187573
 20
176.867816
 30
0.0
 40
0.5
100
AcDbArc
 50
180.0
 51
270.0
  0
ARC
  5
448
330
1F
100
AcDbEntity
  8
GR1-1
  6
CONTINUOUS
 62
     3
100
AcDbCircle
 10
87.537573
 20
176.545316
 30
0.0
 40
1.572500000000017
100
AcDbArc
 50
43.002869
 51
136.997131
  0
ARC
  5
449
330
1F
100
AcDbEntity
  8
GR1-1
  6
CONTINUOUS
 62
     3
100
AcDbCircle
 10
94.467612
 20
165.787601
 30
0.0
 40
7.739092689906714
100
AcDbArc
 50
97.071995
 51
156.873889
  0
ARC
  5
44A
330
1F
100
AcDbEntity
  8
GR1-1
  6
CONTINUOUS
 62
     3
100
AcDbCircle
 10
94.467612
 20
165.787601
 30
0.0
 40
5.739092689906714
100
AcDbArc
 50
81.785869
 51
156.493179
  0
LINE
  5
44B
330
1F
100
AcDbEntity
  8
GR1-1
  6
CONTINUOUS
 62
     3
100
AcDbLine
 10
99.287573
 20
171.867816
 30
0.0
 11
100.187573
 21
171.867816
 31
0.0
  0
LINE
  5
44C
330
1F
100
AcDbEntity
  8
GR1-1
  6
CONTINUOUS
 62
     3
100
AcDbLine
 10
100.187573
 20
171.867816
 30
0.0
 11
100.187573
 21
174.367816
 31
0.0
  0
ARC
  5
44D
330
1F
100
AcDbEntity
  8
GR1-1
  6
CONTINUOUS
 62
     3
100
AcDbCircle
 10
98.187573
 20
174.367816
 30
0.0
 40
2.0
100
AcDbArc
 50
0.0
 51
90.0
  0
ARC
  5
44E
330
1F
100
AcDbEntity
  8
GR1-1
  6
CONTINUOUS
 62
     3
100
AcDbCircle
 10
95.796002
 20
179.017816
 30
0.0
 40
1.0
100
AcDbArc
 50
270.0
 51
339.33328
  0
LINE
  5
44F
330
1F
100
AcDbEntity
  8
GR1-1
  6
CONTINUOUS
 62
     6
100
AcDbLine
 10
94.112573
 20
170.147872
 30
0.0
 11
94.112573
 21
166.35029
 31
0.0
  0
LINE
  5
450
330
1F
100
AcDbEntity
  8
GR1-1
  6
CONTINUOUS
 62
     6
100
AcDbLine
 10
92.402705
 20
168.342816
 30
0.0
 11
96.069337
 21
168.342816
 31
0.0
  0
LINE
  5
451
330
1F
100
AcDbEntity
  8
GR1-1
  6
CONTINUOUS
 62
     6
100
AcDbLine
 10
109.627652
 20
207.753063
 30
0.0
 11
100.045643
 21
182.3504
 31
0.0
  0
LINE
  5
452
330
1F
100
AcDbEntity
  8
GR1-1
  6
CONTINUOUS
 62
     6
100
AcDbLine
 10
97.287573
 20
166.367816
 30
0.0
 11
97.287573
 21
167.167816
 31
0.0
  0
LINE
  5
453
330
1F
100
AcDbEntity
  8
GR1-1
  6
CONTINUOUS
 62
     6
100
AcDbLine
 10
99.287573
 20
167.167816
 30
0.0
 11
99.287573
 21
166.367816
 31
0.0
  0
LINE
  5
454
330
1F
100
AcDbEntity
  8
GR1-1
  6
CONTINUOUS
 62
     6
100
AcDbLine
 10
87.287573
 20
166.367816
 30
0.0
 11
87.287573
 21
167.117816
 31
0.0
  0
LINE
  5
455
330
1F
100
AcDbEntity
  8
GR1-1
  6
CONTINUOUS
 62
     6
100
AcDbLine
 10
86.387573
 20
167.117816
 30
0.0
 11
86.387573
 21
166.367816
 31
0.0
  0
LINE
  5
456
330
1F
100
AcDbEntity
  8
GR1-1
  6
CENTER
 62
     6
100
AcDbLine
 10
303.189154
 20
173.869397
 30
0.0
 11
322.594753
 21
193.274996
 31
0.0
  0
LINE
  5
457
330
1F
100
AcDbEntity
  8
GR1-1
  6
CENTER
 62
     6
100
AcDbLine
 10
260.959067
 20
174.096323
 30
0.0
 11
242.435541
 21
192.619849
 31
0.0
  0
TEXT
  5
458
330
1F
100
AcDbEntity
  8
}}ﾊﾊGG血CCТ
  6
CONTINUOUS
 62
     7
100
AcDbText
 10
254.916626
 20
12.0
 30
0.0
 40
6.0
  1
1W46FAAA-C02
 41
0.7
  7
FX_VECTOR
 72
     5
 11
302.916626
 21
12.0
 31
0.0
100
AcDbText
  0
INSERT
  5
45C
330
1F
100
AcDbEntity
  8
0
100
AcDbBlockReference
  2
BLKF047
 10
0.0
 20
0.0
 30
0.0
  0
ENDSEC
  0
SECTION
  2
OBJECTS
  0
DICTIONARY
  5
C
330
0
100
AcDbDictionary
  3
ACAD_GROUP
350
D
  3
ACAD_LAYOUT
350
1A
  3
ACAD_MLINESTYLE
350
17
  3
ACAD_PLOTSETTINGS
350
19
  3
ACDBHEADERROUNDTRIPXREC
350
487
  0
DICTIONARY
  5
D
102
{ACAD_REACTORS
330
C
102
}
330
C
100
AcDbDictionary
  0
DICTIONARY
  5
1A
102
{ACAD_REACTORS
330
C
102
}
330
C
100
AcDbDictionary
  0
DICTIONARY
  5
17
102
{ACAD_REACTORS
330
C
102
}
330
C
100
AcDbDictionary
  3
STANDARD
350
18
  0
DICTIONARY
  5
19
102
{ACAD_REACTORS
330
C
102
}
330
C
100
AcDbDictionary
  0
DICTIONARY
  5
487
102
{ACAD_REACTORS
330
C
102
}
330
C
100
AcDbDictionary
  3
CEPSNTYPE
350
490
  3
DIMSTYLEDATA
350
4A6
  3
FINGERPRINTGUID
350
491
  3
HYPERLINKBASE
350
48A
  3
INSUNITS
350
48F
  3
LAYOUTDICT
350
48C
  3
LWETCUNION
350
48E
  3
PLOTSETDICT
350
48D
  3
PSVPSCALE
350
493
  3
PUCSBASE
350
496
  3
PUCSORGBACK
350
49C
  3
PUCSORGBOTTOM
350
498
  3
PUCSORGFRONT
350
49B
  3
PUCSORGLEFT
350
499
  3
PUCSORGRIGHT
350
49A
  3
PUCSORGTOP
350
497
  3
PUCSORTHOREF
350
494
  3
PUCSORTHOVIEW
350
495
  3
STYLESHEET
350
48B
  3
TSTACKALIGN
350
488
  3
TSTACKSIZE
350
489
  3
UCSBASE
350
49F
  3
UCSORGBACK
350
4A5
  3
UCSORGBOTTOM
350
4A1
  3
UCSORGFRONT
350
4A4
  3
UCSORGLEFT
350
4A2
  3
UCSORGRIGHT
350
4A3
  3
UCSORGTOP
350
4A0
  3
UCSORTHOREF
350
49D
  3
UCSORTHOVIEW
350
49E
  3
VERSIONGUID
350
492
  0
MLINESTYLE
  5
18
102
{ACAD_REACTORS
330
17
102
}
330
17
100
AcDbMlineStyle
  2
Standard
 70
     0
  3

 62
   256
 51
90.0
 52
90.0
 71
     2
 49
0.5
 62
   256
  6
BYLAYER
 49
-0.5
 62
   256
  6
BYLAYER
  0
XRECORD
  5
490
102
{ACAD_REACTORS
330
487
102
}
330
487
100
AcDbXrecord
 90
        0
  0
XRECORD
  5
4A6
102
{ACAD_REACTORS
330
487
102
}
330
487
100
AcDbXrecord
1000
DSTYLE
1002
{
1070
   179
 70
     2
1070
   171
 70
     3
1070
   143
 40
0.03937
1070
   274
 70
     3
1070
    41
 40
4.0
1070
   343
340
41
1070
   344
340
47
1070
   141
 40
2.5
1070
   176
 70
     7
1070
   177
 70
     7
1070
   178
 70
     7
1070
   271
 70
     2
1070
    46
 40
6.0
1070
    43
 40
10.0
1070
    44
 40
1.0
1070
    42
 40
1.0
1070
   147
 40
1.0
1070
   341
340
41
1070
   173
 70
     1
1070
    77
 70
     1
1070
   272
 70
     2
1070
    73
 70
     0
1070
   172
 70
     1
1070
    74
 70
     0
1070
   283
 70
     0
1070
   340
340
3F
1070
   140
 40
4.0
1070
   284
 70
     8
1070
    78
 70
     8
1002
}
  0
XRECORD
  5
491
102
{ACAD_REACTORS
330
487
102
}
330
487
100
AcDbXrecord
  1
{6CAF0656-5548-4B23-8A6E-10504FAE0770}
  0
XRECORD
  5
48A
102
{ACAD_REACTORS
330
487
102
}
330
487
100
AcDbXrecord
  1

  0
XRECORD
  5
48F
102
{ACAD_REACTORS
330
487
102
}
330
487
100
AcDbXrecord
 90
        1
  0
XRECORD
  5
48C
102
{ACAD_REACTORS
330
487
102
}
330
487
100
AcDbXrecord
340
1A
  0
XRECORD
  5
48E
102
{ACAD_REACTORS
330
487
102
}
330
487
100
AcDbXrecord
 90
    10781
  0
XRECORD
  5
48D
102
{ACAD_REACTORS
330
487
102
}
330
487
100
AcDbXrecord
340
19
  0
XRECORD
  5
493
102
{ACAD_REACTORS
330
487
102
}
330
487
100
AcDbXrecord
 40
0.0
  0
XRECORD
  5
496
102
{ACAD_REACTORS
330
487
102
}
330
487
100
AcDbXrecord
340
0
  0
XRECORD
  5
49C
102
{ACAD_REACTORS
330
487
102
}
330
487
100
AcDbXrecord
 10
0.0
 20
0.0
 30
0.0
  0
XRECORD
  5
498
102
{ACAD_REACTORS
330
487
102
}
330
487
100
AcDbXrecord
 10
0.0
 20
0.0
 30
0.0
  0
XRECORD
  5
49B
102
{ACAD_REACTORS
330
487
102
}
330
487
100
AcDbXrecord
 10
0.0
 20
0.0
 30
0.0
  0
XRECORD
  5
499
102
{ACAD_REACTORS
330
487
102
}
330
487
100
AcDbXrecord
 10
0.0
 20
0.0
 30
0.0
  0
XRECORD
  5
49A
102
{ACAD_REACTORS
330
487
102
}
330
487
100
AcDbXrecord
 10
0.0
 20
0.0
 30
0.0
  0
XRECORD
  5
497
102
{ACAD_REACTORS
330
487
102
}
330
487
100
AcDbXrecord
 10
0.0
 20
0.0
 30
0.0
  0
XRECORD
  5
494
102
{ACAD_REACTORS
330
487
102
}
330
487
100
AcDbXrecord
340
0
  0
XRECORD
  5
495
102
{ACAD_REACTORS
330
487
102
}
330
487
100
AcDbXrecord
 70
     0
  0
XRECORD
  5
48B
102
{ACAD_REACTORS
330
487
102
}
330
487
100
AcDbXrecord
  1

  0
XRECORD
  5
488
102
{ACAD_REACTORS
330
487
102
}
330
487
100
AcDbXrecord
 90
        1
  0
XRECORD
  5
489
102
{ACAD_REACTORS
330
487
102
}
330
487
100
AcDbXrecord
 90
       70
  0
XRECORD
  5
49F
102
{ACAD_REACTORS
330
487
102
}
330
487
100
AcDbXrecord
340
0
  0
XRECORD
  5
4A5
102
{ACAD_REACTORS
330
487
102
}
330
487
100
AcDbXrecord
 10
0.0
 20
0.0
 30
0.0
  0
XRECORD
  5
4A1
102
{ACAD_REACTORS
330
487
102
}
330
487
100
AcDbXrecord
 10
0.0
 20
0.0
 30
0.0
  0
XRECORD
  5
4A4
102
{ACAD_REACTORS
330
487
102
}
330
487
100
AcDbXrecord
 10
0.0
 20
0.0
 30
0.0
  0
XRECORD
  5
4A2
102
{ACAD_REACTORS
330
487
102
}
330
487
100
AcDbXrecord
 10
0.0
 20
0.0
 30
0.0
  0
XRECORD
  5
4A3
102
{ACAD_REACTORS
330
487
102
}
330
487
100
AcDbXrecord
 10
0.0
 20
0.0
 30
0.0
  0
XRECORD
  5
4A0
102
{ACAD_REACTORS
330
487
102
}
330
487
100
AcDbXrecord
 10
0.0
 20
0.0
 30
0.0
  0
XRECORD
  5
49D
102
{ACAD_REACTORS
330
487
102
}
330
487
100
AcDbXrecord
340
0
  0
XRECORD
  5
49E
102
{ACAD_REACTORS
330
487
102
}
330
487
100
AcDbXrecord
 70
     0
  0
XRECORD
  5
492
102
{ACAD_REACTORS
330
487
102
}
330
487
100
AcDbXrecord
  1
{FAEB1C32-E019-11D5-929B-00C0DF256EC4}
  0
ENDSEC
  0
EOF
