  0
SECTION
  2
HEADER
  9
$ACADVER
  1
AC1014
  9
$ACADMAINTVER
 70
     9
  9
$DWGCODEPAGE
  3
ANSI_932
  9
$INSBASE
 10
0.0
 20
0.0
 30
0.0
  9
$EXTMIN
 10
0.0
 20
0.0
 30
0.0
  9
$EXTMAX
 10
297.0
 20
210.0
 30
0.0
  9
$LIMMIN
 10
0.0
 20
0.0
  9
$LIMMAX
 10
297.0
 20
210.0
  9
$ORTHOMODE
 70
     0
  9
$REGENMODE
 70
     1
  9
$FILLMODE
 70
     1
  9
$QTEXTMODE
 70
     0
  9
$MIRRTEXT
 70
     1
  9
$DRAGMODE
 70
     2
  9
$LTSCALE
 40
1.0
  9
$OSMODE
 70
    37
  9
$ATTMODE
 70
     1
  9
$TEXTSIZE
 40
0.2
  9
$TRACEWID
 40
0.05
  9
$TEXTSTYLE
  7
STYLE1
  9
$CLAYER
  8
0
  9
$CELTYPE
  6
BYLAYER
  9
$CECOLOR
 62
   256
  9
$CELTSCALE
 40
1.0
  9
$DELOBJ
 70
     1
  9
$DISPSILH
 70
     0
  9
$DIMSCALE
 40
1.0
  9
$DIMASZ
 40
3.0
  9
$DIMEXO
 40
1.0
  9
$DIMDLI
 40
8.0
  9
$DIMRND
 40
0.0
  9
$DIMDLE
 40
6.0
  9
$DIMEXE
 40
1.0
  9
$DIMTP
 40
0.0
  9
$DIMTM
 40
0.0
  9
$DIMTXT
 40
4.0
  9
$DIMCEN
 40
2.5
  9
$DIMTSZ
 40
0.0
  9
$DIMTOL
 70
     0
  9
$DIMLIM
 70
     0
  9
$DIMTIH
 70
     0
  9
$DIMTOH
 70
     0
  9
$DIMSE1
 70
     0
  9
$DIMSE2
 70
     0
  9
$DIMTAD
 70
     1
  9
$DIMZIN
 70
     8
  9
$DIMBLK
  1

  9
$DIMASO
 70
     1
  9
$DIMSHO
 70
     1
  9
$DIMPOST
  1

  9
$DIMAPOST
  1

  9
$DIMALT
 70
     0
  9
$DIMALTD
 70
     3
  9
$DIMALTF
 40
0.03937
  9
$DIMLFAC
 40
1.0
  9
$DIMTOFL
 70
     1
  9
$DIMTVP
 40
0.0
  9
$DIMTIX
 70
     0
  9
$DIMSOXD
 70
     0
  9
$DIMSAH
 70
     1
  9
$DIMBLK1
  1
FXTIP_ARROW_S
  9
$DIMBLK2
  1
FXTIP_ARROW_E
  9
$DIMSTYLE
  2
FXDIMINFO
  9
$DIMCLRD
 70
     7
  9
$DIMCLRE
 70
     7
  9
$DIMCLRT
 70
     7
  9
$DIMTFAC
 40
1.0
  9
$DIMGAP
 40
1.0
  9
$DIMJUST
 70
     0
  9
$DIMSD1
 70
     0
  9
$DIMSD2
 70
     0
  9
$DIMTOLJ
 70
     0
  9
$DIMTZIN
 70
     8
  9
$DIMALTZ
 70
     0
  9
$DIMALTTZ
 70
     0
  9
$DIMFIT
 70
     3
  9
$DIMUPT
 70
     0
  9
$DIMUNIT
 70
     2
  9
$DIMDEC
 70
     2
  9
$DIMTDEC
 70
     2
  9
$DIMALTU
 70
     2
  9
$DIMALTTD
 70
     3
  9
$DIMTXSTY
  7
STYLE1
  9
$DIMAUNIT
 70
     0
  9
$LUNITS
 70
     2
  9
$LUPREC
 70
     4
  9
$SKETCHINC
 40
0.1
  9
$FILLETRAD
 40
0.5
  9
$AUNITS
 70
     0
  9
$AUPREC
 70
     0
  9
$MENU
  1
.
  9
$ELEVATION
 40
0.0
  9
$PELEVATION
 40
0.0
  9
$THICKNESS
 40
0.0
  9
$LIMCHECK
 70
     0
  9
$CHAMFERA
 40
0.5
  9
$CHAMFERB
 40
0.5
  9
$CHAMFERC
 40
1.0
  9
$CHAMFERD
 40
0.0
  9
$SKPOLY
 70
     0
  9
$TDCREATE
 40
2455301.476135567
  9
$TDUPDATE
 40
2455301.476135579
  9
$TDINDWG
 40
0.0000000116
  9
$TDUSRTIMER
 40
0.0000000116
  9
$USRTIMER
 70
     1
  9
$ANGBASE
 50
0.0
  9
$ANGDIR
 70
     0
  9
$PDMODE
 70
     0
  9
$PDSIZE
 40
0.0
  9
$PLINEWID
 40
0.0
  9
$COORDS
 70
     1
  9
$SPLFRAME
 70
     0
  9
$SPLINETYPE
 70
     6
  9
$SPLINESEGS
 70
     8
  9
$ATTDIA
 70
     0
  9
$ATTREQ
 70
     1
  9
$HANDLING
 70
     1
  9
$HANDSEED
  5
2E7
  9
$SURFTAB1
 70
     6
  9
$SURFTAB2
 70
     6
  9
$SURFTYPE
 70
     6
  9
$SURFU
 70
     6
  9
$SURFV
 70
     6
  9
$UCSNAME
  2

  9
$UCSORG
 10
0.0
 20
0.0
 30
0.0
  9
$UCSXDIR
 10
1.0
 20
0.0
 30
0.0
  9
$UCSYDIR
 10
0.0
 20
1.0
 30
0.0
  9
$PUCSNAME
  2

  9
$PUCSORG
 10
0.0
 20
0.0
 30
0.0
  9
$PUCSXDIR
 10
1.0
 20
0.0
 30
0.0
  9
$PUCSYDIR
 10
0.0
 20
1.0
 30
0.0
  9
$USERI1
 70
     0
  9
$USERI2
 70
     0
  9
$USERI3
 70
     0
  9
$USERI4
 70
     0
  9
$USERI5
 70
     0
  9
$USERR1
 40
0.0
  9
$USERR2
 40
0.0
  9
$USERR3
 40
0.0
  9
$USERR4
 40
0.0
  9
$USERR5
 40
0.0
  9
$WORLDVIEW
 70
     1
  9
$SHADEDGE
 70
     3
  9
$SHADEDIF
 70
    70
  9
$TILEMODE
 70
     1
  9
$MAXACTVP
 70
    64
  9
$PINSBASE
 10
0.0
 20
0.0
 30
0.0
  9
$PLIMCHECK
 70
     0
  9
$PEXTMIN
 10
1.000000E+20
 20
1.000000E+20
 30
1.000000E+20
  9
$PEXTMAX
 10
-1.000000E+20
 20
-1.000000E+20
 30
-1.000000E+20
  9
$PLIMMIN
 10
0.0
 20
0.0
  9
$PLIMMAX
 10
12.0
 20
9.0
  9
$UNITMODE
 70
     0
  9
$VISRETAIN
 70
     1
  9
$PLINEGEN
 70
     0
  9
$PSLTSCALE
 70
     1
  9
$TREEDEPTH
 70
  3020
  9
$PICKSTYLE
 70
     1
  9
$CMLSTYLE
  2
STANDARD
  9
$CMLJUST
 70
     0
  9
$CMLSCALE
 40
1.0
  9
$PROXYGRAPHICS
 70
     1
  9
$MEASUREMENT
 70
     0
  0
ENDSEC
  0
SECTION
  2
CLASSES
  0
CLASS
  1
ACDBDICTIONARYWDFLT
  2
AcDbDictionaryWithDefault
  3
ObjectDBX Classes
 90
        0
280
     0
281
     0
  0
CLASS
  1
XRECORD
  2
AcDbXrecord
  3
AutoCAD 2000
 90
        0
280
     0
281
     0
  0
CLASS
  1
LWPOLYLINE
  2
AcDbPolyline
  3
AutoCAD 2000
 90
        0
280
     0
281
     1
  0
CLASS
  1
HATCH
  2
AcDbHatch
  3
AutoCAD 2000
 90
        0
280
     0
281
     1
  0
CLASS
  1
ACDBPLACEHOLDER
  2
AcDbPlaceHolder
  3
ObjectDBX Classes
 90
        0
280
     0
281
     0
  0
CLASS
  1
LAYOUT
  2
AcDbLayout
  3
ObjectDBX Classes
 90
        0
280
     0
281
     0
  0
ENDSEC
  0
SECTION
  2
TABLES
  0
TABLE
  2
VPORT
  5
8
330
0
100
AcDbSymbolTable
 70
     1
  0
VPORT
  5
29
330
8
100
AcDbSymbolTableRecord
100
AcDbViewportTableRecord
  2
*ACTIVE
 70
     0
 10
0.0
 20
0.0
 11
1.0
 21
1.0
 12
148.5
 22
105.0
 13
0.0
 23
0.0
 14
0.5
 24
0.5
 15
0.5
 25
0.5
 16
0.0
 26
0.0
 36
1.0
 17
0.0
 27
0.0
 37
0.0
 40
210.0
 41
1.414286
 42
50.0
 43
0.0
 44
0.0
 50
0.0
 51
0.0
 71
     0
 72
   100
 73
     1
 74
     3
 75
     0
 76
     0
 77
     0
 78
     0
  0
ENDTAB
  0
TABLE
  2
LTYPE
  5
5
330
0
100
AcDbSymbolTable
 70
     4
  0
LTYPE
  5
14
330
5
100
AcDbSymbolTableRecord
100
AcDbLinetypeTableRecord
  2
BYBLOCK
 70
     0
  3

 72
    65
 73
     0
 40
0.0
  0
LTYPE
  5
15
330
5
100
AcDbSymbolTableRecord
100
AcDbLinetypeTableRecord
  2
BYLAYER
 70
     0
  3

 72
    65
 73
     0
 40
0.0
  0
LTYPE
  5
16
330
5
100
AcDbSymbolTableRecord
100
AcDbLinetypeTableRecord
  2
CONTINUOUS
 70
     0
  3
--------------------
 72
    65
 73
     0
 40
0.0
  0
LTYPE
  5
2A
330
5
100
AcDbSymbolTableRecord
100
AcDbLinetypeTableRecord
  2
CENTER
 70
     0
  3
Center ____ _ ____ _ ____ _ ____ _ ____ _ ____
 72
    65
 73
     4
 40
13.0
 49
10.0
 74
     0
 49
-1.0
 74
     0
 49
1.0
 74
     0
 49
-1.0
 74
     0
  0
ENDTAB
  0
TABLE
  2
LAYER
  5
2
330
0
100
AcDbSymbolTable
 70
    20
  0
LAYER
  5
10
330
2
100
AcDbSymbolTableRecord
100
AcDbLayerTableRecord
  2
0
 70
     0
 62
     7
  6
CONTINUOUS
  0
LAYER
  5
2D
330
2
100
AcDbSymbolTableRecord
100
AcDbLayerTableRecord
  2
LAYERGROUP-1
 70
     0
 62
     3
  6
CONTINUOUS
  0
LAYER
  5
3D
330
2
100
AcDbSymbolTableRecord
100
AcDbLayerTableRecord
  2
}}ﾊﾊGG血CCТ
 70
     0
 62
     3
  6
CONTINUOUS
  0
LAYER
  5
AA
330
2
100
AcDbSymbolTableRecord
100
AcDbLayerTableRecord
  2
GR1-1
 70
     0
 62
     7
  6
CONTINUOUS
  0
LAYER
  5
2AA
330
2
100
AcDbSymbolTableRecord
100
AcDbLayerTableRecord
  2
0-1
 70
     0
 62
     7
  6
CONTINUOUS
  0
ENDTAB
  0
TABLE
  2
STYLE
  5
3
330
0
100
AcDbSymbolTable
 70
     4
  0
STYLE
  5
11
330
3
100
AcDbSymbolTableRecord
100
AcDbTextStyleTableRecord
  2
STANDARD
 70
     0
 40
0.0
 41
1.0
 50
0.0
 71
     0
 42
0.2
  3
txt
  4

  0
STYLE
  5
3F
330
3
100
AcDbSymbolTableRecord
100
AcDbTextStyleTableRecord
  2
STYLE1
 70
     0
 40
0.0
 41
1.0
 50
0.0
 71
     0
 42
0.2
  3
MONOTXT.SHX
  4
extfont.shx
  0
STYLE
  5
40
330
3
100
AcDbSymbolTableRecord
100
AcDbTextStyleTableRecord
  2
FX_VECTOR
 70
     0
 40
0.0
 41
1.0
 50
0.0
 71
     0
 42
0.2
  3
MONOTXT.SHX
  4
BIGFONT.SHX
  0
ENDTAB
  0
TABLE
  2
VIEW
  5
6
330
0
100
AcDbSymbolTable
 70
     0
  0
ENDTAB
  0
TABLE
  2
UCS
  5
7
330
0
100
AcDbSymbolTable
 70
     0
  0
ENDTAB
  0
TABLE
  2
APPID
  5
9
330
0
100
AcDbSymbolTable
 70
     1
  0
APPID
  5
12
330
9
100
AcDbSymbolTableRecord
100
AcDbRegAppTableRecord
  2
ACAD
 70
     0
  0
ENDTAB
  0
TABLE
  2
DIMSTYLE
  5
A
330
0
100
AcDbSymbolTable
 70
     2
  0
DIMSTYLE
105
27
330
A
100
AcDbSymbolTableRecord
100
AcDbDimStyleTableRecord
  2
STANDARD
 70
     0
  3

  4

  5

  6

  7

 40
1.0
 41
0.18
 42
0.0625
 43
0.38
 44
0.18
 45
0.0
 46
0.0
 47
0.0
 48
0.0
140
0.18
141
0.09
142
0.0
143
25.4
144
1.0
145
0.0
146
1.0
147
0.09
 71
     0
 72
     0
 73
     1
 74
     1
 75
     0
 76
     0
 77
     0
 78
     0
170
     0
171
     2
172
     0
173
     0
174
     0
175
     0
176
     0
177
     0
178
     0
270
     2
271
     4
272
     4
273
     2
274
     2
340
11
275
     0
280
     0
281
     0
282
     0
283
     1
284
     0
285
     0
286
     0
287
     3
288
     0
  0
DIMSTYLE
105
A7
102
{ACAD_REACTORS
330
1F2
330
1FC
330
206
330
210
102
}
330
A
100
AcDbSymbolTableRecord
100
AcDbDimStyleTableRecord
  2
FXDIMINFO
 70
     0
  3

  4

  5

  6
FXTIP_ARROW_S
  7
FXTIP_ARROW_E
 40
1.0
 41
3.0
 42
1.0
 43
8.0
 44
1.0
 45
0.0
 46
6.0
 47
0.0
 48
0.0
140
4.0
141
2.5
142
0.0
143
0.03937
144
1.0
145
0.0
146
1.0
147
1.0
 71
     0
 72
     0
 73
     0
 74
     0
 75
     0
 76
     0
 77
     1
 78
     8
170
     0
171
     3
172
     1
173
     1
174
     0
175
     0
176
     7
177
     7
178
     7
179
     2
270
     2
271
     2
272
     2
273
     2
274
     3
340
3F
275
     0
280
     0
281
     0
282
     0
283
     0
284
     8
285
     0
286
     0
287
     3
288
     0
  0
ENDTAB
  0
TABLE
  2
BLOCK_RECORD
  5
1
330
0
100
AcDbSymbolTable
 70
    30
  0
BLOCK_RECORD
  5
1F
330
1
100
AcDbSymbolTableRecord
100
AcDbBlockTableRecord
  2
*MODEL_SPACE
  0
BLOCK_RECORD
  5
1B
330
1
100
AcDbSymbolTableRecord
100
AcDbBlockTableRecord
  2
*PAPER_SPACE
  0
BLOCK_RECORD
  5
41
330
1
100
AcDbSymbolTableRecord
100
AcDbBlockTableRecord
  2
FXTIP_ARROW_S
  0
BLOCK_RECORD
  5
47
330
1
100
AcDbSymbolTableRecord
100
AcDbBlockTableRecord
  2
FXTIP_ARROW_E
  0
BLOCK_RECORD
  5
4D
330
1
100
AcDbSymbolTableRecord
100
AcDbBlockTableRecord
  2
FXTIP_BLACKDOT_S
  0
BLOCK_RECORD
  5
53
330
1
100
AcDbSymbolTableRecord
100
AcDbBlockTableRecord
  2
FXTIP_BLACKDOT_E
  0
BLOCK_RECORD
  5
59
330
1
100
AcDbSymbolTableRecord
100
AcDbBlockTableRecord
  2
FXTIP_TRIANGLE_S
  0
BLOCK_RECORD
  5
60
330
1
100
AcDbSymbolTableRecord
100
AcDbBlockTableRecord
  2
FXTIP_TRIANGLE_E
  0
BLOCK_RECORD
  5
67
330
1
100
AcDbSymbolTableRecord
100
AcDbBlockTableRecord
  2
FXTIP_ARCHITECT_S
  0
BLOCK_RECORD
  5
6D
330
1
100
AcDbSymbolTableRecord
100
AcDbBlockTableRecord
  2
FXTIP_ARCHITECT_E
  0
BLOCK_RECORD
  5
73
330
1
100
AcDbSymbolTableRecord
100
AcDbBlockTableRecord
  2
FXTIP_CIVIL_S
  0
BLOCK_RECORD
  5
79
330
1
100
AcDbSymbolTableRecord
100
AcDbBlockTableRecord
  2
FXTIP_CIVIL_E
  0
BLOCK_RECORD
  5
7F
330
1
100
AcDbSymbolTableRecord
100
AcDbBlockTableRecord
  2
FXTIP_WHITEDOT_S
  0
BLOCK_RECORD
  5
84
330
1
100
AcDbSymbolTableRecord
100
AcDbBlockTableRecord
  2
FXTIP_WHITEDOT_E
  0
BLOCK_RECORD
  5
89
330
1
100
AcDbSymbolTableRecord
100
AcDbBlockTableRecord
  2
FXTIP_UPARROW_S
  0
BLOCK_RECORD
  5
8E
330
1
100
AcDbSymbolTableRecord
100
AcDbBlockTableRecord
  2
FXTIP_UPARROW_E
  0
BLOCK_RECORD
  5
93
330
1
100
AcDbSymbolTableRecord
100
AcDbBlockTableRecord
  2
FXTIP_DOWNARROW_S
  0
BLOCK_RECORD
  5
98
330
1
100
AcDbSymbolTableRecord
100
AcDbBlockTableRecord
  2
FXTIP_DOWNARROW_E
  0
BLOCK_RECORD
  5
9D
330
1
100
AcDbSymbolTableRecord
100
AcDbBlockTableRecord
  2
FXTIP_BLACKTRIANGLE_S
  0
BLOCK_RECORD
  5
A2
330
1
100
AcDbSymbolTableRecord
100
AcDbBlockTableRecord
  2
FXTIP_BLACKTRIANGLE_E
  0
BLOCK_RECORD
  5
167
330
1
100
AcDbSymbolTableRecord
100
AcDbBlockTableRecord
  2
BLKF021
  0
BLOCK_RECORD
  5
1A7
330
1
100
AcDbSymbolTableRecord
100
AcDbBlockTableRecord
  2
BLKF022
  0
BLOCK_RECORD
  5
1E7
330
1
100
AcDbSymbolTableRecord
100
AcDbBlockTableRecord
  2
BLKF023
  0
BLOCK_RECORD
  5
1F3
330
1
100
AcDbSymbolTableRecord
100
AcDbBlockTableRecord
  2
*D22
  0
BLOCK_RECORD
  5
1FD
330
1
100
AcDbSymbolTableRecord
100
AcDbBlockTableRecord
  2
*D23
  0
BLOCK_RECORD
  5
207
330
1
100
AcDbSymbolTableRecord
100
AcDbBlockTableRecord
  2
*D24
  0
BLOCK_RECORD
  5
211
330
1
100
AcDbSymbolTableRecord
100
AcDbBlockTableRecord
  2
*D25
  0
BLOCK_RECORD
  5
21A
330
1
100
AcDbSymbolTableRecord
100
AcDbBlockTableRecord
  2
BLKF028
  0
BLOCK_RECORD
  5
29A
330
1
100
AcDbSymbolTableRecord
100
AcDbBlockTableRecord
  2
BLKF029
  0
BLOCK_RECORD
  5
2A6
330
1
100
AcDbSymbolTableRecord
100
AcDbBlockTableRecord
  2
BLKF030
  0
BLOCK_RECORD
  5
2AF
330
1
100
AcDbSymbolTableRecord
100
AcDbBlockTableRecord
  2
BLKF031
  0
ENDTAB
  0
ENDSEC
  0
SECTION
  2
BLOCKS
  0
BLOCK
  5
20
330
1F
100
AcDbEntity
  8
0
100
AcDbBlockBegin
  2
*MODEL_SPACE
 70
     0
 71
     0
 10
0.0
 20
0.0
 30
0.0
  3
*MODEL_SPACE
  1

  0
ENDBLK
  5
21
330
1F
100
AcDbEntity
  8
0
100
AcDbBlockEnd
  0
BLOCK
  5
1C
330
1B
100
AcDbEntity
 67
     1
  8
0
100
AcDbBlockBegin
  2
*PAPER_SPACE
 70
     0
 71
     0
 10
0.0
 20
0.0
 30
0.0
  3
*PAPER_SPACE
  1

  0
ENDBLK
  5
1D
330
1B
100
AcDbEntity
 67
     1
  8
0
100
AcDbBlockEnd
  0
BLOCK
  5
42
330
41
100
AcDbEntity
  8
0
100
AcDbBlockBegin
  2
FXTIP_ARROW_S
 70
     0
 71
     0
 10
0.0
 20
0.0
 30
0.0
  3
FXTIP_ARROW_S
  1

  0
LINE
  5
44
330
41
100
AcDbEntity
  8
0
  6
CONTINUOUS
 62
     0
100
AcDbLine
 10
0.0
 20
0.0
 30
0.0
 11
-1.0
 21
0.0
 31
0.0
  0
LINE
  5
45
330
41
100
AcDbEntity
  8
0
  6
CONTINUOUS
 62
     0
100
AcDbLine
 10
0.0
 20
0.0
 30
0.0
 11
-0.965926
 21
-0.258819
 31
0.0
  0
LINE
  5
46
330
41
100
AcDbEntity
  8
0
  6
CONTINUOUS
 62
     0
100
AcDbLine
 10
0.0
 20
0.0
 30
0.0
 11
-0.965926
 21
0.258819
 31
0.0
  0
ENDBLK
  5
43
330
41
100
AcDbEntity
  8
0
100
AcDbBlockEnd
  0
BLOCK
  5
48
330
47
100
AcDbEntity
  8
0
100
AcDbBlockBegin
  2
FXTIP_ARROW_E
 70
     0
 71
     0
 10
0.0
 20
0.0
 30
0.0
  3
FXTIP_ARROW_E
  1

  0
LINE
  5
4A
330
47
100
AcDbEntity
  8
0
  6
CONTINUOUS
 62
     0
100
AcDbLine
 10
0.0
 20
0.0
 30
0.0
 11
-1.0
 21
0.0
 31
0.0
  0
LINE
  5
4B
330
47
100
AcDbEntity
  8
0
  6
CONTINUOUS
 62
     0
100
AcDbLine
 10
0.0
 20
0.0
 30
0.0
 11
-0.965926
 21
0.258819
 31
0.0
  0
LINE
  5
4C
330
47
100
AcDbEntity
  8
0
  6
CONTINUOUS
 62
     0
100
AcDbLine
 10
0.0
 20
0.0
 30
0.0
 11
-0.965926
 21
-0.258819
 31
0.0
  0
ENDBLK
  5
49
330
47
100
AcDbEntity
  8
0
100
AcDbBlockEnd
  0
BLOCK
  5
4E
330
4D
100
AcDbEntity
  8
0
100
AcDbBlockBegin
  2
FXTIP_BLACKDOT_S
 70
     0
 71
     0
 10
0.0
 20
0.0
 30
0.0
  3
FXTIP_BLACKDOT_S
  1

  0
LINE
  5
50
330
4D
100
AcDbEntity
  8
0
  6
CONTINUOUS
 62
     0
100
AcDbLine
 10
0.0
 20
0.0
 30
0.0
 11
-1.0
 21
0.0
 31
0.0
  0
LWPOLYLINE
  5
51
330
4D
100
AcDbEntity
  8
0
  6
CONTINUOUS
 62
     0
100
AcDbPolyline
 90
        2
 70
     1
 10
-0.25
 20
0.0
 40
0.5
 41
0.5
 42
1.0
 10
0.25
 20
0.0
 40
0.5
 41
0.5
 42
1.0
  0
CIRCLE
  5
52
330
4D
100
AcDbEntity
  8
0
  6
CONTINUOUS
 62
     0
100
AcDbCircle
 10
0.0
 20
0.0
 30
0.0
 40
0.5
  0
ENDBLK
  5
4F
330
4D
100
AcDbEntity
  8
0
100
AcDbBlockEnd
  0
BLOCK
  5
54
330
53
100
AcDbEntity
  8
0
100
AcDbBlockBegin
  2
FXTIP_BLACKDOT_E
 70
     0
 71
     0
 10
0.0
 20
0.0
 30
0.0
  3
FXTIP_BLACKDOT_E
  1

  0
LINE
  5
56
330
53
100
AcDbEntity
  8
0
  6
CONTINUOUS
 62
     0
100
AcDbLine
 10
0.0
 20
0.0
 30
0.0
 11
-1.0
 21
0.0
 31
0.0
  0
LWPOLYLINE
  5
57
330
53
100
AcDbEntity
  8
0
  6
CONTINUOUS
 62
     0
100
AcDbPolyline
 90
        2
 70
     1
 10
-0.25
 20
0.0
 40
0.5
 41
0.5
 42
1.0
 10
0.25
 20
0.0
 40
0.5
 41
0.5
 42
1.0
  0
CIRCLE
  5
58
330
53
100
AcDbEntity
  8
0
  6
CONTINUOUS
 62
     0
100
AcDbCircle
 10
0.0
 20
0.0
 30
0.0
 40
0.5
  0
ENDBLK
  5
55
330
53
100
AcDbEntity
  8
0
100
AcDbBlockEnd
  0
BLOCK
  5
5A
330
59
100
AcDbEntity
  8
0
100
AcDbBlockBegin
  2
FXTIP_TRIANGLE_S
 70
     0
 71
     0
 10
0.0
 20
0.0
 30
0.0
  3
FXTIP_TRIANGLE_S
  1

  0
LINE
  5
5C
330
59
100
AcDbEntity
  8
0
  6
CONTINUOUS
 62
     0
100
AcDbLine
 10
0.0
 20
0.0
 30
0.0
 11
-1.0
 21
0.0
 31
0.0
  0
LINE
  5
5D
330
59
100
AcDbEntity
  8
0
  6
CONTINUOUS
 62
     0
100
AcDbLine
 10
0.0
 20
0.0
 30
0.0
 11
-0.965926
 21
-0.258819
 31
0.0
  0
LINE
  5
5E
330
59
100
AcDbEntity
  8
0
  6
CONTINUOUS
 62
     0
100
AcDbLine
 10
0.0
 20
0.0
 30
0.0
 11
-0.965926
 21
0.258819
 31
0.0
  0
LINE
  5
5F
330
59
100
AcDbEntity
  8
0
  6
CONTINUOUS
 62
     0
100
AcDbLine
 10
-0.965926
 20
-0.258819
 30
0.0
 11
-0.965926
 21
0.258819
 31
0.0
  0
ENDBLK
  5
5B
330
59
100
AcDbEntity
  8
0
100
AcDbBlockEnd
  0
BLOCK
  5
61
330
60
100
AcDbEntity
  8
0
100
AcDbBlockBegin
  2
FXTIP_TRIANGLE_E
 70
     0
 71
     0
 10
0.0
 20
0.0
 30
0.0
  3
FXTIP_TRIANGLE_E
  1

  0
LINE
  5
63
330
60
100
AcDbEntity
  8
0
  6
CONTINUOUS
 62
     0
100
AcDbLine
 10
0.0
 20
0.0
 30
0.0
 11
-1.0
 21
0.0
 31
0.0
  0
LINE
  5
64
330
60
100
AcDbEntity
  8
0
  6
CONTINUOUS
 62
     0
100
AcDbLine
 10
0.0
 20
0.0
 30
0.0
 11
-0.965926
 21
0.258819
 31
0.0
  0
LINE
  5
65
330
60
100
AcDbEntity
  8
0
  6
CONTINUOUS
 62
     0
100
AcDbLine
 10
0.0
 20
0.0
 30
0.0
 11
-0.965926
 21
-0.258819
 31
0.0
  0
LINE
  5
66
330
60
100
AcDbEntity
  8
0
  6
CONTINUOUS
 62
     0
100
AcDbLine
 10
-0.965926
 20
0.258819
 30
0.0
 11
-0.965926
 21
-0.258819
 31
0.0
  0
ENDBLK
  5
62
330
60
100
AcDbEntity
  8
0
100
AcDbBlockEnd
  0
BLOCK
  5
68
330
67
100
AcDbEntity
  8
0
100
AcDbBlockBegin
  2
FXTIP_ARCHITECT_S
 70
     0
 71
     0
 10
0.0
 20
0.0
 30
0.0
  3
FXTIP_ARCHITECT_S
  1

  0
LINE
  5
6A
330
67
100
AcDbEntity
  8
0
  6
CONTINUOUS
 62
     0
100
AcDbLine
 10
0.0
 20
0.0
 30
0.0
 11
-1.0
 21
0.0
 31
0.0
  0
LINE
  5
6B
330
67
100
AcDbEntity
  8
0
  6
CONTINUOUS
 62
     0
100
AcDbLine
 10
0.0
 20
0.0
 30
0.0
 11
-0.707107
 21
-0.707107
 31
0.0
  0
LINE
  5
6C
330
67
100
AcDbEntity
  8
0
  6
CONTINUOUS
 62
     0
100
AcDbLine
 10
0.0
 20
0.0
 30
0.0
 11
0.707107
 21
0.707107
 31
0.0
  0
ENDBLK
  5
69
330
67
100
AcDbEntity
  8
0
100
AcDbBlockEnd
  0
BLOCK
  5
6E
330
6D
100
AcDbEntity
  8
0
100
AcDbBlockBegin
  2
FXTIP_ARCHITECT_E
 70
     0
 71
     0
 10
0.0
 20
0.0
 30
0.0
  3
FXTIP_ARCHITECT_E
  1

  0
LINE
  5
70
330
6D
100
AcDbEntity
  8
0
  6
CONTINUOUS
 62
     0
100
AcDbLine
 10
0.0
 20
0.0
 30
0.0
 11
-1.0
 21
0.0
 31
0.0
  0
LINE
  5
71
330
6D
100
AcDbEntity
  8
0
  6
CONTINUOUS
 62
     0
100
AcDbLine
 10
0.0
 20
0.0
 30
0.0
 11
0.707107
 21
0.707107
 31
0.0
  0
LINE
  5
72
330
6D
100
AcDbEntity
  8
0
  6
CONTINUOUS
 62
     0
100
AcDbLine
 10
0.0
 20
0.0
 30
0.0
 11
-0.707107
 21
-0.707107
 31
0.0
  0
ENDBLK
  5
6F
330
6D
100
AcDbEntity
  8
0
100
AcDbBlockEnd
  0
BLOCK
  5
74
330
73
100
AcDbEntity
  8
0
100
AcDbBlockBegin
  2
FXTIP_CIVIL_S
 70
     0
 71
     0
 10
0.0
 20
0.0
 30
0.0
  3
FXTIP_CIVIL_S
  1

  0
LINE
  5
76
330
73
100
AcDbEntity
  8
0
  6
CONTINUOUS
 62
     0
100
AcDbLine
 10
0.0
 20
0.0
 30
0.0
 11
-1.0
 21
0.0
 31
0.0
  0
LINE
  5
77
330
73
100
AcDbEntity
  8
0
  6
CONTINUOUS
 62
     0
100
AcDbLine
 10
0.0
 20
-0.083333
 30
0.0
 11
-1.0
 21
-0.083333
 31
0.0
  0
LINE
  5
78
330
73
100
AcDbEntity
  8
0
  6
CONTINUOUS
 62
     0
100
AcDbLine
 10
0.0
 20
-0.166667
 30
0.0
 11
-1.0
 21
-0.166667
 31
0.0
  0
ENDBLK
  5
75
330
73
100
AcDbEntity
  8
0
100
AcDbBlockEnd
  0
BLOCK
  5
7A
330
79
100
AcDbEntity
  8
0
100
AcDbBlockBegin
  2
FXTIP_CIVIL_E
 70
     0
 71
     0
 10
0.0
 20
0.0
 30
0.0
  3
FXTIP_CIVIL_E
  1

  0
LINE
  5
7C
330
79
100
AcDbEntity
  8
0
  6
CONTINUOUS
 62
     0
100
AcDbLine
 10
0.0
 20
0.0
 30
0.0
 11
-1.0
 21
0.0
 31
0.0
  0
LINE
  5
7D
330
79
100
AcDbEntity
  8
0
  6
CONTINUOUS
 62
     0
100
AcDbLine
 10
0.0
 20
0.083333
 30
0.0
 11
-1.0
 21
0.083333
 31
0.0
  0
LINE
  5
7E
330
79
100
AcDbEntity
  8
0
  6
CONTINUOUS
 62
     0
100
AcDbLine
 10
0.0
 20
0.166667
 30
0.0
 11
-1.0
 21
0.166667
 31
0.0
  0
ENDBLK
  5
7B
330
79
100
AcDbEntity
  8
0
100
AcDbBlockEnd
  0
BLOCK
  5
80
330
7F
100
AcDbEntity
  8
0
100
AcDbBlockBegin
  2
FXTIP_WHITEDOT_S
 70
     0
 71
     0
 10
0.0
 20
0.0
 30
0.0
  3
FXTIP_WHITEDOT_S
  1

  0
LINE
  5
82
330
7F
100
AcDbEntity
  8
0
  6
CONTINUOUS
 62
     0
100
AcDbLine
 10
0.0
 20
0.0
 30
0.0
 11
-1.0
 21
0.0
 31
0.0
  0
CIRCLE
  5
83
330
7F
100
AcDbEntity
  8
0
  6
CONTINUOUS
 62
     0
100
AcDbCircle
 10
0.0
 20
0.0
 30
0.0
 40
0.5
  0
ENDBLK
  5
81
330
7F
100
AcDbEntity
  8
0
100
AcDbBlockEnd
  0
BLOCK
  5
85
330
84
100
AcDbEntity
  8
0
100
AcDbBlockBegin
  2
FXTIP_WHITEDOT_E
 70
     0
 71
     0
 10
0.0
 20
0.0
 30
0.0
  3
FXTIP_WHITEDOT_E
  1

  0
LINE
  5
87
330
84
100
AcDbEntity
  8
0
  6
CONTINUOUS
 62
     0
100
AcDbLine
 10
0.0
 20
0.0
 30
0.0
 11
-1.0
 21
0.0
 31
0.0
  0
CIRCLE
  5
88
330
84
100
AcDbEntity
  8
0
  6
CONTINUOUS
 62
     0
100
AcDbCircle
 10
0.0
 20
0.0
 30
0.0
 40
0.5
  0
ENDBLK
  5
86
330
84
100
AcDbEntity
  8
0
100
AcDbBlockEnd
  0
BLOCK
  5
8A
330
89
100
AcDbEntity
  8
0
100
AcDbBlockBegin
  2
FXTIP_UPARROW_S
 70
     0
 71
     0
 10
0.0
 20
0.0
 30
0.0
  3
FXTIP_UPARROW_S
  1

  0
LINE
  5
8C
330
89
100
AcDbEntity
  8
0
  6
CONTINUOUS
 62
     0
100
AcDbLine
 10
0.0
 20
0.0
 30
0.0
 11
-1.0
 21
0.0
 31
0.0
  0
LINE
  5
8D
330
89
100
AcDbEntity
  8
0
  6
CONTINUOUS
 62
     0
100
AcDbLine
 10
0.0
 20
0.0
 30
0.0
 11
-0.965926
 21
-0.258819
 31
0.0
  0
ENDBLK
  5
8B
330
89
100
AcDbEntity
  8
0
100
AcDbBlockEnd
  0
BLOCK
  5
8F
330
8E
100
AcDbEntity
  8
0
100
AcDbBlockBegin
  2
FXTIP_UPARROW_E
 70
     0
 71
     0
 10
0.0
 20
0.0
 30
0.0
  3
FXTIP_UPARROW_E
  1

  0
LINE
  5
91
330
8E
100
AcDbEntity
  8
0
  6
CONTINUOUS
 62
     0
100
AcDbLine
 10
0.0
 20
0.0
 30
0.0
 11
-1.0
 21
0.0
 31
0.0
  0
LINE
  5
92
330
8E
100
AcDbEntity
  8
0
  6
CONTINUOUS
 62
     0
100
AcDbLine
 10
0.0
 20
0.0
 30
0.0
 11
-0.965926
 21
0.258819
 31
0.0
  0
ENDBLK
  5
90
330
8E
100
AcDbEntity
  8
0
100
AcDbBlockEnd
  0
BLOCK
  5
94
330
93
100
AcDbEntity
  8
0
100
AcDbBlockBegin
  2
FXTIP_DOWNARROW_S
 70
     0
 71
     0
 10
0.0
 20
0.0
 30
0.0
  3
FXTIP_DOWNARROW_S
  1

  0
LINE
  5
96
330
93
100
AcDbEntity
  8
0
  6
CONTINUOUS
 62
     0
100
AcDbLine
 10
0.0
 20
0.0
 30
0.0
 11
-1.0
 21
0.0
 31
0.0
  0
LINE
  5
97
330
93
100
AcDbEntity
  8
0
  6
CONTINUOUS
 62
     0
100
AcDbLine
 10
0.0
 20
0.0
 30
0.0
 11
-0.965926
 21
0.258819
 31
0.0
  0
ENDBLK
  5
95
330
93
100
AcDbEntity
  8
0
100
AcDbBlockEnd
  0
BLOCK
  5
99
330
98
100
AcDbEntity
  8
0
100
AcDbBlockBegin
  2
FXTIP_DOWNARROW_E
 70
     0
 71
     0
 10
0.0
 20
0.0
 30
0.0
  3
FXTIP_DOWNARROW_E
  1

  0
LINE
  5
9B
330
98
100
AcDbEntity
  8
0
  6
CONTINUOUS
 62
     0
100
AcDbLine
 10
0.0
 20
0.0
 30
0.0
 11
-1.0
 21
0.0
 31
0.0
  0
LINE
  5
9C
330
98
100
AcDbEntity
  8
0
  6
CONTINUOUS
 62
     0
100
AcDbLine
 10
0.0
 20
0.0
 30
0.0
 11
-0.965926
 21
-0.258819
 31
0.0
  0
ENDBLK
  5
9A
330
98
100
AcDbEntity
  8
0
100
AcDbBlockEnd
  0
BLOCK
  5
9E
330
9D
100
AcDbEntity
  8
0
100
AcDbBlockBegin
  2
FXTIP_BLACKTRIANGLE_S
 70
     0
 71
     0
 10
0.0
 20
0.0
 30
0.0
  3
FXTIP_BLACKTRIANGLE_S
  1

  0
LINE
  5
A0
330
9D
100
AcDbEntity
  8
0
  6
CONTINUOUS
 62
     0
100
AcDbLine
 10
0.0
 20
0.0
 30
0.0
 11
-1.0
 21
0.0
 31
0.0
  0
SOLID
  5
A1
330
9D
100
AcDbEntity
  8
0
  6
CONTINUOUS
 62
     0
100
AcDbTrace
 10
0.0
 20
0.0
 30
0.0
 11
-0.965926
 21
-0.258819
 31
0.0
 12
-0.965926
 22
0.258819
 32
0.0
 13
-0.965926
 23
0.258819
 33
0.0
  0
ENDBLK
  5
9F
330
9D
100
AcDbEntity
  8
0
100
AcDbBlockEnd
  0
BLOCK
  5
A3
330
A2
100
AcDbEntity
  8
0
100
AcDbBlockBegin
  2
FXTIP_BLACKTRIANGLE_E
 70
     0
 71
     0
 10
0.0
 20
0.0
 30
0.0
  3
FXTIP_BLACKTRIANGLE_E
  1

  0
LINE
  5
A5
330
A2
100
AcDbEntity
  8
0
  6
CONTINUOUS
 62
     0
100
AcDbLine
 10
0.0
 20
0.0
 30
0.0
 11
-1.0
 21
0.0
 31
0.0
  0
SOLID
  5
A6
330
A2
100
AcDbEntity
  8
0
  6
CONTINUOUS
 62
     0
100
AcDbTrace
 10
0.0
 20
0.0
 30
0.0
 11
-0.965926
 21
0.258819
 31
0.0
 12
-0.965926
 22
-0.258819
 32
0.0
 13
-0.965926
 23
-0.258819
 33
0.0
  0
ENDBLK
  5
A4
330
A2
100
AcDbEntity
  8
0
100
AcDbBlockEnd
  0
BLOCK
  5
168
330
167
100
AcDbEntity
  8
0
100
AcDbBlockBegin
  2
BLKF021
 70
     0
 71
     0
 10
0.0
 20
0.0
 30
0.0
  3
BLKF021
  1

  0
LINE
  5
16B
330
167
100
AcDbEntity
  8
GR1-1
  6
CONTINUOUS
 62
     3
100
AcDbLine
 10
67.084752
 20
93.569231
 30
0.0
 11
58.284752
 21
93.569231
 31
0.0
  0
LINE
  5
16C
330
167
100
AcDbEntity
  8
GR1-1
  6
CONTINUOUS
 62
     3
100
AcDbLine
 10
67.684752
 20
94.169231
 30
0.0
 11
67.684752
 21
102.969231
 31
0.0
  0
LINE
  5
16D
330
167
100
AcDbEntity
  8
GR1-1
  6
CONTINUOUS
 62
     3
100
AcDbLine
 10
57.684752
 20
94.169231
 30
0.0
 11
57.684752
 21
100.235897
 31
0.0
  0
LINE
  5
16E
330
167
100
AcDbEntity
  8
GR1-1
  6
CONTINUOUS
 62
     3
100
AcDbLine
 10
67.684752
 20
100.235897
 30
0.0
 11
65.571503
 21
100.235897
 31
0.0
  0
LINE
  5
16F
330
167
100
AcDbEntity
  8
GR1-1
  6
CONTINUOUS
 62
     3
100
AcDbLine
 10
59.798001
 20
100.235897
 30
0.0
 11
57.684752
 21
100.235897
 31
0.0
  0
CIRCLE
  5
170
330
167
100
AcDbEntity
  8
GR1-1
  6
CONTINUOUS
 62
     3
100
AcDbCircle
 10
62.684752
 20
98.569231
 30
0.0
 40
3.333333333333334
  0
LINE
  5
171
330
167
100
AcDbEntity
  8
GR1-1
  6
CONTINUOUS
 62
     3
100
AcDbLine
 10
67.084752
 20
103.569231
 30
0.0
 11
58.284752
 21
103.569231
 31
0.0
  0
ARC
  5
172
330
167
100
AcDbEntity
  8
GR1-1
  6
CONTINUOUS
 62
     3
100
AcDbCircle
 10
67.084752
 20
94.169231
 30
0.0
 40
0.6
100
AcDbArc
 50
270.0
 51
360.0
  0
ARC
  5
173
330
167
100
AcDbEntity
  8
GR1-1
  6
CONTINUOUS
 62
     3
100
AcDbCircle
 10
58.284752
 20
94.169231
 30
0.0
 40
0.6
100
AcDbArc
 50
180.0
 51
270.0
  0
ARC
  5
174
330
167
100
AcDbEntity
  8
GR1-1
  6
CONTINUOUS
 62
     3
100
AcDbCircle
 10
67.084752
 20
102.969231
 30
0.0
 40
0.6
100
AcDbArc
 50
0.0
 51
90.0
  0
LINE
  5
175
330
167
100
AcDbEntity
  8
GR1-1
  6
CONTINUOUS
 62
     3
100
AcDbLine
 10
67.084752
 20
115.569231
 30
0.0
 11
58.284752
 21
115.569231
 31
0.0
  0
LINE
  5
176
330
167
100
AcDbEntity
  8
GR1-1
  6
CONTINUOUS
 62
     3
100
AcDbLine
 10
67.684752
 20
116.169231
 30
0.0
 11
67.684752
 21
124.969231
 31
0.0
  0
LINE
  5
177
330
167
100
AcDbEntity
  8
GR1-1
  6
CONTINUOUS
 62
     3
100
AcDbLine
 10
57.684752
 20
118.902564
 30
0.0
 11
57.684752
 21
124.969231
 31
0.0
  0
LINE
  5
178
330
167
100
AcDbEntity
  8
GR1-1
  6
CONTINUOUS
 62
     3
100
AcDbLine
 10
67.684752
 20
118.902564
 30
0.0
 11
65.571503
 21
118.902564
 31
0.0
  0
LINE
  5
179
330
167
100
AcDbEntity
  8
GR1-1
  6
CONTINUOUS
 62
     3
100
AcDbLine
 10
59.798001
 20
118.902564
 30
0.0
 11
57.684752
 21
118.902564
 31
0.0
  0
CIRCLE
  5
17A
330
167
100
AcDbEntity
  8
GR1-1
  6
CONTINUOUS
 62
     3
100
AcDbCircle
 10
62.684752
 20
120.569231
 30
0.0
 40
3.333333333333334
  0
LINE
  5
17B
330
167
100
AcDbEntity
  8
GR1-1
  6
CONTINUOUS
 62
     3
100
AcDbLine
 10
67.084752
 20
125.569231
 30
0.0
 11
58.284752
 21
125.569231
 31
0.0
  0
ARC
  5
17C
330
167
100
AcDbEntity
  8
GR1-1
  6
CONTINUOUS
 62
     3
100
AcDbCircle
 10
67.084752
 20
116.169231
 30
0.0
 40
0.6
100
AcDbArc
 50
270.0
 51
360.0
  0
ARC
  5
17D
330
167
100
AcDbEntity
  8
GR1-1
  6
CONTINUOUS
 62
     3
100
AcDbCircle
 10
67.084752
 20
124.969231
 30
0.0
 40
0.6
100
AcDbArc
 50
0.0
 51
90.0
  0
ARC
  5
17E
330
167
100
AcDbEntity
  8
GR1-1
  6
CONTINUOUS
 62
     3
100
AcDbCircle
 10
58.284752
 20
124.969231
 30
0.0
 40
0.6
100
AcDbArc
 50
90.0
 51
180.0
  0
LINE
  5
17F
330
167
100
AcDbEntity
  8
GR1-1
  6
CONTINUOUS
 62
     3
100
AcDbLine
 10
66.434752
 20
99.95812
 30
0.0
 11
66.851419
 21
99.95812
 31
0.0
  0
LINE
  5
180
330
167
100
AcDbEntity
  8
GR1-1
  6
CONTINUOUS
 62
     3
100
AcDbLine
 10
66.851419
 20
99.95812
 30
0.0
 11
66.851419
 21
97.319231
 31
0.0
  0
LINE
  5
181
330
167
100
AcDbEntity
  8
GR1-1
  6
CONTINUOUS
 62
     3
100
AcDbLine
 10
66.851419
 20
97.319231
 30
0.0
 11
66.434752
 21
96.902564
 31
0.0
  0
LINE
  5
182
330
167
100
AcDbEntity
  8
GR1-1
  6
CONTINUOUS
 62
     3
100
AcDbLine
 10
66.434752
 20
96.902564
 30
0.0
 11
66.434752
 21
96.319231
 31
0.0
  0
LINE
  5
183
330
167
100
AcDbEntity
  8
GR1-1
  6
CONTINUOUS
 62
     3
100
AcDbLine
 10
67.268085
 20
96.319231
 30
0.0
 11
67.268085
 21
96.610897
 31
0.0
  0
LINE
  5
184
330
167
100
AcDbEntity
  8
GR1-1
  6
CONTINUOUS
 62
     3
100
AcDbLine
 10
67.268085
 20
96.319231
 30
0.0
 11
67.684752
 21
96.319231
 31
0.0
  0
LINE
  5
185
330
167
100
AcDbEntity
  8
GR1-1
  6
CONTINUOUS
 62
     3
100
AcDbLine
 10
65.571503
 20
96.902564
 30
0.0
 11
66.434752
 21
96.902564
 31
0.0
  0
ARC
  5
186
330
167
100
AcDbEntity
  8
GR1-1
  6
CONTINUOUS
 62
     3
100
AcDbCircle
 10
66.851419
 20
96.319231
 30
0.0
 40
0.4166666666666572
100
AcDbArc
 50
180.0
 51
360.0
  0
LINE
  5
187
330
167
100
AcDbEntity
  8
GR1-1
  6
CONTINUOUS
 62
     3
100
AcDbLine
 10
58.934752
 20
99.95812
 30
0.0
 11
58.518085
 21
99.95812
 31
0.0
  0
LINE
  5
188
330
167
100
AcDbEntity
  8
GR1-1
  6
CONTINUOUS
 62
     3
100
AcDbLine
 10
58.518085
 20
99.95812
 30
0.0
 11
58.518085
 21
97.319231
 31
0.0
  0
LINE
  5
189
330
167
100
AcDbEntity
  8
GR1-1
  6
CONTINUOUS
 62
     3
100
AcDbLine
 10
58.518085
 20
97.319231
 30
0.0
 11
58.934752
 21
96.902564
 31
0.0
  0
LINE
  5
18A
330
167
100
AcDbEntity
  8
GR1-1
  6
CONTINUOUS
 62
     3
100
AcDbLine
 10
58.934752
 20
96.902564
 30
0.0
 11
58.934752
 21
96.319231
 31
0.0
  0
LINE
  5
18B
330
167
100
AcDbEntity
  8
GR1-1
  6
CONTINUOUS
 62
     3
100
AcDbLine
 10
58.101419
 20
96.319231
 30
0.0
 11
58.101419
 21
96.610897
 31
0.0
  0
LINE
  5
18C
330
167
100
AcDbEntity
  8
GR1-1
  6
CONTINUOUS
 62
     3
100
AcDbLine
 10
58.101419
 20
96.319231
 30
0.0
 11
57.684752
 21
96.319231
 31
0.0
  0
LINE
  5
18D
330
167
100
AcDbEntity
  8
GR1-1
  6
CONTINUOUS
 62
     3
100
AcDbLine
 10
59.798001
 20
96.902564
 30
0.0
 11
58.934752
 21
96.902564
 31
0.0
  0
ARC
  5
18E
330
167
100
AcDbEntity
  8
GR1-1
  6
CONTINUOUS
 62
     3
100
AcDbCircle
 10
58.518085
 20
96.319231
 30
0.0
 40
0.4166666666666572
100
AcDbArc
 50
180.0
 51
360.0
  0
LINE
  5
18F
330
167
100
AcDbEntity
  8
GR1-1
  6
CONTINUOUS
 62
     3
100
AcDbLine
 10
66.434752
 20
119.180342
 30
0.0
 11
66.851419
 21
119.180342
 31
0.0
  0
LINE
  5
190
330
167
100
AcDbEntity
  8
GR1-1
  6
CONTINUOUS
 62
     3
100
AcDbLine
 10
66.851419
 20
119.180342
 30
0.0
 11
66.851419
 21
121.819231
 31
0.0
  0
LINE
  5
191
330
167
100
AcDbEntity
  8
GR1-1
  6
CONTINUOUS
 62
     3
100
AcDbLine
 10
66.851419
 20
121.819231
 30
0.0
 11
66.434752
 21
122.235897
 31
0.0
  0
LINE
  5
192
330
167
100
AcDbEntity
  8
GR1-1
  6
CONTINUOUS
 62
     3
100
AcDbLine
 10
66.434752
 20
122.235897
 30
0.0
 11
66.434752
 21
122.819231
 31
0.0
  0
LINE
  5
193
330
167
100
AcDbEntity
  8
GR1-1
  6
CONTINUOUS
 62
     3
100
AcDbLine
 10
67.268085
 20
122.819231
 30
0.0
 11
67.268085
 21
122.527564
 31
0.0
  0
LINE
  5
194
330
167
100
AcDbEntity
  8
GR1-1
  6
CONTINUOUS
 62
     3
100
AcDbLine
 10
67.268085
 20
122.819231
 30
0.0
 11
67.684752
 21
122.819231
 31
0.0
  0
LINE
  5
195
330
167
100
AcDbEntity
  8
GR1-1
  6
CONTINUOUS
 62
     3
100
AcDbLine
 10
65.571503
 20
122.235897
 30
0.0
 11
66.434752
 21
122.235897
 31
0.0
  0
ARC
  5
196
330
167
100
AcDbEntity
  8
GR1-1
  6
CONTINUOUS
 62
     3
100
AcDbCircle
 10
66.851419
 20
122.819231
 30
0.0
 40
0.4166666666666572
100
AcDbArc
 50
0.0
 51
180.0
  0
LINE
  5
197
330
167
100
AcDbEntity
  8
GR1-1
  6
CONTINUOUS
 62
     3
100
AcDbLine
 10
58.934752
 20
119.180342
 30
0.0
 11
58.518085
 21
119.180342
 31
0.0
  0
LINE
  5
198
330
167
100
AcDbEntity
  8
GR1-1
  6
CONTINUOUS
 62
     3
100
AcDbLine
 10
58.518085
 20
119.180342
 30
0.0
 11
58.518085
 21
121.819231
 31
0.0
  0
LINE
  5
199
330
167
100
AcDbEntity
  8
GR1-1
  6
CONTINUOUS
 62
     3
100
AcDbLine
 10
58.518085
 20
121.819231
 30
0.0
 11
58.934752
 21
122.235897
 31
0.0
  0
LINE
  5
19A
330
167
100
AcDbEntity
  8
GR1-1
  6
CONTINUOUS
 62
     3
100
AcDbLine
 10
58.934752
 20
122.235897
 30
0.0
 11
58.934752
 21
122.819231
 31
0.0
  0
LINE
  5
19B
330
167
100
AcDbEntity
  8
GR1-1
  6
CONTINUOUS
 62
     3
100
AcDbLine
 10
58.101419
 20
122.819231
 30
0.0
 11
58.101419
 21
122.527564
 31
0.0
  0
LINE
  5
19C
330
167
100
AcDbEntity
  8
GR1-1
  6
CONTINUOUS
 62
     3
100
AcDbLine
 10
58.101419
 20
122.819231
 30
0.0
 11
57.684752
 21
122.819231
 31
0.0
  0
LINE
  5
19D
330
167
100
AcDbEntity
  8
GR1-1
  6
CONTINUOUS
 62
     3
100
AcDbLine
 10
59.798001
 20
122.235897
 30
0.0
 11
58.934752
 21
122.235897
 31
0.0
  0
ARC
  5
19E
330
167
100
AcDbEntity
  8
GR1-1
  6
CONTINUOUS
 62
     3
100
AcDbCircle
 10
58.518085
 20
122.819231
 30
0.0
 40
0.4166666666666572
100
AcDbArc
 50
0.0
 51
180.0
  0
ENDBLK
  5
169
330
167
100
AcDbEntity
  8
0
100
AcDbBlockEnd
  0
BLOCK
  5
1A8
330
1A7
100
AcDbEntity
  8
0
100
AcDbBlockBegin
  2
BLKF022
 70
     0
 71
     0
 10
0.0
 20
0.0
 30
0.0
  3
BLKF022
  1

  0
LINE
  5
1AB
330
1A7
100
AcDbEntity
  8
GR1-1
  6
CONTINUOUS
 62
     3
100
AcDbLine
 10
84.284752
 20
93.569231
 30
0.0
 11
93.084752
 21
93.569231
 31
0.0
  0
LINE
  5
1AC
330
1A7
100
AcDbEntity
  8
GR1-1
  6
CONTINUOUS
 62
     3
100
AcDbLine
 10
83.684752
 20
94.169231
 30
0.0
 11
83.684752
 21
102.969231
 31
0.0
  0
LINE
  5
1AD
330
1A7
100
AcDbEntity
  8
GR1-1
  6
CONTINUOUS
 62
     3
100
AcDbLine
 10
93.684752
 20
94.169231
 30
0.0
 11
93.684752
 21
100.235897
 31
0.0
  0
LINE
  5
1AE
330
1A7
100
AcDbEntity
  8
GR1-1
  6
CONTINUOUS
 62
     3
100
AcDbLine
 10
83.684752
 20
100.235897
 30
0.0
 11
85.798001
 21
100.235897
 31
0.0
  0
LINE
  5
1AF
330
1A7
100
AcDbEntity
  8
GR1-1
  6
CONTINUOUS
 62
     3
100
AcDbLine
 10
91.571503
 20
100.235897
 30
0.0
 11
93.684752
 21
100.235897
 31
0.0
  0
CIRCLE
  5
1B0
330
1A7
100
AcDbEntity
  8
GR1-1
  6
CONTINUOUS
 62
     3
100
AcDbCircle
 10
88.684752
 20
98.569231
 30
0.0
 40
3.333333333333334
  0
LINE
  5
1B1
330
1A7
100
AcDbEntity
  8
GR1-1
  6
CONTINUOUS
 62
     3
100
AcDbLine
 10
84.284752
 20
103.569231
 30
0.0
 11
93.084752
 21
103.569231
 31
0.0
  0
ARC
  5
1B2
330
1A7
100
AcDbEntity
  8
GR1-1
  6
CONTINUOUS
 62
     3
100
AcDbCircle
 10
84.284752
 20
94.169231
 30
0.0
 40
0.6
100
AcDbArc
 50
180.0
 51
270.0
  0
ARC
  5
1B3
330
1A7
100
AcDbEntity
  8
GR1-1
  6
CONTINUOUS
 62
     3
100
AcDbCircle
 10
93.084752
 20
94.169231
 30
0.0
 40
0.6
100
AcDbArc
 50
270.0
 51
360.0
  0
ARC
  5
1B4
330
1A7
100
AcDbEntity
  8
GR1-1
  6
CONTINUOUS
 62
     3
100
AcDbCircle
 10
84.284752
 20
102.969231
 30
0.0
 40
0.6
100
AcDbArc
 50
90.0
 51
180.0
  0
LINE
  5
1B5
330
1A7
100
AcDbEntity
  8
GR1-1
  6
CONTINUOUS
 62
     3
100
AcDbLine
 10
84.284752
 20
115.569231
 30
0.0
 11
93.084752
 21
115.569231
 31
0.0
  0
LINE
  5
1B6
330
1A7
100
AcDbEntity
  8
GR1-1
  6
CONTINUOUS
 62
     3
100
AcDbLine
 10
83.684752
 20
116.169231
 30
0.0
 11
83.684752
 21
124.969231
 31
0.0
  0
LINE
  5
1B7
330
1A7
100
AcDbEntity
  8
GR1-1
  6
CONTINUOUS
 62
     3
100
AcDbLine
 10
93.684752
 20
118.902564
 30
0.0
 11
93.684752
 21
124.969231
 31
0.0
  0
LINE
  5
1B8
330
1A7
100
AcDbEntity
  8
GR1-1
  6
CONTINUOUS
 62
     3
100
AcDbLine
 10
83.684752
 20
118.902564
 30
0.0
 11
85.798001
 21
118.902564
 31
0.0
  0
LINE
  5
1B9
330
1A7
100
AcDbEntity
  8
GR1-1
  6
CONTINUOUS
 62
     3
100
AcDbLine
 10
91.571503
 20
118.902564
 30
0.0
 11
93.684752
 21
118.902564
 31
0.0
  0
CIRCLE
  5
1BA
330
1A7
100
AcDbEntity
  8
GR1-1
  6
CONTINUOUS
 62
     3
100
AcDbCircle
 10
88.684752
 20
120.569231
 30
0.0
 40
3.333333333333334
  0
LINE
  5
1BB
330
1A7
100
AcDbEntity
  8
GR1-1
  6
CONTINUOUS
 62
     3
100
AcDbLine
 10
84.284752
 20
125.569231
 30
0.0
 11
93.084752
 21
125.569231
 31
0.0
  0
ARC
  5
1BC
330
1A7
100
AcDbEntity
  8
GR1-1
  6
CONTINUOUS
 62
     3
100
AcDbCircle
 10
84.284752
 20
116.169231
 30
0.0
 40
0.6
100
AcDbArc
 50
180.0
 51
270.0
  0
ARC
  5
1BD
330
1A7
100
AcDbEntity
  8
GR1-1
  6
CONTINUOUS
 62
     3
100
AcDbCircle
 10
84.284752
 20
124.969231
 30
0.0
 40
0.6
100
AcDbArc
 50
90.0
 51
180.0
  0
ARC
  5
1BE
330
1A7
100
AcDbEntity
  8
GR1-1
  6
CONTINUOUS
 62
     3
100
AcDbCircle
 10
93.084752
 20
124.969231
 30
0.0
 40
0.6
100
AcDbArc
 50
0.0
 51
90.0
  0
LINE
  5
1BF
330
1A7
100
AcDbEntity
  8
GR1-1
  6
CONTINUOUS
 62
     3
100
AcDbLine
 10
84.934752
 20
99.95812
 30
0.0
 11
84.518085
 21
99.95812
 31
0.0
  0
LINE
  5
1C0
330
1A7
100
AcDbEntity
  8
GR1-1
  6
CONTINUOUS
 62
     3
100
AcDbLine
 10
84.518085
 20
99.95812
 30
0.0
 11
84.518085
 21
97.319231
 31
0.0
  0
LINE
  5
1C1
330
1A7
100
AcDbEntity
  8
GR1-1
  6
CONTINUOUS
 62
     3
100
AcDbLine
 10
84.518085
 20
97.319231
 30
0.0
 11
84.934752
 21
96.902564
 31
0.0
  0
LINE
  5
1C2
330
1A7
100
AcDbEntity
  8
GR1-1
  6
CONTINUOUS
 62
     3
100
AcDbLine
 10
84.934752
 20
96.902564
 30
0.0
 11
84.934752
 21
96.319231
 31
0.0
  0
LINE
  5
1C3
330
1A7
100
AcDbEntity
  8
GR1-1
  6
CONTINUOUS
 62
     3
100
AcDbLine
 10
84.101419
 20
96.319231
 30
0.0
 11
84.101419
 21
96.610897
 31
0.0
  0
LINE
  5
1C4
330
1A7
100
AcDbEntity
  8
GR1-1
  6
CONTINUOUS
 62
     3
100
AcDbLine
 10
84.101419
 20
96.319231
 30
0.0
 11
83.684752
 21
96.319231
 31
0.0
  0
LINE
  5
1C5
330
1A7
100
AcDbEntity
  8
GR1-1
  6
CONTINUOUS
 62
     3
100
AcDbLine
 10
85.798001
 20
96.902564
 30
0.0
 11
84.934752
 21
96.902564
 31
0.0
  0
ARC
  5
1C6
330
1A7
100
AcDbEntity
  8
GR1-1
  6
CONTINUOUS
 62
     3
100
AcDbCircle
 10
84.518085
 20
96.319231
 30
0.0
 40
0.4166666666666572
100
AcDbArc
 50
180.0
 51
360.0
  0
LINE
  5
1C7
330
1A7
100
AcDbEntity
  8
GR1-1
  6
CONTINUOUS
 62
     3
100
AcDbLine
 10
92.434752
 20
99.95812
 30
0.0
 11
92.851419
 21
99.95812
 31
0.0
  0
LINE
  5
1C8
330
1A7
100
AcDbEntity
  8
GR1-1
  6
CONTINUOUS
 62
     3
100
AcDbLine
 10
92.851419
 20
99.95812
 30
0.0
 11
92.851419
 21
97.319231
 31
0.0
  0
LINE
  5
1C9
330
1A7
100
AcDbEntity
  8
GR1-1
  6
CONTINUOUS
 62
     3
100
AcDbLine
 10
92.851419
 20
97.319231
 30
0.0
 11
92.434752
 21
96.902564
 31
0.0
  0
LINE
  5
1CA
330
1A7
100
AcDbEntity
  8
GR1-1
  6
CONTINUOUS
 62
     3
100
AcDbLine
 10
92.434752
 20
96.902564
 30
0.0
 11
92.434752
 21
96.319231
 31
0.0
  0
LINE
  5
1CB
330
1A7
100
AcDbEntity
  8
GR1-1
  6
CONTINUOUS
 62
     3
100
AcDbLine
 10
93.268085
 20
96.319231
 30
0.0
 11
93.268085
 21
96.610897
 31
0.0
  0
LINE
  5
1CC
330
1A7
100
AcDbEntity
  8
GR1-1
  6
CONTINUOUS
 62
     3
100
AcDbLine
 10
93.268085
 20
96.319231
 30
0.0
 11
93.684752
 21
96.319231
 31
0.0
  0
LINE
  5
1CD
330
1A7
100
AcDbEntity
  8
GR1-1
  6
CONTINUOUS
 62
     3
100
AcDbLine
 10
91.571503
 20
96.902564
 30
0.0
 11
92.434752
 21
96.902564
 31
0.0
  0
ARC
  5
1CE
330
1A7
100
AcDbEntity
  8
GR1-1
  6
CONTINUOUS
 62
     3
100
AcDbCircle
 10
92.851419
 20
96.319231
 30
0.0
 40
0.4166666666666572
100
AcDbArc
 50
180.0
 51
360.0
  0
LINE
  5
1CF
330
1A7
100
AcDbEntity
  8
GR1-1
  6
CONTINUOUS
 62
     3
100
AcDbLine
 10
84.934752
 20
119.180342
 30
0.0
 11
84.518085
 21
119.180342
 31
0.0
  0
LINE
  5
1D0
330
1A7
100
AcDbEntity
  8
GR1-1
  6
CONTINUOUS
 62
     3
100
AcDbLine
 10
84.518085
 20
119.180342
 30
0.0
 11
84.518085
 21
121.819231
 31
0.0
  0
LINE
  5
1D1
330
1A7
100
AcDbEntity
  8
GR1-1
  6
CONTINUOUS
 62
     3
100
AcDbLine
 10
84.518085
 20
121.819231
 30
0.0
 11
84.934752
 21
122.235897
 31
0.0
  0
LINE
  5
1D2
330
1A7
100
AcDbEntity
  8
GR1-1
  6
CONTINUOUS
 62
     3
100
AcDbLine
 10
84.934752
 20
122.235897
 30
0.0
 11
84.934752
 21
122.819231
 31
0.0
  0
LINE
  5
1D3
330
1A7
100
AcDbEntity
  8
GR1-1
  6
CONTINUOUS
 62
     3
100
AcDbLine
 10
84.101419
 20
122.819231
 30
0.0
 11
84.101419
 21
122.527564
 31
0.0
  0
LINE
  5
1D4
330
1A7
100
AcDbEntity
  8
GR1-1
  6
CONTINUOUS
 62
     3
100
AcDbLine
 10
84.101419
 20
122.819231
 30
0.0
 11
83.684752
 21
122.819231
 31
0.0
  0
LINE
  5
1D5
330
1A7
100
AcDbEntity
  8
GR1-1
  6
CONTINUOUS
 62
     3
100
AcDbLine
 10
85.798001
 20
122.235897
 30
0.0
 11
84.934752
 21
122.235897
 31
0.0
  0
ARC
  5
1D6
330
1A7
100
AcDbEntity
  8
GR1-1
  6
CONTINUOUS
 62
     3
100
AcDbCircle
 10
84.518085
 20
122.819231
 30
0.0
 40
0.4166666666666572
100
AcDbArc
 50
0.0
 51
180.0
  0
LINE
  5
1D7
330
1A7
100
AcDbEntity
  8
GR1-1
  6
CONTINUOUS
 62
     3
100
AcDbLine
 10
92.434752
 20
119.180342
 30
0.0
 11
92.851419
 21
119.180342
 31
0.0
  0
LINE
  5
1D8
330
1A7
100
AcDbEntity
  8
GR1-1
  6
CONTINUOUS
 62
     3
100
AcDbLine
 10
92.851419
 20
119.180342
 30
0.0
 11
92.851419
 21
121.819231
 31
0.0
  0
LINE
  5
1D9
330
1A7
100
AcDbEntity
  8
GR1-1
  6
CONTINUOUS
 62
     3
100
AcDbLine
 10
92.851419
 20
121.819231
 30
0.0
 11
92.434752
 21
122.235897
 31
0.0
  0
LINE
  5
1DA
330
1A7
100
AcDbEntity
  8
GR1-1
  6
CONTINUOUS
 62
     3
100
AcDbLine
 10
92.434752
 20
122.235897
 30
0.0
 11
92.434752
 21
122.819231
 31
0.0
  0
LINE
  5
1DB
330
1A7
100
AcDbEntity
  8
GR1-1
  6
CONTINUOUS
 62
     3
100
AcDbLine
 10
93.268085
 20
122.819231
 30
0.0
 11
93.268085
 21
122.527564
 31
0.0
  0
LINE
  5
1DC
330
1A7
100
AcDbEntity
  8
GR1-1
  6
CONTINUOUS
 62
     3
100
AcDbLine
 10
93.268085
 20
122.819231
 30
0.0
 11
93.684752
 21
122.819231
 31
0.0
  0
LINE
  5
1DD
330
1A7
100
AcDbEntity
  8
GR1-1
  6
CONTINUOUS
 62
     3
100
AcDbLine
 10
91.571503
 20
122.235897
 30
0.0
 11
92.434752
 21
122.235897
 31
0.0
  0
ARC
  5
1DE
330
1A7
100
AcDbEntity
  8
GR1-1
  6
CONTINUOUS
 62
     3
100
AcDbCircle
 10
92.851419
 20
122.819231
 30
0.0
 40
0.4166666666666572
100
AcDbArc
 50
0.0
 51
180.0
  0
ENDBLK
  5
1A9
330
1A7
100
AcDbEntity
  8
0
100
AcDbBlockEnd
  0
BLOCK
  5
1E8
330
1E7
100
AcDbEntity
  8
0
100
AcDbBlockBegin
  2
BLKF023
 70
     0
 71
     0
 10
0.0
 20
0.0
 30
0.0
  3
BLKF023
  1

  0
CIRCLE
  5
1EB
330
1E7
100
AcDbEntity
  8
LAYERGROUP-1
  6
CONTINUOUS
 62
     3
100
AcDbCircle
 10
217.609615
 20
109.569231
 30
0.0
 40
16.0
  0
CIRCLE
  5
1EC
330
1E7
100
AcDbEntity
  8
LAYERGROUP-1
  6
CONTINUOUS
 62
     6
100
AcDbCircle
 10
217.609615
 20
109.569231
 30
0.0
 40
12.66666666666666
  0
CIRCLE
  5
1ED
330
1E7
100
AcDbEntity
  8
LAYERGROUP-1
  6
CONTINUOUS
 62
     3
100
AcDbCircle
 10
217.609615
 20
109.569231
 30
0.0
 40
9.333333333333343
  0
CIRCLE
  5
1EE
330
1E7
100
AcDbEntity
  8
LAYERGROUP-1
  6
CONTINUOUS
 62
     3
100
AcDbCircle
 10
217.609615
 20
109.569231
 30
0.0
 40
6.0
  0
ENDBLK
  5
1E9
330
1E7
100
AcDbEntity
  8
0
100
AcDbBlockEnd
  0
BLOCK
  5
1F4
330
1F3
100
AcDbEntity
  8
0
100
AcDbBlockBegin
  2
*D22
 70
     1
 71
     0
 10
0.0
 20
0.0
 30
0.0
  3
*D22
  1

  0
TEXT
  5
1F6
330
1F3
100
AcDbEntity
  8
GR1-1
  6
CONTINUOUS
 62
     7
100
AcDbText
 10
105.684753
 20
105.069229
 30
0.0
 40
4.0
  1
%%c12
 50
90.0
 41
0.84375
  7
FX_VECTOR
 72
     5
 11
105.684753
 21
114.069229
 31
0.0
100
AcDbText
  0
LINE
  5
1F7
330
1F3
100
AcDbEntity
  8
GR1-1
  6
CONTINUOUS
 62
     7
100
AcDbLine
 10
106.684752
 20
103.569231
 30
0.0
 11
106.684752
 21
115.569231
 31
0.0
  0
INSERT
  5
1F8
330
1F3
100
AcDbEntity
  8
GR1-1
  6
CONTINUOUS
 62
     7
100
AcDbBlockReference
  2
FXTIP_ARROW_S
 10
106.684752
 20
103.569231
 30
0.0
 41
3.0
 42
3.0
 50
270.0
  0
INSERT
  5
1F9
330
1F3
100
AcDbEntity
  8
GR1-1
  6
CONTINUOUS
 62
     7
100
AcDbBlockReference
  2
FXTIP_ARROW_E
 10
106.684752
 20
115.569231
 30
0.0
 41
3.0
 42
3.0
 50
90.0
  0
LINE
  5
1FA
330
1F3
100
AcDbEntity
  8
GR1-1
  6
CONTINUOUS
 62
     7
100
AcDbLine
 10
97.084752
 20
103.569231
 30
0.0
 11
107.684752
 21
103.569231
 31
0.0
  0
LINE
  5
1FB
330
1F3
100
AcDbEntity
  8
GR1-1
  6
CONTINUOUS
 62
     7
100
AcDbLine
 10
97.084752
 20
115.569231
 30
0.0
 11
107.684752
 21
115.569231
 31
0.0
  0
ENDBLK
  5
1F5
330
1F3
100
AcDbEntity
  8
0
100
AcDbBlockEnd
  0
BLOCK
  5
1FE
330
1FD
100
AcDbEntity
  8
0
100
AcDbBlockBegin
  2
*D23
 70
     1
 71
     0
 10
0.0
 20
0.0
 30
0.0
  3
*D23
  1

  0
TEXT
  5
200
330
1FD
100
AcDbEntity
  8
GR1-1
  6
CONTINUOUS
 62
     7
100
AcDbText
 10
72.684753
 20
50.569229
 30
0.0
 40
4.0
  1
32
 41
0.851351
  7
FX_VECTOR
 72
     5
 11
78.684753
 21
50.569229
 31
0.0
100
AcDbText
  0
LINE
  5
201
330
1FD
100
AcDbEntity
  8
GR1-1
  6
CONTINUOUS
 62
     7
100
AcDbLine
 10
59.684752
 20
49.569231
 30
0.0
 11
91.684752
 21
49.569231
 31
0.0
  0
INSERT
  5
202
330
1FD
100
AcDbEntity
  8
GR1-1
  6
CONTINUOUS
 62
     7
100
AcDbBlockReference
  2
FXTIP_ARROW_S
 10
59.684752
 20
49.569231
 30
0.0
 41
3.0
 42
3.0
 50
180.0
  0
INSERT
  5
203
330
1FD
100
AcDbEntity
  8
GR1-1
  6
CONTINUOUS
 62
     7
100
AcDbBlockReference
  2
FXTIP_ARROW_E
 10
91.684752
 20
49.569231
 30
0.0
 41
3.0
 42
3.0
 50
360.0
  0
LINE
  5
204
330
1FD
100
AcDbEntity
  8
GR1-1
  6
CONTINUOUS
 62
     7
100
AcDbLine
 10
59.684752
 20
67.569231
 30
0.0
 11
59.684752
 21
48.569231
 31
0.0
  0
LINE
  5
205
330
1FD
100
AcDbEntity
  8
GR1-1
  6
CONTINUOUS
 62
     7
100
AcDbLine
 10
91.684752
 20
67.569231
 30
0.0
 11
91.684752
 21
48.569231
 31
0.0
  0
ENDBLK
  5
1FF
330
1FD
100
AcDbEntity
  8
0
100
AcDbBlockEnd
  0
BLOCK
  5
208
330
207
100
AcDbEntity
  8
0
100
AcDbBlockBegin
  2
*D24
 70
     1
 71
     0
 10
0.0
 20
0.0
 30
0.0
  3
*D24
  1

  0
TEXT
  5
20A
330
207
100
AcDbEntity
  8
GR1-1
  6
CONTINUOUS
 62
     7
100
AcDbText
 10
72.684753
 20
38.904118
 30
0.0
 40
4.0
  1
42
 41
0.851351
  7
FX_VECTOR
 72
     5
 11
78.684753
 21
38.904118
 31
0.0
100
AcDbText
  0
LINE
  5
20B
330
207
100
AcDbEntity
  8
GR1-1
  6
CONTINUOUS
 62
     7
100
AcDbLine
 10
54.684752
 20
37.904116
 30
0.0
 11
96.684752
 21
37.904116
 31
0.0
  0
INSERT
  5
20C
330
207
100
AcDbEntity
  8
GR1-1
  6
CONTINUOUS
 62
     7
100
AcDbBlockReference
  2
FXTIP_ARROW_S
 10
54.684752
 20
37.904116
 30
0.0
 41
3.0
 42
3.0
 50
180.0
  0
INSERT
  5
20D
330
207
100
AcDbEntity
  8
GR1-1
  6
CONTINUOUS
 62
     7
100
AcDbBlockReference
  2
FXTIP_ARROW_E
 10
96.684752
 20
37.904116
 30
0.0
 41
3.0
 42
3.0
 50
360.0
  0
LINE
  5
20E
330
207
100
AcDbEntity
  8
GR1-1
  6
CONTINUOUS
 62
     7
100
AcDbLine
 10
54.684752
 20
99.235897
 30
0.0
 11
54.684752
 21
36.904116
 31
0.0
  0
LINE
  5
20F
330
207
100
AcDbEntity
  8
GR1-1
  6
CONTINUOUS
 62
     7
100
AcDbLine
 10
96.684752
 20
98.235897
 30
0.0
 11
96.684752
 21
36.904116
 31
0.0
  0
ENDBLK
  5
209
330
207
100
AcDbEntity
  8
0
100
AcDbBlockEnd
  0
BLOCK
  5
212
330
211
100
AcDbEntity
  8
0
100
AcDbBlockBegin
  2
*D25
 70
     1
 71
     0
 10
0.0
 20
0.0
 30
0.0
  3
*D25
  1

  0
TEXT
  5
214
330
211
100
AcDbEntity
  8
GR1-1
  6
CONTINUOUS
 62
     7
100
AcDbText
 10
121.057182
 20
103.569229
 30
0.0
 40
4.0
  1
%%c100
 50
90.0
 41
0.828947
  7
FX_VECTOR
 72
     5
 11
121.057182
 21
115.569229
 31
0.0
100
AcDbText
  0
LINE
  5
215
330
211
100
AcDbEntity
  8
GR1-1
  6
CONTINUOUS
 62
     7
100
AcDbLine
 10
122.057183
 20
59.569231
 30
0.0
 11
122.057183
 21
159.569231
 31
0.0
  0
INSERT
  5
216
330
211
100
AcDbEntity
  8
GR1-1
  6
CONTINUOUS
 62
     7
100
AcDbBlockReference
  2
FXTIP_ARROW_S
 10
122.057183
 20
59.569231
 30
0.0
 41
3.0
 42
3.0
 50
270.0
  0
INSERT
  5
217
330
211
100
AcDbEntity
  8
GR1-1
  6
CONTINUOUS
 62
     7
100
AcDbBlockReference
  2
FXTIP_ARROW_E
 10
122.057183
 20
159.569231
 30
0.0
 41
3.0
 42
3.0
 50
90.0
  0
LINE
  5
218
330
211
100
AcDbEntity
  8
GR1-1
  6
CONTINUOUS
 62
     7
100
AcDbLine
 10
86.622574
 20
59.569231
 30
0.0
 11
123.057183
 21
59.569231
 31
0.0
  0
LINE
  5
219
330
211
100
AcDbEntity
  8
GR1-1
  6
CONTINUOUS
 62
     7
100
AcDbLine
 10
86.622574
 20
159.569231
 30
0.0
 11
123.057183
 21
159.569231
 31
0.0
  0
ENDBLK
  5
213
330
211
100
AcDbEntity
  8
0
100
AcDbBlockEnd
  0
BLOCK
  5
21B
330
21A
100
AcDbEntity
  8
0
100
AcDbBlockBegin
  2
BLKF028
 70
     0
 71
     0
 10
0.0
 20
0.0
 30
0.0
  3
BLKF028
  1

  0
LINE
  5
21E
330
21A
100
AcDbEntity
  8
GR1-1
  6
CONTINUOUS
 62
     7
100
AcDbLine
 10
193.381107
 20
145.735641
 30
0.0
 11
193.41969
 21
145.979244
 31
0.0
  0
LINE
  5
21F
330
21A
100
AcDbEntity
  8
GR1-1
  6
CONTINUOUS
 62
     7
100
AcDbLine
 10
193.240014
 20
145.633131
 30
0.0
 11
193.31718
 21
146.120337
 31
0.0
  0
LINE
  5
220
330
21A
100
AcDbEntity
  8
GR1-1
  6
CONTINUOUS
 62
     7
100
AcDbLine
 10
193.098921
 20
145.53062
 30
0.0
 11
193.21467
 21
146.261431
 31
0.0
  0
LINE
  5
221
330
21A
100
AcDbEntity
  8
GR1-1
  6
CONTINUOUS
 62
     7
100
AcDbLine
 10
192.957828
 20
145.42811
 30
0.0
 11
193.11216
 21
146.402524
 31
0.0
  0
LINE
  5
222
330
21A
100
AcDbEntity
  8
GR1-1
  6
CONTINUOUS
 62
     7
100
AcDbLine
 10
192.816735
 20
145.3256
 30
0.0
 11
192.949828
 21
146.165922
 31
0.0
  0
LINE
  5
223
330
21A
100
AcDbEntity
  8
GR1-1
  6
CONTINUOUS
 62
     7
100
AcDbLine
 10
192.986245
 20
146.395847
 30
0.0
 11
193.00965
 21
146.543617
 31
0.0
  0
LINE
  5
224
330
21A
100
AcDbEntity
  8
GR1-1
  6
CONTINUOUS
 62
     7
100
AcDbLine
 10
192.675641
 20
145.22309
 30
0.0
 11
192.808735
 21
146.063411
 31
0.0
  0
LINE
  5
225
330
21A
100
AcDbEntity
  8
GR1-1
  6
CONTINUOUS
 62
     7
100
AcDbLine
 10
192.883735
 20
146.53694
 30
0.0
 11
192.907139
 21
146.68471
 31
0.0
  0
LINE
  5
226
330
21A
100
AcDbEntity
  8
GR1-1
  6
CONTINUOUS
 62
     7
100
AcDbLine
 10
192.534548
 20
145.120579
 30
0.0
 11
192.667642
 21
145.960901
 31
0.0
  0
LINE
  5
227
330
21A
100
AcDbEntity
  8
GR1-1
  6
CONTINUOUS
 62
     7
100
AcDbLine
 10
192.781225
 20
146.678033
 30
0.0
 11
192.804629
 21
146.825804
 31
0.0
  0
LINE
  5
228
330
21A
100
AcDbEntity
  8
GR1-1
  6
CONTINUOUS
 62
     7
100
AcDbLine
 10
192.393455
 20
145.018069
 30
0.0
 11
192.542303
 21
145.957858
 31
0.0
  0
LINE
  5
229
330
21A
100
AcDbEntity
  8
GR1-1
  6
CONTINUOUS
 62
     7
100
AcDbLine
 10
192.678714
 20
146.819127
 30
0.0
 11
192.702119
 21
146.966897
 31
0.0
  0
LINE
  5
22A
330
21A
100
AcDbEntity
  8
GR1-1
  6
CONTINUOUS
 62
     7
100
AcDbLine
 10
192.252362
 20
144.915559
 30
0.0
 11
192.439793
 21
146.098952
 31
0.0
  0
LINE
  5
22B
330
21A
100
AcDbEntity
  8
GR1-1
  6
CONTINUOUS
 62
     7
100
AcDbLine
 10
192.576204
 20
146.96022
 30
0.0
 11
192.599609
 21
147.10799
 31
0.0
  0
LINE
  5
22C
330
21A
100
AcDbEntity
  8
GR1-1
  6
CONTINUOUS
 62
     7
100
AcDbLine
 10
192.111268
 20
144.813049
 30
0.0
 11
192.337282
 21
146.240045
 31
0.0
  0
LINE
  5
22D
330
21A
100
AcDbEntity
  8
GR1-1
  6
CONTINUOUS
 62
     7
100
AcDbLine
 10
192.473694
 20
147.101313
 30
0.0
 11
192.497098
 21
147.249083
 31
0.0
  0
LINE
  5
22E
330
21A
100
AcDbEntity
  8
GR1-1
  6
CONTINUOUS
 62
     7
100
AcDbLine
 10
191.970175
 20
144.710539
 30
0.0
 11
192.223499
 21
146.309965
 31
0.0
  0
LINE
  5
22F
330
21A
100
AcDbEntity
  8
GR1-1
  6
CONTINUOUS
 62
     7
100
AcDbLine
 10
192.371184
 20
147.242406
 30
0.0
 11
192.394588
 21
147.390176
 31
0.0
  0
LINE
  5
230
330
21A
100
AcDbEntity
  8
GR1-1
  6
CONTINUOUS
 62
     7
100
AcDbLine
 10
191.829082
 20
144.608028
 30
0.0
 11
191.867665
 21
144.851632
 31
0.0
  0
LINE
  5
231
330
21A
100
AcDbEntity
  8
GR1-1
  6
CONTINUOUS
 62
     7
100
AcDbLine
 10
192.238316
 20
147.191833
 30
0.0
 11
192.292078
 21
147.53127
 31
0.0
  0
LINE
  5
232
330
21A
100
AcDbEntity
  8
GR1-1
  6
CONTINUOUS
 62
     7
100
AcDbLine
 10
191.687989
 20
144.505518
 30
0.0
 11
191.745863
 21
144.870923
 31
0.0
  0
LINE
  5
233
330
21A
100
AcDbEntity
  8
GR1-1
  6
CONTINUOUS
 62
     7
100
AcDbLine
 10
192.097223
 20
147.089323
 30
0.0
 11
192.189568
 21
147.672363
 31
0.0
  0
LINE
  5
234
330
21A
100
AcDbEntity
  8
GR1-1
  6
CONTINUOUS
 62
     7
100
AcDbLine
 10
191.546896
 20
144.403008
 30
0.0
 11
191.624062
 21
144.890215
 31
0.0
  0
LINE
  5
235
330
21A
100
AcDbEntity
  8
GR1-1
  6
CONTINUOUS
 62
     7
100
AcDbLine
 10
191.95613
 20
146.986813
 30
0.0
 11
191.997053
 21
147.245193
 31
0.0
  0
LINE
  5
236
330
21A
100
AcDbEntity
  8
GR1-1
  6
CONTINUOUS
 62
     7
100
AcDbLine
 10
192.009891
 20
147.326249
 30
0.0
 11
192.087057
 21
147.813456
 31
0.0
  0
LINE
  5
237
330
21A
100
AcDbEntity
  8
GR1-1
  6
CONTINUOUS
 62
     7
100
AcDbLine
 10
191.405802
 20
144.300498
 30
0.0
 11
191.50226
 21
144.909506
 31
0.0
  0
LINE
  5
238
330
21A
100
AcDbEntity
  8
GR1-1
  6
CONTINUOUS
 62
     7
100
AcDbLine
 10
191.815037
 20
146.884302
 30
0.0
 11
191.85596
 21
147.142683
 31
0.0
  0
LINE
  5
239
330
21A
100
AcDbEntity
  8
GR1-1
  6
CONTINUOUS
 62
     7
100
AcDbLine
 10
191.88809
 20
147.345541
 30
0.0
 11
191.984547
 21
147.954549
 31
0.0
  0
LINE
  5
23A
330
21A
100
AcDbEntity
  8
GR1-1
  6
CONTINUOUS
 62
     7
100
AcDbLine
 10
191.264709
 20
144.197987
 30
0.0
 11
191.380458
 21
144.928798
 31
0.0
  0
LINE
  5
23B
330
21A
100
AcDbEntity
  8
GR1-1
  6
CONTINUOUS
 62
     7
100
AcDbLine
 10
191.673944
 20
146.781792
 30
0.0
 11
191.714867
 21
147.040173
 31
0.0
  0
LINE
  5
23C
330
21A
100
AcDbEntity
  8
GR1-1
  6
CONTINUOUS
 62
     7
100
AcDbLine
 10
191.766288
 20
147.364832
 30
0.0
 11
191.882037
 21
148.095643
 31
0.0
  0
LINE
  5
23D
330
21A
100
AcDbEntity
  8
GR1-1
  6
CONTINUOUS
 62
     7
100
AcDbLine
 10
191.123616
 20
144.095477
 30
0.0
 11
191.258656
 21
144.948089
 31
0.0
  0
LINE
  5
23E
330
21A
100
AcDbEntity
  8
GR1-1
  6
CONTINUOUS
 62
     7
100
AcDbLine
 10
191.355114
 20
145.557098
 30
0.0
 11
191.464437
 21
146.24734
 31
0.0
  0
LINE
  5
23F
330
21A
100
AcDbEntity
  8
GR1-1
  6
CONTINUOUS
 62
     7
100
AcDbLine
 10
191.53285
 20
146.679282
 30
0.0
 11
191.573774
 21
146.937662
 31
0.0
  0
LINE
  5
240
330
21A
100
AcDbEntity
  8
GR1-1
  6
CONTINUOUS
 62
     7
100
AcDbLine
 10
191.644486
 20
147.384124
 30
0.0
 11
191.779527
 21
148.236736
 31
0.0
  0
LINE
  5
241
330
21A
100
AcDbEntity
  8
GR1-1
  6
CONTINUOUS
 62
     7
100
AcDbLine
 10
190.982523
 20
143.992967
 30
0.0
 11
191.136855
 21
144.967381
 31
0.0
  0
LINE
  5
242
330
21A
100
AcDbEntity
  8
GR1-1
  6
CONTINUOUS
 62
     7
100
AcDbLine
 10
191.233312
 20
145.576389
 30
0.0
 11
191.323551
 21
146.146138
 31
0.0
  0
LINE
  5
243
330
21A
100
AcDbEntity
  8
GR1-1
  6
CONTINUOUS
 62
     7
100
AcDbLine
 10
191.391757
 20
146.576772
 30
0.0
 11
191.432681
 21
146.835152
 31
0.0
  0
LINE
  5
244
330
21A
100
AcDbEntity
  8
GR1-1
  6
CONTINUOUS
 62
     7
100
AcDbLine
 10
191.522685
 20
147.403415
 30
0.0
 11
191.677017
 21
148.377829
 31
0.0
  0
LINE
  5
245
330
21A
100
AcDbEntity
  8
GR1-1
  6
CONTINUOUS
 62
     7
100
AcDbLine
 10
190.841429
 20
143.890457
 30
0.0
 11
191.015053
 21
144.986672
 31
0.0
  0
LINE
  5
246
330
21A
100
AcDbEntity
  8
GR1-1
  6
CONTINUOUS
 62
     7
100
AcDbLine
 10
191.11151
 20
145.595681
 30
0.0
 11
191.182458
 21
146.043627
 31
0.0
  0
LINE
  5
247
330
21A
100
AcDbEntity
  8
GR1-1
  6
CONTINUOUS
 62
     7
100
AcDbLine
 10
191.250664
 20
146.474261
 30
0.0
 11
191.304425
 21
146.813698
 31
0.0
  0
LINE
  5
248
330
21A
100
AcDbEntity
  8
GR1-1
  6
CONTINUOUS
 62
     7
100
AcDbLine
 10
191.400883
 20
147.422707
 30
0.0
 11
191.574506
 21
148.518922
 31
0.0
  0
LINE
  5
249
330
21A
100
AcDbEntity
  8
GR1-1
  6
CONTINUOUS
 62
     7
100
AcDbLine
 10
190.700336
 20
143.787946
 30
0.0
 11
190.893251
 21
145.005964
 31
0.0
  0
LINE
  5
24A
330
21A
100
AcDbEntity
  8
GR1-1
  6
CONTINUOUS
 62
     7
100
AcDbLine
 10
190.989709
 20
145.614972
 30
0.0
 11
191.062762
 21
146.076211
 31
0.0
  0
LINE
  5
24B
330
21A
100
AcDbEntity
  8
GR1-1
  6
CONTINUOUS
 62
     7
100
AcDbLine
 10
191.109571
 20
146.371751
 30
0.0
 11
191.182624
 21
146.83299
 31
0.0
  0
LINE
  5
24C
330
21A
100
AcDbEntity
  8
GR1-1
  6
CONTINUOUS
 62
     7
100
AcDbLine
 10
191.279081
 20
147.441998
 30
0.0
 11
191.471996
 21
148.660016
 31
0.0
  0
LINE
  5
24D
330
21A
100
AcDbEntity
  8
GR1-1
  6
CONTINUOUS
 62
     7
100
AcDbLine
 10
190.559243
 20
143.685436
 30
0.0
 11
190.771449
 21
145.025255
 31
0.0
  0
LINE
  5
24E
330
21A
100
AcDbEntity
  8
GR1-1
  6
CONTINUOUS
 62
     7
100
AcDbLine
 10
190.867907
 20
145.634264
 30
0.0
 11
190.960251
 21
146.217304
 31
0.0
  0
LINE
  5
24F
330
21A
100
AcDbEntity
  8
GR1-1
  6
CONTINUOUS
 62
     7
100
AcDbLine
 10
190.968477
 20
146.269241
 30
0.0
 11
191.060822
 21
146.852281
 31
0.0
  0
LINE
  5
250
330
21A
100
AcDbEntity
  8
GR1-1
  6
CONTINUOUS
 62
     7
100
AcDbLine
 10
191.157279
 20
147.46129
 30
0.0
 11
191.369486
 21
148.801109
 31
0.0
  0
LINE
  5
251
330
21A
100
AcDbEntity
  8
GR1-1
  6
CONTINUOUS
 62
     7
100
AcDbLine
 10
190.448507
 20
143.774592
 30
0.0
 11
190.649648
 21
145.044547
 31
0.0
  0
LINE
  5
252
330
21A
100
AcDbEntity
  8
GR1-1
  6
CONTINUOUS
 62
     7
100
AcDbLine
 10
190.746105
 20
145.653555
 30
0.0
 11
190.93902
 21
146.871573
 31
0.0
  0
LINE
  5
253
330
21A
100
AcDbEntity
  8
GR1-1
  6
CONTINUOUS
 62
     7
100
AcDbLine
 10
191.035478
 20
147.480581
 30
0.0
 11
191.236619
 21
148.750536
 31
0.0
  0
LINE
  5
254
330
21A
100
AcDbEntity
  8
GR1-1
  6
CONTINUOUS
 62
     7
100
AcDbLine
 10
190.345996
 20
143.915686
 30
0.0
 11
190.527846
 21
145.063838
 31
0.0
  0
LINE
  5
255
330
21A
100
AcDbEntity
  8
GR1-1
  6
CONTINUOUS
 62
     7
100
AcDbLine
 10
190.624303
 20
145.672847
 30
0.0
 11
190.817218
 21
146.890864
 31
0.0
  0
LINE
  5
256
330
21A
100
AcDbEntity
  8
GR1-1
  6
CONTINUOUS
 62
     7
100
AcDbLine
 10
190.913676
 20
147.499873
 30
0.0
 11
191.095525
 21
148.648025
 31
0.0
  0
LINE
  5
257
330
21A
100
AcDbEntity
  8
GR1-1
  6
CONTINUOUS
 62
     7
100
AcDbLine
 10
190.243486
 20
144.056779
 30
0.0
 11
190.406044
 21
145.08313
 31
0.0
  0
LINE
  5
258
330
21A
100
AcDbEntity
  8
GR1-1
  6
CONTINUOUS
 62
     7
100
AcDbLine
 10
190.502502
 20
145.692138
 30
0.0
 11
190.695417
 21
146.910156
 31
0.0
  0
LINE
  5
259
330
21A
100
AcDbEntity
  8
GR1-1
  6
CONTINUOUS
 62
     7
100
AcDbLine
 10
190.791874
 20
147.519164
 30
0.0
 11
190.954432
 21
148.545515
 31
0.0
  0
LINE
  5
25A
330
21A
100
AcDbEntity
  8
GR1-1
  6
CONTINUOUS
 62
     7
100
AcDbLine
 10
190.140976
 20
144.197872
 30
0.0
 11
190.284243
 21
145.102421
 31
0.0
  0
LINE
  5
25B
330
21A
100
AcDbEntity
  8
GR1-1
  6
CONTINUOUS
 62
     7
100
AcDbLine
 10
190.3807
 20
145.71143
 30
0.0
 11
190.573615
 21
146.929447
 31
0.0
  0
LINE
  5
25C
330
21A
100
AcDbEntity
  8
GR1-1
  6
CONTINUOUS
 62
     7
100
AcDbLine
 10
190.670072
 20
147.538456
 30
0.0
 11
190.813339
 21
148.443005
 31
0.0
  0
LINE
  5
25D
330
21A
100
AcDbEntity
  8
GR1-1
  6
CONTINUOUS
 62
     7
100
AcDbLine
 10
190.038466
 20
144.338965
 30
0.0
 11
190.162441
 21
145.121713
 31
0.0
  0
LINE
  5
25E
330
21A
100
AcDbEntity
  8
GR1-1
  6
CONTINUOUS
 62
     7
100
AcDbLine
 10
190.258898
 20
145.730721
 30
0.0
 11
190.451813
 21
146.948739
 31
0.0
  0
LINE
  5
25F
330
21A
100
AcDbEntity
  8
GR1-1
  6
CONTINUOUS
 62
     7
100
AcDbLine
 10
190.548271
 20
147.557747
 30
0.0
 11
190.672246
 21
148.340495
 31
0.0
  0
LINE
  5
260
330
21A
100
AcDbEntity
  8
GR1-1
  6
CONTINUOUS
 62
     7
100
AcDbLine
 10
189.935956
 20
144.480058
 30
0.0
 11
190.040639
 21
145.141004
 31
0.0
  0
LINE
  5
261
330
21A
100
AcDbEntity
  8
GR1-1
  6
CONTINUOUS
 62
     7
100
AcDbLine
 10
190.426469
 20
147.577039
 30
0.0
 11
190.531153
 21
148.237984
 31
0.0
  0
LINE
  5
262
330
21A
100
AcDbEntity
  8
GR1-1
  6
CONTINUOUS
 62
     7
100
AcDbLine
 10
189.833445
 20
144.621152
 30
0.0
 11
189.918837
 21
145.160296
 31
0.0
  0
LINE
  5
263
330
21A
100
AcDbEntity
  8
GR1-1
  6
CONTINUOUS
 62
     7
100
AcDbLine
 10
190.304667
 20
147.59633
 30
0.0
 11
190.390059
 21
148.135474
 31
0.0
  0
LINE
  5
264
330
21A
100
AcDbEntity
  8
GR1-1
  6
CONTINUOUS
 62
     7
100
AcDbLine
 10
189.730935
 20
144.762245
 30
0.0
 11
189.797036
 21
145.179587
 31
0.0
  0
LINE
  5
265
330
21A
100
AcDbEntity
  8
GR1-1
  6
CONTINUOUS
 62
     7
100
AcDbLine
 10
190.182866
 20
147.615622
 30
0.0
 11
190.248966
 21
148.032964
 31
0.0
  0
LINE
  5
266
330
21A
100
AcDbEntity
  8
GR1-1
  6
CONTINUOUS
 62
     7
100
AcDbLine
 10
189.628425
 20
144.903338
 30
0.0
 11
189.675234
 21
145.198879
 31
0.0
  0
LINE
  5
267
330
21A
100
AcDbEntity
  8
GR1-1
  6
CONTINUOUS
 62
     7
100
AcDbLine
 10
190.061064
 20
147.634913
 30
0.0
 11
190.107873
 21
147.930454
 31
0.0
  0
LINE
  5
268
330
21A
100
AcDbEntity
  8
GR1-1
  6
CONTINUOUS
 62
     7
100
AcDbLine
 10
189.525915
 20
145.044431
 30
0.0
 11
189.553432
 21
145.21817
 31
0.0
  0
LINE
  5
269
330
21A
100
AcDbEntity
  8
GR1-1
  6
CONTINUOUS
 62
     7
100
AcDbLine
 10
189.939262
 20
147.654205
 30
0.0
 11
189.96678
 21
147.827944
 31
0.0
  0
LINE
  5
26A
330
21A
100
AcDbEntity
  8
GR1-1
  6
CONTINUOUS
 62
     7
100
AcDbLine
 10
189.423404
 20
145.185525
 30
0.0
 11
189.825686
 21
147.725433
 31
0.0
  0
LINE
  5
26B
330
21A
100
AcDbEntity
  8
GR1-1
  6
CONTINUOUS
 62
     7
100
AcDbLine
 10
189.320894
 20
145.326618
 30
0.0
 11
189.684593
 21
147.622923
 31
0.0
  0
LINE
  5
26C
330
21A
100
AcDbEntity
  8
GR1-1
  6
CONTINUOUS
 62
     7
100
AcDbLine
 10
189.218384
 20
145.467711
 30
0.0
 11
189.5435
 21
147.520413
 31
0.0
  0
LINE
  5
26D
330
21A
100
AcDbEntity
  8
GR1-1
  6
CONTINUOUS
 62
     7
100
AcDbLine
 10
189.115874
 20
145.608804
 30
0.0
 11
189.402407
 21
147.417903
 31
0.0
  0
LINE
  5
26E
330
21A
100
AcDbEntity
  8
GR1-1
  6
CONTINUOUS
 62
     7
100
AcDbLine
 10
189.013363
 20
145.749898
 30
0.0
 11
189.261314
 21
147.315392
 31
0.0
  0
LINE
  5
26F
330
21A
100
AcDbEntity
  8
GR1-1
  6
CONTINUOUS
 62
     7
100
AcDbLine
 10
188.910853
 20
145.890991
 30
0.0
 11
189.12022
 21
147.212882
 31
0.0
  0
LINE
  5
270
330
21A
100
AcDbEntity
  8
GR1-1
  6
CONTINUOUS
 62
     7
100
AcDbLine
 10
188.808343
 20
146.032084
 30
0.0
 11
188.979127
 21
147.110372
 31
0.0
  0
LINE
  5
271
330
21A
100
AcDbEntity
  8
GR1-1
  6
CONTINUOUS
 62
     7
100
AcDbLine
 10
188.705833
 20
146.173177
 30
0.0
 11
188.838034
 21
147.007862
 31
0.0
  0
LINE
  5
272
330
21A
100
AcDbEntity
  8
GR1-1
  6
CONTINUOUS
 62
     7
100
AcDbLine
 10
188.603323
 20
146.31427
 30
0.0
 11
188.696941
 21
146.905351
 31
0.0
  0
LINE
  5
273
330
21A
100
AcDbEntity
  8
GR1-1
  6
CONTINUOUS
 62
     7
100
AcDbLine
 10
188.500812
 20
146.455364
 30
0.0
 11
188.555847
 21
146.802841
 31
0.0
  0
LINE
  5
274
330
21A
100
AcDbEntity
  8
GR1-1
  6
CONTINUOUS
 62
     7
100
AcDbLine
 10
188.398302
 20
146.596457
 30
0.0
 11
188.414754
 21
146.700331
 31
0.0
  0
ENDBLK
  5
21C
330
21A
100
AcDbEntity
  8
0
100
AcDbBlockEnd
  0
BLOCK
  5
29B
330
29A
100
AcDbEntity
  8
0
100
AcDbBlockBegin
  2
BLKF029
 70
     0
 71
     0
 10
0.0
 20
0.0
 30
0.0
  3
BLKF029
  1

  0
LINE
  5
29E
330
29A
100
AcDbEntity
  8
}}ﾊﾊGG血CCТ
  6
CONTINUOUS
 62
     7
100
AcDbLine
 10
10.0
 20
10.0
 30
0.0
 11
287.0
 21
10.0
 31
0.0
  0
LINE
  5
29F
330
29A
100
AcDbEntity
  8
}}ﾊﾊGG血CCТ
  6
CONTINUOUS
 62
     7
100
AcDbLine
 10
10.0
 20
10.0
 30
0.0
 11
10.0
 21
200.0
 31
0.0
  0
LINE
  5
2A0
330
29A
100
AcDbEntity
  8
}}ﾊﾊGG血CCТ
  6
CONTINUOUS
 62
     7
100
AcDbLine
 10
10.0
 20
200.0
 30
0.0
 11
287.0
 21
200.0
 31
0.0
  0
LINE
  5
2A1
330
29A
100
AcDbEntity
  8
}}ﾊﾊGG血CCТ
  6
CONTINUOUS
 62
     7
100
AcDbLine
 10
287.0
 20
200.0
 30
0.0
 11
287.0
 21
10.0
 31
0.0
  0
LINE
  5
2A2
330
29A
100
AcDbEntity
  8
}}ﾊﾊGG血CCТ
  6
CONTINUOUS
 62
     7
100
AcDbLine
 10
30.0
 20
10.0
 30
0.0
 11
30.0
 21
20.0
 31
0.0
  0
TEXT
  5
2A3
330
29A
100
AcDbEntity
  8
}}ﾊﾊGG血CCТ
  6
CONTINUOUS
 62
     7
100
AcDbText
 10
14.738815
 20
11.596879
 30
0.0
 40
6.648749
  1
品名
 41
1.083413
  7
FX_VECTOR
 72
     5
 11
26.058355
 21
11.596879
 31
0.0
100
AcDbText
  0
LINE
  5
2A4
330
29A
100
AcDbEntity
  8
}}ﾊﾊGG血CCТ
  6
CONTINUOUS
 62
     7
100
AcDbLine
 10
110.0
 20
20.0
 30
0.0
 11
110.0
 21
10.0
 31
0.0
  0
LINE
  5
2A5
330
29A
100
AcDbEntity
  8
}}ﾊﾊGG血CCТ
  6
CONTINUOUS
 62
     7
100
AcDbLine
 10
10.0
 20
20.0
 30
0.0
 11
287.0
 21
20.0
 31
0.0
  0
INSERT
  5
2A9
330
29A
100
AcDbEntity
  8
0
100
AcDbBlockReference
  2
BLKF030
 10
0.0
 20
0.0
 30
0.0
  0
INSERT
  5
2B2
330
29A
100
AcDbEntity
  8
0
100
AcDbBlockReference
  2
BLKF031
 10
0.0
 20
0.0
 30
0.0
  0
HATCH
  5
2C2
330
29A
100
AcDbEntity
  8
GR1-1
  6
CONTINUOUS
 62
     7
100
AcDbHatch
 10
0.0
 20
0.0
 30
0.0
210
0.0
220
0.0
230
1.0
  2

 70
     0
 71
     1
 91
        2
 92
        0
 93
        4
 72
     1
 10
215.8018997861325
 20
17.91346152
 11
221.8018997861325
 21
17.91346152
 72
     1
 10
221.8018997861325
 20
17.91346152
 11
221.8018997861325
 21
11.91346152
 72
     1
 10
221.8018997861325
 20
11.91346152
 11
215.8018997861325
 21
11.91346152
 72
     1
 10
215.8018997861325
 20
11.91346152
 11
215.8018997861325
 21
17.91346152
 97
        0
 92
        0
 93
       15
 72
     1
 10
218.8018997861325
 20
17.76923076000002
 11
215.9461305461325
 21
14.91346152
 72
     1
 10
215.9461305461325
 20
14.91346152
 11
218.8018997861325
 21
12.05769228000001
 72
     1
 10
218.8018997861325
 20
12.05769228000001
 11
220.3595920661325
 21
13.61538462
 72
     1
 10
220.3595920661325
 20
13.61538462
 11
220.3595920661325
 21
12.98076924
 72
     1
 10
220.3595920661325
 20
12.98076924
 11
221.2249766861325
 21
12.98076924
 72
     1
 10
221.2249766861325
 20
12.98076924
 11
221.2249766861325
 21
15.00000000000001
 72
     1
 10
221.2249766861325
 20
15.00000000000001
 11
218.8018997861325
 21
15.00000000000001
 72
     1
 10
218.8018997861325
 20
15.00000000000001
 11
218.8018997861325
 21
14.13461538000001
 72
     1
 10
218.8018997861325
 20
14.13461538000001
 11
219.2461305461325
 21
14.13461538000001
 72
     1
 10
219.2461305461325
 20
14.13461538000001
 11
218.8018997861325
 21
13.69038462
 72
     1
 10
218.8018997861325
 20
13.69038462
 11
217.5788228861325
 21
14.91346152
 72
     1
 10
217.5788228861325
 20
14.91346152
 11
218.8018997861325
 21
16.13653842000003
 72
     1
 10
218.8018997861325
 20
16.13653842000003
 11
219.5922844061325
 21
15.3461538
 72
     1
 10
219.5922844061325
 20
15.3461538
 11
221.2249766861325
 21
15.3461538
 72
     1
 10
221.2249766861325
 20
15.3461538
 11
218.8018997861325
 21
17.76923076000002
 97
        0
 75
     0
 76
     0
 52
45.0
 41
0.05
 77
     0
 78
     1
 53
45.0
 43
0.0
 44
0.0
 45
-0.0353553390593274
 46
0.0353553390593274
 79
     0
 98
        0
  0
TEXT
  5
2C3
330
29A
100
AcDbEntity
  8
}}ﾊﾊGG血CCТ
  6
CONTINUOUS
 62
     7
100
AcDbText
 10
226.225754
 20
11.461285
 30
0.0
 40
6.0
  1
GOLD CASTER
 41
0.719626
  7
FX_VECTOR
 72
     5
 11
270.225754
 21
11.461285
 31
0.0
100
AcDbText
  0
LINE
  5
2C4
330
29A
100
AcDbEntity
  8
}}ﾊﾊGG血CCТ
  6
CONTINUOUS
 62
     7
100
AcDbLine
 10
130.0
 20
10.0
 30
0.0
 11
130.0
 21
20.0
 31
0.0
  0
TEXT
  5
2C5
330
29A
100
AcDbEntity
  8
}}ﾊﾊGG血CCТ
  6
CONTINUOUS
 62
     7
100
AcDbText
 10
114.738815
 20
11.596879
 30
0.0
 40
6.648749
  1
図番
 41
1.083413
  7
FX_VECTOR
 72
     5
 11
126.058355
 21
11.596879
 31
0.0
100
AcDbText
  0
LINE
  5
2C6
330
29A
100
AcDbEntity
  8
}}ﾊﾊGG血CCТ
  6
CONTINUOUS
 62
     7
100
AcDbLine
 10
210.0
 20
20.0
 30
0.0
 11
210.0
 21
10.0
 31
0.0
  0
ENDBLK
  5
29C
330
29A
100
AcDbEntity
  8
0
100
AcDbBlockEnd
  0
BLOCK
  5
2A7
330
2A6
100
AcDbEntity
  8
0
100
AcDbBlockBegin
  2
BLKF030
 70
     0
 71
     0
 10
0.0
 20
0.0
 30
0.0
  3
BLKF030
  1

  0
LINE
  5
2AB
330
2A6
100
AcDbEntity
  8
0-1
  6
CONTINUOUS
 62
     7
100
AcDbLine
 10
221.8019
 20
17.913462
 30
0.0
 11
215.8019
 21
17.913462
 31
0.0
  0
LINE
  5
2AC
330
2A6
100
AcDbEntity
  8
0-1
  6
CONTINUOUS
 62
     7
100
AcDbLine
 10
215.8019
 20
17.913462
 30
0.0
 11
215.8019
 21
11.913462
 31
0.0
  0
LINE
  5
2AD
330
2A6
100
AcDbEntity
  8
0-1
  6
CONTINUOUS
 62
     7
100
AcDbLine
 10
215.8019
 20
11.913462
 30
0.0
 11
221.8019
 21
11.913462
 31
0.0
  0
LINE
  5
2AE
330
2A6
100
AcDbEntity
  8
0-1
  6
CONTINUOUS
 62
     7
100
AcDbLine
 10
221.8019
 20
11.913462
 30
0.0
 11
221.8019
 21
17.913462
 31
0.0
  0
ENDBLK
  5
2A8
330
2A6
100
AcDbEntity
  8
0
100
AcDbBlockEnd
  0
BLOCK
  5
2B0
330
2AF
100
AcDbEntity
  8
0
100
AcDbBlockBegin
  2
BLKF031
 70
     0
 71
     0
 10
0.0
 20
0.0
 30
0.0
  3
BLKF031
  1

  0
LINE
  5
2B3
330
2AF
100
AcDbEntity
  8
0-1
  6
CONTINUOUS
 62
     7
100
AcDbLine
 10
221.224977
 20
15.346154
 30
0.0
 11
218.8019
 21
17.769231
 31
0.0
  0
LINE
  5
2B4
330
2AF
100
AcDbEntity
  8
0-1
  6
CONTINUOUS
 62
     7
100
AcDbLine
 10
218.8019
 20
17.769231
 30
0.0
 11
215.946131
 21
14.913462
 31
0.0
  0
LINE
  5
2B5
330
2AF
100
AcDbEntity
  8
0-1
  6
CONTINUOUS
 62
     7
100
AcDbLine
 10
215.946131
 20
14.913462
 30
0.0
 11
218.8019
 21
12.057692
 31
0.0
  0
LINE
  5
2B6
330
2AF
100
AcDbEntity
  8
0-1
  6
CONTINUOUS
 62
     7
100
AcDbLine
 10
218.8019
 20
12.057692
 30
0.0
 11
220.359592
 21
13.615385
 31
0.0
  0
LINE
  5
2B7
330
2AF
100
AcDbEntity
  8
0-1
  6
CONTINUOUS
 62
     7
100
AcDbLine
 10
220.359592
 20
13.615385
 30
0.0
 11
220.359592
 21
12.980769
 31
0.0
  0
LINE
  5
2B8
330
2AF
100
AcDbEntity
  8
0-1
  6
CONTINUOUS
 62
     7
100
AcDbLine
 10
220.359592
 20
12.980769
 30
0.0
 11
221.224977
 21
12.980769
 31
0.0
  0
LINE
  5
2B9
330
2AF
100
AcDbEntity
  8
0-1
  6
CONTINUOUS
 62
     7
100
AcDbLine
 10
221.224977
 20
12.980769
 30
0.0
 11
221.224977
 21
15.0
 31
0.0
  0
LINE
  5
2BA
330
2AF
100
AcDbEntity
  8
0-1
  6
CONTINUOUS
 62
     7
100
AcDbLine
 10
221.224977
 20
15.0
 30
0.0
 11
218.8019
 21
15.0
 31
0.0
  0
LINE
  5
2BB
330
2AF
100
AcDbEntity
  8
0-1
  6
CONTINUOUS
 62
     7
100
AcDbLine
 10
218.8019
 20
15.0
 30
0.0
 11
218.8019
 21
14.134615
 31
0.0
  0
LINE
  5
2BC
330
2AF
100
AcDbEntity
  8
0-1
  6
CONTINUOUS
 62
     7
100
AcDbLine
 10
218.8019
 20
14.134615
 30
0.0
 11
219.246131
 21
14.134615
 31
0.0
  0
LINE
  5
2BD
330
2AF
100
AcDbEntity
  8
0-1
  6
CONTINUOUS
 62
     7
100
AcDbLine
 10
219.246131
 20
14.134615
 30
0.0
 11
218.8019
 21
13.690385
 31
0.0
  0
LINE
  5
2BE
330
2AF
100
AcDbEntity
  8
0-1
  6
CONTINUOUS
 62
     7
100
AcDbLine
 10
218.8019
 20
13.690385
 30
0.0
 11
217.578823
 21
14.913462
 31
0.0
  0
LINE
  5
2BF
330
2AF
100
AcDbEntity
  8
0-1
  6
CONTINUOUS
 62
     7
100
AcDbLine
 10
217.578823
 20
14.913462
 30
0.0
 11
218.8019
 21
16.136538
 31
0.0
  0
LINE
  5
2C0
330
2AF
100
AcDbEntity
  8
0-1
  6
CONTINUOUS
 62
     7
100
AcDbLine
 10
218.8019
 20
16.136538
 30
0.0
 11
219.592284
 21
15.346154
 31
0.0
  0
LINE
  5
2C1
330
2AF
100
AcDbEntity
  8
0-1
  6
CONTINUOUS
 62
     7
100
AcDbLine
 10
219.592284
 20
15.346154
 30
0.0
 11
221.224977
 21
15.346154
 31
0.0
  0
ENDBLK
  5
2B1
330
2AF
100
AcDbEntity
  8
0
100
AcDbBlockEnd
  0
ENDSEC
  0
SECTION
  2
ENTITIES
  0
TEXT
  5
A8
330
1F
100
AcDbEntity
  8
}}ﾊﾊGG血CCТ
  6
CONTINUOUS
 62
     7
100
AcDbText
 10
31.797132
 20
12.0
 30
0.0
 40
6.0
  1
Ｗ－１００　ＵＢ
 41
0.794326
  7
FX_VECTOR
 72
     5
 11
63.797132
 21
12.0
 31
0.0
100
AcDbText
  0
TEXT
  5
A9
330
1F
100
AcDbEntity
  8
}}ﾊﾊGG血CCТ
  6
CONTINUOUS
 62
     7
100
AcDbText
 10
132.100571
 20
12.0
 30
0.0
 40
6.0
  1
1W30FBEA-C02
 41
0.688525
  7
FX_VECTOR
 72
     5
 11
180.100571
 21
12.0
 31
0.0
100
AcDbText
  0
LINE
  5
AB
330
1F
100
AcDbEntity
  8
GR1-1
  6
CONTINUOUS
 62
     3
100
AcDbLine
 10
59.684752
 20
148.469231
 30
0.0
 11
59.684752
 21
134.573166
 31
0.0
  0
ARC
  5
AC
330
1F
100
AcDbEntity
  8
GR1-1
  6
CONTINUOUS
 62
     3
100
AcDbCircle
 10
62.484752
 20
146.251044
 30
0.0
 40
2.8
100
AcDbArc
 50
180.0
 51
231.450764
  0
LINE
  5
AD
330
1F
100
AcDbEntity
  8
GR1-1
  6
CONTINUOUS
 62
     3
100
AcDbLine
 10
60.739829
 20
144.06124
 30
0.0
 11
62.540819
 21
142.626139
 31
0.0
  0
LINE
  5
AE
330
1F
100
AcDbEntity
  8
GR1-1
  6
CONTINUOUS
 62
     3
100
AcDbLine
 10
75.684752
 20
151.069231
 30
0.0
 11
75.684752
 21
152.569231
 31
0.0
  0
LINE
  5
AF
330
1F
100
AcDbEntity
  8
GR1-1
  6
CONTINUOUS
 62
     3
100
AcDbLine
 10
92.54884
 20
133.586084
 30
0.0
 11
88.38898
 21
138.338058
 31
0.0
  0
ARC
  5
B0
330
1F
100
AcDbEntity
  8
GR1-1
  6
CONTINUOUS
 62
     3
100
AcDbCircle
 10
90.684752
 20
140.269231
 30
0.0
 40
2.999999999999997
100
AcDbArc
 50
128.220461
 51
220.070092
  0
LINE
  5
B1
330
1F
100
AcDbEntity
  8
GR1-1
  6
CONTINUOUS
 62
     3
100
AcDbLine
 10
88.828685
 20
142.626139
 30
0.0
 11
90.629675
 21
144.06124
 31
0.0
  0
ARC
  5
B2
330
1F
100
AcDbEntity
  8
GR1-1
  6
CONTINUOUS
 62
     3
100
AcDbCircle
 10
88.884752
 20
146.251044
 30
0.0
 40
2.8
100
AcDbArc
 50
308.549236
 51
360.0
  0
LINE
  5
B3
330
1F
100
AcDbEntity
  8
GR1-1
  6
CONTINUOUS
 62
     3
100
AcDbLine
 10
91.684752
 20
148.469231
 30
0.0
 11
91.684752
 21
134.573166
 31
0.0
  0
LINE
  5
B4
330
1F
100
AcDbEntity
  8
GR1-1
  6
CONTINUOUS
 62
     3
100
AcDbLine
 10
89.584752
 20
150.569231
 30
0.0
 11
77.784752
 21
150.569231
 31
0.0
  0
LINE
  5
B5
330
1F
100
AcDbEntity
  8
GR1-1
  6
CONTINUOUS
 62
     3
100
AcDbLine
 10
75.684752
 20
152.569231
 30
0.0
 11
74.084752
 21
152.569231
 31
0.0
  0
LINE
  5
B6
330
1F
100
AcDbEntity
  8
GR1-1
  6
CONTINUOUS
 62
     3
100
AcDbLine
 10
73.584752
 20
150.569231
 30
0.0
 11
61.784752
 21
150.569231
 31
0.0
  0
ARC
  5
B7
330
1F
100
AcDbEntity
  8
GR1-1
  6
CONTINUOUS
 62
     3
100
AcDbCircle
 10
60.684752
 20
140.269231
 30
0.0
 40
2.999999999999997
100
AcDbArc
 50
-40.070092
 51
51.779539
  0
LINE
  5
B8
330
1F
100
AcDbEntity
  8
GR1-1
  6
CONTINUOUS
 62
     3
100
AcDbLine
 10
62.980525
 20
138.338058
 30
0.0
 11
58.820664
 21
133.586084
 31
0.0
  0
ARC
  5
B9
330
1F
100
AcDbEntity
  8
GR1-1
  6
CONTINUOUS
 62
     3
100
AcDbCircle
 10
63.184752
 20
129.765778
 30
0.0
 40
5.8
100
AcDbArc
 50
138.801217
 51
180.0
  0
LINE
  5
BA
330
1F
100
AcDbEntity
  8
GR1-1
  6
CONTINUOUS
 62
     3
100
AcDbLine
 10
57.384752
 20
129.765778
 30
0.0
 11
57.384752
 21
118.902564
 31
0.0
  0
LINE
  5
BB
330
1F
100
AcDbEntity
  8
GR1-1
  6
CONTINUOUS
 62
     3
100
AcDbLine
 10
84.684752
 20
125.469231
 30
0.0
 11
91.384752
 21
125.469231
 31
0.0
  0
LINE
  5
BC
330
1F
100
AcDbEntity
  8
GR1-1
  6
CONTINUOUS
 62
     3
100
AcDbLine
 10
93.984752
 20
129.765778
 30
0.0
 11
93.984752
 21
118.902564
 31
0.0
  0
ARC
  5
BD
330
1F
100
AcDbEntity
  8
GR1-1
  6
CONTINUOUS
 62
     3
100
AcDbCircle
 10
88.184752
 20
129.765778
 30
0.0
 40
5.8
100
AcDbArc
 50
0.0
 51
41.198783
  0
LINE
  5
BE
330
1F
100
AcDbEntity
  8
GR1-1
  6
CONTINUOUS
 62
     3
100
AcDbLine
 10
93.984752
 20
89.372683
 30
0.0
 11
93.984752
 21
100.235897
 31
0.0
  0
LINE
  5
BF
330
1F
100
AcDbEntity
  8
GR1-1
  6
CONTINUOUS
 62
     3
100
AcDbLine
 10
89.084752
 20
70.169231
 30
0.0
 11
77.984752
 21
70.169231
 31
0.0
  0
ARC
  5
C0
330
1F
100
AcDbEntity
  8
GR1-1
  6
CONTINUOUS
 62
     3
100
AcDbCircle
 10
77.984752
 20
67.869231
 30
0.0
 40
2.3
100
AcDbArc
 50
90.0
 51
180.0
  0
LINE
  5
C1
330
1F
100
AcDbEntity
  8
GR1-1
  6
CONTINUOUS
 62
     3
100
AcDbLine
 10
75.684752
 20
68.069231
 30
0.0
 11
75.684752
 21
66.569231
 31
0.0
  0
ARC
  5
C2
330
1F
100
AcDbEntity
  8
GR1-1
  6
CONTINUOUS
 62
     3
100
AcDbCircle
 10
73.384752
 20
67.869231
 30
0.0
 40
2.3
100
AcDbArc
 50
0.0
 51
90.0
  0
LINE
  5
C3
330
1F
100
AcDbEntity
  8
GR1-1
  6
CONTINUOUS
 62
     3
100
AcDbLine
 10
73.384752
 20
70.169231
 30
0.0
 11
62.284752
 21
70.169231
 31
0.0
  0
LINE
  5
C4
330
1F
100
AcDbEntity
  8
GR1-1
  6
CONTINUOUS
 62
     3
100
AcDbLine
 10
58.820664
 20
85.552377
 30
0.0
 11
62.980525
 21
80.800404
 31
0.0
  0
ARC
  5
C5
330
1F
100
AcDbEntity
  8
GR1-1
  6
CONTINUOUS
 62
     3
100
AcDbCircle
 10
60.684752
 20
78.869231
 30
0.0
 40
2.999999999999997
100
AcDbArc
 50
-51.779539
 51
40.070092
  0
LINE
  5
C6
330
1F
100
AcDbEntity
  8
GR1-1
  6
CONTINUOUS
 62
     3
100
AcDbLine
 10
62.540819
 20
76.512323
 30
0.0
 11
60.739829
 21
75.077222
 31
0.0
  0
ARC
  5
C7
330
1F
100
AcDbEntity
  8
GR1-1
  6
CONTINUOUS
 62
     3
100
AcDbCircle
 10
62.484752
 20
72.887418
 30
0.0
 40
2.8
100
AcDbArc
 50
128.549236
 51
180.0
  0
LINE
  5
C8
330
1F
100
AcDbEntity
  8
GR1-1
  6
CONTINUOUS
 62
     3
100
AcDbLine
 10
59.684752
 20
71.169231
 30
0.0
 11
59.684752
 21
84.565296
 31
0.0
  0
LINE
  5
C9
330
1F
100
AcDbEntity
  8
GR1-1
  6
CONTINUOUS
 62
     3
100
AcDbLine
 10
75.684752
 20
66.569231
 30
0.0
 11
77.284752
 21
66.569231
 31
0.0
  0
LINE
  5
CA
330
1F
100
AcDbEntity
  8
GR1-1
  6
CONTINUOUS
 62
     3
100
AcDbLine
 10
91.684752
 20
84.565296
 30
0.0
 11
91.684752
 21
68.569231
 31
0.0
  0
ARC
  5
CB
330
1F
100
AcDbEntity
  8
GR1-1
  6
CONTINUOUS
 62
     3
100
AcDbCircle
 10
88.884752
 20
72.887418
 30
0.0
 40
2.8
100
AcDbArc
 50
0.0
 51
51.450764
  0
LINE
  5
CC
330
1F
100
AcDbEntity
  8
GR1-1
  6
CONTINUOUS
 62
     3
100
AcDbLine
 10
90.629675
 20
75.077222
 30
0.0
 11
88.828685
 21
76.512323
 31
0.0
  0
ARC
  5
CD
330
1F
100
AcDbEntity
  8
GR1-1
  6
CONTINUOUS
 62
     3
100
AcDbCircle
 10
90.684752
 20
78.869231
 30
0.0
 40
2.999999999999997
100
AcDbArc
 50
139.929908
 51
231.779539
  0
LINE
  5
CE
330
1F
100
AcDbEntity
  8
GR1-1
  6
CONTINUOUS
 62
     3
100
AcDbLine
 10
88.38898
 20
80.800404
 30
0.0
 11
92.54884
 21
85.552377
 31
0.0
  0
ARC
  5
CF
330
1F
100
AcDbEntity
  8
GR1-1
  6
CONTINUOUS
 62
     3
100
AcDbCircle
 10
88.184752
 20
89.372683
 30
0.0
 40
5.8
100
AcDbArc
 50
-41.198783
 51
0.0
  0
ARC
  5
D0
330
1F
100
AcDbEntity
  8
GR1-1
  6
CONTINUOUS
 62
     3
100
AcDbCircle
 10
63.184752
 20
89.372683
 30
0.0
 40
5.8
100
AcDbArc
 50
180.0
 51
221.198783
  0
LINE
  5
D1
330
1F
100
AcDbEntity
  8
GR1-1
  6
CONTINUOUS
 62
     3
100
AcDbLine
 10
57.384752
 20
89.372683
 30
0.0
 11
57.384752
 21
100.235897
 31
0.0
  0
LINE
  5
D2
330
1F
100
AcDbEntity
  8
GR1-1
  6
CENTER
 62
     6
100
AcDbLine
 10
75.684752
 20
57.582467
 30
0.0
 11
75.684752
 21
161.500172
 31
0.0
  0
LINE
  5
D3
330
1F
100
AcDbEntity
  8
GR1-1
  6
CENTER
 62
     6
100
AcDbLine
 10
50.929403
 20
109.569231
 30
0.0
 11
100.091573
 21
109.569231
 31
0.0
  0
LINE
  5
D4
330
1F
100
AcDbEntity
  8
GR1-1
  6
CONTINUOUS
 62
     3
100
AcDbLine
 10
82.684752
 20
123.069231
 30
0.0
 11
83.684752
 21
123.069231
 31
0.0
  0
LINE
  5
D5
330
1F
100
AcDbEntity
  8
LAYERGROUP-1
  6
CONTINUOUS
 62
     3
100
AcDbLine
 10
83.684752
 20
124.469231
 30
0.0
 11
83.684752
 21
123.069231
 31
0.0
  0
ARC
  5
D6
330
1F
100
AcDbEntity
  8
LAYERGROUP-1
  6
CONTINUOUS
 62
     3
100
AcDbCircle
 10
84.684752
 20
124.469231
 30
0.0
 40
1.0
100
AcDbArc
 50
90.0
 51
180.0
  0
LINE
  5
D7
330
1F
100
AcDbEntity
  8
GR1-1
  6
CONTINUOUS
 62
     3
100
AcDbLine
 10
84.684752
 20
93.669231
 30
0.0
 11
91.384752
 21
93.669231
 31
0.0
  0
LINE
  5
D8
330
1F
100
AcDbEntity
  8
GR1-1
  6
CONTINUOUS
 62
     3
100
AcDbLine
 10
82.684752
 20
96.069231
 30
0.0
 11
83.684752
 21
96.069231
 31
0.0
  0
LINE
  5
D9
330
1F
100
AcDbEntity
  8
LAYERGROUP-1
  6
CONTINUOUS
 62
     3
100
AcDbLine
 10
82.684752
 20
94.569231
 30
0.0
 11
82.684752
 21
124.569231
 31
0.0
  0
LINE
  5
DA
330
1F
100
AcDbEntity
  8
LAYERGROUP-1
  6
CONTINUOUS
 62
     3
100
AcDbLine
 10
83.684752
 20
94.669231
 30
0.0
 11
83.684752
 21
96.069231
 31
0.0
  0
ARC
  5
DB
330
1F
100
AcDbEntity
  8
LAYERGROUP-1
  6
CONTINUOUS
 62
     3
100
AcDbCircle
 10
84.684752
 20
94.669231
 30
0.0
 40
1.0
100
AcDbArc
 50
180.0
 51
270.0
  0
LINE
  5
DC
330
1F
100
AcDbEntity
  8
GR1-1
  6
CONTINUOUS
 62
     3
100
AcDbLine
 10
66.684752
 20
125.469231
 30
0.0
 11
59.984752
 21
125.469231
 31
0.0
  0
LINE
  5
DD
330
1F
100
AcDbEntity
  8
GR1-1
  6
CONTINUOUS
 62
     3
100
AcDbLine
 10
68.684752
 20
123.069231
 30
0.0
 11
67.684752
 21
123.069231
 31
0.0
  0
LINE
  5
DE
330
1F
100
AcDbEntity
  8
LAYERGROUP-1
  6
CONTINUOUS
 62
     3
100
AcDbLine
 10
67.684752
 20
124.469231
 30
0.0
 11
67.684752
 21
123.069231
 31
0.0
  0
ARC
  5
DF
330
1F
100
AcDbEntity
  8
LAYERGROUP-1
  6
CONTINUOUS
 62
     3
100
AcDbCircle
 10
66.684752
 20
124.469231
 30
0.0
 40
1.0
100
AcDbArc
 50
0.0
 51
90.0
  0
LINE
  5
E0
330
1F
100
AcDbEntity
  8
GR1-1
  6
CONTINUOUS
 62
     3
100
AcDbLine
 10
66.684752
 20
93.669231
 30
0.0
 11
59.984752
 21
93.669231
 31
0.0
  0
LINE
  5
E1
330
1F
100
AcDbEntity
  8
GR1-1
  6
CONTINUOUS
 62
     3
100
AcDbLine
 10
68.684752
 20
96.069231
 30
0.0
 11
67.684752
 21
96.069231
 31
0.0
  0
LINE
  5
E2
330
1F
100
AcDbEntity
  8
LAYERGROUP-1
  6
CONTINUOUS
 62
     3
100
AcDbLine
 10
68.684752
 20
94.569231
 30
0.0
 11
68.684752
 21
124.569231
 31
0.0
  0
LINE
  5
E3
330
1F
100
AcDbEntity
  8
LAYERGROUP-1
  6
CONTINUOUS
 62
     3
100
AcDbLine
 10
67.684752
 20
94.669231
 30
0.0
 11
67.684752
 21
96.069231
 31
0.0
  0
ARC
  5
E4
330
1F
100
AcDbEntity
  8
LAYERGROUP-1
  6
CONTINUOUS
 62
     3
100
AcDbCircle
 10
66.684752
 20
94.669231
 30
0.0
 40
1.0
100
AcDbArc
 50
270.0
 51
360.0
  0
LINE
  5
E5
330
1F
100
AcDbEntity
  8
GR1-1
  6
CONTINUOUS
 62
     3
100
AcDbLine
 10
83.684752
 20
124.069231
 30
0.0
 11
83.684752
 21
123.069231
 31
0.0
  0
LINE
  5
E6
330
1F
100
AcDbEntity
  8
LAYERGROUP-1
  6
CONTINUOUS
 62
     3
100
AcDbLine
 10
73.784752
 20
151.002564
 30
0.0
 11
72.349134
 21
151.481104
 31
0.0
  0
LINE
  5
E7
330
1F
100
AcDbEntity
  8
LAYERGROUP-1
  6
CONTINUOUS
 62
     3
100
AcDbLine
 10
74.084752
 20
152.569231
 30
0.0
 11
73.784752
 21
151.002564
 31
0.0
  0
LINE
  5
E8
330
1F
100
AcDbEntity
  8
LAYERGROUP-1
  6
CONTINUOUS
 62
     3
100
AcDbLine
 10
77.584752
 20
68.135897
 30
0.0
 11
79.02037
 21
67.657358
 31
0.0
  0
LINE
  5
E9
330
1F
100
AcDbEntity
  8
LAYERGROUP-1
  6
CONTINUOUS
 62
     3
100
AcDbLine
 10
77.284752
 20
66.569231
 30
0.0
 11
77.584752
 21
68.135897
 31
0.0
  0
LINE
  5
EA
330
1F
100
AcDbEntity
  8
LAYERGROUP-1
  6
CONTINUOUS
 62
     3
100
AcDbLine
 10
62.284752
 20
148.969231
 30
0.0
 11
73.584752
 21
148.969231
 31
0.0
  0
ARC
  5
EB
330
1F
100
AcDbEntity
  8
LAYERGROUP-1
  6
CONTINUOUS
 62
     3
100
AcDbCircle
 10
77.784752
 20
151.069231
 30
0.0
 40
2.1
100
AcDbArc
 50
180.0
 51
270.0
  0
ARC
  5
EC
330
1F
100
AcDbEntity
  8
LAYERGROUP-1
  6
CONTINUOUS
 62
     3
100
AcDbCircle
 10
73.584752
 20
151.069231
 30
0.0
 40
2.1
100
AcDbArc
 50
270.0
 51
360.0
  0
LINE
  5
ED
330
1F
100
AcDbEntity
  8
LAYERGROUP-1
  6
CONTINUOUS
 62
     3
100
AcDbLine
 10
77.784752
 20
148.969231
 30
0.0
 11
89.084752
 21
148.969231
 31
0.0
  0
ARC
  5
EE
330
1F
100
AcDbEntity
  8
LAYERGROUP-1
  6
CONTINUOUS
 62
     3
100
AcDbCircle
 10
61.784752
 20
148.469231
 30
0.0
 40
2.1
100
AcDbArc
 50
90.0
 51
180.0
  0
ARC
  5
EF
330
1F
100
AcDbEntity
  8
LAYERGROUP-1
  6
CONTINUOUS
 62
     3
100
AcDbCircle
 10
89.584752
 20
148.469231
 30
0.0
 40
2.1
100
AcDbArc
 50
0.0
 51
90.0
  0
LINE
  5
F0
330
1F
100
AcDbEntity
  8
GR1-1
  6
CONTINUOUS
 62
     3
100
AcDbLine
 10
62.284752
 20
68.569231
 30
0.0
 11
73.584752
 21
68.569231
 31
0.0
  0
LINE
  5
F1
330
1F
100
AcDbEntity
  8
LAYERGROUP-1
  6
CONTINUOUS
 62
     3
100
AcDbLine
 10
77.784752
 20
68.569231
 30
0.0
 11
89.084752
 21
68.569231
 31
0.0
  0
ARC
  5
F2
330
1F
100
AcDbEntity
  8
LAYERGROUP-1
  6
CONTINUOUS
 62
     3
100
AcDbCircle
 10
89.084752
 20
71.169231
 30
0.0
 40
2.6
100
AcDbArc
 50
270.0
 51
360.0
  0
ARC
  5
F3
330
1F
100
AcDbEntity
  8
LAYERGROUP-1
  6
CONTINUOUS
 62
     3
100
AcDbCircle
 10
62.284752
 20
71.169231
 30
0.0
 40
2.6
100
AcDbArc
 50
180.0
 51
270.0
  0
LINE
  5
F4
330
1F
100
AcDbEntity
  8
GR1-1
  6
CONTINUOUS
 62
     3
100
AcDbLine
 10
77.284752
 20
66.569231
 30
0.0
 11
77.284752
 21
68.069231
 31
0.0
  0
LINE
  5
F5
330
1F
100
AcDbEntity
  8
GR1-1
  6
CONTINUOUS
 62
     3
100
AcDbLine
 10
74.084752
 20
68.069231
 30
0.0
 11
74.084752
 21
66.769231
 31
0.0
  0
ARC
  5
F6
330
1F
100
AcDbEntity
  8
LAYERGROUP-1
  6
CONTINUOUS
 62
     3
100
AcDbCircle
 10
77.784752
 20
68.069231
 30
0.0
 40
0.5
100
AcDbArc
 50
90.0
 51
180.0
  0
ARC
  5
F7
330
1F
100
AcDbEntity
  8
LAYERGROUP-1
  6
CONTINUOUS
 62
     3
100
AcDbCircle
 10
73.584752
 20
68.069231
 30
0.0
 40
0.5
100
AcDbArc
 50
0.0
 51
90.0
  0
LINE
  5
F8
330
1F
100
AcDbEntity
  8
GR1-1
  6
CONTINUOUS
 62
     3
100
AcDbLine
 10
75.884752
 20
64.969231
 30
0.0
 11
76.600626
 21
64.969231
 31
0.0
  0
ARC
  5
F9
330
1F
100
AcDbEntity
  8
LAYERGROUP-1
  6
CONTINUOUS
 62
     3
100
AcDbCircle
 10
76.600626
 20
67.269231
 30
0.0
 40
2.3
100
AcDbArc
 50
270.0
 51
349.159695
  0
ARC
  5
FA
330
1F
100
AcDbEntity
  8
LAYERGROUP-1
  6
CONTINUOUS
 62
     3
100
AcDbCircle
 10
75.884752
 20
66.769231
 30
0.0
 40
1.8
100
AcDbArc
 50
180.0
 51
270.0
  0
LINE
  5
FB
330
1F
100
AcDbEntity
  8
GR1-1
  6
CONTINUOUS
 62
     3
100
AcDbLine
 10
77.284752
 20
151.069231
 30
0.0
 11
77.284752
 21
152.369231
 31
0.0
  0
ARC
  5
FC
330
1F
100
AcDbEntity
  8
LAYERGROUP-1
  6
CONTINUOUS
 62
     3
100
AcDbCircle
 10
77.784752
 20
151.069231
 30
0.0
 40
0.5
100
AcDbArc
 50
180.0
 51
270.0
  0
ARC
  5
FD
330
1F
100
AcDbEntity
  8
LAYERGROUP-1
  6
CONTINUOUS
 62
     3
100
AcDbCircle
 10
73.584752
 20
151.069231
 30
0.0
 40
0.5
100
AcDbArc
 50
270.0
 51
360.0
  0
LINE
  5
FE
330
1F
100
AcDbEntity
  8
GR1-1
  6
CONTINUOUS
 62
     3
100
AcDbLine
 10
75.484752
 20
154.169231
 30
0.0
 11
74.768879
 21
154.169231
 31
0.0
  0
ARC
  5
FF
330
1F
100
AcDbEntity
  8
LAYERGROUP-1
  6
CONTINUOUS
 62
     3
100
AcDbCircle
 10
75.484752
 20
152.369231
 30
0.0
 40
1.8
100
AcDbArc
 50
0.0
 51
90.0
  0
ARC
  5
100
330
1F
100
AcDbEntity
  8
LAYERGROUP-1
  6
CONTINUOUS
 62
     3
100
AcDbCircle
 10
74.768879
 20
151.869231
 30
0.0
 40
2.3
100
AcDbArc
 50
90.0
 51
169.159695
  0
LINE
  5
101
330
1F
100
AcDbEntity
  8
LAYERGROUP-1
  6
CONTINUOUS
 62
     3
100
AcDbLine
 10
74.084752
 20
152.569231
 30
0.0
 11
74.084752
 21
151.069231
 31
0.0
  0
LINE
  5
102
330
1F
100
AcDbEntity
  8
GR1-1
  6
CONTINUOUS
 62
     3
100
AcDbLine
 10
90.084752
 20
147.969231
 30
0.0
 11
90.084752
 21
146.154681
 31
0.0
  0
LINE
  5
103
330
1F
100
AcDbEntity
  8
GR1-1
  6
CONTINUOUS
 62
     3
100
AcDbLine
 10
89.707939
 20
145.372608
 30
0.0
 11
87.834443
 21
143.879732
 31
0.0
  0
ARC
  5
104
330
1F
100
AcDbEntity
  8
GR1-1
  6
CONTINUOUS
 62
     3
100
AcDbCircle
 10
90.684752
 20
140.269231
 30
0.0
 40
4.599999999999997
100
AcDbArc
 50
128.289317
 51
222.091085
  0
LINE
  5
105
330
1F
100
AcDbEntity
  8
GR1-1
  6
CONTINUOUS
 62
     3
100
AcDbLine
 10
87.174781
 20
137.295961
 30
0.0
 11
91.394468
 21
132.475645
 31
0.0
  0
LINE
  5
106
330
1F
100
AcDbEntity
  8
GR1-1
  6
CONTINUOUS
 62
     3
100
AcDbLine
 10
92.384752
 20
129.840951
 30
0.0
 11
92.384752
 21
128.069231
 31
0.0
  0
LINE
  5
107
330
1F
100
AcDbEntity
  8
GR1-1
  6
CONTINUOUS
 62
     3
100
AcDbLine
 10
91.384752
 20
127.069231
 30
0.0
 11
85.167425
 21
127.069231
 31
0.0
  0
ARC
  5
108
330
1F
100
AcDbEntity
  8
LAYERGROUP-1
  6
CONTINUOUS
 62
     3
100
AcDbCircle
 10
89.084752
 20
147.969231
 30
0.0
 40
1.0
100
AcDbArc
 50
0.0
 51
90.0
  0
ARC
  5
109
330
1F
100
AcDbEntity
  8
LAYERGROUP-1
  6
CONTINUOUS
 62
     3
100
AcDbCircle
 10
89.084752
 20
146.154681
 30
0.0
 40
1.0
100
AcDbArc
 50
308.549236
 51
360.0
  0
ARC
  5
10A
330
1F
100
AcDbEntity
  8
LAYERGROUP-1
  6
CONTINUOUS
 62
     3
100
AcDbCircle
 10
88.384752
 20
129.840951
 30
0.0
 40
4.0
100
AcDbArc
 50
0.0
 51
41.198783
  0
ARC
  5
10B
330
1F
100
AcDbEntity
  8
LAYERGROUP-1
  6
CONTINUOUS
 62
     3
100
AcDbCircle
 10
91.384752
 20
128.069231
 30
0.0
 40
1.0
100
AcDbArc
 50
270.0
 51
360.0
  0
ARC
  5
10C
330
1F
100
AcDbEntity
  8
LAYERGROUP-1
  6
CONTINUOUS
 62
     3
100
AcDbCircle
 10
91.384752
 20
128.069231
 30
0.0
 40
2.6
100
AcDbArc
 50
270.0
 51
360.0
  0
ARC
  5
10D
330
1F
100
AcDbEntity
  8
LAYERGROUP-1
  6
CONTINUOUS
 62
     3
100
AcDbCircle
 10
85.184752
 20
124.569231
 30
0.0
 40
2.5
100
AcDbArc
 50
90.0
 51
180.0
  0
LINE
  5
10E
330
1F
100
AcDbEntity
  8
GR1-1
  6
CONTINUOUS
 62
     3
100
AcDbLine
 10
61.284752
 20
146.154681
 30
0.0
 11
61.284752
 21
147.969231
 31
0.0
  0
LINE
  5
10F
330
1F
100
AcDbEntity
  8
GR1-1
  6
CONTINUOUS
 62
     3
100
AcDbLine
 10
63.534352
 20
143.880297
 30
0.0
 11
61.661565
 21
145.372608
 31
0.0
  0
ARC
  5
110
330
1F
100
AcDbEntity
  8
GR1-1
  6
CONTINUOUS
 62
     3
100
AcDbCircle
 10
60.684752
 20
140.269231
 30
0.0
 40
4.599999999999997
100
AcDbArc
 50
-42.091085
 51
51.710683
  0
LINE
  5
111
330
1F
100
AcDbEntity
  8
GR1-1
  6
CONTINUOUS
 62
     3
100
AcDbLine
 10
59.975036
 20
132.475645
 30
0.0
 11
64.194723
 21
137.295961
 31
0.0
  0
LINE
  5
112
330
1F
100
AcDbEntity
  8
GR1-1
  6
CONTINUOUS
 62
     3
100
AcDbLine
 10
58.984752
 20
128.069231
 30
0.0
 11
58.984752
 21
129.840951
 31
0.0
  0
LINE
  5
113
330
1F
100
AcDbEntity
  8
GR1-1
  6
CONTINUOUS
 62
     3
100
AcDbLine
 10
59.984752
 20
127.069231
 30
0.0
 11
66.184752
 21
127.069231
 31
0.0
  0
ARC
  5
114
330
1F
100
AcDbEntity
  8
LAYERGROUP-1
  6
CONTINUOUS
 62
     3
100
AcDbCircle
 10
66.184752
 20
124.569231
 30
0.0
 40
2.5
100
AcDbArc
 50
0.0
 51
90.0
  0
ARC
  5
115
330
1F
100
AcDbEntity
  8
LAYERGROUP-1
  6
CONTINUOUS
 62
     3
100
AcDbCircle
 10
59.984752
 20
128.069231
 30
0.0
 40
1.0
100
AcDbArc
 50
180.0
 51
270.0
  0
ARC
  5
116
330
1F
100
AcDbEntity
  8
LAYERGROUP-1
  6
CONTINUOUS
 62
     3
100
AcDbCircle
 10
62.984752
 20
129.840951
 30
0.0
 40
4.0
100
AcDbArc
 50
138.801217
 51
180.0
  0
ARC
  5
117
330
1F
100
AcDbEntity
  8
LAYERGROUP-1
  6
CONTINUOUS
 62
     3
100
AcDbCircle
 10
62.284752
 20
147.969231
 30
0.0
 40
1.0
100
AcDbArc
 50
90.0
 51
180.0
  0
ARC
  5
118
330
1F
100
AcDbEntity
  8
LAYERGROUP-1
  6
CONTINUOUS
 62
     3
100
AcDbCircle
 10
62.284752
 20
146.154681
 30
0.0
 40
1.0
100
AcDbArc
 50
180.0
 51
231.450764
  0
ARC
  5
119
330
1F
100
AcDbEntity
  8
LAYERGROUP-1
  6
CONTINUOUS
 62
     3
100
AcDbCircle
 10
59.984752
 20
128.069231
 30
0.0
 40
2.6
100
AcDbArc
 50
180.0
 51
270.0
  0
LINE
  5
11A
330
1F
100
AcDbEntity
  8
GR1-1
  6
CONTINUOUS
 62
     3
100
AcDbLine
 10
90.084752
 20
71.169231
 30
0.0
 11
90.084752
 21
72.98378
 31
0.0
  0
LINE
  5
11B
330
1F
100
AcDbEntity
  8
GR1-1
  6
CONTINUOUS
 62
     3
100
AcDbLine
 10
89.707939
 20
73.765853
 30
0.0
 11
87.831586
 21
75.261006
 31
0.0
  0
ARC
  5
11C
330
1F
100
AcDbEntity
  8
GR1-1
  6
CONTINUOUS
 62
     3
100
AcDbCircle
 10
90.684752
 20
78.869231
 30
0.0
 40
4.599999999999998
100
AcDbArc
 50
139.537325
 51
231.779539
  0
LINE
  5
11D
330
1F
100
AcDbEntity
  8
GR1-1
  6
CONTINUOUS
 62
     3
100
AcDbLine
 10
87.185093
 20
81.854281
 30
0.0
 11
91.394468
 21
86.662817
 31
0.0
  0
LINE
  5
11E
330
1F
100
AcDbEntity
  8
GR1-1
  6
CONTINUOUS
 62
     3
100
AcDbLine
 10
92.384752
 20
89.297511
 30
0.0
 11
92.384752
 21
91.069231
 31
0.0
  0
ARC
  5
11F
330
1F
100
AcDbEntity
  8
LAYERGROUP-1
  6
CONTINUOUS
 62
     3
100
AcDbCircle
 10
89.084752
 20
71.169231
 30
0.0
 40
1.0
100
AcDbArc
 50
270.0
 51
360.0
  0
ARC
  5
120
330
1F
100
AcDbEntity
  8
LAYERGROUP-1
  6
CONTINUOUS
 62
     3
100
AcDbCircle
 10
89.084752
 20
72.98378
 30
0.0
 40
1.0
100
AcDbArc
 50
0.0
 51
51.450764
  0
ARC
  5
121
330
1F
100
AcDbEntity
  8
LAYERGROUP-1
  6
CONTINUOUS
 62
     3
100
AcDbCircle
 10
88.384752
 20
89.297511
 30
0.0
 40
4.0
100
AcDbArc
 50
318.801217
 51
360.0
  0
LINE
  5
122
330
1F
100
AcDbEntity
  8
GR1-1
  6
CONTINUOUS
 62
     3
100
AcDbLine
 10
91.384752
 20
92.069231
 30
0.0
 11
85.184752
 21
92.069231
 31
0.0
  0
ARC
  5
123
330
1F
100
AcDbEntity
  8
LAYERGROUP-1
  6
CONTINUOUS
 62
     3
100
AcDbCircle
 10
91.384752
 20
91.069231
 30
0.0
 40
1.0
100
AcDbArc
 50
0.0
 51
90.0
  0
ARC
  5
124
330
1F
100
AcDbEntity
  8
LAYERGROUP-1
  6
CONTINUOUS
 62
     3
100
AcDbCircle
 10
85.184752
 20
94.569231
 30
0.0
 40
2.5
100
AcDbArc
 50
180.0
 51
270.0
  0
ARC
  5
125
330
1F
100
AcDbEntity
  8
LAYERGROUP-1
  6
CONTINUOUS
 62
     3
100
AcDbCircle
 10
91.384752
 20
91.069231
 30
0.0
 40
2.6
100
AcDbArc
 50
0.0
 51
90.0
  0
ARC
  5
126
330
1F
100
AcDbEntity
  8
LAYERGROUP-1
  6
CONTINUOUS
 62
     3
100
AcDbCircle
 10
59.984752
 20
91.069231
 30
0.0
 40
2.6
100
AcDbArc
 50
90.0
 51
180.0
  0
LINE
  5
127
330
1F
100
AcDbEntity
  8
GR1-1
  6
CONTINUOUS
 62
     3
100
AcDbLine
 10
66.184752
 20
92.069231
 30
0.0
 11
59.984752
 21
92.069231
 31
0.0
  0
LINE
  5
128
330
1F
100
AcDbEntity
  8
GR1-1
  6
CONTINUOUS
 62
     3
100
AcDbLine
 10
58.984752
 20
89.297511
 30
0.0
 11
58.984752
 21
91.069231
 31
0.0
  0
ARC
  5
129
330
1F
100
AcDbEntity
  8
LAYERGROUP-1
  6
CONTINUOUS
 62
     3
100
AcDbCircle
 10
59.984752
 20
91.069231
 30
0.0
 40
1.0
100
AcDbArc
 50
90.0
 51
180.0
  0
ARC
  5
12A
330
1F
100
AcDbEntity
  8
LAYERGROUP-1
  6
CONTINUOUS
 62
     3
100
AcDbCircle
 10
66.184752
 20
94.569231
 30
0.0
 40
2.5
100
AcDbArc
 50
270.0
 51
360.0
  0
LINE
  5
12B
330
1F
100
AcDbEntity
  8
GR1-1
  6
CONTINUOUS
 62
     3
100
AcDbLine
 10
59.975036
 20
86.662817
 30
0.0
 11
64.193686
 21
81.843685
 31
0.0
  0
ARC
  5
12C
330
1F
100
AcDbEntity
  8
LAYERGROUP-1
  6
CONTINUOUS
 62
     3
100
AcDbCircle
 10
62.984752
 20
89.297511
 30
0.0
 40
4.0
100
AcDbArc
 50
180.0
 51
221.198783
  0
ARC
  5
12D
330
1F
100
AcDbEntity
  8
GR1-1
  6
CONTINUOUS
 62
     3
100
AcDbCircle
 10
60.684752
 20
78.869231
 30
0.0
 40
4.599999999999998
100
AcDbArc
 50
-51.779539
 51
40.070092
  0
LINE
  5
12E
330
1F
100
AcDbEntity
  8
GR1-1
  6
CONTINUOUS
 62
     3
100
AcDbLine
 10
61.661565
 20
73.765853
 30
0.0
 11
63.534352
 21
75.258164
 31
0.0
  0
LINE
  5
12F
330
1F
100
AcDbEntity
  8
GR1-1
  6
CONTINUOUS
 62
     3
100
AcDbLine
 10
61.284752
 20
71.169231
 30
0.0
 11
61.284752
 21
72.98378
 31
0.0
  0
ARC
  5
130
330
1F
100
AcDbEntity
  8
LAYERGROUP-1
  6
CONTINUOUS
 62
     3
100
AcDbCircle
 10
62.284752
 20
72.98378
 30
0.0
 40
1.0
100
AcDbArc
 50
128.549236
 51
180.0
  0
ARC
  5
131
330
1F
100
AcDbEntity
  8
LAYERGROUP-1
  6
CONTINUOUS
 62
     3
100
AcDbCircle
 10
62.284752
 20
71.169231
 30
0.0
 40
1.0
100
AcDbArc
 50
180.0
 51
270.0
  0
LINE
  5
132
330
1F
100
AcDbEntity
  8
GR1-1
  6
CENTER
 62
     6
100
AcDbLine
 10
165.085234
 20
109.569231
 30
0.0
 11
271.519444
 21
109.569231
 31
0.0
  0
LINE
  5
133
330
1F
100
AcDbEntity
  8
GR1-1
  6
CENTER
 62
     6
100
AcDbLine
 10
217.609615
 20
54.546634
 30
0.0
 11
217.609615
 21
167.640868
 31
0.0
  0
LINE
  5
134
330
1F
100
AcDbEntity
  8
GR1-1
  6
CONTINUOUS
 62
     7
100
AcDbLine
 10
200.197954
 20
130.948762
 30
0.0
 11
203.474567
 21
133.24307
 31
0.0
  0
LINE
  5
135
330
1F
100
AcDbEntity
  8
GR1-1
  6
CONTINUOUS
 62
     7
100
AcDbLine
 10
203.474567
 20
133.24307
 30
0.0
 11
205.768875
 21
129.966458
 31
0.0
  0
LINE
  5
136
330
1F
100
AcDbEntity
  8
GR1-1
  6
CONTINUOUS
 62
     7
100
AcDbLine
 10
205.768875
 20
129.966458
 30
0.0
 11
202.492263
 21
127.67215
 31
0.0
  0
LINE
  5
137
330
1F
100
AcDbEntity
  8
GR1-1
  6
CONTINUOUS
 62
     7
100
AcDbLine
 10
202.492263
 20
127.67215
 30
0.0
 11
200.197954
 21
130.948762
 31
0.0
  0
LINE
  5
138
330
1F
100
AcDbEntity
  8
GR1-1
  6
CONTINUOUS
 62
     7
100
AcDbLine
 10
201.901867
 20
132.00222
 30
0.0
 11
201.438805
 21
129.376062
 31
0.0
  0
LINE
  5
139
330
1F
100
AcDbEntity
  8
GR1-1
  6
CONTINUOUS
 62
     7
100
AcDbLine
 10
201.438805
 20
129.376062
 30
0.0
 11
204.064962
 21
128.913
 31
0.0
  0
LINE
  5
13A
330
1F
100
AcDbEntity
  8
GR1-1
  6
CONTINUOUS
 62
     7
100
AcDbLine
 10
204.064962
 20
128.913
 30
0.0
 11
204.336359
 21
130.452168
 31
0.0
  0
LINE
  5
13B
330
1F
100
AcDbEntity
  8
GR1-1
  6
CONTINUOUS
 62
     7
100
AcDbLine
 10
204.456623
 20
130.47883
 30
0.0
 11
204.755992
 21
130.051287
 31
0.0
  0
LINE
  5
13C
330
1F
100
AcDbEntity
  8
GR1-1
  6
CONTINUOUS
 62
     7
100
AcDbLine
 10
204.755992
 20
130.051287
 30
0.0
 11
205.302094
 21
130.433672
 31
0.0
  0
LINE
  5
13D
330
1F
100
AcDbEntity
  8
GR1-1
  6
CONTINUOUS
 62
     7
100
AcDbLine
 10
205.302094
 20
130.433672
 30
0.0
 11
204.528025
 21
131.539157
 31
0.0
  0
LINE
  5
13E
330
1F
100
AcDbEntity
  8
GR1-1
  6
CONTINUOUS
 62
     7
100
AcDbLine
 10
204.528025
 20
131.539157
 30
0.0
 11
202.983415
 21
130.45761
 31
0.0
  0
LINE
  5
13F
330
1F
100
AcDbEntity
  8
GR1-1
  6
CONTINUOUS
 62
     7
100
AcDbLine
 10
202.983415
 20
130.45761
 30
0.0
 11
203.174607
 21
130.184559
 31
0.0
  0
LINE
  5
140
330
1F
100
AcDbEntity
  8
GR1-1
  6
CONTINUOUS
 62
     7
100
AcDbLine
 10
203.174607
 20
130.184559
 30
0.0
 11
203.54202
 21
130.441824
 31
0.0
  0
ARC
  5
141
330
1F
100
AcDbEntity
  8
GR1-1
  6
CONTINUOUS
 62
     7
100
AcDbCircle
 10
203.580259
 20
130.387214
 30
0.0
 40
0.06666675
100
AcDbArc
 50
-10.0
 51
125.0
  0
LINE
  5
142
330
1F
100
AcDbEntity
  8
GR1-1
  6
CONTINUOUS
 62
     7
100
AcDbLine
 10
203.645913
 20
130.375638
 30
0.0
 11
203.524189
 21
129.685305
 31
0.0
  0
LINE
  5
143
330
1F
100
AcDbEntity
  8
GR1-1
  6
CONTINUOUS
 62
     7
100
AcDbLine
 10
203.524189
 20
129.685305
 30
0.0
 11
202.21111
 21
129.916836
 31
0.0
  0
LINE
  5
144
330
1F
100
AcDbEntity
  8
GR1-1
  6
CONTINUOUS
 62
     7
100
AcDbLine
 10
202.21111
 20
129.916836
 30
0.0
 11
202.442641
 21
131.229915
 31
0.0
  0
LINE
  5
145
330
1F
100
AcDbEntity
  8
GR1-1
  6
CONTINUOUS
 62
     7
100
AcDbLine
 10
202.442641
 20
131.229915
 30
0.0
 11
203.477174
 21
131.047499
 31
0.0
  0
LINE
  5
146
330
1F
100
AcDbEntity
  8
GR1-1
  6
CONTINUOUS
 62
     7
100
AcDbLine
 10
203.477174
 20
131.047499
 30
0.0
 11
204.249479
 21
131.588273
 31
0.0
  0
LINE
  5
147
330
1F
100
AcDbEntity
  8
GR1-1
  6
CONTINUOUS
 62
     7
100
AcDbLine
 10
204.249479
 20
131.588273
 30
0.0
 11
201.901867
 21
132.00222
 31
0.0
  0
ARC
  5
148
330
1F
100
AcDbEntity
  8
GR1-1
  6
CONTINUOUS
 62
     7
100
AcDbCircle
 10
204.402013
 20
130.440591
 30
0.0
 40
0.06666675
100
AcDbArc
 50
35.0
 51
170.0
  0
TEXT
  5
149
330
1F
100
AcDbEntity
  8
LAYERGROUP-1
  6
CONTINUOUS
 62
     7
100
AcDbText
 10
209.513092
 20
131.26384
 30
0.0
 40
4.867191
  1
1
 50
15.0
 41
1.702112
  7
FX_VECTOR
 72
     5
 11
213.704729
 21
132.386985
 31
0.0
100
AcDbText
  0
TEXT
  5
14A
330
1F
100
AcDbEntity
  8
LAYERGROUP-1
  6
CONTINUOUS
 62
     7
100
AcDbText
 10
213.403351
 20
132.340195
 30
0.0
 40
4.867191
  1
0
 50
5.0
 41
1.101366
  7
FX_VECTOR
 72
     5
 11
217.72634
 21
132.718407
 31
0.0
100
AcDbText
  0
TEXT
  5
14B
330
1F
100
AcDbEntity
  8
LAYERGROUP-1
  6
CONTINUOUS
 62
     7
100
AcDbText
 10
217.421356
 20
132.72467
 30
0.0
 40
4.867191
  1
0
 50
355.0
 41
1.101366
  7
FX_VECTOR
 72
     5
 11
221.744345
 21
132.346458
 31
0.0
100
AcDbText
  0
TEXT
  5
14C
330
1F
100
AcDbEntity
  8
LAYERGROUP-1
  6
CONTINUOUS
 62
     7
100
AcDbText
 10
221.445099
 20
132.405579
 30
0.0
 40
4.867191
  1
X
 50
345.0
 41
1.101366
  7
FX_VECTOR
 72
     5
 11
225.636736
 21
131.282433
 31
0.0
100
AcDbText
  0
TEXT
  5
14D
330
1F
100
AcDbEntity
  8
LAYERGROUP-1
  6
CONTINUOUS
 62
     7
100
AcDbText
 10
225.352325
 20
131.392609
 30
0.0
 40
4.867191
  1
3
 50
335.0
 41
1.101366
  7
FX_VECTOR
 72
     5
 11
229.28525
 21
129.558656
 31
0.0
100
AcDbText
  0
TEXT
  5
14E
330
1F
100
AcDbEntity
  8
LAYERGROUP-1
  6
CONTINUOUS
 62
     7
100
AcDbText
 10
229.024292
 20
129.716537
 30
0.0
 40
4.867191
  1
2
 50
325.0
 41
1.101366
  7
FX_VECTOR
 72
     5
 11
232.579004
 21
127.227501
 31
0.0
100
AcDbText
  0
CIRCLE
  5
14F
330
1F
100
AcDbEntity
  8
LAYERGROUP-1
  6
CONTINUOUS
 62
     6
100
AcDbCircle
 10
217.609615
 20
109.569231
 30
0.0
 40
41.0
  0
CIRCLE
  5
150
330
1F
100
AcDbEntity
  8
LAYERGROUP-1
  6
CONTINUOUS
 62
     6
100
AcDbCircle
 10
217.609615
 20
109.569231
 30
0.0
 40
30.50000000000003
  0
LINE
  5
151
330
1F
100
AcDbEntity
  8
GR1-1
  6
CONTINUOUS
 62
     3
100
AcDbLine
 10
83.684752
 20
95.069231
 30
0.0
 11
83.684752
 21
96.069231
 31
0.0
  0
LINE
  5
152
330
1F
100
AcDbEntity
  8
GR1-1
  6
CONTINUOUS
 62
     3
100
AcDbLine
 10
67.684752
 20
124.069231
 30
0.0
 11
67.684752
 21
123.069231
 31
0.0
  0
LINE
  5
153
330
1F
100
AcDbEntity
  8
GR1-1
  6
CONTINUOUS
 62
     7
100
AcDbLine
 10
67.684752
 20
123.069231
 30
0.0
 11
67.684752
 21
118.569231
 31
0.0
  0
LINE
  5
154
330
1F
100
AcDbEntity
  8
GR1-1
  6
CONTINUOUS
 62
     3
100
AcDbLine
 10
67.684752
 20
95.069231
 30
0.0
 11
67.684752
 21
96.069231
 31
0.0
  0
LINE
  5
155
330
1F
100
AcDbEntity
  8
GR1-1
  6
CONTINUOUS
 62
     7
100
AcDbLine
 10
67.684752
 20
96.069231
 30
0.0
 11
67.684752
 21
100.569231
 31
0.0
  0
LINE
  5
156
330
1F
100
AcDbEntity
  8
GR1-1
  6
CONTINUOUS
 62
     3
100
AcDbLine
 10
65.74693
 20
159.569231
 30
0.0
 11
85.622574
 21
159.569231
 31
0.0
  0
LINE
  5
157
330
1F
100
AcDbEntity
  8
LAYERGROUP-1
  6
CONTINUOUS
 62
     3
100
AcDbLine
 10
59.684752
 20
150.569231
 30
0.0
 11
59.684752
 21
148.769231
 31
0.0
  0
LINE
  5
158
330
1F
100
AcDbEntity
  8
LAYERGROUP-1
  6
CONTINUOUS
 62
     3
100
AcDbLine
 10
91.684752
 20
148.469231
 30
0.0
 11
91.684752
 21
150.569231
 31
0.0
  0
LINE
  5
159
330
1F
100
AcDbEntity
  8
LAYERGROUP-1
  6
CONTINUOUS
 62
     3
100
AcDbLine
 10
91.684752
 20
150.569231
 30
0.0
 11
86.921612
 21
158.819231
 31
0.0
  0
LINE
  5
15A
330
1F
100
AcDbEntity
  8
LAYERGROUP-1
  6
CONTINUOUS
 62
     3
100
AcDbLine
 10
59.684752
 20
150.569231
 30
0.0
 11
64.447892
 21
158.819231
 31
0.0
  0
ARC
  5
15B
330
1F
100
AcDbEntity
  8
LAYERGROUP-1
  6
CONTINUOUS
 62
     3
100
AcDbCircle
 10
85.622574
 20
158.069231
 30
0.0
 40
1.5
100
AcDbArc
 50
30.0
 51
90.0
  0
ARC
  5
15C
330
1F
100
AcDbEntity
  8
LAYERGROUP-1
  6
CONTINUOUS
 62
     3
100
AcDbCircle
 10
65.74693
 20
158.069231
 30
0.0
 40
1.5
100
AcDbArc
 50
90.0
 51
150.0
  0
LINE
  5
15D
330
1F
100
AcDbEntity
  8
GR1-1
  6
CONTINUOUS
 62
     3
100
AcDbLine
 10
65.74693
 20
59.569231
 30
0.0
 11
85.622574
 21
59.569231
 31
0.0
  0
LINE
  5
15E
330
1F
100
AcDbEntity
  8
LAYERGROUP-1
  6
CONTINUOUS
 62
     3
100
AcDbLine
 10
59.684752
 20
68.569231
 30
0.0
 11
59.684752
 21
71.169231
 31
0.0
  0
LINE
  5
15F
330
1F
100
AcDbEntity
  8
LAYERGROUP-1
  6
CONTINUOUS
 62
     3
100
AcDbLine
 10
91.684752
 20
68.569231
 30
0.0
 11
86.921612
 21
60.319231
 31
0.0
  0
LINE
  5
160
330
1F
100
AcDbEntity
  8
LAYERGROUP-1
  6
CONTINUOUS
 62
     3
100
AcDbLine
 10
59.684752
 20
68.569231
 30
0.0
 11
64.447892
 21
60.319231
 31
0.0
  0
ARC
  5
161
330
1F
100
AcDbEntity
  8
LAYERGROUP-1
  6
CONTINUOUS
 62
     3
100
AcDbCircle
 10
85.622574
 20
61.069231
 30
0.0
 40
1.5
100
AcDbArc
 50
270.0
 51
330.0
  0
ARC
  5
162
330
1F
100
AcDbEntity
  8
LAYERGROUP-1
  6
CONTINUOUS
 62
     3
100
AcDbCircle
 10
65.74693
 20
61.069231
 30
0.0
 40
1.5
100
AcDbArc
 50
210.0
 51
270.0
  0
CIRCLE
  5
163
330
1F
100
AcDbEntity
  8
LAYERGROUP-1
  6
CONTINUOUS
 62
     3
100
AcDbCircle
 10
217.609615
 20
109.569231
 30
0.0
 40
49.99999999999949
  0
CIRCLE
  5
164
330
1F
100
AcDbEntity
  8
LAYERGROUP-1
  6
CONTINUOUS
 62
     6
100
AcDbCircle
 10
217.609615
 20
109.569231
 30
0.0
 40
35.33273620203917
  0
CIRCLE
  5
165
330
1F
100
AcDbEntity
  8
LAYERGROUP-1
  6
CONTINUOUS
 62
     6
100
AcDbCircle
 10
217.609615
 20
109.569231
 30
0.0
 40
22.37655369834127
  0
CIRCLE
  5
166
330
1F
100
AcDbEntity
  8
LAYERGROUP-1
  6
CONTINUOUS
 62
     3
100
AcDbCircle
 10
217.609615
 20
109.569231
 30
0.0
 40
38.89999999999989
  0
INSERT
  5
16A
330
1F
100
AcDbEntity
  8
0
100
AcDbBlockReference
  2
BLKF021
 10
0.0
 20
0.0
 30
0.0
  0
LINE
  5
19F
330
1F
100
AcDbEntity
  8
GR1-1
  6
CONTINUOUS
 62
     3
100
AcDbLine
 10
54.684752
 20
100.235897
 30
0.0
 11
54.684752
 21
118.902564
 31
0.0
  0
LINE
  5
1A0
330
1F
100
AcDbEntity
  8
GR1-1
  6
CONTINUOUS
 62
     3
100
AcDbLine
 10
54.684752
 20
118.902564
 30
0.0
 11
57.684752
 21
118.902564
 31
0.0
  0
LINE
  5
1A1
330
1F
100
AcDbEntity
  8
GR1-1
  6
CONTINUOUS
 62
     3
100
AcDbLine
 10
54.684752
 20
100.235897
 30
0.0
 11
57.684752
 21
100.235897
 31
0.0
  0
LINE
  5
1A2
330
1F
100
AcDbEntity
  8
GR1-1
  6
CONTINUOUS
 62
     3
100
AcDbLine
 10
55.284752
 20
103.569231
 30
0.0
 11
58.284752
 21
103.569231
 31
0.0
  0
LINE
  5
1A3
330
1F
100
AcDbEntity
  8
GR1-1
  6
CONTINUOUS
 62
     3
100
AcDbLine
 10
55.284752
 20
115.569231
 30
0.0
 11
58.284752
 21
115.569231
 31
0.0
  0
ARC
  5
1A4
330
1F
100
AcDbEntity
  8
GR1-1
  6
CONTINUOUS
 62
     3
100
AcDbCircle
 10
55.284752
 20
116.169231
 30
0.0
 40
0.6
100
AcDbArc
 50
180.0
 51
270.0
  0
ARC
  5
1A5
330
1F
100
AcDbEntity
  8
GR1-1
  6
CONTINUOUS
 62
     3
100
AcDbCircle
 10
55.284752
 20
102.969231
 30
0.0
 40
0.6
100
AcDbArc
 50
90.0
 51
180.0
  0
LINE
  5
1A6
330
1F
100
AcDbEntity
  8
GR1-1
  6
CONTINUOUS
 62
     3
100
AcDbLine
 10
67.684752
 20
102.969231
 30
0.0
 11
67.684752
 21
116.169231
 31
0.0
  0
INSERT
  5
1AA
330
1F
100
AcDbEntity
  8
0
100
AcDbBlockReference
  2
BLKF022
 10
0.0
 20
0.0
 30
0.0
  0
LINE
  5
1DF
330
1F
100
AcDbEntity
  8
GR1-1
  6
CONTINUOUS
 62
     3
100
AcDbLine
 10
96.684752
 20
118.902564
 30
0.0
 11
93.684752
 21
118.902564
 31
0.0
  0
LINE
  5
1E0
330
1F
100
AcDbEntity
  8
GR1-1
  6
CONTINUOUS
 62
     3
100
AcDbLine
 10
96.684752
 20
100.235897
 30
0.0
 11
93.684752
 21
100.235897
 31
0.0
  0
LINE
  5
1E1
330
1F
100
AcDbEntity
  8
GR1-1
  6
CONTINUOUS
 62
     3
100
AcDbLine
 10
96.084752
 20
103.569231
 30
0.0
 11
93.084752
 21
103.569231
 31
0.0
  0
LINE
  5
1E2
330
1F
100
AcDbEntity
  8
GR1-1
  6
CONTINUOUS
 62
     3
100
AcDbLine
 10
96.084752
 20
115.569231
 30
0.0
 11
93.084752
 21
115.569231
 31
0.0
  0
ARC
  5
1E3
330
1F
100
AcDbEntity
  8
GR1-1
  6
CONTINUOUS
 62
     3
100
AcDbCircle
 10
96.084752
 20
116.169231
 30
0.0
 40
0.6
100
AcDbArc
 50
270.0
 51
360.0
  0
ARC
  5
1E4
330
1F
100
AcDbEntity
  8
GR1-1
  6
CONTINUOUS
 62
     3
100
AcDbCircle
 10
96.084752
 20
102.969231
 30
0.0
 40
0.6
100
AcDbArc
 50
0.0
 51
90.0
  0
LINE
  5
1E5
330
1F
100
AcDbEntity
  8
LAYERGROUP-1
  6
CONTINUOUS
 62
     3
100
AcDbLine
 10
96.684752
 20
118.902564
 30
0.0
 11
96.684752
 21
100.235897
 31
0.0
  0
LINE
  5
1E6
330
1F
100
AcDbEntity
  8
GR1-1
  6
CONTINUOUS
 62
     3
100
AcDbLine
 10
83.684752
 20
102.969231
 30
0.0
 11
83.684752
 21
116.169231
 31
0.0
  0
INSERT
  5
1EA
330
1F
100
AcDbEntity
  8
0
100
AcDbBlockReference
  2
BLKF023
 10
0.0
 20
0.0
 30
0.0
  0
LINE
  5
1EF
330
1F
100
AcDbEntity
  8
GR1-1
  6
CONTINUOUS
 62
     3
100
AcDbLine
 10
72.349134
 20
151.481104
 30
0.0
 11
72.509922
 21
152.301797
 31
0.0
  0
LINE
  5
1F0
330
1F
100
AcDbEntity
  8
GR1-1
  6
CONTINUOUS
 62
     3
100
AcDbLine
 10
79.02037
 20
67.657358
 30
0.0
 11
78.859583
 21
66.836665
 31
0.0
  0
HATCH
  5
1F1
330
1F
100
AcDbEntity
  8
GR1-1
  6
CONTINUOUS
 62
     6
100
AcDbHatch
 10
0.0
 20
0.0
 30
0.0
210
0.0
220
0.0
230
1.0
  2

 70
     0
 71
     1
 91
        2
 92
        0
 93
       66
 72
     1
 10
89.58475210477084
 20
150.5692307692306
 11
77.78475210477089
 21
150.5692307692307
 72
     2
 10
77.78475210477089
 20
151.0692307692307
 40
0.5
 50
180.0
 51
270.0
 73
     0
 72
     1
 10
77.28475210477089
 20
151.0692307692307
 11
77.28475210477089
 21
152.3692307692307
 72
     2
 10
75.48475210477082
 20
152.3692307692307
 40
1.8
 50
0.0
 51
90.0
 73
     1
 72
     1
 10
75.48475210477082
 20
154.1692307692307
 11
74.76887858255864
 21
154.1692307692307
 72
     2
 10
74.76887858255864
 20
151.8692307692307
 40
2.3
 50
90.0
 51
169.1596945457001
 73
     1
 72
     1
 10
72.50992164120648
 20
152.3017969920416
 11
72.34913377109027
 21
151.4811035471242
 72
     1
 10
72.34913377109027
 20
151.4811035471242
 11
73.78475210477077
 21
151.002564102564
 72
     1
 10
73.78475210477077
 20
151.002564102564
 11
74.08475210477084
 21
152.5692307692307
 72
     1
 10
74.08475210477084
 20
152.5692307692307
 11
74.08475210477084
 21
151.0692307692307
 72
     2
 10
73.58475210477084
 20
151.0692307692307
 40
0.5
 50
270.0
 51
360.0
 73
     0
 72
     1
 10
73.58475210477084
 20
150.5692307692307
 11
61.78475210477088
 21
150.5692307692306
 72
     2
 10
61.78475210477089
 20
148.4692307692307
 40
2.1
 50
90.0000000000002
 51
180.0
 73
     1
 72
     1
 10
59.68475210477087
 20
148.4692307692307
 11
59.68475210477087
 21
146.2510439903201
 72
     2
 10
62.48475210477082
 20
146.2510439903201
 40
2.8
 50
180.0
 51
231.4507639311123
 73
     1
 72
     1
 10
60.73982871040823
 20
144.061239810078
 11
62.54081908626086
 21
142.6261387776653
 72
     2
 10
60.68475210477087
 20
140.2692307692308
 40
2.999999999999997
 50
319.9299075212819
 51
411.7795390636775
 73
     0
 72
     1
 10
62.98052466292811
 20
138.3380579749909
 11
58.82066447037141
 21
133.5860842614268
 72
     2
 10
63.18475210477087
 20
129.76577810625
 40
5.8
 50
138.8012172400644
 51
180.0
 73
     1
 72
     1
 10
57.38475210477091
 20
129.76577810625
 11
57.38475210477091
 21
128.0692307692307
 72
     2
 10
59.98475210477082
 20
128.0692307692307
 40
2.6
 50
180.0
 51
270.0000000000005
 73
     1
 72
     1
 10
59.98475210477084
 20
125.4692307692307
 11
66.68475210477085
 21
125.4692307692308
 72
     2
 10
66.68475210477087
 20
124.4692307692308
 40
1.0
 50
0.0
 51
90.00000000000081
 73
     0
 72
     1
 10
67.68475210477087
 20
124.4692307692308
 11
67.68475210477087
 21
123.0692307692306
 72
     1
 10
67.68475210477087
 20
123.0692307692306
 11
68.68475210477087
 21
123.0692307692306
 72
     1
 10
68.68475210477087
 20
123.0692307692306
 11
68.68475210477087
 21
124.5692307692308
 72
     2
 10
66.18475210477087
 20
124.5692307692308
 40
2.5
 50
0.0
 51
90.0
 73
     1
 72
     1
 10
66.18475210477087
 20
127.0692307692308
 11
59.98475210477082
 21
127.0692307692308
 72
     2
 10
59.98475210477082
 20
128.0692307692308
 40
1.0
 50
180.0
 51
270.0
 73
     0
 72
     1
 10
58.98475210477093
 20
128.0692307692308
 11
58.98475210477093
 21
129.8409507393991
 72
     2
 10
62.98475210477093
 20
129.8409507393991
 40
4.0
 50
138.8012172400644
 51
180.0
 73
     0
 72
     1
 10
59.97503649484026
 20
132.475644639521
 11
64.19368642553664
 21
137.2947762087186
 72
     2
 10
60.68475210477087
 20
140.2692307692308
 40
4.599999999999997
 50
319.7127117441721
 51
411.7162736763313
 73
     1
 72
     1
 10
63.53471019866202
 20
143.8800116907302
 11
61.66156517821278
 21
145.3726084245872
 72
     2
 10
62.28475210477089
 20
146.1546813461023
 40
1.0
 50
180.0
 51
231.4507639311122
 73
     0
 72
     1
 10
61.28475210477089
 20
146.1546813461023
 11
61.28475210477089
 21
147.9692307692307
 72
     2
 10
62.28475210477089
 20
147.9692307692307
 40
1.0
 50
90.0
 51
180.0
 73
     0
 72
     1
 10
62.28475210477089
 20
148.9692307692307
 11
73.58475210477084
 21
148.9692307692307
 72
     2
 10
73.58475210477084
 20
151.0692307692307
 40
2.1
 50
270.0
 51
360.0
 73
     1
 72
     2
 10
77.78475210477089
 20
151.0692307692307
 40
2.1
 50
180.0
 51
270.0
 73
     1
 72
     1
 10
77.78475210477089
 20
148.9692307692307
 11
89.08475210477084
 21
148.9692307692307
 72
     2
 10
89.08475210477084
 20
147.9692307692307
 40
1.0
 50
0.0
 51
90.0
 73
     0
 72
     1
 10
90.08475210477084
 20
147.9692307692307
 11
90.08475210477084
 21
146.1546813461022
 72
     2
 10
89.08475210477084
 20
146.1546813461022
 40
1.0
 50
308.5492360688882
 51
360.0
 73
     0
 72
     1
 10
89.70793903132893
 20
145.3726084245871
 11
87.80145203325454
 21
143.8534434718468
 72
     2
 10
90.68475210477087
 20
140.2692307692308
 40
4.599999999999997
 50
128.8147458141422
 51
220.2872882557612
 73
     1
 72
     1
 10
87.17581778400162
 20
137.2947762087227
 11
91.39446771470152
 21
132.475644639521
 72
     2
 10
88.3847521047708
 20
129.8409507393991
 40
4.0
 50
0.000000000003664
 51
41.19878275993514
 73
     0
 72
     1
 10
92.3847521047708
 20
129.8409507393993
 11
92.38475210477091
 21
128.0692307692308
 72
     2
 10
91.38475210477091
 20
128.0692307692308
 40
1.0
 50
270.0
 51
360.0000000000032
 73
     0
 72
     1
 10
91.38475210477091
 20
127.0692307692308
 11
85.18475210477087
 21
127.0692307692308
 72
     2
 10
85.18475210477087
 20
124.5692307692308
 40
2.5
 50
90.0
 51
180.0
 73
     1
 72
     1
 10
82.68475210477087
 20
124.5692307692308
 11
82.68475210477087
 21
123.0692307692307
 72
     1
 10
82.68475210477087
 20
123.0692307692307
 11
83.68475210477087
 21
123.0692307692306
 72
     1
 10
83.68475210477087
 20
123.0692307692306
 11
83.68475210477087
 21
124.4692307692308
 72
     2
 10
84.68475210477087
 20
124.4692307692308
 40
1.0
 50
89.99999999999919
 51
180.0
 73
     0
 72
     1
 10
84.68475210477088
 20
125.4692307692308
 11
91.38475210477088
 21
125.4692307692307
 72
     2
 10
91.38475210477091
 20
128.0692307692307
 40
2.6
 50
269.9999999999994
 51
360.0
 73
     1
 72
     1
 10
93.98475210477082
 20
128.0692307692307
 11
93.98475210477082
 21
129.76577810625
 72
     2
 10
88.18475210477087
 20
129.76577810625
 40
5.8
 50
0.0
 51
41.19878275993552
 73
     1
 72
     1
 10
92.54883973917033
 20
133.5860842614268
 11
88.38897954661361
 21
138.3380579749909
 72
     2
 10
90.68475210477087
 20
140.2692307692308
 40
2.999999999999997
 50
128.2204609363224
 51
220.070092478718
 73
     0
 72
     1
 10
88.82868512328088
 20
142.6261387776653
 11
90.6296754991335
 21
144.061239810078
 72
     2
 10
88.88475210477091
 20
146.2510439903201
 40
2.8
 50
308.5492360688878
 51
360.0
 73
     1
 72
     1
 10
91.68475210477087
 20
146.2510439903201
 11
91.68475210477087
 21
148.4692307692307
 72
     2
 10
89.58475210477084
 20
148.4692307692307
 40
2.1
 50
0.0
 51
90.0
 73
     1
 97
        0
 92
        0
 93
       66
 72
     1
 10
89.08475210477084
 20
70.16923076923071
 11
77.98475210477093
 21
70.16923076923068
 72
     2
 10
77.98475210477093
 20
67.86923076923064
 40
2.3
 50
90.0
 51
180.0
 73
     1
 72
     2
 10
73.38475210477091
 20
67.86923076923064
 40
2.3
 50
0.0
 51
90.0
 73
     1
 72
     1
 10
73.38475210477091
 20
70.16923076923068
 11
62.28475210477089
 21
70.16923076923071
 72
     2
 10
62.28475210477089
 20
71.16923076923071
 40
1.0
 50
180.0
 51
270.0
 73
     0
 72
     1
 10
61.28475210477089
 20
71.16923076923071
 11
61.28475210477089
 21
72.98378019235921
 72
     2
 10
62.28475210477089
 20
72.98378019235921
 40
1.0
 50
128.5492360688883
 51
180.0
 73
     0
 72
     1
 10
61.66156517821278
 20
73.76585311387429
 11
63.56805217628523
 21
75.28501806661309
 72
     2
 10
60.68475210477087
 20
78.86923076923068
 40
4.599999999999998
 50
308.8147458141107
 51
402.110277264083
 73
     1
 72
     1
 10
64.0972877415455
 20
81.95380537973098
 11
59.97503649484019
 21
86.66281689894048
 72
     2
 10
62.98475210477082
 20
89.29751079906237
 40
4.0
 50
180.0
 51
221.1987827599355
 73
     0
 72
     1
 10
58.98475210477082
 20
89.29751079906237
 11
58.98475210477082
 21
91.06923076923076
 72
     2
 10
59.98475210477082
 20
91.06923076923076
 40
1.0
 50
89.9999999999996
 51
180.0
 73
     0
 72
     1
 10
59.98475210477083
 20
92.06923076923076
 11
66.18475210477084
 21
92.0692307692307
 72
     2
 10
66.18475210477087
 20
94.5692307692307
 40
2.5
 50
269.9999999999993
 51
360.0
 73
     1
 72
     1
 10
68.68475210477087
 20
94.5692307692307
 11
68.68475210477087
 21
96.06923076923079
 72
     1
 10
68.68475210477087
 20
96.06923076923079
 11
67.68475210477087
 21
96.06923076923081
 72
     1
 10
67.68475210477087
 20
96.06923076923081
 11
67.68475210477091
 21
94.66923076923072
 72
     2
 10
66.68475210477087
 20
94.66923076923069
 40
1.0
 50
269.9999999999992
 51
360.0000000000017
 73
     0
 72
     1
 10
66.68475210477085
 20
93.66923076923069
 11
59.98475210477084
 21
93.66923076923075
 72
     2
 10
59.98475210477082
 20
91.06923076923076
 40
2.6
 50
89.99999999999953
 51
180.0
 73
     1
 72
     1
 10
57.38475210477091
 20
91.06923076923076
 11
57.38475210477091
 21
89.37268343221143
 72
     2
 10
63.18475210477087
 20
89.37268343221143
 40
5.8
 50
180.0
 51
221.1987827599355
 73
     1
 72
     1
 10
58.82066447037141
 20
85.55237727703467
 11
62.98052466292809
 21
80.80040356347055
 72
     2
 10
60.68475210477087
 20
78.86923076923068
 40
2.999999999999997
 50
308.2204609363232
 51
400.0700924787188
 73
     0
 72
     1
 10
62.54081908626088
 20
76.51232276079622
 11
60.73982871040823
 21
75.07722172838351
 72
     2
 10
62.48475210477082
 20
72.88741754814137
 40
2.8
 50
128.5492360688879
 51
180.0
 73
     1
 72
     1
 10
59.68475210477087
 20
72.88741754814137
 11
59.68475210477087
 21
71.16923076923068
 72
     2
 10
62.28475210477089
 20
71.16923076923068
 40
2.6
 50
180.0
 51
269.9999999999998
 73
     1
 72
     1
 10
62.28475210477088
 20
68.5692307692307
 11
73.58475210477084
 21
68.56923076923067
 72
     2
 10
73.58475210477084
 20
68.06923076923067
 40
0.5
 50
0.0
 51
90.0
 73
     0
 72
     1
 10
74.08475210477084
 20
68.06923076923067
 11
74.08475210477084
 21
66.76923076923072
 72
     2
 10
75.88475210477091
 20
66.76923076923072
 40
1.8
 50
180.0
 51
270.0
 73
     1
 72
     1
 10
75.88475210477091
 20
64.96923076923069
 11
76.60062562698309
 21
64.96923076923069
 72
     2
 10
76.60062562698309
 20
67.26923076923069
 40
2.3
 50
270.0
 51
349.1596945456826
 73
     1
 72
     1
 10
78.85958256833513
 20
66.83666454641913
 11
79.02037043845147
 21
67.65735799133714
 72
     1
 10
79.02037043845147
 20
67.65735799133714
 11
77.58475210477084
 21
68.13589743589736
 72
     1
 10
77.58475210477084
 20
68.13589743589736
 11
77.28475210477089
 21
66.5692307692307
 72
     1
 10
77.28475210477089
 20
66.5692307692307
 11
77.28475210477089
 21
68.06923076923067
 72
     2
 10
77.78475210477089
 20
68.06923076923067
 40
0.5
 50
90.0
 51
180.0
 73
     0
 72
     1
 10
77.78475210477089
 20
68.56923076923067
 11
89.08475210477096
 21
68.56923076923067
 72
     2
 10
89.08475210477096
 20
71.16923076923067
 40
2.6
 50
270.0
 51
360.0
 73
     1
 72
     1
 10
91.68475210477087
 20
71.16923076923067
 11
91.68475210477087
 21
72.88741754814137
 72
     2
 10
88.88475210477091
 20
72.88741754814137
 40
2.8
 50
0.0
 51
51.45076393111226
 73
     1
 72
     1
 10
90.6296754991335
 20
75.07722172838351
 11
88.82868512328088
 21
76.5123227607962
 72
     2
 10
90.68475210477087
 20
78.86923076923068
 40
2.999999999999997
 50
139.9299075212818
 51
231.7795390636776
 73
     0
 72
     1
 10
88.38897954661363
 20
80.80040356347053
 11
92.54883973917033
 21
85.55237727703467
 72
     2
 10
88.18475210477087
 20
89.37268343221143
 40
5.8
 50
318.8012172400646
 51
360.0
 73
     1
 72
     1
 10
93.98475210477082
 20
89.37268343221143
 11
93.98475210477082
 21
91.06923076923076
 72
     2
 10
91.38475210477091
 20
91.06923076923076
 40
2.6
 50
0.0
 51
90.00000000000063
 73
     1
 72
     1
 10
91.38475210477088
 20
93.66923076923075
 11
84.68475210477088
 21
93.66923076923069
 72
     2
 10
84.68475210477087
 20
94.66923076923069
 40
1.0
 50
180.0
 51
270.0000000000008
 73
     0
 72
     1
 10
83.68475210477087
 20
94.66923076923069
 11
83.68475210477087
 21
96.06923076923081
 72
     1
 10
83.68475210477087
 20
96.06923076923081
 11
82.68475210477087
 21
96.06923076923081
 72
     1
 10
82.68475210477087
 20
96.06923076923081
 11
82.68475210477087
 21
94.5692307692307
 72
     2
 10
85.18475210477087
 20
94.5692307692307
 40
2.5
 50
180.0
 51
270.0
 73
     1
 72
     1
 10
85.18475210477087
 20
92.0692307692307
 11
91.3847521047708
 21
92.0692307692307
 72
     2
 10
91.3847521047708
 20
91.0692307692307
 40
1.0
 50
0.0
 51
90.0
 73
     0
 72
     1
 10
92.3847521047708
 20
91.0692307692307
 11
92.3847521047708
 21
89.29751079906237
 72
     2
 10
88.3847521047708
 20
89.29751079906237
 40
4.0
 50
318.8012172400642
 51
360.0
 73
     0
 72
     1
 10
91.39446771470148
 20
86.66281689894041
 11
87.17581778400424
 21
81.84368532974192
 72
     2
 10
90.68475210477087
 20
78.86923076923068
 40
4.599999999999998
 50
139.7127117441883
 51
231.7162736762165
 73
     1
 72
     1
 10
87.83479401087249
 20
75.25844984773696
 11
89.70793903132893
 21
73.76585311387431
 72
     2
 10
89.08475210477084
 20
72.98378019235922
 40
1.0
 50
0.0
 51
51.45076393111283
 73
     0
 72
     1
 10
90.08475210477084
 20
72.98378019235922
 11
90.08475210477084
 21
71.16923076923071
 72
     2
 10
89.08475210477084
 20
71.16923076923071
 40
1.0
 50
270.0
 51
360.0
 73
     0
 97
        0
 75
     0
 76
     0
 52
45.0
 41
2.0
 77
     0
 78
     1
 53
45.0
 43
0.0
 44
0.0
 45
-1.414213562373095
 46
1.414213562373095
 79
     0
 98
        0
  0
DIMENSION
  5
1F2
330
1F
100
AcDbEntity
  8
GR1-1
100
AcDbDimension
  2
*D22
 10
106.684752
 20
115.569231
 30
0.0
 11
105.684753
 21
109.569229
 31
0.0
 70
    33
  3
FXDIMINFO
100
AcDbAlignedDimension
 13
96.084752
 23
103.569231
 33
0.0
 14
96.084752
 24
115.569231
 34
0.0
1001
ACAD
1000
DSTYLE
1002
{
1070
     7
1000
FXTIP_ARROW_E
1070
     6
1000
FXTIP_ARROW_S
1070
   173
1070
     1
1002
}
  0
DIMENSION
  5
1FC
330
1F
100
AcDbEntity
  8
GR1-1
100
AcDbDimension
  2
*D23
 10
91.684752
 20
49.569231
 30
0.0
 11
75.684753
 21
50.569229
 31
0.0
 70
    33
  3
FXDIMINFO
100
AcDbAlignedDimension
 13
59.684752
 23
68.569231
 33
0.0
 14
91.684752
 24
68.569231
 34
0.0
1001
ACAD
1000
DSTYLE
1002
{
1070
     7
1000
FXTIP_ARROW_E
1070
     6
1000
FXTIP_ARROW_S
1070
   173
1070
     1
1002
}
  0
DIMENSION
  5
206
330
1F
100
AcDbEntity
  8
GR1-1
100
AcDbDimension
  2
*D24
 10
96.684752
 20
37.904116
 30
0.0
 11
75.684753
 21
38.904118
 31
0.0
 70
    32
  3
FXDIMINFO
100
AcDbAlignedDimension
 13
54.684752
 23
100.235897
 33
0.0
 14
96.684752
 24
99.235897
 34
0.0
 50
180.0
100
AcDbRotatedDimension
1001
ACAD
1000
DSTYLE
1002
{
1070
     7
1000
FXTIP_ARROW_E
1070
     6
1000
FXTIP_ARROW_S
1070
   173
1070
     1
1002
}
  0
DIMENSION
  5
210
330
1F
100
AcDbEntity
  8
GR1-1
100
AcDbDimension
  2
*D25
 10
122.057183
 20
159.569231
 30
0.0
 11
121.057182
 21
109.569229
 31
0.0
 70
    33
  3
FXDIMINFO
100
AcDbAlignedDimension
 13
85.622574
 23
59.569231
 33
0.0
 14
85.622574
 24
159.569231
 34
0.0
1001
ACAD
1000
DSTYLE
1002
{
1070
     7
1000
FXTIP_ARROW_E
1070
     6
1000
FXTIP_ARROW_S
1070
   173
1070
     1
1002
}
  0
INSERT
  5
21D
330
1F
100
AcDbEntity
  8
0
100
AcDbBlockReference
  2
BLKF028
 10
0.0
 20
0.0
 30
0.0
  0
LINE
  5
275
330
1F
100
AcDbEntity
  8
GR1-1
  6
CONTINUOUS
 62
     3
100
AcDbLine
 10
190.529161
 20
143.663581
 30
0.0
 11
193.522201
 21
145.838151
 31
0.0
  0
LINE
  5
276
330
1F
100
AcDbEntity
  8
GR1-1
  6
CONTINUOUS
 62
     3
100
AcDbLine
 10
193.522201
 20
145.838151
 30
0.0
 11
191.34763
 21
148.83119
 31
0.0
  0
LINE
  5
277
330
1F
100
AcDbEntity
  8
GR1-1
  6
CONTINUOUS
 62
     3
100
AcDbLine
 10
191.34763
 20
148.83119
 30
0.0
 11
188.354591
 21
146.65662
 31
0.0
  0
LINE
  5
278
330
1F
100
AcDbEntity
  8
GR1-1
  6
CONTINUOUS
 62
     3
100
AcDbLine
 10
188.354591
 20
146.65662
 30
0.0
 11
190.529161
 21
143.663581
 31
0.0
  0
LINE
  5
279
330
1F
100
AcDbEntity
  8
GR1-1
  6
CONTINUOUS
 62
     3
100
AcDbLine
 10
189.527464
 20
145.222283
 30
0.0
 11
189.913294
 21
147.658318
 31
0.0
  0
LINE
  5
27A
330
1F
100
AcDbEntity
  8
GR1-1
  6
CONTINUOUS
 62
     3
100
AcDbLine
 10
189.913294
 20
147.658318
 30
0.0
 11
192.090948
 21
147.313411
 31
0.0
  0
LINE
  5
27B
330
1F
100
AcDbEntity
  8
GR1-1
  6
CONTINUOUS
 62
     3
100
AcDbLine
 10
192.090948
 20
147.313411
 30
0.0
 11
191.385481
 21
146.80086
 31
0.0
  0
LINE
  5
27C
330
1F
100
AcDbEntity
  8
GR1-1
  6
CONTINUOUS
 62
     3
100
AcDbLine
 10
191.385481
 20
146.80086
 30
0.0
 11
190.425845
 21
146.952852
 31
0.0
  0
LINE
  5
27D
330
1F
100
AcDbEntity
  8
GR1-1
  6
CONTINUOUS
 62
     3
100
AcDbLine
 10
190.425845
 20
146.952852
 30
0.0
 11
190.23293
 21
145.734834
 31
0.0
  0
LINE
  5
27E
330
1F
100
AcDbEntity
  8
GR1-1
  6
CONTINUOUS
 62
     3
100
AcDbLine
 10
190.23293
 20
145.734834
 30
0.0
 11
191.450947
 21
145.541919
 31
0.0
  0
LINE
  5
27F
330
1F
100
AcDbEntity
  8
GR1-1
  6
CONTINUOUS
 62
     3
100
AcDbLine
 10
191.450947
 20
145.541919
 30
0.0
 11
191.552369
 21
146.182275
 31
0.0
  0
ARC
  5
280
330
1F
100
AcDbEntity
  8
GR1-1
  6
CONTINUOUS
 62
     3
100
AcDbCircle
 10
191.491468
 20
146.191921
 30
0.0
 40
0.06166
100
AcDbArc
 50
-9.0
 51
126.0
  0
LINE
  5
281
330
1F
100
AcDbEntity
  8
GR1-1
  6
CONTINUOUS
 62
     3
100
AcDbLine
 10
191.455226
 20
146.241805
 30
0.0
 11
191.11961
 21
145.997966
 31
0.0
  0
LINE
  5
282
330
1F
100
AcDbEntity
  8
GR1-1
  6
CONTINUOUS
 62
     3
100
AcDbLine
 10
191.11961
 20
145.997966
 30
0.0
 11
190.938396
 21
146.247386
 31
0.0
  0
LINE
  5
283
330
1F
100
AcDbEntity
  8
GR1-1
  6
CONTINUOUS
 62
     3
100
AcDbLine
 10
190.938396
 20
146.247386
 30
0.0
 11
192.349328
 21
147.272488
 31
0.0
  0
LINE
  5
284
330
1F
100
AcDbEntity
  8
GR1-1
  6
CONTINUOUS
 62
     3
100
AcDbLine
 10
192.349328
 20
147.272488
 30
0.0
 11
193.082999
 21
146.262676
 31
0.0
  0
LINE
  5
285
330
1F
100
AcDbEntity
  8
GR1-1
  6
CONTINUOUS
 62
     3
100
AcDbLine
 10
193.082999
 20
146.262676
 30
0.0
 11
192.584159
 21
145.900248
 31
0.0
  0
LINE
  5
286
330
1F
100
AcDbEntity
  8
GR1-1
  6
CONTINUOUS
 62
     3
100
AcDbLine
 10
192.584159
 20
145.900248
 30
0.0
 11
192.300415
 21
146.290789
 31
0.0
  0
ARC
  5
287
330
1F
100
AcDbEntity
  8
GR1-1
  6
CONTINUOUS
 62
     3
100
AcDbCircle
 10
192.250531
 20
146.254546
 30
0.0
 40
0.06166
100
AcDbArc
 50
36.0
 51
171.0
  0
LINE
  5
288
330
1F
100
AcDbEntity
  8
GR1-1
  6
CONTINUOUS
 62
     3
100
AcDbLine
 10
192.18963
 20
146.264192
 30
0.0
 11
191.963498
 21
144.836453
 31
0.0
  0
LINE
  5
289
330
1F
100
AcDbEntity
  8
GR1-1
  6
CONTINUOUS
 62
     3
100
AcDbLine
 10
191.963498
 20
144.836453
 30
0.0
 11
189.527464
 21
145.222283
 31
0.0
  0
TEXT
  5
28A
330
1F
100
AcDbEntity
  8
LAYERGROUP-1
  6
CONTINUOUS
 62
     7
100
AcDbText
 10
197.999451
 20
147.521652
 30
0.0
 40
5.331655
  1
G
 50
24.0
 41
1.098276
  7
FX_VECTOR
 72
     5
 11
202.584637
 21
149.563109
 31
0.0
100
AcDbText
  0
TEXT
  5
28B
330
1F
100
AcDbEntity
  8
LAYERGROUP-1
  6
CONTINUOUS
 62
     7
100
AcDbText
 10
202.421814
 20
149.497635
 30
0.0
 40
5.331655
  1
O
 50
17.5
 41
1.040472
  7
FX_VECTOR
 72
     5
 11
207.208625
 21
151.006911
 31
0.0
100
AcDbText
  0
TEXT
  5
28C
330
1F
100
AcDbEntity
  8
LAYERGROUP-1
  6
CONTINUOUS
 62
     7
100
AcDbText
 10
206.67868
 20
150.86644
 30
0.0
 40
5.331655
  1
L
 50
11.5
 41
1.235561
  7
FX_VECTOR
 72
     5
 11
211.597031
 21
151.86709
 31
0.0
100
AcDbText
  0
TEXT
  5
28D
330
1F
100
AcDbEntity
  8
LAYERGROUP-1
  6
CONTINUOUS
 62
     7
100
AcDbText
 10
211.42392
 20
151.838409
 30
0.0
 40
5.331655
  1
D
 50
5.0
 41
1.098276
  7
FX_VECTOR
 72
     5
 11
216.423932
 21
152.275854
 31
0.0
100
AcDbText
  0
TEXT
  5
28E
330
1F
100
AcDbEntity
  8
LAYERGROUP-1
  6
CONTINUOUS
 62
     7
100
AcDbText
 10
219.602936
 20
152.242081
 30
0.0
 40
5.331655
  1
C
 50
354.0
 41
1.098276
  7
FX_VECTOR
 72
     5
 11
224.594552
 21
151.717441
 31
0.0
100
AcDbText
  0
TEXT
  5
28F
330
1F
100
AcDbEntity
  8
LAYERGROUP-1
  6
CONTINUOUS
 62
     7
100
AcDbText
 10
224.052551
 20
151.799957
 30
0.0
 40
5.331655
  1
A
 50
348.0
 41
1.162881
  7
FX_VECTOR
 72
     5
 11
228.961983
 21
150.756425
 31
0.0
100
AcDbText
  0
TEXT
  5
290
330
1F
100
AcDbEntity
  8
LAYERGROUP-1
  6
CONTINUOUS
 62
     7
100
AcDbText
 10
228.791779
 20
150.799133
 30
0.0
 40
5.331655
  1
S
 50
341.5
 41
1.162881
  7
FX_VECTOR
 72
     5
 11
233.55152
 21
149.206546
 31
0.0
100
AcDbText
  0
TEXT
  5
291
330
1F
100
AcDbEntity
  8
LAYERGROUP-1
  6
CONTINUOUS
 62
     7
100
AcDbText
 10
233.040192
 20
149.404419
 30
0.0
 40
5.331655
  1
T
 50
335.5
 41
1.317931
  7
FX_VECTOR
 72
     5
 11
237.607388
 21
147.323027
 31
0.0
100
AcDbText
  0
TEXT
  5
292
330
1F
100
AcDbEntity
  8
LAYERGROUP-1
  6
CONTINUOUS
 62
     7
100
AcDbText
 10
236.787201
 20
147.742081
 30
0.0
 40
5.331655
  1
E
 50
330.0
 41
1.162881
  7
FX_VECTOR
 72
     5
 11
241.133879
 21
145.232525
 31
0.0
100
AcDbText
  0
TEXT
  5
293
330
1F
100
AcDbEntity
  8
LAYERGROUP-1
  6
CONTINUOUS
 62
     7
100
AcDbText
 10
240.985199
 20
145.325729
 30
0.0
 40
5.331655
  1
R
 50
323.5
 41
1.098276
  7
FX_VECTOR
 72
     5
 11
245.019846
 21
142.340248
 31
0.0
100
AcDbText
  0
TEXT
  5
294
330
1F
100
AcDbEntity
  8
LAYERGROUP-1
  6
CONTINUOUS
 62
     7
100
AcDbText
 10
231.200195
 20
69.061523
 30
0.0
 40
5.27711
  1
1
 50
195.5
 41
1.701829
  7
FX_VECTOR
 72
     5
 11
226.667088
 21
67.804382
 31
0.0
100
AcDbText
  0
TEXT
  5
295
330
1F
100
AcDbEntity
  8
LAYERGROUP-1
  6
CONTINUOUS
 62
     7
100
AcDbText
 10
227.980103
 20
68.120094
 30
0.0
 40
5.27711
  1
0
 50
191.0
 41
1.101184
  7
FX_VECTOR
 72
     5
 11
223.362335
 21
67.222491
 31
0.0
100
AcDbText
  0
TEXT
  5
296
330
1F
100
AcDbEntity
  8
LAYERGROUP-1
  6
CONTINUOUS
 62
     7
100
AcDbText
 10
223.590698
 20
67.263145
 30
0.0
 40
5.27711
  1
0
 50
185.0
 41
1.101184
  7
FX_VECTOR
 72
     5
 11
218.904403
 21
66.853148
 31
0.0
100
AcDbText
  0
TEXT
  5
297
330
1F
100
AcDbEntity
  8
LAYERGROUP-1
  6
CONTINUOUS
 62
     7
100
AcDbText
 10
218.763062
 20
66.858025
 30
0.0
 40
5.27711
  1
X
 50
178.5
 41
1.101184
  7
FX_VECTOR
 72
     5
 11
214.060477
 21
66.981166
 31
0.0
100
AcDbText
  0
TEXT
  5
298
330
1F
100
AcDbEntity
  8
LAYERGROUP-1
  6
CONTINUOUS
 62
     7
100
AcDbText
 10
214.292206
 20
66.971436
 30
0.0
 40
5.27711
  1
3
 50
172.5
 41
1.101184
  7
FX_VECTOR
 72
     5
 11
209.628254
 21
67.585456
 31
0.0
100
AcDbText
  0
TEXT
  5
299
330
1F
100
AcDbEntity
  8
LAYERGROUP-1
  6
CONTINUOUS
 62
     7
100
AcDbText
 10
209.857697
 20
67.551559
 30
0.0
 40
5.27711
  1
2
 50
166.5
 41
1.101184
  7
FX_VECTOR
 72
     5
 11
205.283477
 21
68.649732
 31
0.0
100
AcDbText
  0
INSERT
  5
29D
330
1F
100
AcDbEntity
  8
0
100
AcDbBlockReference
  2
BLKF029
 10
0.0
 20
0.0
 30
0.0
  0
ENDSEC
  0
SECTION
  2
OBJECTS
  0
DICTIONARY
  5
C
330
0
100
AcDbDictionary
  3
ACAD_GROUP
350
D
  3
ACAD_LAYOUT
350
1A
  3
ACAD_MLINESTYLE
350
17
  3
ACAD_PLOTSETTINGS
350
19
  3
ACDBHEADERROUNDTRIPXREC
350
2C7
  0
DICTIONARY
  5
D
102
{ACAD_REACTORS
330
C
102
}
330
C
100
AcDbDictionary
  0
DICTIONARY
  5
1A
102
{ACAD_REACTORS
330
C
102
}
330
C
100
AcDbDictionary
  0
DICTIONARY
  5
17
102
{ACAD_REACTORS
330
C
102
}
330
C
100
AcDbDictionary
  3
STANDARD
350
18
  0
DICTIONARY
  5
19
102
{ACAD_REACTORS
330
C
102
}
330
C
100
AcDbDictionary
  0
DICTIONARY
  5
2C7
102
{ACAD_REACTORS
330
C
102
}
330
C
100
AcDbDictionary
  3
CEPSNTYPE
350
2D0
  3
DIMSTYLEDATA
350
2E6
  3
FINGERPRINTGUID
350
2D1
  3
HYPERLINKBASE
350
2CA
  3
INSUNITS
350
2CF
  3
LAYOUTDICT
350
2CC
  3
LWETCUNION
350
2CE
  3
PLOTSETDICT
350
2CD
  3
PSVPSCALE
350
2D3
  3
PUCSBASE
350
2D6
  3
PUCSORGBACK
350
2DC
  3
PUCSORGBOTTOM
350
2D8
  3
PUCSORGFRONT
350
2DB
  3
PUCSORGLEFT
350
2D9
  3
PUCSORGRIGHT
350
2DA
  3
PUCSORGTOP
350
2D7
  3
PUCSORTHOREF
350
2D4
  3
PUCSORTHOVIEW
350
2D5
  3
STYLESHEET
350
2CB
  3
TSTACKALIGN
350
2C8
  3
TSTACKSIZE
350
2C9
  3
UCSBASE
350
2DF
  3
UCSORGBACK
350
2E5
  3
UCSORGBOTTOM
350
2E1
  3
UCSORGFRONT
350
2E4
  3
UCSORGLEFT
350
2E2
  3
UCSORGRIGHT
350
2E3
  3
UCSORGTOP
350
2E0
  3
UCSORTHOREF
350
2DD
  3
UCSORTHOVIEW
350
2DE
  3
VERSIONGUID
350
2D2
  0
MLINESTYLE
  5
18
102
{ACAD_REACTORS
330
17
102
}
330
17
100
AcDbMlineStyle
  2
Standard
 70
     0
  3

 62
   256
 51
90.0
 52
90.0
 71
     2
 49
0.5
 62
   256
  6
BYLAYER
 49
-0.5
 62
   256
  6
BYLAYER
  0
XRECORD
  5
2D0
102
{ACAD_REACTORS
330
2C7
102
}
330
2C7
100
AcDbXrecord
 90
        0
  0
XRECORD
  5
2E6
102
{ACAD_REACTORS
330
2C7
102
}
330
2C7
100
AcDbXrecord
1000
DSTYLE
1002
{
1070
   179
 70
     2
1070
   171
 70
     3
1070
   143
 40
0.03937
1070
   274
 70
     3
1070
    41
 40
3.0
1070
   343
340
41
1070
   344
340
47
1070
   141
 40
2.5
1070
   176
 70
     7
1070
   177
 70
     7
1070
   178
 70
     7
1070
   271
 70
     2
1070
    46
 40
6.0
1070
    43
 40
8.0
1070
    44
 40
1.0
1070
    42
 40
1.0
1070
   147
 40
1.0
1070
   341
340
41
1070
   173
 70
     1
1070
    77
 70
     1
1070
   272
 70
     2
1070
    73
 70
     0
1070
   172
 70
     1
1070
    74
 70
     0
1070
   283
 70
     0
1070
   340
340
3F
1070
   140
 40
4.0
1070
   284
 70
     8
1070
    78
 70
     8
1002
}
  0
XRECORD
  5
2D1
102
{ACAD_REACTORS
330
2C7
102
}
330
2C7
100
AcDbXrecord
  1
{E55B1176-02C2-406E-8024-FB1C7AC03CE5}
  0
XRECORD
  5
2CA
102
{ACAD_REACTORS
330
2C7
102
}
330
2C7
100
AcDbXrecord
  1

  0
XRECORD
  5
2CF
102
{ACAD_REACTORS
330
2C7
102
}
330
2C7
100
AcDbXrecord
 90
        1
  0
XRECORD
  5
2CC
102
{ACAD_REACTORS
330
2C7
102
}
330
2C7
100
AcDbXrecord
340
1A
  0
XRECORD
  5
2CE
102
{ACAD_REACTORS
330
2C7
102
}
330
2C7
100
AcDbXrecord
 90
    10781
  0
XRECORD
  5
2CD
102
{ACAD_REACTORS
330
2C7
102
}
330
2C7
100
AcDbXrecord
340
19
  0
XRECORD
  5
2D3
102
{ACAD_REACTORS
330
2C7
102
}
330
2C7
100
AcDbXrecord
 40
0.0
  0
XRECORD
  5
2D6
102
{ACAD_REACTORS
330
2C7
102
}
330
2C7
100
AcDbXrecord
340
0
  0
XRECORD
  5
2DC
102
{ACAD_REACTORS
330
2C7
102
}
330
2C7
100
AcDbXrecord
 10
0.0
 20
0.0
 30
0.0
  0
XRECORD
  5
2D8
102
{ACAD_REACTORS
330
2C7
102
}
330
2C7
100
AcDbXrecord
 10
0.0
 20
0.0
 30
0.0
  0
XRECORD
  5
2DB
102
{ACAD_REACTORS
330
2C7
102
}
330
2C7
100
AcDbXrecord
 10
0.0
 20
0.0
 30
0.0
  0
XRECORD
  5
2D9
102
{ACAD_REACTORS
330
2C7
102
}
330
2C7
100
AcDbXrecord
 10
0.0
 20
0.0
 30
0.0
  0
XRECORD
  5
2DA
102
{ACAD_REACTORS
330
2C7
102
}
330
2C7
100
AcDbXrecord
 10
0.0
 20
0.0
 30
0.0
  0
XRECORD
  5
2D7
102
{ACAD_REACTORS
330
2C7
102
}
330
2C7
100
AcDbXrecord
 10
0.0
 20
0.0
 30
0.0
  0
XRECORD
  5
2D4
102
{ACAD_REACTORS
330
2C7
102
}
330
2C7
100
AcDbXrecord
340
0
  0
XRECORD
  5
2D5
102
{ACAD_REACTORS
330
2C7
102
}
330
2C7
100
AcDbXrecord
 70
     0
  0
XRECORD
  5
2CB
102
{ACAD_REACTORS
330
2C7
102
}
330
2C7
100
AcDbXrecord
  1

  0
XRECORD
  5
2C8
102
{ACAD_REACTORS
330
2C7
102
}
330
2C7
100
AcDbXrecord
 90
        1
  0
XRECORD
  5
2C9
102
{ACAD_REACTORS
330
2C7
102
}
330
2C7
100
AcDbXrecord
 90
       70
  0
XRECORD
  5
2DF
102
{ACAD_REACTORS
330
2C7
102
}
330
2C7
100
AcDbXrecord
340
0
  0
XRECORD
  5
2E5
102
{ACAD_REACTORS
330
2C7
102
}
330
2C7
100
AcDbXrecord
 10
0.0
 20
0.0
 30
0.0
  0
XRECORD
  5
2E1
102
{ACAD_REACTORS
330
2C7
102
}
330
2C7
100
AcDbXrecord
 10
0.0
 20
0.0
 30
0.0
  0
XRECORD
  5
2E4
102
{ACAD_REACTORS
330
2C7
102
}
330
2C7
100
AcDbXrecord
 10
0.0
 20
0.0
 30
0.0
  0
XRECORD
  5
2E2
102
{ACAD_REACTORS
330
2C7
102
}
330
2C7
100
AcDbXrecord
 10
0.0
 20
0.0
 30
0.0
  0
XRECORD
  5
2E3
102
{ACAD_REACTORS
330
2C7
102
}
330
2C7
100
AcDbXrecord
 10
0.0
 20
0.0
 30
0.0
  0
XRECORD
  5
2E0
102
{ACAD_REACTORS
330
2C7
102
}
330
2C7
100
AcDbXrecord
 10
0.0
 20
0.0
 30
0.0
  0
XRECORD
  5
2DD
102
{ACAD_REACTORS
330
2C7
102
}
330
2C7
100
AcDbXrecord
340
0
  0
XRECORD
  5
2DE
102
{ACAD_REACTORS
330
2C7
102
}
330
2C7
100
AcDbXrecord
 70
     0
  0
XRECORD
  5
2D2
102
{ACAD_REACTORS
330
2C7
102
}
330
2C7
100
AcDbXrecord
  1
{FAEB1C32-E019-11D5-929B-00C0DF256EC4}
  0
ENDSEC
  0
EOF
