  0
SECTION
  2
HEADER
  9
$ACADVER
  1
AC1014
  9
$ACADMAINTVER
 70
     9
  9
$DWGCODEPAGE
  3
ANSI_932
  9
$INSBASE
 10
0.0
 20
0.0
 30
0.0
  9
$EXTMIN
 10
0.0
 20
0.0
 30
0.0
  9
$EXTMAX
 10
297.0
 20
210.0
 30
0.0
  9
$LIMMIN
 10
0.0
 20
0.0
  9
$LIMMAX
 10
297.0
 20
210.0
  9
$ORTHOMODE
 70
     0
  9
$REGENMODE
 70
     1
  9
$FILLMODE
 70
     1
  9
$QTEXTMODE
 70
     0
  9
$MIRRTEXT
 70
     1
  9
$DRAGMODE
 70
     2
  9
$LTSCALE
 40
1.0
  9
$OSMODE
 70
    37
  9
$ATTMODE
 70
     1
  9
$TEXTSIZE
 40
0.2
  9
$TRACEWID
 40
0.05
  9
$TEXTSTYLE
  7
STYLE1
  9
$CLAYER
  8
0
  9
$CELTYPE
  6
BYLAYER
  9
$CECOLOR
 62
   256
  9
$CELTSCALE
 40
1.0
  9
$DELOBJ
 70
     1
  9
$DISPSILH
 70
     0
  9
$DIMSCALE
 40
1.0
  9
$DIMASZ
 40
3.0
  9
$DIMEXO
 40
1.0
  9
$DIMDLI
 40
8.0
  9
$DIMRND
 40
0.0
  9
$DIMDLE
 40
6.0
  9
$DIMEXE
 40
1.0
  9
$DIMTP
 40
0.0
  9
$DIMTM
 40
0.0
  9
$DIMTXT
 40
4.0
  9
$DIMCEN
 40
2.5
  9
$DIMTSZ
 40
0.0
  9
$DIMTOL
 70
     0
  9
$DIMLIM
 70
     0
  9
$DIMTIH
 70
     0
  9
$DIMTOH
 70
     0
  9
$DIMSE1
 70
     0
  9
$DIMSE2
 70
     0
  9
$DIMTAD
 70
     1
  9
$DIMZIN
 70
     8
  9
$DIMBLK
  1

  9
$DIMASO
 70
     1
  9
$DIMSHO
 70
     1
  9
$DIMPOST
  1

  9
$DIMAPOST
  1

  9
$DIMALT
 70
     0
  9
$DIMALTD
 70
     3
  9
$DIMALTF
 40
0.03937
  9
$DIMLFAC
 40
1.0
  9
$DIMTOFL
 70
     1
  9
$DIMTVP
 40
0.0
  9
$DIMTIX
 70
     0
  9
$DIMSOXD
 70
     0
  9
$DIMSAH
 70
     1
  9
$DIMBLK1
  1
FXTIP_ARROW_S
  9
$DIMBLK2
  1
FXTIP_ARROW_E
  9
$DIMSTYLE
  2
FXDIMINFO
  9
$DIMCLRD
 70
     7
  9
$DIMCLRE
 70
     7
  9
$DIMCLRT
 70
     7
  9
$DIMTFAC
 40
1.0
  9
$DIMGAP
 40
1.0
  9
$DIMJUST
 70
     0
  9
$DIMSD1
 70
     0
  9
$DIMSD2
 70
     0
  9
$DIMTOLJ
 70
     0
  9
$DIMTZIN
 70
     8
  9
$DIMALTZ
 70
     0
  9
$DIMALTTZ
 70
     0
  9
$DIMFIT
 70
     3
  9
$DIMUPT
 70
     0
  9
$DIMUNIT
 70
     2
  9
$DIMDEC
 70
     2
  9
$DIMTDEC
 70
     2
  9
$DIMALTU
 70
     2
  9
$DIMALTTD
 70
     3
  9
$DIMTXSTY
  7
STYLE1
  9
$DIMAUNIT
 70
     0
  9
$LUNITS
 70
     2
  9
$LUPREC
 70
     4
  9
$SKETCHINC
 40
0.1
  9
$FILLETRAD
 40
0.5
  9
$AUNITS
 70
     0
  9
$AUPREC
 70
     0
  9
$MENU
  1
.
  9
$ELEVATION
 40
0.0
  9
$PELEVATION
 40
0.0
  9
$THICKNESS
 40
0.0
  9
$LIMCHECK
 70
     0
  9
$CHAMFERA
 40
0.5
  9
$CHAMFERB
 40
0.5
  9
$CHAMFERC
 40
1.0
  9
$CHAMFERD
 40
0.0
  9
$SKPOLY
 70
     0
  9
$TDCREATE
 40
2455300.724066343
  9
$TDUPDATE
 40
2455300.724066354
  9
$TDINDWG
 40
0.0000000116
  9
$TDUSRTIMER
 40
0.0000000116
  9
$USRTIMER
 70
     1
  9
$ANGBASE
 50
0.0
  9
$ANGDIR
 70
     0
  9
$PDMODE
 70
     0
  9
$PDSIZE
 40
0.0
  9
$PLINEWID
 40
0.0
  9
$COORDS
 70
     1
  9
$SPLFRAME
 70
     0
  9
$SPLINETYPE
 70
     6
  9
$SPLINESEGS
 70
     8
  9
$ATTDIA
 70
     0
  9
$ATTREQ
 70
     1
  9
$HANDLING
 70
     1
  9
$HANDSEED
  5
254
  9
$SURFTAB1
 70
     6
  9
$SURFTAB2
 70
     6
  9
$SURFTYPE
 70
     6
  9
$SURFU
 70
     6
  9
$SURFV
 70
     6
  9
$UCSNAME
  2

  9
$UCSORG
 10
0.0
 20
0.0
 30
0.0
  9
$UCSXDIR
 10
1.0
 20
0.0
 30
0.0
  9
$UCSYDIR
 10
0.0
 20
1.0
 30
0.0
  9
$PUCSNAME
  2

  9
$PUCSORG
 10
0.0
 20
0.0
 30
0.0
  9
$PUCSXDIR
 10
1.0
 20
0.0
 30
0.0
  9
$PUCSYDIR
 10
0.0
 20
1.0
 30
0.0
  9
$USERI1
 70
     0
  9
$USERI2
 70
     0
  9
$USERI3
 70
     0
  9
$USERI4
 70
     0
  9
$USERI5
 70
     0
  9
$USERR1
 40
0.0
  9
$USERR2
 40
0.0
  9
$USERR3
 40
0.0
  9
$USERR4
 40
0.0
  9
$USERR5
 40
0.0
  9
$WORLDVIEW
 70
     1
  9
$SHADEDGE
 70
     3
  9
$SHADEDIF
 70
    70
  9
$TILEMODE
 70
     1
  9
$MAXACTVP
 70
    64
  9
$PINSBASE
 10
0.0
 20
0.0
 30
0.0
  9
$PLIMCHECK
 70
     0
  9
$PEXTMIN
 10
1.000000E+20
 20
1.000000E+20
 30
1.000000E+20
  9
$PEXTMAX
 10
-1.000000E+20
 20
-1.000000E+20
 30
-1.000000E+20
  9
$PLIMMIN
 10
0.0
 20
0.0
  9
$PLIMMAX
 10
12.0
 20
9.0
  9
$UNITMODE
 70
     0
  9
$VISRETAIN
 70
     1
  9
$PLINEGEN
 70
     0
  9
$PSLTSCALE
 70
     1
  9
$TREEDEPTH
 70
  3020
  9
$PICKSTYLE
 70
     1
  9
$CMLSTYLE
  2
STANDARD
  9
$CMLJUST
 70
     0
  9
$CMLSCALE
 40
1.0
  9
$PROXYGRAPHICS
 70
     1
  9
$MEASUREMENT
 70
     0
  0
ENDSEC
  0
SECTION
  2
CLASSES
  0
CLASS
  1
ACDBDICTIONARYWDFLT
  2
AcDbDictionaryWithDefault
  3
ObjectDBX Classes
 90
        0
280
     0
281
     0
  0
CLASS
  1
XRECORD
  2
AcDbXrecord
  3
AutoCAD 2000
 90
        0
280
     0
281
     0
  0
CLASS
  1
LWPOLYLINE
  2
AcDbPolyline
  3
AutoCAD 2000
 90
        0
280
     0
281
     1
  0
CLASS
  1
HATCH
  2
AcDbHatch
  3
AutoCAD 2000
 90
        0
280
     0
281
     1
  0
CLASS
  1
ACDBPLACEHOLDER
  2
AcDbPlaceHolder
  3
ObjectDBX Classes
 90
        0
280
     0
281
     0
  0
CLASS
  1
LAYOUT
  2
AcDbLayout
  3
ObjectDBX Classes
 90
        0
280
     0
281
     0
  0
ENDSEC
  0
SECTION
  2
TABLES
  0
TABLE
  2
VPORT
  5
8
330
0
100
AcDbSymbolTable
 70
     1
  0
VPORT
  5
29
330
8
100
AcDbSymbolTableRecord
100
AcDbViewportTableRecord
  2
*ACTIVE
 70
     0
 10
0.0
 20
0.0
 11
1.0
 21
1.0
 12
148.5
 22
105.0
 13
0.0
 23
0.0
 14
0.5
 24
0.5
 15
0.5
 25
0.5
 16
0.0
 26
0.0
 36
1.0
 17
0.0
 27
0.0
 37
0.0
 40
210.0
 41
1.414286
 42
50.0
 43
0.0
 44
0.0
 50
0.0
 51
0.0
 71
     0
 72
   100
 73
     1
 74
     3
 75
     0
 76
     0
 77
     0
 78
     0
  0
ENDTAB
  0
TABLE
  2
LTYPE
  5
5
330
0
100
AcDbSymbolTable
 70
     4
  0
LTYPE
  5
14
330
5
100
AcDbSymbolTableRecord
100
AcDbLinetypeTableRecord
  2
BYBLOCK
 70
     0
  3

 72
    65
 73
     0
 40
0.0
  0
LTYPE
  5
15
330
5
100
AcDbSymbolTableRecord
100
AcDbLinetypeTableRecord
  2
BYLAYER
 70
     0
  3

 72
    65
 73
     0
 40
0.0
  0
LTYPE
  5
16
330
5
100
AcDbSymbolTableRecord
100
AcDbLinetypeTableRecord
  2
CONTINUOUS
 70
     0
  3
--------------------
 72
    65
 73
     0
 40
0.0
  0
LTYPE
  5
2A
330
5
100
AcDbSymbolTableRecord
100
AcDbLinetypeTableRecord
  2
CENTER
 70
     0
  3
Center ____ _ ____ _ ____ _ ____ _ ____ _ ____
 72
    65
 73
     4
 40
13.0
 49
10.0
 74
     0
 49
-1.0
 74
     0
 49
1.0
 74
     0
 49
-1.0
 74
     0
  0
ENDTAB
  0
TABLE
  2
LAYER
  5
2
330
0
100
AcDbSymbolTable
 70
    20
  0
LAYER
  5
10
330
2
100
AcDbSymbolTableRecord
100
AcDbLayerTableRecord
  2
0
 70
     0
 62
     7
  6
CONTINUOUS
  0
LAYER
  5
2D
330
2
100
AcDbSymbolTableRecord
100
AcDbLayerTableRecord
  2
LAYERGROUP-1
 70
     0
 62
     3
  6
CONTINUOUS
  0
LAYER
  5
3D
330
2
100
AcDbSymbolTableRecord
100
AcDbLayerTableRecord
  2
}}ﾊﾊGG血CCТ
 70
     0
 62
     3
  6
CONTINUOUS
  0
LAYER
  5
AA
330
2
100
AcDbSymbolTableRecord
100
AcDbLayerTableRecord
  2
GR1-1
 70
     0
 62
     7
  6
CONTINUOUS
  0
LAYER
  5
217
330
2
100
AcDbSymbolTableRecord
100
AcDbLayerTableRecord
  2
0-1
 70
     0
 62
     7
  6
CONTINUOUS
  0
ENDTAB
  0
TABLE
  2
STYLE
  5
3
330
0
100
AcDbSymbolTable
 70
     4
  0
STYLE
  5
11
330
3
100
AcDbSymbolTableRecord
100
AcDbTextStyleTableRecord
  2
STANDARD
 70
     0
 40
0.0
 41
1.0
 50
0.0
 71
     0
 42
0.2
  3
txt
  4

  0
STYLE
  5
3F
330
3
100
AcDbSymbolTableRecord
100
AcDbTextStyleTableRecord
  2
STYLE1
 70
     0
 40
0.0
 41
1.0
 50
0.0
 71
     0
 42
0.2
  3
MONOTXT.SHX
  4
extfont.shx
  0
STYLE
  5
40
330
3
100
AcDbSymbolTableRecord
100
AcDbTextStyleTableRecord
  2
FX_VECTOR
 70
     0
 40
0.0
 41
1.0
 50
0.0
 71
     0
 42
0.2
  3
MONOTXT.SHX
  4
BIGFONT.SHX
  0
ENDTAB
  0
TABLE
  2
VIEW
  5
6
330
0
100
AcDbSymbolTable
 70
     0
  0
ENDTAB
  0
TABLE
  2
UCS
  5
7
330
0
100
AcDbSymbolTable
 70
     0
  0
ENDTAB
  0
TABLE
  2
APPID
  5
9
330
0
100
AcDbSymbolTable
 70
     1
  0
APPID
  5
12
330
9
100
AcDbSymbolTableRecord
100
AcDbRegAppTableRecord
  2
ACAD
 70
     0
  0
ENDTAB
  0
TABLE
  2
DIMSTYLE
  5
A
330
0
100
AcDbSymbolTable
 70
     2
  0
DIMSTYLE
105
27
330
A
100
AcDbSymbolTableRecord
100
AcDbDimStyleTableRecord
  2
STANDARD
 70
     0
  3

  4

  5

  6

  7

 40
1.0
 41
0.18
 42
0.0625
 43
0.38
 44
0.18
 45
0.0
 46
0.0
 47
0.0
 48
0.0
140
0.18
141
0.09
142
0.0
143
25.4
144
1.0
145
0.0
146
1.0
147
0.09
 71
     0
 72
     0
 73
     1
 74
     1
 75
     0
 76
     0
 77
     0
 78
     0
170
     0
171
     2
172
     0
173
     0
174
     0
175
     0
176
     0
177
     0
178
     0
270
     2
271
     4
272
     4
273
     2
274
     2
340
11
275
     0
280
     0
281
     0
282
     0
283
     1
284
     0
285
     0
286
     0
287
     3
288
     0
  0
DIMSTYLE
105
A7
102
{ACAD_REACTORS
330
EE
330
1E7
330
1F1
330
1FD
102
}
330
A
100
AcDbSymbolTableRecord
100
AcDbDimStyleTableRecord
  2
FXDIMINFO
 70
     0
  3

  4

  5

  6
FXTIP_ARROW_S
  7
FXTIP_ARROW_E
 40
1.0
 41
3.0
 42
1.0
 43
8.0
 44
1.0
 45
0.0
 46
6.0
 47
0.0
 48
0.0
140
4.0
141
2.5
142
0.0
143
0.03937
144
1.0
145
0.0
146
1.0
147
1.0
 71
     0
 72
     0
 73
     0
 74
     0
 75
     0
 76
     0
 77
     1
 78
     8
170
     0
171
     3
172
     1
173
     1
174
     0
175
     0
176
     7
177
     7
178
     7
179
     2
270
     2
271
     2
272
     2
273
     2
274
     3
340
3F
275
     0
280
     0
281
     0
282
     0
283
     0
284
     8
285
     0
286
     0
287
     3
288
     0
  0
ENDTAB
  0
TABLE
  2
BLOCK_RECORD
  5
1
330
0
100
AcDbSymbolTable
 70
    27
  0
BLOCK_RECORD
  5
1F
330
1
100
AcDbSymbolTableRecord
100
AcDbBlockTableRecord
  2
*MODEL_SPACE
  0
BLOCK_RECORD
  5
1B
330
1
100
AcDbSymbolTableRecord
100
AcDbBlockTableRecord
  2
*PAPER_SPACE
  0
BLOCK_RECORD
  5
41
330
1
100
AcDbSymbolTableRecord
100
AcDbBlockTableRecord
  2
FXTIP_ARROW_S
  0
BLOCK_RECORD
  5
47
330
1
100
AcDbSymbolTableRecord
100
AcDbBlockTableRecord
  2
FXTIP_ARROW_E
  0
BLOCK_RECORD
  5
4D
330
1
100
AcDbSymbolTableRecord
100
AcDbBlockTableRecord
  2
FXTIP_BLACKDOT_S
  0
BLOCK_RECORD
  5
53
330
1
100
AcDbSymbolTableRecord
100
AcDbBlockTableRecord
  2
FXTIP_BLACKDOT_E
  0
BLOCK_RECORD
  5
59
330
1
100
AcDbSymbolTableRecord
100
AcDbBlockTableRecord
  2
FXTIP_TRIANGLE_S
  0
BLOCK_RECORD
  5
60
330
1
100
AcDbSymbolTableRecord
100
AcDbBlockTableRecord
  2
FXTIP_TRIANGLE_E
  0
BLOCK_RECORD
  5
67
330
1
100
AcDbSymbolTableRecord
100
AcDbBlockTableRecord
  2
FXTIP_ARCHITECT_S
  0
BLOCK_RECORD
  5
6D
330
1
100
AcDbSymbolTableRecord
100
AcDbBlockTableRecord
  2
FXTIP_ARCHITECT_E
  0
BLOCK_RECORD
  5
73
330
1
100
AcDbSymbolTableRecord
100
AcDbBlockTableRecord
  2
FXTIP_CIVIL_S
  0
BLOCK_RECORD
  5
79
330
1
100
AcDbSymbolTableRecord
100
AcDbBlockTableRecord
  2
FXTIP_CIVIL_E
  0
BLOCK_RECORD
  5
7F
330
1
100
AcDbSymbolTableRecord
100
AcDbBlockTableRecord
  2
FXTIP_WHITEDOT_S
  0
BLOCK_RECORD
  5
84
330
1
100
AcDbSymbolTableRecord
100
AcDbBlockTableRecord
  2
FXTIP_WHITEDOT_E
  0
BLOCK_RECORD
  5
89
330
1
100
AcDbSymbolTableRecord
100
AcDbBlockTableRecord
  2
FXTIP_UPARROW_S
  0
BLOCK_RECORD
  5
8E
330
1
100
AcDbSymbolTableRecord
100
AcDbBlockTableRecord
  2
FXTIP_UPARROW_E
  0
BLOCK_RECORD
  5
93
330
1
100
AcDbSymbolTableRecord
100
AcDbBlockTableRecord
  2
FXTIP_DOWNARROW_S
  0
BLOCK_RECORD
  5
98
330
1
100
AcDbSymbolTableRecord
100
AcDbBlockTableRecord
  2
FXTIP_DOWNARROW_E
  0
BLOCK_RECORD
  5
9D
330
1
100
AcDbSymbolTableRecord
100
AcDbBlockTableRecord
  2
FXTIP_BLACKTRIANGLE_S
  0
BLOCK_RECORD
  5
A2
330
1
100
AcDbSymbolTableRecord
100
AcDbBlockTableRecord
  2
FXTIP_BLACKTRIANGLE_E
  0
BLOCK_RECORD
  5
EF
330
1
100
AcDbSymbolTableRecord
100
AcDbBlockTableRecord
  2
*D19
  0
BLOCK_RECORD
  5
102
330
1
100
AcDbSymbolTableRecord
100
AcDbBlockTableRecord
  2
BLKF022
  0
BLOCK_RECORD
  5
1E8
330
1
100
AcDbSymbolTableRecord
100
AcDbBlockTableRecord
  2
*D21
  0
BLOCK_RECORD
  5
1F2
330
1
100
AcDbSymbolTableRecord
100
AcDbBlockTableRecord
  2
*D22
  0
BLOCK_RECORD
  5
1FE
330
1
100
AcDbSymbolTableRecord
100
AcDbBlockTableRecord
  2
*D23
  0
BLOCK_RECORD
  5
207
330
1
100
AcDbSymbolTableRecord
100
AcDbBlockTableRecord
  2
BLKF026
  0
BLOCK_RECORD
  5
213
330
1
100
AcDbSymbolTableRecord
100
AcDbBlockTableRecord
  2
BLKF027
  0
BLOCK_RECORD
  5
21C
330
1
100
AcDbSymbolTableRecord
100
AcDbBlockTableRecord
  2
BLKF028
  0
ENDTAB
  0
ENDSEC
  0
SECTION
  2
BLOCKS
  0
BLOCK
  5
20
330
1F
100
AcDbEntity
  8
0
100
AcDbBlockBegin
  2
*MODEL_SPACE
 70
     0
 71
     0
 10
0.0
 20
0.0
 30
0.0
  3
*MODEL_SPACE
  1

  0
ENDBLK
  5
21
330
1F
100
AcDbEntity
  8
0
100
AcDbBlockEnd
  0
BLOCK
  5
1C
330
1B
100
AcDbEntity
 67
     1
  8
0
100
AcDbBlockBegin
  2
*PAPER_SPACE
 70
     0
 71
     0
 10
0.0
 20
0.0
 30
0.0
  3
*PAPER_SPACE
  1

  0
ENDBLK
  5
1D
330
1B
100
AcDbEntity
 67
     1
  8
0
100
AcDbBlockEnd
  0
BLOCK
  5
42
330
41
100
AcDbEntity
  8
0
100
AcDbBlockBegin
  2
FXTIP_ARROW_S
 70
     0
 71
     0
 10
0.0
 20
0.0
 30
0.0
  3
FXTIP_ARROW_S
  1

  0
LINE
  5
44
330
41
100
AcDbEntity
  8
0
  6
CONTINUOUS
 62
     0
100
AcDbLine
 10
0.0
 20
0.0
 30
0.0
 11
-1.0
 21
0.0
 31
0.0
  0
LINE
  5
45
330
41
100
AcDbEntity
  8
0
  6
CONTINUOUS
 62
     0
100
AcDbLine
 10
0.0
 20
0.0
 30
0.0
 11
-0.965926
 21
-0.258819
 31
0.0
  0
LINE
  5
46
330
41
100
AcDbEntity
  8
0
  6
CONTINUOUS
 62
     0
100
AcDbLine
 10
0.0
 20
0.0
 30
0.0
 11
-0.965926
 21
0.258819
 31
0.0
  0
ENDBLK
  5
43
330
41
100
AcDbEntity
  8
0
100
AcDbBlockEnd
  0
BLOCK
  5
48
330
47
100
AcDbEntity
  8
0
100
AcDbBlockBegin
  2
FXTIP_ARROW_E
 70
     0
 71
     0
 10
0.0
 20
0.0
 30
0.0
  3
FXTIP_ARROW_E
  1

  0
LINE
  5
4A
330
47
100
AcDbEntity
  8
0
  6
CONTINUOUS
 62
     0
100
AcDbLine
 10
0.0
 20
0.0
 30
0.0
 11
-1.0
 21
0.0
 31
0.0
  0
LINE
  5
4B
330
47
100
AcDbEntity
  8
0
  6
CONTINUOUS
 62
     0
100
AcDbLine
 10
0.0
 20
0.0
 30
0.0
 11
-0.965926
 21
0.258819
 31
0.0
  0
LINE
  5
4C
330
47
100
AcDbEntity
  8
0
  6
CONTINUOUS
 62
     0
100
AcDbLine
 10
0.0
 20
0.0
 30
0.0
 11
-0.965926
 21
-0.258819
 31
0.0
  0
ENDBLK
  5
49
330
47
100
AcDbEntity
  8
0
100
AcDbBlockEnd
  0
BLOCK
  5
4E
330
4D
100
AcDbEntity
  8
0
100
AcDbBlockBegin
  2
FXTIP_BLACKDOT_S
 70
     0
 71
     0
 10
0.0
 20
0.0
 30
0.0
  3
FXTIP_BLACKDOT_S
  1

  0
LINE
  5
50
330
4D
100
AcDbEntity
  8
0
  6
CONTINUOUS
 62
     0
100
AcDbLine
 10
0.0
 20
0.0
 30
0.0
 11
-1.0
 21
0.0
 31
0.0
  0
LWPOLYLINE
  5
51
330
4D
100
AcDbEntity
  8
0
  6
CONTINUOUS
 62
     0
100
AcDbPolyline
 90
        2
 70
     1
 10
-0.25
 20
0.0
 40
0.5
 41
0.5
 42
1.0
 10
0.25
 20
0.0
 40
0.5
 41
0.5
 42
1.0
  0
CIRCLE
  5
52
330
4D
100
AcDbEntity
  8
0
  6
CONTINUOUS
 62
     0
100
AcDbCircle
 10
0.0
 20
0.0
 30
0.0
 40
0.5
  0
ENDBLK
  5
4F
330
4D
100
AcDbEntity
  8
0
100
AcDbBlockEnd
  0
BLOCK
  5
54
330
53
100
AcDbEntity
  8
0
100
AcDbBlockBegin
  2
FXTIP_BLACKDOT_E
 70
     0
 71
     0
 10
0.0
 20
0.0
 30
0.0
  3
FXTIP_BLACKDOT_E
  1

  0
LINE
  5
56
330
53
100
AcDbEntity
  8
0
  6
CONTINUOUS
 62
     0
100
AcDbLine
 10
0.0
 20
0.0
 30
0.0
 11
-1.0
 21
0.0
 31
0.0
  0
LWPOLYLINE
  5
57
330
53
100
AcDbEntity
  8
0
  6
CONTINUOUS
 62
     0
100
AcDbPolyline
 90
        2
 70
     1
 10
-0.25
 20
0.0
 40
0.5
 41
0.5
 42
1.0
 10
0.25
 20
0.0
 40
0.5
 41
0.5
 42
1.0
  0
CIRCLE
  5
58
330
53
100
AcDbEntity
  8
0
  6
CONTINUOUS
 62
     0
100
AcDbCircle
 10
0.0
 20
0.0
 30
0.0
 40
0.5
  0
ENDBLK
  5
55
330
53
100
AcDbEntity
  8
0
100
AcDbBlockEnd
  0
BLOCK
  5
5A
330
59
100
AcDbEntity
  8
0
100
AcDbBlockBegin
  2
FXTIP_TRIANGLE_S
 70
     0
 71
     0
 10
0.0
 20
0.0
 30
0.0
  3
FXTIP_TRIANGLE_S
  1

  0
LINE
  5
5C
330
59
100
AcDbEntity
  8
0
  6
CONTINUOUS
 62
     0
100
AcDbLine
 10
0.0
 20
0.0
 30
0.0
 11
-1.0
 21
0.0
 31
0.0
  0
LINE
  5
5D
330
59
100
AcDbEntity
  8
0
  6
CONTINUOUS
 62
     0
100
AcDbLine
 10
0.0
 20
0.0
 30
0.0
 11
-0.965926
 21
-0.258819
 31
0.0
  0
LINE
  5
5E
330
59
100
AcDbEntity
  8
0
  6
CONTINUOUS
 62
     0
100
AcDbLine
 10
0.0
 20
0.0
 30
0.0
 11
-0.965926
 21
0.258819
 31
0.0
  0
LINE
  5
5F
330
59
100
AcDbEntity
  8
0
  6
CONTINUOUS
 62
     0
100
AcDbLine
 10
-0.965926
 20
-0.258819
 30
0.0
 11
-0.965926
 21
0.258819
 31
0.0
  0
ENDBLK
  5
5B
330
59
100
AcDbEntity
  8
0
100
AcDbBlockEnd
  0
BLOCK
  5
61
330
60
100
AcDbEntity
  8
0
100
AcDbBlockBegin
  2
FXTIP_TRIANGLE_E
 70
     0
 71
     0
 10
0.0
 20
0.0
 30
0.0
  3
FXTIP_TRIANGLE_E
  1

  0
LINE
  5
63
330
60
100
AcDbEntity
  8
0
  6
CONTINUOUS
 62
     0
100
AcDbLine
 10
0.0
 20
0.0
 30
0.0
 11
-1.0
 21
0.0
 31
0.0
  0
LINE
  5
64
330
60
100
AcDbEntity
  8
0
  6
CONTINUOUS
 62
     0
100
AcDbLine
 10
0.0
 20
0.0
 30
0.0
 11
-0.965926
 21
0.258819
 31
0.0
  0
LINE
  5
65
330
60
100
AcDbEntity
  8
0
  6
CONTINUOUS
 62
     0
100
AcDbLine
 10
0.0
 20
0.0
 30
0.0
 11
-0.965926
 21
-0.258819
 31
0.0
  0
LINE
  5
66
330
60
100
AcDbEntity
  8
0
  6
CONTINUOUS
 62
     0
100
AcDbLine
 10
-0.965926
 20
0.258819
 30
0.0
 11
-0.965926
 21
-0.258819
 31
0.0
  0
ENDBLK
  5
62
330
60
100
AcDbEntity
  8
0
100
AcDbBlockEnd
  0
BLOCK
  5
68
330
67
100
AcDbEntity
  8
0
100
AcDbBlockBegin
  2
FXTIP_ARCHITECT_S
 70
     0
 71
     0
 10
0.0
 20
0.0
 30
0.0
  3
FXTIP_ARCHITECT_S
  1

  0
LINE
  5
6A
330
67
100
AcDbEntity
  8
0
  6
CONTINUOUS
 62
     0
100
AcDbLine
 10
0.0
 20
0.0
 30
0.0
 11
-1.0
 21
0.0
 31
0.0
  0
LINE
  5
6B
330
67
100
AcDbEntity
  8
0
  6
CONTINUOUS
 62
     0
100
AcDbLine
 10
0.0
 20
0.0
 30
0.0
 11
-0.707107
 21
-0.707107
 31
0.0
  0
LINE
  5
6C
330
67
100
AcDbEntity
  8
0
  6
CONTINUOUS
 62
     0
100
AcDbLine
 10
0.0
 20
0.0
 30
0.0
 11
0.707107
 21
0.707107
 31
0.0
  0
ENDBLK
  5
69
330
67
100
AcDbEntity
  8
0
100
AcDbBlockEnd
  0
BLOCK
  5
6E
330
6D
100
AcDbEntity
  8
0
100
AcDbBlockBegin
  2
FXTIP_ARCHITECT_E
 70
     0
 71
     0
 10
0.0
 20
0.0
 30
0.0
  3
FXTIP_ARCHITECT_E
  1

  0
LINE
  5
70
330
6D
100
AcDbEntity
  8
0
  6
CONTINUOUS
 62
     0
100
AcDbLine
 10
0.0
 20
0.0
 30
0.0
 11
-1.0
 21
0.0
 31
0.0
  0
LINE
  5
71
330
6D
100
AcDbEntity
  8
0
  6
CONTINUOUS
 62
     0
100
AcDbLine
 10
0.0
 20
0.0
 30
0.0
 11
0.707107
 21
0.707107
 31
0.0
  0
LINE
  5
72
330
6D
100
AcDbEntity
  8
0
  6
CONTINUOUS
 62
     0
100
AcDbLine
 10
0.0
 20
0.0
 30
0.0
 11
-0.707107
 21
-0.707107
 31
0.0
  0
ENDBLK
  5
6F
330
6D
100
AcDbEntity
  8
0
100
AcDbBlockEnd
  0
BLOCK
  5
74
330
73
100
AcDbEntity
  8
0
100
AcDbBlockBegin
  2
FXTIP_CIVIL_S
 70
     0
 71
     0
 10
0.0
 20
0.0
 30
0.0
  3
FXTIP_CIVIL_S
  1

  0
LINE
  5
76
330
73
100
AcDbEntity
  8
0
  6
CONTINUOUS
 62
     0
100
AcDbLine
 10
0.0
 20
0.0
 30
0.0
 11
-1.0
 21
0.0
 31
0.0
  0
LINE
  5
77
330
73
100
AcDbEntity
  8
0
  6
CONTINUOUS
 62
     0
100
AcDbLine
 10
0.0
 20
-0.083333
 30
0.0
 11
-1.0
 21
-0.083333
 31
0.0
  0
LINE
  5
78
330
73
100
AcDbEntity
  8
0
  6
CONTINUOUS
 62
     0
100
AcDbLine
 10
0.0
 20
-0.166667
 30
0.0
 11
-1.0
 21
-0.166667
 31
0.0
  0
ENDBLK
  5
75
330
73
100
AcDbEntity
  8
0
100
AcDbBlockEnd
  0
BLOCK
  5
7A
330
79
100
AcDbEntity
  8
0
100
AcDbBlockBegin
  2
FXTIP_CIVIL_E
 70
     0
 71
     0
 10
0.0
 20
0.0
 30
0.0
  3
FXTIP_CIVIL_E
  1

  0
LINE
  5
7C
330
79
100
AcDbEntity
  8
0
  6
CONTINUOUS
 62
     0
100
AcDbLine
 10
0.0
 20
0.0
 30
0.0
 11
-1.0
 21
0.0
 31
0.0
  0
LINE
  5
7D
330
79
100
AcDbEntity
  8
0
  6
CONTINUOUS
 62
     0
100
AcDbLine
 10
0.0
 20
0.083333
 30
0.0
 11
-1.0
 21
0.083333
 31
0.0
  0
LINE
  5
7E
330
79
100
AcDbEntity
  8
0
  6
CONTINUOUS
 62
     0
100
AcDbLine
 10
0.0
 20
0.166667
 30
0.0
 11
-1.0
 21
0.166667
 31
0.0
  0
ENDBLK
  5
7B
330
79
100
AcDbEntity
  8
0
100
AcDbBlockEnd
  0
BLOCK
  5
80
330
7F
100
AcDbEntity
  8
0
100
AcDbBlockBegin
  2
FXTIP_WHITEDOT_S
 70
     0
 71
     0
 10
0.0
 20
0.0
 30
0.0
  3
FXTIP_WHITEDOT_S
  1

  0
LINE
  5
82
330
7F
100
AcDbEntity
  8
0
  6
CONTINUOUS
 62
     0
100
AcDbLine
 10
0.0
 20
0.0
 30
0.0
 11
-1.0
 21
0.0
 31
0.0
  0
CIRCLE
  5
83
330
7F
100
AcDbEntity
  8
0
  6
CONTINUOUS
 62
     0
100
AcDbCircle
 10
0.0
 20
0.0
 30
0.0
 40
0.5
  0
ENDBLK
  5
81
330
7F
100
AcDbEntity
  8
0
100
AcDbBlockEnd
  0
BLOCK
  5
85
330
84
100
AcDbEntity
  8
0
100
AcDbBlockBegin
  2
FXTIP_WHITEDOT_E
 70
     0
 71
     0
 10
0.0
 20
0.0
 30
0.0
  3
FXTIP_WHITEDOT_E
  1

  0
LINE
  5
87
330
84
100
AcDbEntity
  8
0
  6
CONTINUOUS
 62
     0
100
AcDbLine
 10
0.0
 20
0.0
 30
0.0
 11
-1.0
 21
0.0
 31
0.0
  0
CIRCLE
  5
88
330
84
100
AcDbEntity
  8
0
  6
CONTINUOUS
 62
     0
100
AcDbCircle
 10
0.0
 20
0.0
 30
0.0
 40
0.5
  0
ENDBLK
  5
86
330
84
100
AcDbEntity
  8
0
100
AcDbBlockEnd
  0
BLOCK
  5
8A
330
89
100
AcDbEntity
  8
0
100
AcDbBlockBegin
  2
FXTIP_UPARROW_S
 70
     0
 71
     0
 10
0.0
 20
0.0
 30
0.0
  3
FXTIP_UPARROW_S
  1

  0
LINE
  5
8C
330
89
100
AcDbEntity
  8
0
  6
CONTINUOUS
 62
     0
100
AcDbLine
 10
0.0
 20
0.0
 30
0.0
 11
-1.0
 21
0.0
 31
0.0
  0
LINE
  5
8D
330
89
100
AcDbEntity
  8
0
  6
CONTINUOUS
 62
     0
100
AcDbLine
 10
0.0
 20
0.0
 30
0.0
 11
-0.965926
 21
-0.258819
 31
0.0
  0
ENDBLK
  5
8B
330
89
100
AcDbEntity
  8
0
100
AcDbBlockEnd
  0
BLOCK
  5
8F
330
8E
100
AcDbEntity
  8
0
100
AcDbBlockBegin
  2
FXTIP_UPARROW_E
 70
     0
 71
     0
 10
0.0
 20
0.0
 30
0.0
  3
FXTIP_UPARROW_E
  1

  0
LINE
  5
91
330
8E
100
AcDbEntity
  8
0
  6
CONTINUOUS
 62
     0
100
AcDbLine
 10
0.0
 20
0.0
 30
0.0
 11
-1.0
 21
0.0
 31
0.0
  0
LINE
  5
92
330
8E
100
AcDbEntity
  8
0
  6
CONTINUOUS
 62
     0
100
AcDbLine
 10
0.0
 20
0.0
 30
0.0
 11
-0.965926
 21
0.258819
 31
0.0
  0
ENDBLK
  5
90
330
8E
100
AcDbEntity
  8
0
100
AcDbBlockEnd
  0
BLOCK
  5
94
330
93
100
AcDbEntity
  8
0
100
AcDbBlockBegin
  2
FXTIP_DOWNARROW_S
 70
     0
 71
     0
 10
0.0
 20
0.0
 30
0.0
  3
FXTIP_DOWNARROW_S
  1

  0
LINE
  5
96
330
93
100
AcDbEntity
  8
0
  6
CONTINUOUS
 62
     0
100
AcDbLine
 10
0.0
 20
0.0
 30
0.0
 11
-1.0
 21
0.0
 31
0.0
  0
LINE
  5
97
330
93
100
AcDbEntity
  8
0
  6
CONTINUOUS
 62
     0
100
AcDbLine
 10
0.0
 20
0.0
 30
0.0
 11
-0.965926
 21
0.258819
 31
0.0
  0
ENDBLK
  5
95
330
93
100
AcDbEntity
  8
0
100
AcDbBlockEnd
  0
BLOCK
  5
99
330
98
100
AcDbEntity
  8
0
100
AcDbBlockBegin
  2
FXTIP_DOWNARROW_E
 70
     0
 71
     0
 10
0.0
 20
0.0
 30
0.0
  3
FXTIP_DOWNARROW_E
  1

  0
LINE
  5
9B
330
98
100
AcDbEntity
  8
0
  6
CONTINUOUS
 62
     0
100
AcDbLine
 10
0.0
 20
0.0
 30
0.0
 11
-1.0
 21
0.0
 31
0.0
  0
LINE
  5
9C
330
98
100
AcDbEntity
  8
0
  6
CONTINUOUS
 62
     0
100
AcDbLine
 10
0.0
 20
0.0
 30
0.0
 11
-0.965926
 21
-0.258819
 31
0.0
  0
ENDBLK
  5
9A
330
98
100
AcDbEntity
  8
0
100
AcDbBlockEnd
  0
BLOCK
  5
9E
330
9D
100
AcDbEntity
  8
0
100
AcDbBlockBegin
  2
FXTIP_BLACKTRIANGLE_S
 70
     0
 71
     0
 10
0.0
 20
0.0
 30
0.0
  3
FXTIP_BLACKTRIANGLE_S
  1

  0
LINE
  5
A0
330
9D
100
AcDbEntity
  8
0
  6
CONTINUOUS
 62
     0
100
AcDbLine
 10
0.0
 20
0.0
 30
0.0
 11
-1.0
 21
0.0
 31
0.0
  0
SOLID
  5
A1
330
9D
100
AcDbEntity
  8
0
  6
CONTINUOUS
 62
     0
100
AcDbTrace
 10
0.0
 20
0.0
 30
0.0
 11
-0.965926
 21
-0.258819
 31
0.0
 12
-0.965926
 22
0.258819
 32
0.0
 13
-0.965926
 23
0.258819
 33
0.0
  0
ENDBLK
  5
9F
330
9D
100
AcDbEntity
  8
0
100
AcDbBlockEnd
  0
BLOCK
  5
A3
330
A2
100
AcDbEntity
  8
0
100
AcDbBlockBegin
  2
FXTIP_BLACKTRIANGLE_E
 70
     0
 71
     0
 10
0.0
 20
0.0
 30
0.0
  3
FXTIP_BLACKTRIANGLE_E
  1

  0
LINE
  5
A5
330
A2
100
AcDbEntity
  8
0
  6
CONTINUOUS
 62
     0
100
AcDbLine
 10
0.0
 20
0.0
 30
0.0
 11
-1.0
 21
0.0
 31
0.0
  0
SOLID
  5
A6
330
A2
100
AcDbEntity
  8
0
  6
CONTINUOUS
 62
     0
100
AcDbTrace
 10
0.0
 20
0.0
 30
0.0
 11
-0.965926
 21
0.258819
 31
0.0
 12
-0.965926
 22
-0.258819
 32
0.0
 13
-0.965926
 23
-0.258819
 33
0.0
  0
ENDBLK
  5
A4
330
A2
100
AcDbEntity
  8
0
100
AcDbBlockEnd
  0
BLOCK
  5
F0
330
EF
100
AcDbEntity
  8
0
100
AcDbBlockBegin
  2
*D19
 70
     1
 71
     0
 10
0.0
 20
0.0
 30
0.0
  3
*D19
  1

  0
TEXT
  5
F2
330
EF
100
AcDbEntity
  8
LAYERGROUP-1
  6
CONTINUOUS
 62
     7
100
AcDbText
 10
78.888466
 20
54.852188
 30
0.0
 40
4.0
  1
31
 41
1.016129
  7
FX_VECTOR
 72
     5
 11
84.888466
 21
54.852188
 31
0.0
100
AcDbText
  0
LINE
  5
F3
330
EF
100
AcDbEntity
  8
LAYERGROUP-1
  6
CONTINUOUS
 62
     7
100
AcDbLine
 10
66.388462
 20
53.852184
 30
0.0
 11
97.388462
 21
53.852184
 31
0.0
  0
INSERT
  5
F4
330
EF
100
AcDbEntity
  8
LAYERGROUP-1
  6
CONTINUOUS
 62
     7
100
AcDbBlockReference
  2
FXTIP_ARROW_S
 10
66.388462
 20
53.852184
 30
0.0
 41
3.0
 42
3.0
 50
180.0
  0
INSERT
  5
F5
330
EF
100
AcDbEntity
  8
LAYERGROUP-1
  6
CONTINUOUS
 62
     7
100
AcDbBlockReference
  2
FXTIP_ARROW_E
 10
97.388462
 20
53.852184
 30
0.0
 41
3.0
 42
3.0
 50
360.0
  0
LINE
  5
F6
330
EF
100
AcDbEntity
  8
LAYERGROUP-1
  6
CONTINUOUS
 62
     7
100
AcDbLine
 10
66.388462
 20
105.5
 30
0.0
 11
66.388462
 21
52.852184
 31
0.0
  0
LINE
  5
F7
330
EF
100
AcDbEntity
  8
LAYERGROUP-1
  6
CONTINUOUS
 62
     7
100
AcDbLine
 10
97.388462
 20
105.5
 30
0.0
 11
97.388462
 21
52.852184
 31
0.0
  0
ENDBLK
  5
F1
330
EF
100
AcDbEntity
  8
0
100
AcDbBlockEnd
  0
BLOCK
  5
103
330
102
100
AcDbEntity
  8
0
100
AcDbBlockBegin
  2
BLKF022
 70
     0
 71
     0
 10
0.0
 20
0.0
 30
0.0
  3
BLKF022
  1

  0
LINE
  5
106
330
102
100
AcDbEntity
  8
GR1-1
  6
CONTINUOUS
 62
     7
100
AcDbLine
 10
191.46753
 20
136.692998
 30
0.0
 11
191.473289
 21
136.912923
 31
0.0
  0
LINE
  5
107
330
102
100
AcDbEntity
  8
GR1-1
  6
CONTINUOUS
 62
     7
100
AcDbLine
 10
191.354688
 20
136.585915
 30
0.0
 11
191.366206
 21
137.025765
 31
0.0
  0
LINE
  5
108
330
102
100
AcDbEntity
  8
GR1-1
  6
CONTINUOUS
 62
     7
100
AcDbLine
 10
191.241846
 20
136.478832
 30
0.0
 11
191.259123
 21
137.138606
 31
0.0
  0
LINE
  5
109
330
102
100
AcDbEntity
  8
GR1-1
  6
CONTINUOUS
 62
     7
100
AcDbLine
 10
191.129004
 20
136.37175
 30
0.0
 11
191.15204
 21
137.251448
 31
0.0
  0
LINE
  5
10A
330
102
100
AcDbEntity
  8
GR1-1
  6
CONTINUOUS
 62
     7
100
AcDbLine
 10
191.016163
 20
136.264667
 30
0.0
 11
191.036028
 21
137.023307
 31
0.0
  0
LINE
  5
10B
330
102
100
AcDbEntity
  8
GR1-1
  6
CONTINUOUS
 62
     7
100
AcDbLine
 10
191.041464
 20
137.230883
 30
0.0
 11
191.044957
 21
137.36429
 31
0.0
  0
LINE
  5
10C
330
102
100
AcDbEntity
  8
GR1-1
  6
CONTINUOUS
 62
     7
100
AcDbLine
 10
190.903321
 20
136.157584
 30
0.0
 11
190.923187
 21
136.916224
 31
0.0
  0
LINE
  5
10D
330
102
100
AcDbEntity
  8
GR1-1
  6
CONTINUOUS
 62
     7
100
AcDbLine
 10
190.934381
 20
137.343725
 30
0.0
 11
190.937874
 21
137.477132
 31
0.0
  0
LINE
  5
10E
330
102
100
AcDbEntity
  8
GR1-1
  6
CONTINUOUS
 62
     7
100
AcDbLine
 10
190.790479
 20
136.050501
 30
0.0
 11
190.810345
 21
136.809141
 31
0.0
  0
LINE
  5
10F
330
102
100
AcDbEntity
  8
GR1-1
  6
CONTINUOUS
 62
     7
100
AcDbLine
 10
190.827298
 20
137.456567
 30
0.0
 11
190.830792
 21
137.589973
 31
0.0
  0
LINE
  5
110
330
102
100
AcDbEntity
  8
GR1-1
  6
CONTINUOUS
 62
     7
100
AcDbLine
 10
190.677637
 20
135.943418
 30
0.0
 11
190.699854
 21
136.791858
 31
0.0
  0
LINE
  5
111
330
102
100
AcDbEntity
  8
GR1-1
  6
CONTINUOUS
 62
     7
100
AcDbLine
 10
190.720215
 20
137.569409
 30
0.0
 11
190.723709
 21
137.702815
 31
0.0
  0
LINE
  5
112
330
102
100
AcDbEntity
  8
GR1-1
  6
CONTINUOUS
 62
     7
100
AcDbLine
 10
190.564796
 20
135.836335
 30
0.0
 11
190.592772
 21
136.904699
 31
0.0
  0
LINE
  5
113
330
102
100
AcDbEntity
  8
GR1-1
  6
CONTINUOUS
 62
     7
100
AcDbLine
 10
190.613132
 20
137.68225
 30
0.0
 11
190.616626
 21
137.815657
 31
0.0
  0
LINE
  5
114
330
102
100
AcDbEntity
  8
GR1-1
  6
CONTINUOUS
 62
     7
100
AcDbLine
 10
190.451954
 20
135.729253
 30
0.0
 11
190.485689
 21
137.017541
 31
0.0
  0
LINE
  5
115
330
102
100
AcDbEntity
  8
GR1-1
  6
CONTINUOUS
 62
     7
100
AcDbLine
 10
190.50605
 20
137.795092
 30
0.0
 11
190.509543
 21
137.928499
 31
0.0
  0
LINE
  5
116
330
102
100
AcDbEntity
  8
GR1-1
  6
CONTINUOUS
 62
     7
100
AcDbLine
 10
190.339112
 20
135.62217
 30
0.0
 11
190.376923
 21
137.066128
 31
0.0
  0
LINE
  5
117
330
102
100
AcDbEntity
  8
GR1-1
  6
CONTINUOUS
 62
     7
100
AcDbLine
 10
190.398967
 20
137.907934
 30
0.0
 11
190.40246
 21
138.04134
 31
0.0
  0
LINE
  5
118
330
102
100
AcDbEntity
  8
GR1-1
  6
CONTINUOUS
 62
     7
100
AcDbLine
 10
190.22627
 20
135.515087
 30
0.0
 11
190.232029
 21
135.735012
 31
0.0
  0
LINE
  5
119
330
102
100
AcDbEntity
  8
GR1-1
  6
CONTINUOUS
 62
     7
100
AcDbLine
 10
190.287353
 20
137.84774
 30
0.0
 11
190.295377
 21
138.154182
 31
0.0
  0
LINE
  5
11A
330
102
100
AcDbEntity
  8
GR1-1
  6
CONTINUOUS
 62
     7
100
AcDbLine
 10
190.113428
 20
135.408004
 30
0.0
 11
190.122067
 21
135.737891
 31
0.0
  0
LINE
  5
11B
330
102
100
AcDbEntity
  8
GR1-1
  6
CONTINUOUS
 62
     7
100
AcDbLine
 10
190.174511
 20
137.740657
 30
0.0
 11
190.188294
 21
138.267024
 31
0.0
  0
LINE
  5
11C
330
102
100
AcDbEntity
  8
GR1-1
  6
CONTINUOUS
 62
     7
100
AcDbLine
 10
190.000587
 20
135.300921
 30
0.0
 11
190.012105
 21
135.74077
 31
0.0
  0
LINE
  5
11D
330
102
100
AcDbEntity
  8
GR1-1
  6
CONTINUOUS
 62
     7
100
AcDbLine
 10
190.061669
 20
137.633574
 30
0.0
 11
190.067778
 21
137.866839
 31
0.0
  0
LINE
  5
11E
330
102
100
AcDbEntity
  8
GR1-1
  6
CONTINUOUS
 62
     7
100
AcDbLine
 10
190.069694
 20
137.940017
 30
0.0
 11
190.081212
 21
138.379866
 31
0.0
  0
LINE
  5
11F
330
102
100
AcDbEntity
  8
GR1-1
  6
CONTINUOUS
 62
     7
100
AcDbLine
 10
189.887745
 20
135.193838
 30
0.0
 11
189.902142
 21
135.74365
 31
0.0
  0
LINE
  5
120
330
102
100
AcDbEntity
  8
GR1-1
  6
CONTINUOUS
 62
     7
100
AcDbLine
 10
189.948828
 20
137.526491
 30
0.0
 11
189.954936
 21
137.759756
 31
0.0
  0
LINE
  5
121
330
102
100
AcDbEntity
  8
GR1-1
  6
CONTINUOUS
 62
     7
100
AcDbLine
 10
189.959731
 20
137.942896
 30
0.0
 11
189.974129
 21
138.492708
 31
0.0
  0
LINE
  5
122
330
102
100
AcDbEntity
  8
GR1-1
  6
CONTINUOUS
 62
     7
100
AcDbLine
 10
189.774903
 20
135.086756
 30
0.0
 11
189.79218
 21
135.746529
 31
0.0
  0
LINE
  5
123
330
102
100
AcDbEntity
  8
GR1-1
  6
CONTINUOUS
 62
     7
100
AcDbLine
 10
189.835986
 20
137.419408
 30
0.0
 11
189.842094
 21
137.652674
 31
0.0
  0
LINE
  5
124
330
102
100
AcDbEntity
  8
GR1-1
  6
CONTINUOUS
 62
     7
100
AcDbLine
 10
189.849769
 20
137.945775
 30
0.0
 11
189.867046
 21
138.605549
 31
0.0
  0
LINE
  5
125
330
102
100
AcDbEntity
  8
GR1-1
  6
CONTINUOUS
 62
     7
100
AcDbLine
 10
189.662061
 20
134.979673
 30
0.0
 11
189.682218
 21
135.749409
 31
0.0
  0
LINE
  5
126
330
102
100
AcDbEntity
  8
GR1-1
  6
CONTINUOUS
 62
     7
100
AcDbLine
 10
189.696615
 20
136.29922
 30
0.0
 11
189.712933
 21
136.922369
 31
0.0
  0
LINE
  5
127
330
102
100
AcDbEntity
  8
GR1-1
  6
CONTINUOUS
 62
     7
100
AcDbLine
 10
189.723144
 20
137.312325
 30
0.0
 11
189.729252
 21
137.545591
 31
0.0
  0
LINE
  5
128
330
102
100
AcDbEntity
  8
GR1-1
  6
CONTINUOUS
 62
     7
100
AcDbLine
 10
189.739807
 20
137.948655
 30
0.0
 11
189.759963
 21
138.718391
 31
0.0
  0
LINE
  5
129
330
102
100
AcDbEntity
  8
GR1-1
  6
CONTINUOUS
 62
     7
100
AcDbLine
 10
189.54922
 20
134.87259
 30
0.0
 11
189.572255
 21
135.752288
 31
0.0
  0
LINE
  5
12A
330
102
100
AcDbEntity
  8
GR1-1
  6
CONTINUOUS
 62
     7
100
AcDbLine
 10
189.586653
 20
136.3021
 30
0.0
 11
189.600122
 21
136.816467
 31
0.0
  0
LINE
  5
12B
330
102
100
AcDbEntity
  8
GR1-1
  6
CONTINUOUS
 62
     7
100
AcDbLine
 10
189.610302
 20
137.205243
 30
0.0
 11
189.61641
 21
137.438508
 31
0.0
  0
LINE
  5
12C
330
102
100
AcDbEntity
  8
GR1-1
  6
CONTINUOUS
 62
     7
100
AcDbLine
 10
189.629845
 20
137.951534
 30
0.0
 11
189.65288
 21
138.831233
 31
0.0
  0
LINE
  5
12D
330
102
100
AcDbEntity
  8
GR1-1
  6
CONTINUOUS
 62
     7
100
AcDbLine
 10
189.436378
 20
134.765507
 30
0.0
 11
189.462293
 21
135.755168
 31
0.0
  0
LINE
  5
12E
330
102
100
AcDbEntity
  8
GR1-1
  6
CONTINUOUS
 62
     7
100
AcDbLine
 10
189.47669
 20
136.304979
 30
0.0
 11
189.48728
 21
136.709384
 31
0.0
  0
LINE
  5
12F
330
102
100
AcDbEntity
  8
GR1-1
  6
CONTINUOUS
 62
     7
100
AcDbLine
 10
189.49746
 20
137.09816
 30
0.0
 11
189.505485
 21
137.404602
 31
0.0
  0
LINE
  5
130
330
102
100
AcDbEntity
  8
GR1-1
  6
CONTINUOUS
 62
     7
100
AcDbLine
 10
189.519882
 20
137.954414
 30
0.0
 11
189.545797
 21
138.944075
 31
0.0
  0
LINE
  5
131
330
102
100
AcDbEntity
  8
GR1-1
  6
CONTINUOUS
 62
     7
100
AcDbLine
 10
189.323536
 20
134.658424
 30
0.0
 11
189.352331
 21
135.758047
 31
0.0
  0
LINE
  5
132
330
102
100
AcDbEntity
  8
GR1-1
  6
CONTINUOUS
 62
     7
100
AcDbLine
 10
189.366728
 20
136.307859
 30
0.0
 11
189.377632
 21
136.724264
 31
0.0
  0
LINE
  5
133
330
102
100
AcDbEntity
  8
GR1-1
  6
CONTINUOUS
 62
     7
100
AcDbLine
 10
189.384619
 20
136.991077
 30
0.0
 11
189.395523
 21
137.407482
 31
0.0
  0
LINE
  5
134
330
102
100
AcDbEntity
  8
GR1-1
  6
CONTINUOUS
 62
     7
100
AcDbLine
 10
189.40992
 20
137.957293
 30
0.0
 11
189.438715
 21
139.056916
 31
0.0
  0
LINE
  5
135
330
102
100
AcDbEntity
  8
GR1-1
  6
CONTINUOUS
 62
     7
100
AcDbLine
 10
189.210694
 20
134.551341
 30
0.0
 11
189.242368
 21
135.760927
 31
0.0
  0
LINE
  5
136
330
102
100
AcDbEntity
  8
GR1-1
  6
CONTINUOUS
 62
     7
100
AcDbLine
 10
189.256766
 20
136.310738
 30
0.0
 11
189.270549
 21
136.837105
 31
0.0
  0
LINE
  5
137
330
102
100
AcDbEntity
  8
GR1-1
  6
CONTINUOUS
 62
     7
100
AcDbLine
 10
189.271777
 20
136.883994
 30
0.0
 11
189.28556
 21
137.410361
 31
0.0
  0
LINE
  5
138
330
102
100
AcDbEntity
  8
GR1-1
  6
CONTINUOUS
 62
     7
100
AcDbLine
 10
189.299958
 20
137.960173
 30
0.0
 11
189.331632
 21
139.169758
 31
0.0
  0
LINE
  5
139
330
102
100
AcDbEntity
  8
GR1-1
  6
CONTINUOUS
 62
     7
100
AcDbLine
 10
189.102384
 20
134.617294
 30
0.0
 11
189.132406
 21
135.763806
 31
0.0
  0
LINE
  5
13A
330
102
100
AcDbEntity
  8
GR1-1
  6
CONTINUOUS
 62
     7
100
AcDbLine
 10
189.146803
 20
136.313618
 30
0.0
 11
189.175598
 21
137.413241
 31
0.0
  0
LINE
  5
13B
330
102
100
AcDbEntity
  8
GR1-1
  6
CONTINUOUS
 62
     7
100
AcDbLine
 10
189.189995
 20
137.963052
 30
0.0
 11
189.220018
 21
139.109564
 31
0.0
  0
LINE
  5
13C
330
102
100
AcDbEntity
  8
GR1-1
  6
CONTINUOUS
 62
     7
100
AcDbLine
 10
188.995301
 20
134.730136
 30
0.0
 11
189.022444
 21
135.766686
 31
0.0
  0
LINE
  5
13D
330
102
100
AcDbEntity
  8
GR1-1
  6
CONTINUOUS
 62
     7
100
AcDbLine
 10
189.036841
 20
136.316497
 30
0.0
 11
189.065636
 21
137.41612
 31
0.0
  0
LINE
  5
13E
330
102
100
AcDbEntity
  8
GR1-1
  6
CONTINUOUS
 62
     7
100
AcDbLine
 10
189.080033
 20
137.965932
 30
0.0
 11
189.107176
 21
139.002481
 31
0.0
  0
LINE
  5
13F
330
102
100
AcDbEntity
  8
GR1-1
  6
CONTINUOUS
 62
     7
100
AcDbLine
 10
188.888218
 20
134.842978
 30
0.0
 11
188.912481
 21
135.769565
 31
0.0
  0
LINE
  5
140
330
102
100
AcDbEntity
  8
GR1-1
  6
CONTINUOUS
 62
     7
100
AcDbLine
 10
188.926879
 20
136.319377
 30
0.0
 11
188.955673
 21
137.419
 31
0.0
  0
LINE
  5
141
330
102
100
AcDbEntity
  8
GR1-1
  6
CONTINUOUS
 62
     7
100
AcDbLine
 10
188.970071
 20
137.968811
 30
0.0
 11
188.994334
 21
138.895398
 31
0.0
  0
LINE
  5
142
330
102
100
AcDbEntity
  8
GR1-1
  6
CONTINUOUS
 62
     7
100
AcDbLine
 10
188.781135
 20
134.95582
 30
0.0
 11
188.802519
 21
135.772445
 31
0.0
  0
LINE
  5
143
330
102
100
AcDbEntity
  8
GR1-1
  6
CONTINUOUS
 62
     7
100
AcDbLine
 10
188.816916
 20
136.322256
 30
0.0
 11
188.845711
 21
137.421879
 31
0.0
  0
LINE
  5
144
330
102
100
AcDbEntity
  8
GR1-1
  6
CONTINUOUS
 62
     7
100
AcDbLine
 10
188.860108
 20
137.971691
 30
0.0
 11
188.881493
 21
138.788315
 31
0.0
  0
LINE
  5
145
330
102
100
AcDbEntity
  8
GR1-1
  6
CONTINUOUS
 62
     7
100
AcDbLine
 10
188.674052
 20
135.068661
 30
0.0
 11
188.692557
 21
135.775324
 31
0.0
  0
LINE
  5
146
330
102
100
AcDbEntity
  8
GR1-1
  6
CONTINUOUS
 62
     7
100
AcDbLine
 10
188.706954
 20
136.325136
 30
0.0
 11
188.735749
 21
137.424759
 31
0.0
  0
LINE
  5
147
330
102
100
AcDbEntity
  8
GR1-1
  6
CONTINUOUS
 62
     7
100
AcDbLine
 10
188.750146
 20
137.97457
 30
0.0
 11
188.768651
 21
138.681233
 31
0.0
  0
LINE
  5
148
330
102
100
AcDbEntity
  8
GR1-1
  6
CONTINUOUS
 62
     7
100
AcDbLine
 10
188.566969
 20
135.181503
 30
0.0
 11
188.582595
 21
135.778203
 31
0.0
  0
LINE
  5
149
330
102
100
AcDbEntity
  8
GR1-1
  6
CONTINUOUS
 62
     7
100
AcDbLine
 10
188.640184
 20
137.97745
 30
0.0
 11
188.655809
 21
138.57415
 31
0.0
  0
LINE
  5
14A
330
102
100
AcDbEntity
  8
GR1-1
  6
CONTINUOUS
 62
     7
100
AcDbLine
 10
188.459887
 20
135.294345
 30
0.0
 11
188.472632
 21
135.781083
 31
0.0
  0
LINE
  5
14B
330
102
100
AcDbEntity
  8
GR1-1
  6
CONTINUOUS
 62
     7
100
AcDbLine
 10
188.530222
 20
137.980329
 30
0.0
 11
188.542967
 21
138.467067
 31
0.0
  0
LINE
  5
14C
330
102
100
AcDbEntity
  8
GR1-1
  6
CONTINUOUS
 62
     7
100
AcDbLine
 10
188.352804
 20
135.407187
 30
0.0
 11
188.36267
 21
135.783962
 31
0.0
  0
LINE
  5
14D
330
102
100
AcDbEntity
  8
GR1-1
  6
CONTINUOUS
 62
     7
100
AcDbLine
 10
188.420259
 20
137.983209
 30
0.0
 11
188.430125
 21
138.359984
 31
0.0
  0
LINE
  5
14E
330
102
100
AcDbEntity
  8
GR1-1
  6
CONTINUOUS
 62
     7
100
AcDbLine
 10
188.245721
 20
135.520029
 30
0.0
 11
188.252708
 21
135.786842
 31
0.0
  0
LINE
  5
14F
330
102
100
AcDbEntity
  8
GR1-1
  6
CONTINUOUS
 62
     7
100
AcDbLine
 10
188.310297
 20
137.986088
 30
0.0
 11
188.317284
 21
138.252901
 31
0.0
  0
LINE
  5
150
330
102
100
AcDbEntity
  8
GR1-1
  6
CONTINUOUS
 62
     7
100
AcDbLine
 10
188.138638
 20
135.63287
 30
0.0
 11
188.142745
 21
135.789721
 31
0.0
  0
LINE
  5
151
330
102
100
AcDbEntity
  8
GR1-1
  6
CONTINUOUS
 62
     7
100
AcDbLine
 10
188.200335
 20
137.988967
 30
0.0
 11
188.204442
 21
138.145818
 31
0.0
  0
LINE
  5
152
330
102
100
AcDbEntity
  8
GR1-1
  6
CONTINUOUS
 62
     7
100
AcDbLine
 10
188.031555
 20
135.745712
 30
0.0
 11
188.0916
 21
138.038736
 31
0.0
  0
LINE
  5
153
330
102
100
AcDbEntity
  8
GR1-1
  6
CONTINUOUS
 62
     7
100
AcDbLine
 10
187.924472
 20
135.858554
 30
0.0
 11
187.978758
 21
137.931653
 31
0.0
  0
LINE
  5
154
330
102
100
AcDbEntity
  8
GR1-1
  6
CONTINUOUS
 62
     7
100
AcDbLine
 10
187.817389
 20
135.971396
 30
0.0
 11
187.865917
 21
137.82457
 31
0.0
  0
LINE
  5
155
330
102
100
AcDbEntity
  8
GR1-1
  6
CONTINUOUS
 62
     7
100
AcDbLine
 10
187.710307
 20
136.084237
 30
0.0
 11
187.753075
 21
137.717487
 31
0.0
  0
LINE
  5
156
330
102
100
AcDbEntity
  8
GR1-1
  6
CONTINUOUS
 62
     7
100
AcDbLine
 10
187.603224
 20
136.197079
 30
0.0
 11
187.640233
 21
137.610404
 31
0.0
  0
LINE
  5
157
330
102
100
AcDbEntity
  8
GR1-1
  6
CONTINUOUS
 62
     7
100
AcDbLine
 10
187.496141
 20
136.309921
 30
0.0
 11
187.527391
 21
137.503321
 31
0.0
  0
LINE
  5
158
330
102
100
AcDbEntity
  8
GR1-1
  6
CONTINUOUS
 62
     7
100
AcDbLine
 10
187.389058
 20
136.422763
 30
0.0
 11
187.414549
 21
137.396239
 31
0.0
  0
LINE
  5
159
330
102
100
AcDbEntity
  8
GR1-1
  6
CONTINUOUS
 62
     7
100
AcDbLine
 10
187.281975
 20
136.535604
 30
0.0
 11
187.301708
 21
137.289156
 31
0.0
  0
LINE
  5
15A
330
102
100
AcDbEntity
  8
GR1-1
  6
CONTINUOUS
 62
     7
100
AcDbLine
 10
187.174892
 20
136.648446
 30
0.0
 11
187.188866
 21
137.182073
 31
0.0
  0
LINE
  5
15B
330
102
100
AcDbEntity
  8
GR1-1
  6
CONTINUOUS
 62
     7
100
AcDbLine
 10
187.06781
 20
136.761288
 30
0.0
 11
187.076024
 21
137.07499
 31
0.0
  0
LINE
  5
15C
330
102
100
AcDbEntity
  8
GR1-1
  6
CONTINUOUS
 62
     7
100
AcDbLine
 10
186.960727
 20
136.87413
 30
0.0
 11
186.963182
 21
136.967907
 31
0.0
  0
ENDBLK
  5
104
330
102
100
AcDbEntity
  8
0
100
AcDbBlockEnd
  0
BLOCK
  5
1E9
330
1E8
100
AcDbEntity
  8
0
100
AcDbBlockBegin
  2
*D21
 70
     1
 71
     0
 10
0.0
 20
0.0
 30
0.0
  3
*D21
  1

  0
TEXT
  5
1EB
330
1E8
100
AcDbEntity
  8
GR1-1
  6
CONTINUOUS
 62
     7
100
AcDbText
 10
78.888458
 20
62.847706
 30
0.0
 40
4.0
  1
25
 41
0.851351
  7
FX_VECTOR
 72
     5
 11
84.888458
 21
62.847706
 31
0.0
100
AcDbText
  0
LINE
  5
1EC
330
1E8
100
AcDbEntity
  8
GR1-1
  6
CONTINUOUS
 62
     7
100
AcDbLine
 10
69.388462
 20
61.847704
 30
0.0
 11
94.388462
 21
61.847704
 31
0.0
  0
INSERT
  5
1ED
330
1E8
100
AcDbEntity
  8
GR1-1
  6
CONTINUOUS
 62
     7
100
AcDbBlockReference
  2
FXTIP_ARROW_S
 10
69.388462
 20
61.847704
 30
0.0
 41
3.0
 42
3.0
 50
180.0
  0
INSERT
  5
1EE
330
1E8
100
AcDbEntity
  8
GR1-1
  6
CONTINUOUS
 62
     7
100
AcDbBlockReference
  2
FXTIP_ARROW_E
 10
94.388462
 20
61.847704
 30
0.0
 41
3.0
 42
3.0
 50
360.0
  0
LINE
  5
1EF
330
1E8
100
AcDbEntity
  8
GR1-1
  6
CONTINUOUS
 62
     7
100
AcDbLine
 10
69.388462
 20
76.709962
 30
0.0
 11
69.388462
 21
60.847704
 31
0.0
  0
LINE
  5
1F0
330
1E8
100
AcDbEntity
  8
GR1-1
  6
CONTINUOUS
 62
     7
100
AcDbLine
 10
94.388462
 20
76.709962
 30
0.0
 11
94.388462
 21
60.847704
 31
0.0
  0
ENDBLK
  5
1EA
330
1E8
100
AcDbEntity
  8
0
100
AcDbBlockEnd
  0
BLOCK
  5
1F3
330
1F2
100
AcDbEntity
  8
0
100
AcDbBlockBegin
  2
*D22
 70
     1
 71
     0
 10
0.0
 20
0.0
 30
0.0
  3
*D22
  1

  0
TEXT
  5
1F5
330
1F2
100
AcDbEntity
  8
GR1-1
  6
CONTINUOUS
 62
     7
100
AcDbText
 10
113.664688
 20
106.5
 30
0.0
 40
4.0
  1
φ8.2
 50
90.0
 41
0.969231
  7
FX_VECTOR
 72
     5
 11
113.664688
 21
118.5
 31
0.0
100
AcDbText
  0
LINE
  5
1F6
330
1F2
100
AcDbEntity
  8
GR1-1
  6
CONTINUOUS
 62
     7
100
AcDbLine
 10
105.664688
 20
108.4
 30
0.0
 11
105.664688
 21
116.6
 31
0.0
  0
LINE
  5
1F7
330
1F2
100
AcDbEntity
  8
GR1-1
  6
CONTINUOUS
 62
     7
100
AcDbLine
 10
97.888462
 20
108.4
 30
0.0
 11
106.664688
 21
108.4
 31
0.0
  0
LINE
  5
1F8
330
1F2
100
AcDbEntity
  8
GR1-1
  6
CONTINUOUS
 62
     7
100
AcDbLine
 10
97.888462
 20
116.6
 30
0.0
 11
106.664688
 21
116.6
 31
0.0
  0
LINE
  5
1F9
330
1F2
100
AcDbEntity
  8
GR1-1
  6
CONTINUOUS
 62
     7
100
AcDbLine
 10
105.664688
 20
102.4
 30
0.0
 11
105.664688
 21
108.4
 31
0.0
  0
INSERT
  5
1FA
330
1F2
100
AcDbEntity
  8
GR1-1
  6
CONTINUOUS
 62
     7
100
AcDbBlockReference
  2
FXTIP_ARROW_E
 10
105.664688
 20
108.4
 30
0.0
 41
3.0
 42
3.0
 50
90.0
  0
LINE
  5
1FB
330
1F2
100
AcDbEntity
  8
GR1-1
  6
CONTINUOUS
 62
     7
100
AcDbLine
 10
105.664688
 20
116.6
 30
0.0
 11
105.664688
 21
122.6
 31
0.0
  0
INSERT
  5
1FC
330
1F2
100
AcDbEntity
  8
GR1-1
  6
CONTINUOUS
 62
     7
100
AcDbBlockReference
  2
FXTIP_ARROW_S
 10
105.664688
 20
116.6
 30
0.0
 41
3.0
 42
3.0
 50
270.0
  0
ENDBLK
  5
1F4
330
1F2
100
AcDbEntity
  8
0
100
AcDbBlockEnd
  0
BLOCK
  5
1FF
330
1FE
100
AcDbEntity
  8
0
100
AcDbBlockBegin
  2
*D23
 70
     1
 71
     0
 10
0.0
 20
0.0
 30
0.0
  3
*D23
  1

  0
TEXT
  5
201
330
1FE
100
AcDbEntity
  8
GR1-1
  6
CONTINUOUS
 62
     7
100
AcDbText
 10
133.414658
 20
108.0
 30
0.0
 40
4.0
  1
φ75
 50
90.0
 41
0.859091
  7
FX_VECTOR
 72
     5
 11
133.414658
 21
117.0
 31
0.0
100
AcDbText
  0
LINE
  5
202
330
1FE
100
AcDbEntity
  8
GR1-1
  6
CONTINUOUS
 62
     7
100
AcDbLine
 10
134.414655
 20
75.0
 30
0.0
 11
134.414655
 21
150.0
 31
0.0
  0
INSERT
  5
203
330
1FE
100
AcDbEntity
  8
GR1-1
  6
CONTINUOUS
 62
     7
100
AcDbBlockReference
  2
FXTIP_ARROW_S
 10
134.414655
 20
75.0
 30
0.0
 41
3.0
 42
3.0
 50
270.0
  0
INSERT
  5
204
330
1FE
100
AcDbEntity
  8
GR1-1
  6
CONTINUOUS
 62
     7
100
AcDbBlockReference
  2
FXTIP_ARROW_E
 10
134.414655
 20
150.0
 30
0.0
 41
3.0
 42
3.0
 50
90.0
  0
LINE
  5
205
330
1FE
100
AcDbEntity
  8
GR1-1
  6
CONTINUOUS
 62
     7
100
AcDbLine
 10
82.888462
 20
75.0
 30
0.0
 11
135.414655
 21
75.0
 31
0.0
  0
LINE
  5
206
330
1FE
100
AcDbEntity
  8
GR1-1
  6
CONTINUOUS
 62
     7
100
AcDbLine
 10
82.888462
 20
150.0
 30
0.0
 11
135.414655
 21
150.0
 31
0.0
  0
ENDBLK
  5
200
330
1FE
100
AcDbEntity
  8
0
100
AcDbBlockEnd
  0
BLOCK
  5
208
330
207
100
AcDbEntity
  8
0
100
AcDbBlockBegin
  2
BLKF026
 70
     0
 71
     0
 10
0.0
 20
0.0
 30
0.0
  3
BLKF026
  1

  0
LINE
  5
20B
330
207
100
AcDbEntity
  8
}}ﾊﾊGG血CCТ
  6
CONTINUOUS
 62
     7
100
AcDbLine
 10
10.0
 20
10.0
 30
0.0
 11
287.0
 21
10.0
 31
0.0
  0
LINE
  5
20C
330
207
100
AcDbEntity
  8
}}ﾊﾊGG血CCТ
  6
CONTINUOUS
 62
     7
100
AcDbLine
 10
10.0
 20
10.0
 30
0.0
 11
10.0
 21
200.0
 31
0.0
  0
LINE
  5
20D
330
207
100
AcDbEntity
  8
}}ﾊﾊGG血CCТ
  6
CONTINUOUS
 62
     7
100
AcDbLine
 10
10.0
 20
200.0
 30
0.0
 11
287.0
 21
200.0
 31
0.0
  0
LINE
  5
20E
330
207
100
AcDbEntity
  8
}}ﾊﾊGG血CCТ
  6
CONTINUOUS
 62
     7
100
AcDbLine
 10
287.0
 20
200.0
 30
0.0
 11
287.0
 21
10.0
 31
0.0
  0
LINE
  5
20F
330
207
100
AcDbEntity
  8
}}ﾊﾊGG血CCТ
  6
CONTINUOUS
 62
     7
100
AcDbLine
 10
30.0
 20
10.0
 30
0.0
 11
30.0
 21
20.0
 31
0.0
  0
TEXT
  5
210
330
207
100
AcDbEntity
  8
}}ﾊﾊGG血CCТ
  6
CONTINUOUS
 62
     7
100
AcDbText
 10
14.738815
 20
11.596879
 30
0.0
 40
6.648749
  1
品名
 41
1.083413
  7
FX_VECTOR
 72
     5
 11
26.058355
 21
11.596879
 31
0.0
100
AcDbText
  0
LINE
  5
211
330
207
100
AcDbEntity
  8
}}ﾊﾊGG血CCТ
  6
CONTINUOUS
 62
     7
100
AcDbLine
 10
110.0
 20
20.0
 30
0.0
 11
110.0
 21
10.0
 31
0.0
  0
LINE
  5
212
330
207
100
AcDbEntity
  8
}}ﾊﾊGG血CCТ
  6
CONTINUOUS
 62
     7
100
AcDbLine
 10
10.0
 20
20.0
 30
0.0
 11
287.0
 21
20.0
 31
0.0
  0
INSERT
  5
216
330
207
100
AcDbEntity
  8
0
100
AcDbBlockReference
  2
BLKF027
 10
0.0
 20
0.0
 30
0.0
  0
INSERT
  5
21F
330
207
100
AcDbEntity
  8
0
100
AcDbBlockReference
  2
BLKF028
 10
0.0
 20
0.0
 30
0.0
  0
HATCH
  5
22F
330
207
100
AcDbEntity
  8
GR1-1
  6
CONTINUOUS
 62
     7
100
AcDbHatch
 10
0.0
 20
0.0
 30
0.0
210
0.0
220
0.0
230
1.0
  2

 70
     0
 71
     1
 91
        2
 92
        0
 93
        4
 72
     1
 10
215.8018997861325
 20
17.91346152
 11
221.8018997861325
 21
17.91346152
 72
     1
 10
221.8018997861325
 20
17.91346152
 11
221.8018997861325
 21
11.91346152
 72
     1
 10
221.8018997861325
 20
11.91346152
 11
215.8018997861325
 21
11.91346152
 72
     1
 10
215.8018997861325
 20
11.91346152
 11
215.8018997861325
 21
17.91346152
 97
        0
 92
        0
 93
       15
 72
     1
 10
218.8018997861325
 20
17.76923076000002
 11
215.9461305461325
 21
14.91346152
 72
     1
 10
215.9461305461325
 20
14.91346152
 11
218.8018997861325
 21
12.05769228000001
 72
     1
 10
218.8018997861325
 20
12.05769228000001
 11
220.3595920661325
 21
13.61538462
 72
     1
 10
220.3595920661325
 20
13.61538462
 11
220.3595920661325
 21
12.98076924
 72
     1
 10
220.3595920661325
 20
12.98076924
 11
221.2249766861325
 21
12.98076924
 72
     1
 10
221.2249766861325
 20
12.98076924
 11
221.2249766861325
 21
15.00000000000001
 72
     1
 10
221.2249766861325
 20
15.00000000000001
 11
218.8018997861325
 21
15.00000000000001
 72
     1
 10
218.8018997861325
 20
15.00000000000001
 11
218.8018997861325
 21
14.13461538000001
 72
     1
 10
218.8018997861325
 20
14.13461538000001
 11
219.2461305461325
 21
14.13461538000001
 72
     1
 10
219.2461305461325
 20
14.13461538000001
 11
218.8018997861325
 21
13.69038462
 72
     1
 10
218.8018997861325
 20
13.69038462
 11
217.5788228861325
 21
14.91346152
 72
     1
 10
217.5788228861325
 20
14.91346152
 11
218.8018997861325
 21
16.13653842000003
 72
     1
 10
218.8018997861325
 20
16.13653842000003
 11
219.5922844061325
 21
15.3461538
 72
     1
 10
219.5922844061325
 20
15.3461538
 11
221.2249766861325
 21
15.3461538
 72
     1
 10
221.2249766861325
 20
15.3461538
 11
218.8018997861325
 21
17.76923076000002
 97
        0
 75
     0
 76
     0
 52
45.0
 41
0.05
 77
     0
 78
     1
 53
45.0
 43
0.0
 44
0.0
 45
-0.0353553390593274
 46
0.0353553390593274
 79
     0
 98
        0
  0
TEXT
  5
230
330
207
100
AcDbEntity
  8
}}ﾊﾊGG血CCТ
  6
CONTINUOUS
 62
     7
100
AcDbText
 10
226.225754
 20
11.461285
 30
0.0
 40
6.0
  1
GOLD CASTER
 41
0.719626
  7
FX_VECTOR
 72
     5
 11
270.225754
 21
11.461285
 31
0.0
100
AcDbText
  0
LINE
  5
231
330
207
100
AcDbEntity
  8
}}ﾊﾊGG血CCТ
  6
CONTINUOUS
 62
     7
100
AcDbLine
 10
130.0
 20
10.0
 30
0.0
 11
130.0
 21
20.0
 31
0.0
  0
TEXT
  5
232
330
207
100
AcDbEntity
  8
}}ﾊﾊGG血CCТ
  6
CONTINUOUS
 62
     7
100
AcDbText
 10
114.738815
 20
11.596879
 30
0.0
 40
6.648749
  1
図番
 41
1.083413
  7
FX_VECTOR
 72
     5
 11
126.058355
 21
11.596879
 31
0.0
100
AcDbText
  0
LINE
  5
233
330
207
100
AcDbEntity
  8
}}ﾊﾊGG血CCТ
  6
CONTINUOUS
 62
     7
100
AcDbLine
 10
210.0
 20
20.0
 30
0.0
 11
210.0
 21
10.0
 31
0.0
  0
ENDBLK
  5
209
330
207
100
AcDbEntity
  8
0
100
AcDbBlockEnd
  0
BLOCK
  5
214
330
213
100
AcDbEntity
  8
0
100
AcDbBlockBegin
  2
BLKF027
 70
     0
 71
     0
 10
0.0
 20
0.0
 30
0.0
  3
BLKF027
  1

  0
LINE
  5
218
330
213
100
AcDbEntity
  8
0-1
  6
CONTINUOUS
 62
     7
100
AcDbLine
 10
221.8019
 20
17.913462
 30
0.0
 11
215.8019
 21
17.913462
 31
0.0
  0
LINE
  5
219
330
213
100
AcDbEntity
  8
0-1
  6
CONTINUOUS
 62
     7
100
AcDbLine
 10
215.8019
 20
17.913462
 30
0.0
 11
215.8019
 21
11.913462
 31
0.0
  0
LINE
  5
21A
330
213
100
AcDbEntity
  8
0-1
  6
CONTINUOUS
 62
     7
100
AcDbLine
 10
215.8019
 20
11.913462
 30
0.0
 11
221.8019
 21
11.913462
 31
0.0
  0
LINE
  5
21B
330
213
100
AcDbEntity
  8
0-1
  6
CONTINUOUS
 62
     7
100
AcDbLine
 10
221.8019
 20
11.913462
 30
0.0
 11
221.8019
 21
17.913462
 31
0.0
  0
ENDBLK
  5
215
330
213
100
AcDbEntity
  8
0
100
AcDbBlockEnd
  0
BLOCK
  5
21D
330
21C
100
AcDbEntity
  8
0
100
AcDbBlockBegin
  2
BLKF028
 70
     0
 71
     0
 10
0.0
 20
0.0
 30
0.0
  3
BLKF028
  1

  0
LINE
  5
220
330
21C
100
AcDbEntity
  8
0-1
  6
CONTINUOUS
 62
     7
100
AcDbLine
 10
221.224977
 20
15.346154
 30
0.0
 11
218.8019
 21
17.769231
 31
0.0
  0
LINE
  5
221
330
21C
100
AcDbEntity
  8
0-1
  6
CONTINUOUS
 62
     7
100
AcDbLine
 10
218.8019
 20
17.769231
 30
0.0
 11
215.946131
 21
14.913462
 31
0.0
  0
LINE
  5
222
330
21C
100
AcDbEntity
  8
0-1
  6
CONTINUOUS
 62
     7
100
AcDbLine
 10
215.946131
 20
14.913462
 30
0.0
 11
218.8019
 21
12.057692
 31
0.0
  0
LINE
  5
223
330
21C
100
AcDbEntity
  8
0-1
  6
CONTINUOUS
 62
     7
100
AcDbLine
 10
218.8019
 20
12.057692
 30
0.0
 11
220.359592
 21
13.615385
 31
0.0
  0
LINE
  5
224
330
21C
100
AcDbEntity
  8
0-1
  6
CONTINUOUS
 62
     7
100
AcDbLine
 10
220.359592
 20
13.615385
 30
0.0
 11
220.359592
 21
12.980769
 31
0.0
  0
LINE
  5
225
330
21C
100
AcDbEntity
  8
0-1
  6
CONTINUOUS
 62
     7
100
AcDbLine
 10
220.359592
 20
12.980769
 30
0.0
 11
221.224977
 21
12.980769
 31
0.0
  0
LINE
  5
226
330
21C
100
AcDbEntity
  8
0-1
  6
CONTINUOUS
 62
     7
100
AcDbLine
 10
221.224977
 20
12.980769
 30
0.0
 11
221.224977
 21
15.0
 31
0.0
  0
LINE
  5
227
330
21C
100
AcDbEntity
  8
0-1
  6
CONTINUOUS
 62
     7
100
AcDbLine
 10
221.224977
 20
15.0
 30
0.0
 11
218.8019
 21
15.0
 31
0.0
  0
LINE
  5
228
330
21C
100
AcDbEntity
  8
0-1
  6
CONTINUOUS
 62
     7
100
AcDbLine
 10
218.8019
 20
15.0
 30
0.0
 11
218.8019
 21
14.134615
 31
0.0
  0
LINE
  5
229
330
21C
100
AcDbEntity
  8
0-1
  6
CONTINUOUS
 62
     7
100
AcDbLine
 10
218.8019
 20
14.134615
 30
0.0
 11
219.246131
 21
14.134615
 31
0.0
  0
LINE
  5
22A
330
21C
100
AcDbEntity
  8
0-1
  6
CONTINUOUS
 62
     7
100
AcDbLine
 10
219.246131
 20
14.134615
 30
0.0
 11
218.8019
 21
13.690385
 31
0.0
  0
LINE
  5
22B
330
21C
100
AcDbEntity
  8
0-1
  6
CONTINUOUS
 62
     7
100
AcDbLine
 10
218.8019
 20
13.690385
 30
0.0
 11
217.578823
 21
14.913462
 31
0.0
  0
LINE
  5
22C
330
21C
100
AcDbEntity
  8
0-1
  6
CONTINUOUS
 62
     7
100
AcDbLine
 10
217.578823
 20
14.913462
 30
0.0
 11
218.8019
 21
16.136538
 31
0.0
  0
LINE
  5
22D
330
21C
100
AcDbEntity
  8
0-1
  6
CONTINUOUS
 62
     7
100
AcDbLine
 10
218.8019
 20
16.136538
 30
0.0
 11
219.592284
 21
15.346154
 31
0.0
  0
LINE
  5
22E
330
21C
100
AcDbEntity
  8
0-1
  6
CONTINUOUS
 62
     7
100
AcDbLine
 10
219.592284
 20
15.346154
 30
0.0
 11
221.224977
 21
15.346154
 31
0.0
  0
ENDBLK
  5
21E
330
21C
100
AcDbEntity
  8
0
100
AcDbBlockEnd
  0
ENDSEC
  0
SECTION
  2
ENTITIES
  0
TEXT
  5
A8
330
1F
100
AcDbEntity
  8
}}ﾊﾊGG血CCТ
  6
CONTINUOUS
 62
     7
100
AcDbText
 10
33.28838
 20
12.0
 30
0.0
 40
6.0
  1
Ｓ－　７５　ＵＢ
 41
0.794326
  7
FX_VECTOR
 72
     5
 11
65.28838
 21
12.0
 31
0.0
100
AcDbText
  0
TEXT
  5
A9
330
1F
100
AcDbEntity
  8
}}ﾊﾊGG血CCТ
  6
CONTINUOUS
 62
     7
100
AcDbText
 10
133.903046
 20
12.0
 30
0.0
 40
6.0
  1
1S25FFAA-C02
 41
0.711864
  7
FX_VECTOR
 72
     5
 11
181.903046
 21
12.0
 31
0.0
100
AcDbText
  0
ARC
  5
AB
330
1F
100
AcDbEntity
  8
GR1-1
  6
CONTINUOUS
 62
     3
100
AcDbCircle
 10
71.388462
 20
77.709962
 30
0.0
 40
2.0
100
AcDbArc
 50
180.0
 51
262.26362
  0
ARC
  5
AC
330
1F
100
AcDbEntity
  8
GR1-1
  6
CONTINUOUS
 62
     3
100
AcDbCircle
 10
81.888462
 20
155.0
 30
0.0
 40
80.0
100
AcDbArc
 50
262.26362
 51
277.73638
  0
ARC
  5
AD
330
1F
100
AcDbEntity
  8
GR1-1
  6
CONTINUOUS
 62
     3
100
AcDbCircle
 10
92.388462
 20
77.709962
 30
0.0
 40
2.0
100
AcDbArc
 50
277.73638
 51
360.0
  0
LINE
  5
AE
330
1F
100
AcDbEntity
  8
GR1-1
  6
CONTINUOUS
 62
     3
100
AcDbLine
 10
94.388462
 20
77.709962
 30
0.0
 11
94.388462
 21
97.73551
 31
0.0
  0
ARC
  5
AF
330
1F
100
AcDbEntity
  8
GR1-1
  6
CONTINUOUS
 62
     3
100
AcDbCircle
 10
93.388462
 20
85.6609
 30
0.0
 40
1.0
100
AcDbArc
 50
0.0
 51
80.0
  0
LINE
  5
B0
330
1F
100
AcDbEntity
  8
GR1-1
  6
CONTINUOUS
 62
     3
100
AcDbLine
 10
93.56211
 20
86.645708
 30
0.0
 11
87.788807
 21
87.663697
 31
0.0
  0
ARC
  5
B1
330
1F
100
AcDbEntity
  8
GR1-1
  6
CONTINUOUS
 62
     3
100
AcDbCircle
 10
88.4834
 20
91.602928
 30
0.0
 40
4.0
100
AcDbArc
 50
196.005644
 51
260.0
  0
LINE
  5
B2
330
1F
100
AcDbEntity
  8
GR1-1
  6
CONTINUOUS
 62
     3
100
AcDbLine
 10
92.388462
 20
83.0
 30
0.0
 11
71.388462
 21
83.0
 31
0.0
  0
LINE
  5
B3
330
1F
100
AcDbEntity
  8
GR1-1
  6
CONTINUOUS
 62
     3
100
AcDbLine
 10
71.388462
 20
83.0
 30
0.0
 11
72.388462
 21
81.5
 31
0.0
  0
LINE
  5
B4
330
1F
100
AcDbEntity
  8
GR1-1
  6
CONTINUOUS
 62
     3
100
AcDbLine
 10
72.388462
 20
81.5
 30
0.0
 11
69.388462
 21
81.5
 31
0.0
  0
LINE
  5
B5
330
1F
100
AcDbEntity
  8
GR1-1
  6
CONTINUOUS
 62
     3
100
AcDbLine
 10
69.388462
 20
77.709962
 30
0.0
 11
69.388462
 21
97.73551
 31
0.0
  0
ARC
  5
B6
330
1F
100
AcDbEntity
  8
GR1-1
  6
CONTINUOUS
 62
     3
100
AcDbCircle
 10
70.388462
 20
85.6609
 30
0.0
 40
1.0
100
AcDbArc
 50
100.0
 51
180.0
  0
LINE
  5
B7
330
1F
100
AcDbEntity
  8
GR1-1
  6
CONTINUOUS
 62
     3
100
AcDbLine
 10
70.214813
 20
86.645708
 30
0.0
 11
75.988116
 21
87.663697
 31
0.0
  0
ARC
  5
B8
330
1F
100
AcDbEntity
  8
GR1-1
  6
CONTINUOUS
 62
     3
100
AcDbCircle
 10
75.293523
 20
91.602928
 30
0.0
 40
4.0
100
AcDbArc
 50
280.0
 51
343.994356
  0
LINE
  5
B9
330
1F
100
AcDbEntity
  8
GR1-1
  6
CONTINUOUS
 62
     3
100
AcDbLine
 10
92.388462
 20
83.0
 30
0.0
 11
91.388462
 21
81.5
 31
0.0
  0
LINE
  5
BA
330
1F
100
AcDbEntity
  8
GR1-1
  6
CONTINUOUS
 62
     3
100
AcDbLine
 10
91.388462
 20
81.5
 30
0.0
 11
94.388462
 21
81.5
 31
0.0
  0
ARC
  5
BB
330
1F
100
AcDbEntity
  8
GR1-1
  6
CONTINUOUS
 62
     3
100
AcDbCircle
 10
88.4834
 20
133.397072
 30
0.0
 40
4.0
100
AcDbArc
 50
100.0
 51
163.994356
  0
LINE
  5
BC
330
1F
100
AcDbEntity
  8
GR1-1
  6
CONTINUOUS
 62
     3
100
AcDbLine
 10
87.788807
 20
137.336303
 30
0.0
 11
93.56211
 21
138.354292
 31
0.0
  0
ARC
  5
BD
330
1F
100
AcDbEntity
  8
GR1-1
  6
CONTINUOUS
 62
     3
100
AcDbCircle
 10
93.388462
 20
139.3391
 30
0.0
 40
1.0
100
AcDbArc
 50
280.0
 51
360.0
  0
LINE
  5
BE
330
1F
100
AcDbEntity
  8
GR1-1
  6
CONTINUOUS
 62
     3
100
AcDbLine
 10
94.388462
 20
147.290038
 30
0.0
 11
94.388462
 21
127.26449
 31
0.0
  0
ARC
  5
BF
330
1F
100
AcDbEntity
  8
GR1-1
  6
CONTINUOUS
 62
     3
100
AcDbCircle
 10
92.388462
 20
147.290038
 30
0.0
 40
2.0
100
AcDbArc
 50
0.0
 51
82.26362
  0
ARC
  5
C0
330
1F
100
AcDbEntity
  8
GR1-1
  6
CONTINUOUS
 62
     3
100
AcDbCircle
 10
81.888462
 20
70.0
 30
0.0
 40
80.0
100
AcDbArc
 50
82.26362
 51
97.73638
  0
ARC
  5
C1
330
1F
100
AcDbEntity
  8
GR1-1
  6
CONTINUOUS
 62
     3
100
AcDbCircle
 10
71.388462
 20
147.290038
 30
0.0
 40
2.0
100
AcDbArc
 50
97.73638
 51
180.0
  0
LINE
  5
C2
330
1F
100
AcDbEntity
  8
GR1-1
  6
CONTINUOUS
 62
     3
100
AcDbLine
 10
69.388462
 20
147.290038
 30
0.0
 11
69.388462
 21
127.26449
 31
0.0
  0
ARC
  5
C3
330
1F
100
AcDbEntity
  8
GR1-1
  6
CONTINUOUS
 62
     3
100
AcDbCircle
 10
70.388462
 20
139.3391
 30
0.0
 40
1.0
100
AcDbArc
 50
180.0
 51
260.0
  0
LINE
  5
C4
330
1F
100
AcDbEntity
  8
GR1-1
  6
CONTINUOUS
 62
     3
100
AcDbLine
 10
70.214813
 20
138.354292
 30
0.0
 11
75.988116
 21
137.336303
 31
0.0
  0
LINE
  5
C5
330
1F
100
AcDbEntity
  8
GR1-1
  6
CONTINUOUS
 62
     3
100
AcDbLine
 10
79.138462
 20
134.5
 30
0.0
 11
79.138462
 21
132.340077
 31
0.0
  0
ARC
  5
C6
330
1F
100
AcDbEntity
  8
GR1-1
  6
CONTINUOUS
 62
     3
100
AcDbCircle
 10
75.293523
 20
133.397072
 30
0.0
 40
4.0
100
AcDbArc
 50
16.005644
 51
80.0
  0
LINE
  5
C7
330
1F
100
AcDbEntity
  8
GR1-1
  6
CONTINUOUS
 62
     3
100
AcDbLine
 10
71.388462
 20
142.0
 30
0.0
 11
92.388462
 21
142.0
 31
0.0
  0
LINE
  5
C8
330
1F
100
AcDbEntity
  8
GR1-1
  6
CONTINUOUS
 62
     3
100
AcDbLine
 10
92.388462
 20
142.0
 30
0.0
 11
91.388462
 21
143.5
 31
0.0
  0
LINE
  5
C9
330
1F
100
AcDbEntity
  8
GR1-1
  6
CONTINUOUS
 62
     3
100
AcDbLine
 10
91.388462
 20
143.5
 30
0.0
 11
94.388462
 21
143.5
 31
0.0
  0
LINE
  5
CA
330
1F
100
AcDbEntity
  8
GR1-1
  6
CONTINUOUS
 62
     3
100
AcDbLine
 10
72.388462
 20
143.5
 30
0.0
 11
69.388462
 21
143.5
 31
0.0
  0
LINE
  5
CB
330
1F
100
AcDbEntity
  8
GR1-1
  6
CONTINUOUS
 62
     3
100
AcDbLine
 10
71.388462
 20
142.0
 30
0.0
 11
72.388462
 21
143.5
 31
0.0
  0
CIRCLE
  5
CC
330
1F
100
AcDbEntity
  8
GR1-1
  6
CONTINUOUS
 62
     3
100
AcDbCircle
 10
212.388462
 20
112.5
 30
0.0
 40
30.99999999999997
  0
CIRCLE
  5
CD
330
1F
100
AcDbEntity
  8
GR1-1
  6
CONTINUOUS
 62
     3
100
AcDbCircle
 10
212.388462
 20
112.5
 30
0.0
 40
37.49999999999997
  0
LINE
  5
CE
330
1F
100
AcDbEntity
  8
GR1-1
  6
CENTER
 62
     6
100
AcDbLine
 10
81.888462
 20
72.791918
 30
0.0
 11
81.888462
 21
152.302025
 31
0.0
  0
LINE
  5
CF
330
1F
100
AcDbEntity
  8
GR1-1
  6
CONTINUOUS
 62
     6
100
AcDbLine
 10
81.888462
 20
141.0
 30
0.0
 11
71.388462
 21
142.0
 31
0.0
  0
LINE
  5
D0
330
1F
100
AcDbEntity
  8
GR1-1
  6
CONTINUOUS
 62
     6
100
AcDbLine
 10
92.388462
 20
83.0
 30
0.0
 11
81.888462
 21
84.0
 31
0.0
  0
LINE
  5
D1
330
1F
100
AcDbEntity
  8
GR1-1
  6
CONTINUOUS
 62
     6
100
AcDbLine
 10
81.888462
 20
84.0
 30
0.0
 11
71.388462
 21
83.0
 31
0.0
  0
LINE
  5
D2
330
1F
100
AcDbEntity
  8
GR1-1
  6
CONTINUOUS
 62
     6
100
AcDbLine
 10
92.388462
 20
142.0
 30
0.0
 11
81.888462
 21
141.0
 31
0.0
  0
LINE
  5
D3
330
1F
100
AcDbEntity
  8
GR1-1
  6
CENTER
 62
     6
100
AcDbLine
 10
172.247916
 20
112.5
 30
0.0
 11
252.953664
 21
112.5
 31
0.0
  0
CIRCLE
  5
D4
330
1F
100
AcDbEntity
  8
GR1-1
  6
CONTINUOUS
 62
     6
100
AcDbCircle
 10
212.388462
 20
112.5
 30
0.0
 40
25.99999999999997
  0
LINE
  5
D5
330
1F
100
AcDbEntity
  8
GR1-1
  6
CENTER
 62
     6
100
AcDbLine
 10
212.388462
 20
152.600936
 30
0.0
 11
212.388462
 21
72.194098
 31
0.0
  0
LINE
  5
D6
330
1F
100
AcDbEntity
  8
GR1-1
  6
CONTINUOUS
 62
     3
100
AcDbLine
 10
67.888462
 20
119.0
 30
0.0
 11
67.888462
 21
126.1609
 31
0.0
  0
LINE
  5
D7
330
1F
100
AcDbEntity
  8
GR1-1
  6
CONTINUOUS
 62
     3
100
AcDbLine
 10
95.888462
 20
119.0
 30
0.0
 11
95.888462
 21
126.1609
 31
0.0
  0
LINE
  5
D8
330
1F
100
AcDbEntity
  8
GR1-1
  6
CONTINUOUS
 62
     3
100
AcDbLine
 10
67.888462
 20
98.8391
 30
0.0
 11
67.888462
 21
106.0
 31
0.0
  0
LINE
  5
D9
330
1F
100
AcDbEntity
  8
GR1-1
  6
CONTINUOUS
 62
     3
100
AcDbLine
 10
95.888462
 20
98.8391
 30
0.0
 11
95.888462
 21
106.0
 31
0.0
  0
LINE
  5
DA
330
1F
100
AcDbEntity
  8
LAYERGROUP-1
  6
CENTER
 62
     6
100
AcDbLine
 10
64.371984
 20
112.5
 30
0.0
 11
99.282427
 21
112.5
 31
0.0
  0
CIRCLE
  5
DB
330
1F
100
AcDbEntity
  8
LAYERGROUP-1
  6
CONTINUOUS
 62
     6
100
AcDbCircle
 10
212.388462
 20
112.5
 30
0.0
 40
14.50000000000003
  0
CIRCLE
  5
DC
330
1F
100
AcDbEntity
  8
LAYERGROUP-1
  6
CONTINUOUS
 62
     6
100
AcDbCircle
 10
212.388462
 20
112.5
 30
0.0
 40
10.0
  0
CIRCLE
  5
DD
330
1F
100
AcDbEntity
  8
LAYERGROUP-1
  6
CONTINUOUS
 62
     3
100
AcDbCircle
 10
212.388462
 20
112.5
 30
0.0
 40
6.000000000000028
  0
CIRCLE
  5
DE
330
1F
100
AcDbEntity
  8
LAYERGROUP-1
  6
CONTINUOUS
 62
     3
100
AcDbCircle
 10
212.388462
 20
112.5
 30
0.0
 40
6.499999999999972
  0
ARC
  5
DF
330
1F
100
AcDbEntity
  8
LAYERGROUP-1
  6
CONTINUOUS
 62
     3
100
AcDbCircle
 10
75.138462
 20
132.340077
 30
0.0
 40
4.0
100
AcDbArc
 50
280.0
 51
360.0
  0
ARC
  5
E0
330
1F
100
AcDbEntity
  8
LAYERGROUP-1
  6
CONTINUOUS
 62
     3
100
AcDbCircle
 10
68.888462
 20
126.1609
 30
0.0
 40
1.0
100
AcDbArc
 50
100.0
 51
180.0
  0
LINE
  5
E1
330
1F
100
AcDbEntity
  8
LAYERGROUP-1
  6
CONTINUOUS
 62
     3
100
AcDbLine
 10
68.714813
 20
127.145708
 30
0.0
 11
75.833054
 21
128.400846
 31
0.0
  0
LINE
  5
E2
330
1F
100
AcDbEntity
  8
GR1-1
  6
CONTINUOUS
 62
     3
100
AcDbLine
 10
84.638462
 20
134.5
 30
0.0
 11
84.638462
 21
132.340077
 31
0.0
  0
ARC
  5
E3
330
1F
100
AcDbEntity
  8
LAYERGROUP-1
  6
CONTINUOUS
 62
     3
100
AcDbCircle
 10
88.638462
 20
132.340077
 30
0.0
 40
4.0
100
AcDbArc
 50
180.0
 51
260.0
  0
ARC
  5
E4
330
1F
100
AcDbEntity
  8
LAYERGROUP-1
  6
CONTINUOUS
 62
     3
100
AcDbCircle
 10
94.888462
 20
126.1609
 30
0.0
 40
1.0
100
AcDbArc
 50
0.0
 51
80.0
  0
LINE
  5
E5
330
1F
100
AcDbEntity
  8
LAYERGROUP-1
  6
CONTINUOUS
 62
     3
100
AcDbLine
 10
95.06211
 20
127.145708
 30
0.0
 11
87.943869
 21
128.400846
 31
0.0
  0
LINE
  5
E6
330
1F
100
AcDbEntity
  8
GR1-1
  6
CONTINUOUS
 62
     3
100
AcDbLine
 10
79.138462
 20
90.5
 30
0.0
 11
79.138462
 21
92.659923
 31
0.0
  0
ARC
  5
E7
330
1F
100
AcDbEntity
  8
LAYERGROUP-1
  6
CONTINUOUS
 62
     3
100
AcDbCircle
 10
75.138462
 20
92.659923
 30
0.0
 40
4.0
100
AcDbArc
 50
0.0
 51
80.0
  0
ARC
  5
E8
330
1F
100
AcDbEntity
  8
LAYERGROUP-1
  6
CONTINUOUS
 62
     3
100
AcDbCircle
 10
68.888462
 20
98.8391
 30
0.0
 40
1.0
100
AcDbArc
 50
180.0
 51
260.0
  0
LINE
  5
E9
330
1F
100
AcDbEntity
  8
LAYERGROUP-1
  6
CONTINUOUS
 62
     3
100
AcDbLine
 10
68.714813
 20
97.854292
 30
0.0
 11
75.833054
 21
96.599154
 31
0.0
  0
LINE
  5
EA
330
1F
100
AcDbEntity
  8
GR1-1
  6
CONTINUOUS
 62
     3
100
AcDbLine
 10
84.638462
 20
90.5
 30
0.0
 11
84.638462
 21
92.659923
 31
0.0
  0
ARC
  5
EB
330
1F
100
AcDbEntity
  8
LAYERGROUP-1
  6
CONTINUOUS
 62
     3
100
AcDbCircle
 10
88.638462
 20
92.659923
 30
0.0
 40
4.0
100
AcDbArc
 50
100.0
 51
180.0
  0
ARC
  5
EC
330
1F
100
AcDbEntity
  8
LAYERGROUP-1
  6
CONTINUOUS
 62
     3
100
AcDbCircle
 10
94.888462
 20
98.8391
 30
0.0
 40
1.0
100
AcDbArc
 50
280.0
 51
360.0
  0
LINE
  5
ED
330
1F
100
AcDbEntity
  8
LAYERGROUP-1
  6
CONTINUOUS
 62
     3
100
AcDbLine
 10
95.06211
 20
97.854292
 30
0.0
 11
87.943869
 21
96.599154
 31
0.0
  0
DIMENSION
  5
EE
330
1F
100
AcDbEntity
  8
LAYERGROUP-1
100
AcDbDimension
  2
*D19
 10
97.388462
 20
53.852184
 30
0.0
 11
81.888466
 21
54.852188
 31
0.0
 70
    33
  3
FXDIMINFO
100
AcDbAlignedDimension
 13
66.388462
 23
106.5
 33
0.0
 14
97.388462
 24
106.5
 34
0.0
1001
ACAD
1000
DSTYLE
1002
{
1070
     7
1000
FXTIP_ARROW_E
1070
     6
1000
FXTIP_ARROW_S
1070
   173
1070
     1
1002
}
  0
TEXT
  5
F8
330
1F
100
AcDbEntity
  8
LAYERGROUP-1
  6
CONTINUOUS
 62
     7
100
AcDbText
 10
206.136627
 20
143.63353
 30
0.0
 40
3.909615
  1
D
 50
7.0
 41
1.476526
  7
FX_VECTOR
 72
     5
 11
211.04773
 21
144.236537
 31
0.0
100
AcDbText
  0
TEXT
  5
F9
330
1F
100
AcDbEntity
  8
LAYERGROUP-1
  6
CONTINUOUS
 62
     7
100
AcDbText
 10
213.854218
 20
144.221176
 30
0.0
 40
3.909615
  1
C
 50
353.0
 41
1.476526
  7
FX_VECTOR
 72
     5
 11
218.76532
 21
143.618169
 31
0.0
100
AcDbText
  0
TEXT
  5
FA
330
1F
100
AcDbEntity
  8
LAYERGROUP-1
  6
CONTINUOUS
 62
     7
100
AcDbText
 10
202.126373
 20
142.551147
 30
0.0
 40
3.909615
  1
L
 50
14.5
 41
1.661092
  7
FX_VECTOR
 72
     5
 11
206.916753
 21
143.790024
 31
0.0
100
AcDbText
  0
TEXT
  5
FB
330
1F
100
AcDbEntity
  8
LAYERGROUP-1
  6
CONTINUOUS
 62
     7
100
AcDbText
 10
198.540543
 20
141.076523
 30
0.0
 40
3.909615
  1
O
 50
21.5
 41
1.398814
  7
FX_VECTOR
 72
     5
 11
203.144234
 21
142.889965
 31
0.0
100
AcDbText
  0
TEXT
  5
FC
330
1F
100
AcDbEntity
  8
LAYERGROUP-1
  6
CONTINUOUS
 62
     7
100
AcDbText
 10
194.929031
 20
139.024521
 30
0.0
 40
3.909615
  1
G
 50
29.0
 41
1.476526
  7
FX_VECTOR
 72
     5
 11
199.256636
 21
141.423351
 31
0.0
100
AcDbText
  0
TEXT
  5
FD
330
1F
100
AcDbEntity
  8
LAYERGROUP-1
  6
CONTINUOUS
 62
     7
100
AcDbText
 10
217.43573
 20
143.851334
 30
0.0
 40
3.909615
  1
A
 50
346.5
 41
1.563381
  7
FX_VECTOR
 72
     5
 11
222.247001
 21
142.69625
 31
0.0
100
AcDbText
  0
TEXT
  5
FE
330
1F
100
AcDbEntity
  8
LAYERGROUP-1
  6
CONTINUOUS
 62
     7
100
AcDbText
 10
222.014313
 20
142.760941
 30
0.0
 40
3.909615
  1
S
 50
338.0
 41
1.563381
  7
FX_VECTOR
 72
     5
 11
226.602004
 21
140.907393
 31
0.0
100
AcDbText
  0
TEXT
  5
FF
330
1F
100
AcDbEntity
  8
LAYERGROUP-1
  6
CONTINUOUS
 62
     7
100
AcDbText
 10
225.630463
 20
141.362274
 30
0.0
 40
3.909615
  1
T
 50
331.0
 41
1.771831
  7
FX_VECTOR
 72
     5
 11
229.958067
 21
138.963444
 31
0.0
100
AcDbText
  0
TEXT
  5
100
330
1F
100
AcDbEntity
  8
LAYERGROUP-1
  6
CONTINUOUS
 62
     7
100
AcDbText
 10
229.049164
 20
139.533356
 30
0.0
 40
3.909615
  1
E
 50
324.0
 41
1.563381
  7
FX_VECTOR
 72
     5
 11
233.052167
 21
136.625004
 31
0.0
100
AcDbText
  0
TEXT
  5
101
330
1F
100
AcDbEntity
  8
LAYERGROUP-1
  6
CONTINUOUS
 62
     7
100
AcDbText
 10
232.219513
 20
137.301422
 30
0.0
 40
3.909615
  1
R
 50
317.0
 41
1.476526
  7
FX_VECTOR
 72
     5
 11
235.83824
 21
133.926905
 31
0.0
100
AcDbText
  0
INSERT
  5
105
330
1F
100
AcDbEntity
  8
0
100
AcDbBlockReference
  2
BLKF022
 10
0.0
 20
0.0
 30
0.0
  0
LINE
  5
15D
330
1F
100
AcDbEntity
  8
GR1-1
  6
CONTINUOUS
 62
     3
100
AcDbLine
 10
189.186636
 20
134.528511
 30
0.0
 11
191.580371
 21
136.800081
 31
0.0
  0
LINE
  5
15E
330
1F
100
AcDbEntity
  8
GR1-1
  6
CONTINUOUS
 62
     3
100
AcDbLine
 10
191.580371
 20
136.800081
 30
0.0
 11
189.308801
 21
139.193816
 31
0.0
  0
LINE
  5
15F
330
1F
100
AcDbEntity
  8
GR1-1
  6
CONTINUOUS
 62
     3
100
AcDbLine
 10
189.308801
 20
139.193816
 30
0.0
 11
186.915066
 21
136.922246
 31
0.0
  0
LINE
  5
160
330
1F
100
AcDbEntity
  8
GR1-1
  6
CONTINUOUS
 62
     3
100
AcDbLine
 10
186.915066
 20
136.922246
 30
0.0
 11
189.186636
 21
134.528511
 31
0.0
  0
LINE
  5
161
330
1F
100
AcDbEntity
  8
GR1-1
  6
CONTINUOUS
 62
     3
100
AcDbLine
 10
188.119301
 20
135.790335
 30
0.0
 11
188.17689
 21
137.989581
 31
0.0
  0
LINE
  5
162
330
1F
100
AcDbEntity
  8
GR1-1
  6
CONTINUOUS
 62
     3
100
AcDbLine
 10
188.17689
 20
137.989581
 30
0.0
 11
190.142871
 21
137.9381
 31
0.0
  0
LINE
  5
163
330
1F
100
AcDbEntity
  8
GR1-1
  6
CONTINUOUS
 62
     3
100
AcDbLine
 10
190.142871
 20
137.9381
 30
0.0
 11
189.578662
 21
137.402686
 31
0.0
  0
LINE
  5
164
330
1F
100
AcDbEntity
  8
GR1-1
  6
CONTINUOUS
 62
     3
100
AcDbLine
 10
189.578662
 20
137.402686
 30
0.0
 11
188.712304
 21
137.425373
 31
0.0
  0
LINE
  5
165
330
1F
100
AcDbEntity
  8
GR1-1
  6
CONTINUOUS
 62
     3
100
AcDbLine
 10
188.712304
 20
137.425373
 30
0.0
 11
188.68351
 21
136.325749
 31
0.0
  0
LINE
  5
166
330
1F
100
AcDbEntity
  8
GR1-1
  6
CONTINUOUS
 62
     3
100
AcDbLine
 10
188.68351
 20
136.325749
 30
0.0
 11
189.783133
 21
136.296955
 31
0.0
  0
LINE
  5
167
330
1F
100
AcDbEntity
  8
GR1-1
  6
CONTINUOUS
 62
     3
100
AcDbLine
 10
189.783133
 20
136.296955
 30
0.0
 11
189.798271
 21
136.875066
 31
0.0
  0
ARC
  5
168
330
1F
100
AcDbEntity
  8
GR1-1
  6
CONTINUOUS
 62
     3
100
AcDbCircle
 10
189.74329
 20
136.876506
 30
0.0
 40
0.055
100
AcDbArc
 50
-1.5
 51
133.5
  0
LINE
  5
169
330
1F
100
AcDbEntity
  8
GR1-1
  6
CONTINUOUS
 62
     3
100
AcDbLine
 10
189.705431
 20
136.916401
 30
0.0
 11
189.437016
 21
136.661686
 31
0.0
  0
LINE
  5
16A
330
1F
100
AcDbEntity
  8
GR1-1
  6
CONTINUOUS
 62
     3
100
AcDbLine
 10
189.437016
 20
136.661686
 30
0.0
 11
189.247719
 21
136.861164
 31
0.0
  0
LINE
  5
16B
330
1F
100
AcDbEntity
  8
GR1-1
  6
CONTINUOUS
 62
     3
100
AcDbLine
 10
189.247719
 20
136.861164
 30
0.0
 11
190.376136
 21
137.931992
 31
0.0
  0
LINE
  5
16C
330
1F
100
AcDbEntity
  8
GR1-1
  6
CONTINUOUS
 62
     3
100
AcDbLine
 10
190.376136
 20
137.931992
 30
0.0
 11
191.142534
 21
137.124377
 31
0.0
  0
LINE
  5
16D
330
1F
100
AcDbEntity
  8
GR1-1
  6
CONTINUOUS
 62
     3
100
AcDbLine
 10
191.142534
 20
137.124377
 30
0.0
 11
190.743578
 21
136.745782
 31
0.0
  0
LINE
  5
16E
330
1F
100
AcDbEntity
  8
GR1-1
  6
CONTINUOUS
 62
     3
100
AcDbLine
 10
190.743578
 20
136.745782
 30
0.0
 11
190.447176
 21
137.058125
 31
0.0
  0
ARC
  5
16F
330
1F
100
AcDbEntity
  8
GR1-1
  6
CONTINUOUS
 62
     3
100
AcDbCircle
 10
190.407281
 20
137.020265
 30
0.0
 40
0.055
100
AcDbArc
 50
43.5
 51
178.5
  0
LINE
  5
170
330
1F
100
AcDbEntity
  8
GR1-1
  6
CONTINUOUS
 62
     3
100
AcDbLine
 10
190.3523
 20
137.021705
 30
0.0
 11
190.318547
 21
135.732746
 31
0.0
  0
LINE
  5
171
330
1F
100
AcDbEntity
  8
GR1-1
  6
CONTINUOUS
 62
     3
100
AcDbLine
 10
190.318547
 20
135.732746
 30
0.0
 11
188.119301
 21
135.790335
 31
0.0
  0
TEXT
  5
172
330
1F
100
AcDbEntity
  8
LAYERGROUP-1
  6
CONTINUOUS
 62
     7
100
AcDbText
 10
211.047729
 20
80.763466
 30
0.0
 40
3.909615
  1
2
 50
173.0
 41
1.563381
  7
FX_VECTOR
 72
     5
 11
206.136627
 21
81.366473
 31
0.0
100
AcDbText
  0
TEXT
  5
173
330
1F
100
AcDbEntity
  8
LAYERGROUP-1
  6
CONTINUOUS
 62
     7
100
AcDbText
 10
218.76532
 20
81.381828
 30
0.0
 40
3.909615
  1
5
 50
187.0
 41
1.563381
  7
FX_VECTOR
 72
     5
 11
213.854217
 21
80.778821
 31
0.0
100
AcDbText
  0
TEXT
  5
174
330
1F
100
AcDbEntity
  8
LAYERGROUP-1
  6
CONTINUOUS
 62
     7
100
AcDbText
 10
221.983124
 20
82.218857
 30
0.0
 40
3.909615
  1
7
 50
193.0
 41
1.563381
  7
FX_VECTOR
 72
     5
 11
217.161956
 21
81.105803
 31
0.0
100
AcDbText
  0
TEXT
  5
175
330
1F
100
AcDbEntity
  8
LAYERGROUP-1
  6
CONTINUOUS
 62
     7
100
AcDbText
 10
206.916748
 20
81.209976
 30
0.0
 40
3.909615
  1
5
 50
165.5
 41
1.563381
  7
FX_VECTOR
 72
     5
 11
202.126369
 21
82.448853
 31
0.0
100
AcDbText
  0
TEXT
  5
176
330
1F
100
AcDbEntity
  8
LAYERGROUP-1
  6
CONTINUOUS
 62
     7
100
AcDbText
 10
214.925446
 20
80.836632
 30
0.0
 40
3.909615
  1
X
 50
180.0
 41
1.563381
  7
FX_VECTOR
 72
     5
 11
209.977461
 21
80.836632
 31
0.0
100
AcDbText
  0
LINE
  5
177
330
1F
100
AcDbEntity
  8
GR1-1
  6
CONTINUOUS
 62
     3
100
AcDbLine
 10
91.888462
 20
106.5
 30
0.0
 11
97.388462
 21
106.5
 31
0.0
  0
LINE
  5
178
330
1F
100
AcDbEntity
  8
GR1-1
  6
CONTINUOUS
 62
     3
100
AcDbLine
 10
97.388462
 20
118.5
 30
0.0
 11
91.888462
 21
118.5
 31
0.0
  0
LINE
  5
179
330
1F
100
AcDbEntity
  8
GR1-1
  6
CONTINUOUS
 62
     3
100
AcDbLine
 10
91.888462
 20
119.0
 30
0.0
 11
95.888462
 21
119.0
 31
0.0
  0
LINE
  5
17A
330
1F
100
AcDbEntity
  8
GR1-1
  6
CONTINUOUS
 62
     3
100
AcDbLine
 10
92.711429
 20
125.0
 30
0.0
 11
88.888462
 21
125.0
 31
0.0
  0
LINE
  5
17B
330
1F
100
AcDbEntity
  8
GR1-1
  6
CONTINUOUS
 62
     3
100
AcDbLine
 10
88.888462
 20
125.0
 30
0.0
 11
88.888462
 21
123.5
 31
0.0
  0
LINE
  5
17C
330
1F
100
AcDbEntity
  8
GR1-1
  6
CONTINUOUS
 62
     3
100
AcDbLine
 10
95.888462
 20
122.5
 30
0.0
 11
95.065494
 21
122.5
 31
0.0
  0
LINE
  5
17D
330
1F
100
AcDbEntity
  8
GR1-1
  6
CONTINUOUS
 62
     3
100
AcDbLine
 10
94.137018
 20
123.128609
 30
0.0
 11
93.639905
 21
124.371391
 31
0.0
  0
ARC
  5
17E
330
1F
100
AcDbEntity
  8
GR1-1
  6
CONTINUOUS
 62
     3
100
AcDbCircle
 10
92.711429
 20
124.0
 30
0.0
 40
1.0
100
AcDbArc
 50
21.801409
 51
90.0
  0
ARC
  5
17F
330
1F
100
AcDbEntity
  8
GR1-1
  6
CONTINUOUS
 62
     3
100
AcDbCircle
 10
95.065494
 20
123.5
 30
0.0
 40
1.0
100
AcDbArc
 50
201.801409
 51
270.0
  0
LINE
  5
180
330
1F
100
AcDbEntity
  8
GR1-1
  6
CONTINUOUS
 62
     3
100
AcDbLine
 10
92.711429
 20
100.0
 30
0.0
 11
88.888462
 21
100.0
 31
0.0
  0
LINE
  5
181
330
1F
100
AcDbEntity
  8
GR1-1
  6
CONTINUOUS
 62
     3
100
AcDbLine
 10
88.888462
 20
100.0
 30
0.0
 11
88.888462
 21
101.5
 31
0.0
  0
LINE
  5
182
330
1F
100
AcDbEntity
  8
GR1-1
  6
CONTINUOUS
 62
     3
100
AcDbLine
 10
95.888462
 20
102.5
 30
0.0
 11
95.065494
 21
102.5
 31
0.0
  0
LINE
  5
183
330
1F
100
AcDbEntity
  8
GR1-1
  6
CONTINUOUS
 62
     3
100
AcDbLine
 10
94.137018
 20
101.871391
 30
0.0
 11
93.639905
 21
100.628609
 31
0.0
  0
ARC
  5
184
330
1F
100
AcDbEntity
  8
GR1-1
  6
CONTINUOUS
 62
     3
100
AcDbCircle
 10
92.711429
 20
101.0
 30
0.0
 40
1.0
100
AcDbArc
 50
270.0
 51
338.198591
  0
ARC
  5
185
330
1F
100
AcDbEntity
  8
GR1-1
  6
CONTINUOUS
 62
     3
100
AcDbCircle
 10
95.065494
 20
101.5
 30
0.0
 40
1.0
100
AcDbArc
 50
90.0
 51
158.198591
  0
LINE
  5
186
330
1F
100
AcDbEntity
  8
GR1-1
  6
CONTINUOUS
 62
     3
100
AcDbLine
 10
91.888462
 20
106.0
 30
0.0
 11
95.888462
 21
106.0
 31
0.0
  0
LINE
  5
187
330
1F
100
AcDbEntity
  8
GR1-1
  6
CONTINUOUS
 62
     3
100
AcDbLine
 10
91.888462
 20
123.5
 30
0.0
 11
71.888462
 21
123.5
 31
0.0
  0
LINE
  5
188
330
1F
100
AcDbEntity
  8
GR1-1
  6
CONTINUOUS
 62
     3
100
AcDbLine
 10
96.888462
 20
116.6
 30
0.0
 11
66.888462
 21
116.6
 31
0.0
  0
LINE
  5
189
330
1F
100
AcDbEntity
  8
LAYERGROUP-1
  6
CONTINUOUS
 62
     3
100
AcDbLine
 10
86.577834
 20
118.5
 30
0.0
 11
77.199089
 21
118.5
 31
0.0
  0
LINE
  5
18A
330
1F
100
AcDbEntity
  8
LAYERGROUP-1
  6
CONTINUOUS
 62
     3
100
AcDbLine
 10
86.355411
 20
121.25
 30
0.0
 11
77.421512
 21
121.25
 31
0.0
  0
LINE
  5
18B
330
1F
100
AcDbEntity
  8
GR1-1
  6
CONTINUOUS
 62
     3
100
AcDbLine
 10
97.388462
 20
118.5
 30
0.0
 11
97.388462
 21
117.1
 31
0.0
  0
LINE
  5
18C
330
1F
100
AcDbEntity
  8
GR1-1
  6
CONTINUOUS
 62
     3
100
AcDbLine
 10
87.888462
 20
122.0
 30
0.0
 11
91.888462
 21
122.0
 31
0.0
  0
CIRCLE
  5
18D
330
1F
100
AcDbEntity
  8
LAYERGROUP-1
  6
CONTINUOUS
 62
     3
100
AcDbCircle
 10
87.888462
 20
119.99
 30
0.0
 40
1.9844
  0
LINE
  5
18E
330
1F
100
AcDbEntity
  8
LAYERGROUP-1
  6
CONTINUOUS
 62
     6
100
AcDbLine
 10
88.888462
 20
119.99
 30
0.0
 11
86.888462
 21
119.99
 31
0.0
  0
LINE
  5
18F
330
1F
100
AcDbEntity
  8
LAYERGROUP-1
  6
CONTINUOUS
 62
     6
100
AcDbLine
 10
87.888462
 20
118.99
 30
0.0
 11
87.888462
 21
120.99
 31
0.0
  0
LINE
  5
190
330
1F
100
AcDbEntity
  8
LAYERGROUP-1
  6
CONTINUOUS
 62
     3
100
AcDbLine
 10
91.888462
 20
118.5
 30
0.0
 11
89.199089
 21
118.5
 31
0.0
  0
LINE
  5
191
330
1F
100
AcDbEntity
  8
GR1-1
  6
CONTINUOUS
 62
     3
100
AcDbLine
 10
91.888462
 20
122.0
 30
0.0
 11
91.888462
 21
123.5
 31
0.0
  0
LINE
  5
192
330
1F
100
AcDbEntity
  8
LAYERGROUP-1
  6
CONTINUOUS
 62
     3
100
AcDbLine
 10
97.388462
 20
117.1
 30
0.0
 11
97.388462
 21
107.9
 31
0.0
  0
LINE
  5
193
330
1F
100
AcDbEntity
  8
LAYERGROUP-1
  6
CONTINUOUS
 62
     3
100
AcDbLine
 10
96.888462
 20
116.6
 30
0.0
 11
97.388462
 21
117.1
 31
0.0
  0
LINE
  5
194
330
1F
100
AcDbEntity
  8
LAYERGROUP-1
  6
CONTINUOUS
 62
     6
100
AcDbLine
 10
96.888462
 20
116.6
 30
0.0
 11
96.888462
 21
108.4
 31
0.0
  0
LINE
  5
195
330
1F
100
AcDbEntity
  8
LAYERGROUP-1
  6
CONTINUOUS
 62
     6
100
AcDbLine
 10
90.972862
 20
121.0
 30
0.0
 11
90.972862
 21
119.0
 31
0.0
  0
LINE
  5
196
330
1F
100
AcDbEntity
  8
LAYERGROUP-1
  6
CONTINUOUS
 62
     6
100
AcDbLine
 10
90.972862
 20
119.0
 30
0.0
 11
86.772862
 21
119.0
 31
0.0
  0
LINE
  5
197
330
1F
100
AcDbEntity
  8
LAYERGROUP-1
  6
CONTINUOUS
 62
     6
100
AcDbLine
 10
86.772862
 20
119.0
 30
0.0
 11
86.772862
 21
121.0
 31
0.0
  0
LINE
  5
198
330
1F
100
AcDbEntity
  8
LAYERGROUP-1
  6
CONTINUOUS
 62
     6
100
AcDbLine
 10
86.772862
 20
121.0
 30
0.0
 11
90.972862
 21
121.0
 31
0.0
  0
LINE
  5
199
330
1F
100
AcDbEntity
  8
GR1-1
  6
CONTINUOUS
 62
     3
100
AcDbLine
 10
91.888462
 20
101.5
 30
0.0
 11
71.888462
 21
101.5
 31
0.0
  0
LINE
  5
19A
330
1F
100
AcDbEntity
  8
GR1-1
  6
CONTINUOUS
 62
     3
100
AcDbLine
 10
96.888462
 20
108.4
 30
0.0
 11
66.888462
 21
108.4
 31
0.0
  0
LINE
  5
19B
330
1F
100
AcDbEntity
  8
LAYERGROUP-1
  6
CONTINUOUS
 62
     3
100
AcDbLine
 10
86.577834
 20
106.5
 30
0.0
 11
77.199089
 21
106.5
 31
0.0
  0
LINE
  5
19C
330
1F
100
AcDbEntity
  8
LAYERGROUP-1
  6
CONTINUOUS
 62
     3
100
AcDbLine
 10
86.355411
 20
103.75
 30
0.0
 11
77.421512
 21
103.75
 31
0.0
  0
LINE
  5
19D
330
1F
100
AcDbEntity
  8
GR1-1
  6
CONTINUOUS
 62
     3
100
AcDbLine
 10
97.388462
 20
106.5
 30
0.0
 11
97.388462
 21
107.9
 31
0.0
  0
LINE
  5
19E
330
1F
100
AcDbEntity
  8
GR1-1
  6
CONTINUOUS
 62
     3
100
AcDbLine
 10
87.888462
 20
103.0
 30
0.0
 11
91.888462
 21
103.0
 31
0.0
  0
CIRCLE
  5
19F
330
1F
100
AcDbEntity
  8
LAYERGROUP-1
  6
CONTINUOUS
 62
     3
100
AcDbCircle
 10
87.888462
 20
105.01
 30
0.0
 40
1.9844
  0
LINE
  5
1A0
330
1F
100
AcDbEntity
  8
LAYERGROUP-1
  6
CONTINUOUS
 62
     6
100
AcDbLine
 10
88.888462
 20
105.01
 30
0.0
 11
86.888462
 21
105.01
 31
0.0
  0
LINE
  5
1A1
330
1F
100
AcDbEntity
  8
LAYERGROUP-1
  6
CONTINUOUS
 62
     6
100
AcDbLine
 10
87.888462
 20
106.01
 30
0.0
 11
87.888462
 21
104.01
 31
0.0
  0
LINE
  5
1A2
330
1F
100
AcDbEntity
  8
LAYERGROUP-1
  6
CONTINUOUS
 62
     3
100
AcDbLine
 10
91.888462
 20
106.5
 30
0.0
 11
89.199089
 21
106.5
 31
0.0
  0
LINE
  5
1A3
330
1F
100
AcDbEntity
  8
GR1-1
  6
CONTINUOUS
 62
     3
100
AcDbLine
 10
91.888462
 20
103.0
 30
0.0
 11
91.888462
 21
101.5
 31
0.0
  0
LINE
  5
1A4
330
1F
100
AcDbEntity
  8
LAYERGROUP-1
  6
CONTINUOUS
 62
     3
100
AcDbLine
 10
96.888462
 20
108.4
 30
0.0
 11
97.388462
 21
107.9
 31
0.0
  0
LINE
  5
1A5
330
1F
100
AcDbEntity
  8
LAYERGROUP-1
  6
CONTINUOUS
 62
     6
100
AcDbLine
 10
90.972862
 20
104.0
 30
0.0
 11
90.972862
 21
106.0
 31
0.0
  0
LINE
  5
1A6
330
1F
100
AcDbEntity
  8
LAYERGROUP-1
  6
CONTINUOUS
 62
     6
100
AcDbLine
 10
90.972862
 20
106.0
 30
0.0
 11
86.772862
 21
106.0
 31
0.0
  0
LINE
  5
1A7
330
1F
100
AcDbEntity
  8
LAYERGROUP-1
  6
CONTINUOUS
 62
     6
100
AcDbLine
 10
86.772862
 20
106.0
 30
0.0
 11
86.772862
 21
104.0
 31
0.0
  0
LINE
  5
1A8
330
1F
100
AcDbEntity
  8
LAYERGROUP-1
  6
CONTINUOUS
 62
     6
100
AcDbLine
 10
86.772862
 20
104.0
 30
0.0
 11
90.972862
 21
104.0
 31
0.0
  0
LINE
  5
1A9
330
1F
100
AcDbEntity
  8
LAYERGROUP-1
  6
CONTINUOUS
 62
     6
100
AcDbLine
 10
91.888462
 20
118.5
 30
0.0
 11
91.888462
 21
119.0
 31
0.0
  0
LINE
  5
1AA
330
1F
100
AcDbEntity
  8
LAYERGROUP-1
  6
CONTINUOUS
 62
     6
100
AcDbLine
 10
91.888462
 20
106.5
 30
0.0
 11
91.888462
 21
106.0
 31
0.0
  0
LINE
  5
1AB
330
1F
100
AcDbEntity
  8
LAYERGROUP-1
  6
CONTINUOUS
 62
     3
100
AcDbLine
 10
91.888462
 20
122.0
 30
0.0
 11
91.888462
 21
119.0
 31
0.0
  0
LINE
  5
1AC
330
1F
100
AcDbEntity
  8
LAYERGROUP-1
  6
CONTINUOUS
 62
     3
100
AcDbLine
 10
91.888462
 20
106.0
 30
0.0
 11
91.888462
 21
103.0
 31
0.0
  0
LINE
  5
1AD
330
1F
100
AcDbEntity
  8
LAYERGROUP-1
  6
CONTINUOUS
 62
     6
100
AcDbLine
 10
95.888462
 20
106.0
 30
0.0
 11
95.888462
 21
106.5
 31
0.0
  0
LINE
  5
1AE
330
1F
100
AcDbEntity
  8
LAYERGROUP-1
  6
CONTINUOUS
 62
     6
100
AcDbLine
 10
95.888462
 20
119.0
 30
0.0
 11
95.888462
 21
118.5
 31
0.0
  0
ARC
  5
1AF
330
1F
100
AcDbEntity
  8
LAYERGROUP-1
  6
CONTINUOUS
 62
     3
100
AcDbCircle
 10
87.916822
 20
120.000201
 30
0.0
 40
2.0
100
AcDbArc
 50
90.812485
 51
141.325192
  0
ARC
  5
1B0
330
1F
100
AcDbEntity
  8
LAYERGROUP-1
  6
CONTINUOUS
 62
     3
100
AcDbCircle
 10
87.916822
 20
104.999799
 30
0.0
 40
2.0
100
AcDbArc
 50
218.674808
 51
269.187515
  0
HATCH
  5
1B1
330
1F
100
AcDbEntity
  8
LAYERGROUP-1
  6
CONTINUOUS
 62
     6
100
AcDbHatch
 10
0.0
 20
0.0
 30
0.0
210
0.0
220
0.0
230
1.0
  2

 70
     0
 71
     1
 91
        2
 92
        0
 93
       11
 72
     1
 10
88.88846153846153
 20
125.0
 11
92.71142857703462
 21
124.9999999999999
 72
     2
 10
92.7114285770346
 20
123.9999999999999
 40
1.0
 50
21.80140948635211
 51
89.99999999999919
 73
     0
 72
     1
 10
93.63990526791987
 20
124.371390676354
 11
94.13701780900313
 21
123.1286093236459
 72
     2
 10
95.06549449988839
 20
123.5
 40
1.0
 50
201.8014094863527
 51
270.0
 73
     1
 72
     1
 10
95.06549449988839
 20
122.5
 11
95.88846153846149
 21
122.5
 72
     1
 10
95.88846153846149
 20
122.5
 11
95.88846153846154
 21
119.0
 72
     1
 10
95.88846153846154
 20
119.0
 11
91.8884615384615
 21
119.0
 72
     1
 10
91.8884615384615
 20
119.0
 11
91.88846153846153
 21
122.0
 72
     1
 10
91.88846153846153
 20
122.0
 11
91.88846153846153
 21
123.5
 72
     1
 10
91.88846153846153
 20
123.5
 11
88.88846153846153
 21
123.5
 72
     1
 10
88.88846153846153
 20
123.5
 11
88.88846153846153
 21
125.0
 97
        0
 92
        0
 93
       11
 72
     1
 10
95.88846153846154
 20
106.0
 11
91.8884615384615
 21
106.0
 72
     1
 10
91.8884615384615
 20
106.0
 11
91.88846153846153
 21
103.0
 72
     1
 10
91.88846153846153
 20
103.0
 11
91.88846153846153
 21
101.5
 72
     1
 10
91.88846153846153
 20
101.5
 11
88.88846153846153
 21
101.5
 72
     1
 10
88.88846153846153
 20
101.5
 11
88.88846153846153
 21
100.0
 72
     1
 10
88.88846153846153
 20
100.0
 11
92.71142857703462
 21
100.0000000000001
 72
     2
 10
92.7114285770346
 20
101.0000000000001
 40
1.0
 50
270.0000000000008
 51
338.1985905136479
 73
     1
 72
     1
 10
93.63990526791987
 20
100.628609323646
 11
94.13701780900313
 21
101.8713906763541
 72
     2
 10
95.06549449988839
 20
101.5
 40
1.0
 50
90.0
 51
158.1985905136473
 73
     0
 72
     1
 10
95.06549449988839
 20
102.5
 11
95.88846153846149
 21
102.5
 72
     1
 10
95.88846153846149
 20
102.5
 11
95.88846153846154
 21
106.0
 97
        0
 75
     0
 76
     0
 52
45.0
 41
2.0
 77
     0
 78
     1
 53
45.0
 43
0.0
 44
0.0
 45
-1.414213562373095
 46
1.414213562373095
 79
     0
 98
        0
  0
LINE
  5
1B2
330
1F
100
AcDbEntity
  8
GR1-1
  6
CONTINUOUS
 62
     3
100
AcDbLine
 10
71.888462
 20
106.5
 30
0.0
 11
66.388462
 21
106.5
 31
0.0
  0
LINE
  5
1B3
330
1F
100
AcDbEntity
  8
GR1-1
  6
CONTINUOUS
 62
     3
100
AcDbLine
 10
66.388462
 20
118.5
 30
0.0
 11
71.888462
 21
118.5
 31
0.0
  0
LINE
  5
1B4
330
1F
100
AcDbEntity
  8
GR1-1
  6
CONTINUOUS
 62
     3
100
AcDbLine
 10
71.888462
 20
119.0
 30
0.0
 11
67.888462
 21
119.0
 31
0.0
  0
LINE
  5
1B5
330
1F
100
AcDbEntity
  8
GR1-1
  6
CONTINUOUS
 62
     3
100
AcDbLine
 10
71.065494
 20
125.0
 30
0.0
 11
74.888462
 21
125.0
 31
0.0
  0
LINE
  5
1B6
330
1F
100
AcDbEntity
  8
GR1-1
  6
CONTINUOUS
 62
     3
100
AcDbLine
 10
74.888462
 20
125.0
 30
0.0
 11
74.888462
 21
123.5
 31
0.0
  0
LINE
  5
1B7
330
1F
100
AcDbEntity
  8
GR1-1
  6
CONTINUOUS
 62
     3
100
AcDbLine
 10
67.888462
 20
122.5
 30
0.0
 11
68.711429
 21
122.5
 31
0.0
  0
LINE
  5
1B8
330
1F
100
AcDbEntity
  8
GR1-1
  6
CONTINUOUS
 62
     3
100
AcDbLine
 10
69.639905
 20
123.128609
 30
0.0
 11
70.137018
 21
124.371391
 31
0.0
  0
ARC
  5
1B9
330
1F
100
AcDbEntity
  8
GR1-1
  6
CONTINUOUS
 62
     3
100
AcDbCircle
 10
71.065494
 20
124.0
 30
0.0
 40
1.0
100
AcDbArc
 50
90.0
 51
158.198591
  0
ARC
  5
1BA
330
1F
100
AcDbEntity
  8
GR1-1
  6
CONTINUOUS
 62
     3
100
AcDbCircle
 10
68.711429
 20
123.5
 30
0.0
 40
1.0
100
AcDbArc
 50
270.0
 51
338.198591
  0
LINE
  5
1BB
330
1F
100
AcDbEntity
  8
GR1-1
  6
CONTINUOUS
 62
     3
100
AcDbLine
 10
71.065494
 20
100.0
 30
0.0
 11
74.888462
 21
100.0
 31
0.0
  0
LINE
  5
1BC
330
1F
100
AcDbEntity
  8
GR1-1
  6
CONTINUOUS
 62
     3
100
AcDbLine
 10
74.888462
 20
100.0
 30
0.0
 11
74.888462
 21
101.5
 31
0.0
  0
LINE
  5
1BD
330
1F
100
AcDbEntity
  8
GR1-1
  6
CONTINUOUS
 62
     3
100
AcDbLine
 10
67.888462
 20
102.5
 30
0.0
 11
68.711429
 21
102.5
 31
0.0
  0
LINE
  5
1BE
330
1F
100
AcDbEntity
  8
GR1-1
  6
CONTINUOUS
 62
     3
100
AcDbLine
 10
69.639905
 20
101.871391
 30
0.0
 11
70.137018
 21
100.628609
 31
0.0
  0
ARC
  5
1BF
330
1F
100
AcDbEntity
  8
GR1-1
  6
CONTINUOUS
 62
     3
100
AcDbCircle
 10
71.065494
 20
101.0
 30
0.0
 40
1.0
100
AcDbArc
 50
201.801409
 51
270.0
  0
ARC
  5
1C0
330
1F
100
AcDbEntity
  8
GR1-1
  6
CONTINUOUS
 62
     3
100
AcDbCircle
 10
68.711429
 20
101.5
 30
0.0
 40
1.0
100
AcDbArc
 50
21.801409
 51
90.0
  0
LINE
  5
1C1
330
1F
100
AcDbEntity
  8
GR1-1
  6
CONTINUOUS
 62
     3
100
AcDbLine
 10
71.888462
 20
106.0
 30
0.0
 11
67.888462
 21
106.0
 31
0.0
  0
LINE
  5
1C2
330
1F
100
AcDbEntity
  8
GR1-1
  6
CONTINUOUS
 62
     3
100
AcDbLine
 10
66.388462
 20
118.5
 30
0.0
 11
66.388462
 21
117.1
 31
0.0
  0
LINE
  5
1C3
330
1F
100
AcDbEntity
  8
GR1-1
  6
CONTINUOUS
 62
     3
100
AcDbLine
 10
75.888462
 20
122.0
 30
0.0
 11
71.888462
 21
122.0
 31
0.0
  0
CIRCLE
  5
1C4
330
1F
100
AcDbEntity
  8
LAYERGROUP-1
  6
CONTINUOUS
 62
     3
100
AcDbCircle
 10
75.888462
 20
119.99
 30
0.0
 40
1.9844
  0
LINE
  5
1C5
330
1F
100
AcDbEntity
  8
LAYERGROUP-1
  6
CONTINUOUS
 62
     6
100
AcDbLine
 10
74.888462
 20
119.99
 30
0.0
 11
76.888462
 21
119.99
 31
0.0
  0
LINE
  5
1C6
330
1F
100
AcDbEntity
  8
LAYERGROUP-1
  6
CONTINUOUS
 62
     6
100
AcDbLine
 10
75.888462
 20
118.99
 30
0.0
 11
75.888462
 21
120.99
 31
0.0
  0
LINE
  5
1C7
330
1F
100
AcDbEntity
  8
LAYERGROUP-1
  6
CONTINUOUS
 62
     3
100
AcDbLine
 10
71.888462
 20
118.5
 30
0.0
 11
74.577834
 21
118.5
 31
0.0
  0
LINE
  5
1C8
330
1F
100
AcDbEntity
  8
GR1-1
  6
CONTINUOUS
 62
     3
100
AcDbLine
 10
71.888462
 20
122.0
 30
0.0
 11
71.888462
 21
123.5
 31
0.0
  0
LINE
  5
1C9
330
1F
100
AcDbEntity
  8
LAYERGROUP-1
  6
CONTINUOUS
 62
     3
100
AcDbLine
 10
66.388462
 20
117.1
 30
0.0
 11
66.388462
 21
107.9
 31
0.0
  0
LINE
  5
1CA
330
1F
100
AcDbEntity
  8
LAYERGROUP-1
  6
CONTINUOUS
 62
     3
100
AcDbLine
 10
66.888462
 20
116.6
 30
0.0
 11
66.388462
 21
117.1
 31
0.0
  0
LINE
  5
1CB
330
1F
100
AcDbEntity
  8
LAYERGROUP-1
  6
CONTINUOUS
 62
     6
100
AcDbLine
 10
66.888462
 20
116.6
 30
0.0
 11
66.888462
 21
108.4
 31
0.0
  0
LINE
  5
1CC
330
1F
100
AcDbEntity
  8
LAYERGROUP-1
  6
CONTINUOUS
 62
     6
100
AcDbLine
 10
72.804062
 20
121.0
 30
0.0
 11
72.804062
 21
119.0
 31
0.0
  0
LINE
  5
1CD
330
1F
100
AcDbEntity
  8
LAYERGROUP-1
  6
CONTINUOUS
 62
     6
100
AcDbLine
 10
72.804062
 20
119.0
 30
0.0
 11
77.004062
 21
119.0
 31
0.0
  0
LINE
  5
1CE
330
1F
100
AcDbEntity
  8
LAYERGROUP-1
  6
CONTINUOUS
 62
     6
100
AcDbLine
 10
77.004062
 20
119.0
 30
0.0
 11
77.004062
 21
121.0
 31
0.0
  0
LINE
  5
1CF
330
1F
100
AcDbEntity
  8
LAYERGROUP-1
  6
CONTINUOUS
 62
     6
100
AcDbLine
 10
77.004062
 20
121.0
 30
0.0
 11
72.804062
 21
121.0
 31
0.0
  0
LINE
  5
1D0
330
1F
100
AcDbEntity
  8
GR1-1
  6
CONTINUOUS
 62
     3
100
AcDbLine
 10
66.388462
 20
106.5
 30
0.0
 11
66.388462
 21
107.9
 31
0.0
  0
LINE
  5
1D1
330
1F
100
AcDbEntity
  8
GR1-1
  6
CONTINUOUS
 62
     3
100
AcDbLine
 10
75.888462
 20
103.0
 30
0.0
 11
71.888462
 21
103.0
 31
0.0
  0
CIRCLE
  5
1D2
330
1F
100
AcDbEntity
  8
LAYERGROUP-1
  6
CONTINUOUS
 62
     3
100
AcDbCircle
 10
75.888462
 20
105.01
 30
0.0
 40
1.9844
  0
LINE
  5
1D3
330
1F
100
AcDbEntity
  8
LAYERGROUP-1
  6
CONTINUOUS
 62
     6
100
AcDbLine
 10
74.888462
 20
105.01
 30
0.0
 11
76.888462
 21
105.01
 31
0.0
  0
LINE
  5
1D4
330
1F
100
AcDbEntity
  8
LAYERGROUP-1
  6
CONTINUOUS
 62
     6
100
AcDbLine
 10
75.888462
 20
106.01
 30
0.0
 11
75.888462
 21
104.01
 31
0.0
  0
LINE
  5
1D5
330
1F
100
AcDbEntity
  8
LAYERGROUP-1
  6
CONTINUOUS
 62
     3
100
AcDbLine
 10
71.888462
 20
106.5
 30
0.0
 11
74.577834
 21
106.5
 31
0.0
  0
LINE
  5
1D6
330
1F
100
AcDbEntity
  8
GR1-1
  6
CONTINUOUS
 62
     3
100
AcDbLine
 10
71.888462
 20
103.0
 30
0.0
 11
71.888462
 21
101.5
 31
0.0
  0
LINE
  5
1D7
330
1F
100
AcDbEntity
  8
LAYERGROUP-1
  6
CONTINUOUS
 62
     3
100
AcDbLine
 10
66.888462
 20
108.4
 30
0.0
 11
66.388462
 21
107.9
 31
0.0
  0
LINE
  5
1D8
330
1F
100
AcDbEntity
  8
LAYERGROUP-1
  6
CONTINUOUS
 62
     6
100
AcDbLine
 10
72.804062
 20
104.0
 30
0.0
 11
72.804062
 21
106.0
 31
0.0
  0
LINE
  5
1D9
330
1F
100
AcDbEntity
  8
LAYERGROUP-1
  6
CONTINUOUS
 62
     6
100
AcDbLine
 10
72.804062
 20
106.0
 30
0.0
 11
77.004062
 21
106.0
 31
0.0
  0
LINE
  5
1DA
330
1F
100
AcDbEntity
  8
LAYERGROUP-1
  6
CONTINUOUS
 62
     6
100
AcDbLine
 10
77.004062
 20
106.0
 30
0.0
 11
77.004062
 21
104.0
 31
0.0
  0
LINE
  5
1DB
330
1F
100
AcDbEntity
  8
LAYERGROUP-1
  6
CONTINUOUS
 62
     6
100
AcDbLine
 10
77.004062
 20
104.0
 30
0.0
 11
72.804062
 21
104.0
 31
0.0
  0
LINE
  5
1DC
330
1F
100
AcDbEntity
  8
LAYERGROUP-1
  6
CONTINUOUS
 62
     6
100
AcDbLine
 10
71.888462
 20
118.5
 30
0.0
 11
71.888462
 21
119.0
 31
0.0
  0
LINE
  5
1DD
330
1F
100
AcDbEntity
  8
LAYERGROUP-1
  6
CONTINUOUS
 62
     6
100
AcDbLine
 10
71.888462
 20
106.5
 30
0.0
 11
71.888462
 21
106.0
 31
0.0
  0
LINE
  5
1DE
330
1F
100
AcDbEntity
  8
LAYERGROUP-1
  6
CONTINUOUS
 62
     3
100
AcDbLine
 10
71.888462
 20
122.0
 30
0.0
 11
71.888462
 21
119.0
 31
0.0
  0
LINE
  5
1DF
330
1F
100
AcDbEntity
  8
LAYERGROUP-1
  6
CONTINUOUS
 62
     3
100
AcDbLine
 10
71.888462
 20
106.0
 30
0.0
 11
71.888462
 21
103.0
 31
0.0
  0
LINE
  5
1E0
330
1F
100
AcDbEntity
  8
LAYERGROUP-1
  6
CONTINUOUS
 62
     6
100
AcDbLine
 10
67.888462
 20
106.0
 30
0.0
 11
67.888462
 21
106.5
 31
0.0
  0
LINE
  5
1E1
330
1F
100
AcDbEntity
  8
LAYERGROUP-1
  6
CONTINUOUS
 62
     6
100
AcDbLine
 10
67.888462
 20
119.0
 30
0.0
 11
67.888462
 21
118.5
 31
0.0
  0
ARC
  5
1E2
330
1F
100
AcDbEntity
  8
LAYERGROUP-1
  6
CONTINUOUS
 62
     3
100
AcDbCircle
 10
75.860101
 20
120.000201
 30
0.0
 40
2.0
100
AcDbArc
 50
38.674808
 51
89.187515
  0
ARC
  5
1E3
330
1F
100
AcDbEntity
  8
LAYERGROUP-1
  6
CONTINUOUS
 62
     3
100
AcDbCircle
 10
75.860101
 20
104.999799
 30
0.0
 40
2.0
100
AcDbArc
 50
270.812485
 51
321.325192
  0
HATCH
  5
1E4
330
1F
100
AcDbEntity
  8
LAYERGROUP-1
  6
CONTINUOUS
 62
     6
100
AcDbHatch
 10
0.0
 20
0.0
 30
0.0
210
0.0
220
0.0
230
1.0
  2

 70
     0
 71
     1
 91
        2
 92
        0
 93
       11
 72
     1
 10
74.88846153846153
 20
125.0
 11
71.06549449988843
 21
124.9999999999999
 72
     2
 10
71.06549449988843
 20
123.9999999999999
 40
1.0
 50
90.00000000000081
 51
158.1985905136479
 73
     0
 72
     1
 10
70.13701780900318
 20
124.371390676354
 11
69.63990526791987
 21
123.1286093236459
 72
     2
 10
68.71142857703465
 20
123.5
 40
1.0
 50
270.0
 51
338.1985905136476
 73
     1
 72
     1
 10
68.71142857703465
 20
122.5
 11
67.88846153846153
 21
122.5
 72
     1
 10
67.88846153846153
 20
122.5
 11
67.8884615384615
 21
119.0
 72
     1
 10
67.8884615384615
 20
119.0
 11
71.88846153846153
 21
119.0
 72
     1
 10
71.88846153846153
 20
119.0
 11
71.88846153846153
 21
122.0
 72
     1
 10
71.88846153846153
 20
122.0
 11
71.88846153846153
 21
123.5
 72
     1
 10
71.88846153846153
 20
123.5
 11
74.88846153846153
 21
123.5
 72
     1
 10
74.88846153846153
 20
123.5
 11
74.88846153846153
 21
125.0
 97
        0
 92
        0
 93
       11
 72
     1
 10
67.8884615384615
 20
106.0
 11
71.88846153846153
 21
106.0
 72
     1
 10
71.88846153846153
 20
106.0
 11
71.88846153846153
 21
103.0
 72
     1
 10
71.88846153846153
 20
103.0
 11
71.88846153846153
 21
101.5
 72
     1
 10
71.88846153846153
 20
101.5
 11
74.88846153846153
 21
101.5
 72
     1
 10
74.88846153846153
 20
101.5
 11
74.88846153846153
 21
100.0
 72
     1
 10
74.88846153846153
 20
100.0
 11
71.06549449988843
 21
100.0000000000001
 72
     2
 10
71.06549449988843
 20
101.0000000000001
 40
1.0
 50
201.8014094863521
 51
269.9999999999992
 73
     1
 72
     1
 10
70.13701780900318
 20
100.628609323646
 11
69.63990526791987
 21
101.8713906763541
 72
     2
 10
68.71142857703465
 20
101.5
 40
1.0
 50
21.80140948635317
 51
90.0
 73
     0
 72
     1
 10
68.71142857703465
 20
102.5
 11
67.88846153846156
 21
102.5
 72
     1
 10
67.88846153846156
 20
102.5
 11
67.8884615384615
 21
106.0
 97
        0
 75
     0
 76
     0
 52
45.0
 41
2.0
 77
     0
 78
     1
 53
45.0
 43
0.0
 44
0.0
 45
-1.414213562373095
 46
1.414213562373095
 79
     0
 98
        0
  0
HATCH
  5
1E5
330
1F
100
AcDbEntity
  8
LAYERGROUP-1
  6
CONTINUOUS
 62
     6
100
AcDbHatch
 10
0.0
 20
0.0
 30
0.0
210
0.0
220
0.0
230
1.0
  2

 70
     0
 71
     1
 91
        2
 92
        0
 93
       37
 72
     1
 10
68.71481336079461
 20
127.1457081218349
 11
75.83305424912928
 21
128.4008460456305
 72
     2
 10
75.13846153846153
 20
132.3400770576794
 40
4.0
 50
280.0000000000005
 51
360.0
 73
     1
 72
     1
 10
79.13846153846153
 20
132.3400770576794
 11
79.13846153846153
 21
134.5
 72
     2
 10
75.29352337960259
 20
133.3970718271119
 40
4.0
 50
16.00564390044259
 51
80.00000000000006
 73
     1
 72
     1
 10
75.98811609027031
 20
137.3363028391607
 11
70.21481336079459
 21
138.3542918781651
 72
     2
 10
70.38846153846153
 20
139.3390996311773
 40
1.0
 50
180.0
 51
259.9999999999998
 73
     0
 72
     1
 10
69.38846153846153
 20
139.3390996311773
 11
69.38846153846153
 21
143.5
 72
     1
 10
69.38846153846153
 20
143.5
 11
72.38846153846153
 21
143.5
 72
     1
 10
72.38846153846153
 20
143.5
 11
71.38846153846107
 21
142.0
 72
     1
 10
71.38846153846107
 20
142.0
 11
92.38846153846131
 21
142.0
 72
     1
 10
92.38846153846131
 20
142.0
 11
91.38846153846153
 21
143.5
 72
     1
 10
91.38846153846153
 20
143.5
 11
94.38846153846153
 21
143.5
 72
     1
 10
94.38846153846153
 20
143.5
 11
94.38846153846153
 21
139.3390996311773
 72
     2
 10
93.38846153846153
 20
139.3390996311773
 40
1.0
 50
280.0000000000002
 51
360.0
 73
     0
 72
     1
 10
93.56210971612846
 20
138.3542918781651
 11
87.78880698665275
 21
137.3363028391607
 72
     2
 10
88.48339969732047
 20
133.3970718271119
 40
4.0
 50
99.99999999999994
 51
163.9943560995574
 73
     1
 72
     1
 10
84.63846153846153
 20
134.5
 11
84.63846153846153
 21
132.3400770576794
 72
     2
 10
88.63846153846153
 20
132.3400770576794
 40
4.0
 50
180.0
 51
259.9999999999996
 73
     1
 72
     1
 10
87.94386882779378
 20
128.4008460456305
 11
95.06210971612845
 21
127.1457081218349
 72
     2
 10
94.88846153846151
 20
126.1609003688228
 40
1.0
 50
0.0
 51
79.99999999999923
 73
     0
 72
     1
 10
95.88846153846151
 20
126.1609003688228
 11
95.88846153846151
 21
122.5
 72
     1
 10
95.88846153846151
 20
122.5
 11
95.06549449988839
 21
122.5
 72
     2
 10
95.06549449988839
 20
123.5
 40
1.0
 50
201.8014094863521
 51
270.0
 73
     0
 72
     1
 10
94.13701780900313
 20
123.1286093236459
 11
93.63990526791987
 21
124.371390676354
 72
     2
 10
92.7114285770346
 20
123.9999999999999
 40
1.0
 50
21.80140948635181
 51
89.99999999999919
 73
     1
 72
     1
 10
92.71142857703461
 20
124.9999999999999
 11
88.88846153846153
 21
125.0
 72
     1
 10
88.88846153846153
 20
125.0
 11
88.88846153846153
 21
123.5
 72
     1
 10
88.88846153846153
 20
123.5
 11
81.88846153846153
 21
123.5
 72
     1
 10
81.88846153846153
 20
123.5
 11
74.88846153846153
 21
123.5
 72
     1
 10
74.88846153846153
 20
123.5
 11
74.88846153846153
 21
125.0
 72
     1
 10
74.88846153846153
 20
125.0
 11
71.06549449988842
 21
124.9999999999999
 72
     2
 10
71.06549449988843
 20
123.9999999999999
 40
1.0
 50
90.00000000000081
 51
158.1985905136458
 73
     1
 72
     1
 10
70.1370178090032
 20
124.371390676354
 11
69.63990526791987
 21
123.1286093236459
 72
     2
 10
68.71142857703465
 20
123.5
 40
1.0
 50
270.0
 51
338.198590513647
 73
     0
 72
     1
 10
68.71142857703465
 20
122.5
 11
67.88846153846153
 21
122.5
 72
     1
 10
67.88846153846153
 20
122.5
 11
67.88846153846154
 21
126.1609003688228
 72
     2
 10
68.88846153846154
 20
126.1609003688228
 40
1.0
 50
100.0000000000008
 51
180.0
 73
     0
 97
        0
 92
        0
 93
       37
 72
     1
 10
75.83305424912928
 20
96.59915395436947
 11
68.71481336079461
 21
97.85429187816511
 72
     2
 10
68.88846153846154
 20
98.83909963117726
 40
1.0
 50
180.0
 51
259.9999999999992
 73
     0
 72
     1
 10
67.88846153846154
 20
98.83909963117726
 11
67.88846153846153
 21
102.5
 72
     1
 10
67.88846153846153
 20
102.5
 11
68.71142857703465
 21
102.5
 72
     2
 10
68.71142857703465
 20
101.5
 40
1.0
 50
21.80140948635302
 51
90.0
 73
     0
 72
     1
 10
69.63990526791987
 20
101.8713906763541
 11
70.1370178090032
 21
100.6286093236459
 72
     2
 10
71.06549449988843
 20
101.0000000000001
 40
1.0
 50
201.8014094863542
 51
269.9999999999992
 73
     1
 72
     1
 10
71.06549449988842
 20
100.0000000000001
 11
74.88846153846153
 21
100.0
 72
     1
 10
74.88846153846153
 20
100.0
 11
74.88846153846153
 21
101.5
 72
     1
 10
74.88846153846153
 20
101.5
 11
81.88846153846153
 21
101.5
 72
     1
 10
81.88846153846153
 20
101.5
 11
88.88846153846153
 21
101.5
 72
     1
 10
88.88846153846153
 20
101.5
 11
88.88846153846153
 21
100.0
 72
     1
 10
88.88846153846153
 20
100.0
 11
92.71142857703461
 21
100.0000000000001
 72
     2
 10
92.7114285770346
 20
101.0000000000001
 40
1.0
 50
270.0000000000008
 51
338.1985905136482
 73
     1
 72
     1
 10
93.63990526791987
 20
100.628609323646
 11
94.13701780900313
 21
101.8713906763541
 72
     2
 10
95.06549449988839
 20
101.5
 40
1.0
 50
90.0
 51
158.1985905136479
 73
     0
 72
     1
 10
95.06549449988839
 20
102.5
 11
95.88846153846154
 21
102.5
 72
     1
 10
95.88846153846154
 20
102.5
 11
95.88846153846151
 21
98.83909963117726
 72
     2
 10
94.88846153846151
 20
98.83909963117726
 40
1.0
 50
280.0000000000008
 51
360.0
 73
     0
 72
     1
 10
95.06210971612845
 20
97.85429187816511
 11
87.94386882779378
 21
96.59915395436947
 72
     2
 10
88.63846153846153
 20
92.65992294232068
 40
4.0
 50
100.0000000000005
 51
180.0
 73
     1
 72
     1
 10
84.63846153846153
 20
92.65992294232068
 11
84.63846153846153
 21
90.50000000000001
 72
     2
 10
88.48339969732047
 20
91.60292817288818
 40
4.0
 50
196.0056439004426
 51
259.9999999999998
 73
     1
 72
     1
 10
87.78880698665273
 20
87.66369716083935
 11
93.56210971612846
 21
86.64570812183494
 72
     2
 10
93.38846153846153
 20
85.66090036882274
 40
1.0
 50
0.0
 51
79.99999999999979
 73
     0
 72
     1
 10
94.38846153846153
 20
85.66090036882274
 11
94.38846153846153
 21
81.5
 72
     1
 10
94.38846153846153
 20
81.5
 11
91.38846153846153
 21
81.50000000000001
 72
     1
 10
91.38846153846153
 20
81.50000000000001
 11
92.38846153846198
 21
83.00000000000001
 72
     1
 10
92.38846153846198
 20
83.00000000000001
 11
71.38846153846174
 21
83.00000000000001
 72
     1
 10
71.38846153846174
 20
83.00000000000001
 11
72.38846153846153
 21
81.50000000000001
 72
     1
 10
72.38846153846153
 20
81.50000000000001
 11
69.38846153846153
 21
81.5
 72
     1
 10
69.38846153846153
 20
81.5
 11
69.38846153846153
 21
85.66090036882274
 72
     2
 10
70.38846153846153
 20
85.66090036882274
 40
1.0
 50
100.0000000000002
 51
180.0
 73
     0
 72
     1
 10
70.21481336079459
 20
86.64570812183494
 11
75.98811609027032
 21
87.66369716083935
 72
     2
 10
75.29352337960259
 20
91.60292817288818
 40
4.0
 50
280.0000000000002
 51
343.9943560995575
 73
     1
 72
     1
 10
79.13846153846153
 20
90.50000000000001
 11
79.13846153846153
 21
92.65992294232068
 72
     2
 10
75.13846153846153
 20
92.65992294232068
 40
4.0
 50
0.0
 51
79.99999999999953
 73
     1
 97
        0
 75
     0
 76
     0
 52
45.0
 41
2.0
 77
     0
 78
     1
 53
45.0
 43
0.0
 44
0.0
 45
-1.414213562373095
 46
1.414213562373095
 79
     0
 98
        0
  0
CIRCLE
  5
1E6
330
1F
100
AcDbEntity
  8
GR1-1
  6
CONTINUOUS
 62
     3
100
AcDbCircle
 10
212.388462
 20
112.5
 30
0.0
 40
4.1
  0
DIMENSION
  5
1E7
330
1F
100
AcDbEntity
  8
GR1-1
100
AcDbDimension
  2
*D21
 10
94.388462
 20
61.847704
 30
0.0
 11
81.888458
 21
62.847706
 31
0.0
 70
    33
  3
FXDIMINFO
100
AcDbAlignedDimension
 13
69.388462
 23
77.709962
 33
0.0
 14
94.388462
 24
77.709962
 34
0.0
1001
ACAD
1000
DSTYLE
1002
{
1070
     7
1000
FXTIP_ARROW_E
1070
     6
1000
FXTIP_ARROW_S
1070
   173
1070
     1
1002
}
  0
DIMENSION
  5
1F1
330
1F
100
AcDbEntity
  8
GR1-1
100
AcDbDimension
  2
*D22
 10
105.664688
 20
116.6
 30
0.0
 11
113.664688
 21
112.5
 31
0.0
 70
    33
  3
FXDIMINFO
100
AcDbAlignedDimension
 13
96.888462
 23
108.4
 33
0.0
 14
96.888462
 24
116.6
 34
0.0
  0
DIMENSION
  5
1FD
330
1F
100
AcDbEntity
  8
GR1-1
100
AcDbDimension
  2
*D23
 10
134.414655
 20
150.0
 30
0.0
 11
133.414658
 21
112.5
 31
0.0
 70
    33
  3
FXDIMINFO
100
AcDbAlignedDimension
 13
81.888462
 23
75.0
 33
0.0
 14
81.888462
 24
150.0
 34
0.0
1001
ACAD
1000
DSTYLE
1002
{
1070
     7
1000
FXTIP_ARROW_E
1070
     6
1000
FXTIP_ARROW_S
1070
   173
1070
     1
1002
}
  0
INSERT
  5
20A
330
1F
100
AcDbEntity
  8
0
100
AcDbBlockReference
  2
BLKF026
 10
0.0
 20
0.0
 30
0.0
  0
ENDSEC
  0
SECTION
  2
OBJECTS
  0
DICTIONARY
  5
C
330
0
100
AcDbDictionary
  3
ACAD_GROUP
350
D
  3
ACAD_LAYOUT
350
1A
  3
ACAD_MLINESTYLE
350
17
  3
ACAD_PLOTSETTINGS
350
19
  3
ACDBHEADERROUNDTRIPXREC
350
234
  0
DICTIONARY
  5
D
102
{ACAD_REACTORS
330
C
102
}
330
C
100
AcDbDictionary
  0
DICTIONARY
  5
1A
102
{ACAD_REACTORS
330
C
102
}
330
C
100
AcDbDictionary
  0
DICTIONARY
  5
17
102
{ACAD_REACTORS
330
C
102
}
330
C
100
AcDbDictionary
  3
STANDARD
350
18
  0
DICTIONARY
  5
19
102
{ACAD_REACTORS
330
C
102
}
330
C
100
AcDbDictionary
  0
DICTIONARY
  5
234
102
{ACAD_REACTORS
330
C
102
}
330
C
100
AcDbDictionary
  3
CEPSNTYPE
350
23D
  3
DIMSTYLEDATA
350
253
  3
FINGERPRINTGUID
350
23E
  3
HYPERLINKBASE
350
237
  3
INSUNITS
350
23C
  3
LAYOUTDICT
350
239
  3
LWETCUNION
350
23B
  3
PLOTSETDICT
350
23A
  3
PSVPSCALE
350
240
  3
PUCSBASE
350
243
  3
PUCSORGBACK
350
249
  3
PUCSORGBOTTOM
350
245
  3
PUCSORGFRONT
350
248
  3
PUCSORGLEFT
350
246
  3
PUCSORGRIGHT
350
247
  3
PUCSORGTOP
350
244
  3
PUCSORTHOREF
350
241
  3
PUCSORTHOVIEW
350
242
  3
STYLESHEET
350
238
  3
TSTACKALIGN
350
235
  3
TSTACKSIZE
350
236
  3
UCSBASE
350
24C
  3
UCSORGBACK
350
252
  3
UCSORGBOTTOM
350
24E
  3
UCSORGFRONT
350
251
  3
UCSORGLEFT
350
24F
  3
UCSORGRIGHT
350
250
  3
UCSORGTOP
350
24D
  3
UCSORTHOREF
350
24A
  3
UCSORTHOVIEW
350
24B
  3
VERSIONGUID
350
23F
  0
MLINESTYLE
  5
18
102
{ACAD_REACTORS
330
17
102
}
330
17
100
AcDbMlineStyle
  2
Standard
 70
     0
  3

 62
   256
 51
90.0
 52
90.0
 71
     2
 49
0.5
 62
   256
  6
BYLAYER
 49
-0.5
 62
   256
  6
BYLAYER
  0
XRECORD
  5
23D
102
{ACAD_REACTORS
330
234
102
}
330
234
100
AcDbXrecord
 90
        0
  0
XRECORD
  5
253
102
{ACAD_REACTORS
330
234
102
}
330
234
100
AcDbXrecord
1000
DSTYLE
1002
{
1070
   179
 70
     2
1070
   171
 70
     3
1070
   143
 40
0.03937
1070
   274
 70
     3
1070
    41
 40
3.0
1070
   343
340
41
1070
   344
340
47
1070
   141
 40
2.5
1070
   176
 70
     7
1070
   177
 70
     7
1070
   178
 70
     7
1070
   271
 70
     2
1070
    46
 40
6.0
1070
    43
 40
8.0
1070
    44
 40
1.0
1070
    42
 40
1.0
1070
   147
 40
1.0
1070
   341
340
41
1070
   173
 70
     1
1070
    77
 70
     1
1070
   272
 70
     2
1070
    73
 70
     0
1070
   172
 70
     1
1070
    74
 70
     0
1070
   283
 70
     0
1070
   340
340
3F
1070
   140
 40
4.0
1070
   284
 70
     8
1070
    78
 70
     8
1002
}
  0
XRECORD
  5
23E
102
{ACAD_REACTORS
330
234
102
}
330
234
100
AcDbXrecord
  1
{FCD84C2F-5FB9-4E01-A620-1868AF189B1A}
  0
XRECORD
  5
237
102
{ACAD_REACTORS
330
234
102
}
330
234
100
AcDbXrecord
  1

  0
XRECORD
  5
23C
102
{ACAD_REACTORS
330
234
102
}
330
234
100
AcDbXrecord
 90
        1
  0
XRECORD
  5
239
102
{ACAD_REACTORS
330
234
102
}
330
234
100
AcDbXrecord
340
1A
  0
XRECORD
  5
23B
102
{ACAD_REACTORS
330
234
102
}
330
234
100
AcDbXrecord
 90
    10781
  0
XRECORD
  5
23A
102
{ACAD_REACTORS
330
234
102
}
330
234
100
AcDbXrecord
340
19
  0
XRECORD
  5
240
102
{ACAD_REACTORS
330
234
102
}
330
234
100
AcDbXrecord
 40
0.0
  0
XRECORD
  5
243
102
{ACAD_REACTORS
330
234
102
}
330
234
100
AcDbXrecord
340
0
  0
XRECORD
  5
249
102
{ACAD_REACTORS
330
234
102
}
330
234
100
AcDbXrecord
 10
0.0
 20
0.0
 30
0.0
  0
XRECORD
  5
245
102
{ACAD_REACTORS
330
234
102
}
330
234
100
AcDbXrecord
 10
0.0
 20
0.0
 30
0.0
  0
XRECORD
  5
248
102
{ACAD_REACTORS
330
234
102
}
330
234
100
AcDbXrecord
 10
0.0
 20
0.0
 30
0.0
  0
XRECORD
  5
246
102
{ACAD_REACTORS
330
234
102
}
330
234
100
AcDbXrecord
 10
0.0
 20
0.0
 30
0.0
  0
XRECORD
  5
247
102
{ACAD_REACTORS
330
234
102
}
330
234
100
AcDbXrecord
 10
0.0
 20
0.0
 30
0.0
  0
XRECORD
  5
244
102
{ACAD_REACTORS
330
234
102
}
330
234
100
AcDbXrecord
 10
0.0
 20
0.0
 30
0.0
  0
XRECORD
  5
241
102
{ACAD_REACTORS
330
234
102
}
330
234
100
AcDbXrecord
340
0
  0
XRECORD
  5
242
102
{ACAD_REACTORS
330
234
102
}
330
234
100
AcDbXrecord
 70
     0
  0
XRECORD
  5
238
102
{ACAD_REACTORS
330
234
102
}
330
234
100
AcDbXrecord
  1

  0
XRECORD
  5
235
102
{ACAD_REACTORS
330
234
102
}
330
234
100
AcDbXrecord
 90
        1
  0
XRECORD
  5
236
102
{ACAD_REACTORS
330
234
102
}
330
234
100
AcDbXrecord
 90
       70
  0
XRECORD
  5
24C
102
{ACAD_REACTORS
330
234
102
}
330
234
100
AcDbXrecord
340
0
  0
XRECORD
  5
252
102
{ACAD_REACTORS
330
234
102
}
330
234
100
AcDbXrecord
 10
0.0
 20
0.0
 30
0.0
  0
XRECORD
  5
24E
102
{ACAD_REACTORS
330
234
102
}
330
234
100
AcDbXrecord
 10
0.0
 20
0.0
 30
0.0
  0
XRECORD
  5
251
102
{ACAD_REACTORS
330
234
102
}
330
234
100
AcDbXrecord
 10
0.0
 20
0.0
 30
0.0
  0
XRECORD
  5
24F
102
{ACAD_REACTORS
330
234
102
}
330
234
100
AcDbXrecord
 10
0.0
 20
0.0
 30
0.0
  0
XRECORD
  5
250
102
{ACAD_REACTORS
330
234
102
}
330
234
100
AcDbXrecord
 10
0.0
 20
0.0
 30
0.0
  0
XRECORD
  5
24D
102
{ACAD_REACTORS
330
234
102
}
330
234
100
AcDbXrecord
 10
0.0
 20
0.0
 30
0.0
  0
XRECORD
  5
24A
102
{ACAD_REACTORS
330
234
102
}
330
234
100
AcDbXrecord
340
0
  0
XRECORD
  5
24B
102
{ACAD_REACTORS
330
234
102
}
330
234
100
AcDbXrecord
 70
     0
  0
XRECORD
  5
23F
102
{ACAD_REACTORS
330
234
102
}
330
234
100
AcDbXrecord
  1
{FAEB1C32-E019-11D5-929B-00C0DF256EC4}
  0
ENDSEC
  0
EOF
