  0
SECTION
  2
HEADER
  9
$ACADVER
  1
AC1014
  9
$ACADMAINTVER
 70
     9
  9
$DWGCODEPAGE
  3
ANSI_932
  9
$INSBASE
 10
0.0
 20
0.0
 30
0.0
  9
$EXTMIN
 10
0.0
 20
0.0
 30
0.0
  9
$EXTMAX
 10
297.0
 20
210.0
 30
0.0
  9
$LIMMIN
 10
0.0
 20
0.0
  9
$LIMMAX
 10
297.0
 20
210.0
  9
$ORTHOMODE
 70
     0
  9
$REGENMODE
 70
     1
  9
$FILLMODE
 70
     1
  9
$QTEXTMODE
 70
     0
  9
$MIRRTEXT
 70
     1
  9
$DRAGMODE
 70
     2
  9
$LTSCALE
 40
1.0
  9
$OSMODE
 70
    37
  9
$ATTMODE
 70
     1
  9
$TEXTSIZE
 40
0.2
  9
$TRACEWID
 40
0.05
  9
$TEXTSTYLE
  7
STYLE1
  9
$CLAYER
  8
0
  9
$CELTYPE
  6
BYLAYER
  9
$CECOLOR
 62
   256
  9
$CELTSCALE
 40
1.0
  9
$DELOBJ
 70
     1
  9
$DISPSILH
 70
     0
  9
$DIMSCALE
 40
1.0
  9
$DIMASZ
 40
3.0
  9
$DIMEXO
 40
1.0
  9
$DIMDLI
 40
8.0
  9
$DIMRND
 40
0.0
  9
$DIMDLE
 40
6.0
  9
$DIMEXE
 40
1.0
  9
$DIMTP
 40
0.0
  9
$DIMTM
 40
0.0
  9
$DIMTXT
 40
4.0
  9
$DIMCEN
 40
2.5
  9
$DIMTSZ
 40
0.0
  9
$DIMTOL
 70
     0
  9
$DIMLIM
 70
     0
  9
$DIMTIH
 70
     0
  9
$DIMTOH
 70
     0
  9
$DIMSE1
 70
     0
  9
$DIMSE2
 70
     0
  9
$DIMTAD
 70
     1
  9
$DIMZIN
 70
     8
  9
$DIMBLK
  1

  9
$DIMASO
 70
     1
  9
$DIMSHO
 70
     1
  9
$DIMPOST
  1

  9
$DIMAPOST
  1

  9
$DIMALT
 70
     0
  9
$DIMALTD
 70
     3
  9
$DIMALTF
 40
0.03937
  9
$DIMLFAC
 40
1.0
  9
$DIMTOFL
 70
     1
  9
$DIMTVP
 40
0.0
  9
$DIMTIX
 70
     0
  9
$DIMSOXD
 70
     0
  9
$DIMSAH
 70
     1
  9
$DIMBLK1
  1
FXTIP_ARROW_S
  9
$DIMBLK2
  1
FXTIP_ARROW_E
  9
$DIMSTYLE
  2
FXDIMINFO
  9
$DIMCLRD
 70
     7
  9
$DIMCLRE
 70
     7
  9
$DIMCLRT
 70
     7
  9
$DIMTFAC
 40
1.0
  9
$DIMGAP
 40
1.0
  9
$DIMJUST
 70
     0
  9
$DIMSD1
 70
     0
  9
$DIMSD2
 70
     0
  9
$DIMTOLJ
 70
     0
  9
$DIMTZIN
 70
     8
  9
$DIMALTZ
 70
     0
  9
$DIMALTTZ
 70
     0
  9
$DIMFIT
 70
     3
  9
$DIMUPT
 70
     0
  9
$DIMUNIT
 70
     2
  9
$DIMDEC
 70
     2
  9
$DIMTDEC
 70
     2
  9
$DIMALTU
 70
     2
  9
$DIMALTTD
 70
     3
  9
$DIMTXSTY
  7
STYLE1
  9
$DIMAUNIT
 70
     0
  9
$LUNITS
 70
     2
  9
$LUPREC
 70
     4
  9
$SKETCHINC
 40
0.1
  9
$FILLETRAD
 40
0.5
  9
$AUNITS
 70
     0
  9
$AUPREC
 70
     0
  9
$MENU
  1
.
  9
$ELEVATION
 40
0.0
  9
$PELEVATION
 40
0.0
  9
$THICKNESS
 40
0.0
  9
$LIMCHECK
 70
     0
  9
$CHAMFERA
 40
0.5
  9
$CHAMFERB
 40
0.5
  9
$CHAMFERC
 40
1.0
  9
$CHAMFERD
 40
0.0
  9
$SKPOLY
 70
     0
  9
$TDCREATE
 40
2455301.578343715
  9
$TDUPDATE
 40
2455301.578343727
  9
$TDINDWG
 40
0.0000000116
  9
$TDUSRTIMER
 40
0.0000000116
  9
$USRTIMER
 70
     1
  9
$ANGBASE
 50
0.0
  9
$ANGDIR
 70
     0
  9
$PDMODE
 70
     0
  9
$PDSIZE
 40
0.0
  9
$PLINEWID
 40
0.0
  9
$COORDS
 70
     1
  9
$SPLFRAME
 70
     0
  9
$SPLINETYPE
 70
     6
  9
$SPLINESEGS
 70
     8
  9
$ATTDIA
 70
     0
  9
$ATTREQ
 70
     1
  9
$HANDLING
 70
     1
  9
$HANDSEED
  5
200
  9
$SURFTAB1
 70
     6
  9
$SURFTAB2
 70
     6
  9
$SURFTYPE
 70
     6
  9
$SURFU
 70
     6
  9
$SURFV
 70
     6
  9
$UCSNAME
  2

  9
$UCSORG
 10
0.0
 20
0.0
 30
0.0
  9
$UCSXDIR
 10
1.0
 20
0.0
 30
0.0
  9
$UCSYDIR
 10
0.0
 20
1.0
 30
0.0
  9
$PUCSNAME
  2

  9
$PUCSORG
 10
0.0
 20
0.0
 30
0.0
  9
$PUCSXDIR
 10
1.0
 20
0.0
 30
0.0
  9
$PUCSYDIR
 10
0.0
 20
1.0
 30
0.0
  9
$USERI1
 70
     0
  9
$USERI2
 70
     0
  9
$USERI3
 70
     0
  9
$USERI4
 70
     0
  9
$USERI5
 70
     0
  9
$USERR1
 40
0.0
  9
$USERR2
 40
0.0
  9
$USERR3
 40
0.0
  9
$USERR4
 40
0.0
  9
$USERR5
 40
0.0
  9
$WORLDVIEW
 70
     1
  9
$SHADEDGE
 70
     3
  9
$SHADEDIF
 70
    70
  9
$TILEMODE
 70
     1
  9
$MAXACTVP
 70
    64
  9
$PINSBASE
 10
0.0
 20
0.0
 30
0.0
  9
$PLIMCHECK
 70
     0
  9
$PEXTMIN
 10
1.000000E+20
 20
1.000000E+20
 30
1.000000E+20
  9
$PEXTMAX
 10
-1.000000E+20
 20
-1.000000E+20
 30
-1.000000E+20
  9
$PLIMMIN
 10
0.0
 20
0.0
  9
$PLIMMAX
 10
12.0
 20
9.0
  9
$UNITMODE
 70
     0
  9
$VISRETAIN
 70
     1
  9
$PLINEGEN
 70
     0
  9
$PSLTSCALE
 70
     1
  9
$TREEDEPTH
 70
  3020
  9
$PICKSTYLE
 70
     1
  9
$CMLSTYLE
  2
STANDARD
  9
$CMLJUST
 70
     0
  9
$CMLSCALE
 40
1.0
  9
$PROXYGRAPHICS
 70
     1
  9
$MEASUREMENT
 70
     0
  0
ENDSEC
  0
SECTION
  2
CLASSES
  0
CLASS
  1
ACDBDICTIONARYWDFLT
  2
AcDbDictionaryWithDefault
  3
ObjectDBX Classes
 90
        0
280
     0
281
     0
  0
CLASS
  1
XRECORD
  2
AcDbXrecord
  3
AutoCAD 2000
 90
        0
280
     0
281
     0
  0
CLASS
  1
LWPOLYLINE
  2
AcDbPolyline
  3
AutoCAD 2000
 90
        0
280
     0
281
     1
  0
CLASS
  1
HATCH
  2
AcDbHatch
  3
AutoCAD 2000
 90
        0
280
     0
281
     1
  0
CLASS
  1
ACDBPLACEHOLDER
  2
AcDbPlaceHolder
  3
ObjectDBX Classes
 90
        0
280
     0
281
     0
  0
CLASS
  1
LAYOUT
  2
AcDbLayout
  3
ObjectDBX Classes
 90
        0
280
     0
281
     0
  0
ENDSEC
  0
SECTION
  2
TABLES
  0
TABLE
  2
VPORT
  5
8
330
0
100
AcDbSymbolTable
 70
     1
  0
VPORT
  5
29
330
8
100
AcDbSymbolTableRecord
100
AcDbViewportTableRecord
  2
*ACTIVE
 70
     0
 10
0.0
 20
0.0
 11
1.0
 21
1.0
 12
148.5
 22
105.0
 13
0.0
 23
0.0
 14
0.5
 24
0.5
 15
0.5
 25
0.5
 16
0.0
 26
0.0
 36
1.0
 17
0.0
 27
0.0
 37
0.0
 40
210.0
 41
1.414286
 42
50.0
 43
0.0
 44
0.0
 50
0.0
 51
0.0
 71
     0
 72
   100
 73
     1
 74
     3
 75
     0
 76
     0
 77
     0
 78
     0
  0
ENDTAB
  0
TABLE
  2
LTYPE
  5
5
330
0
100
AcDbSymbolTable
 70
     4
  0
LTYPE
  5
14
330
5
100
AcDbSymbolTableRecord
100
AcDbLinetypeTableRecord
  2
BYBLOCK
 70
     0
  3

 72
    65
 73
     0
 40
0.0
  0
LTYPE
  5
15
330
5
100
AcDbSymbolTableRecord
100
AcDbLinetypeTableRecord
  2
BYLAYER
 70
     0
  3

 72
    65
 73
     0
 40
0.0
  0
LTYPE
  5
16
330
5
100
AcDbSymbolTableRecord
100
AcDbLinetypeTableRecord
  2
CONTINUOUS
 70
     0
  3
--------------------
 72
    65
 73
     0
 40
0.0
  0
LTYPE
  5
2A
330
5
100
AcDbSymbolTableRecord
100
AcDbLinetypeTableRecord
  2
CENTER
 70
     0
  3
Center ____ _ ____ _ ____ _ ____ _ ____ _ ____
 72
    65
 73
     4
 40
13.0
 49
10.0
 74
     0
 49
-1.0
 74
     0
 49
1.0
 74
     0
 49
-1.0
 74
     0
  0
ENDTAB
  0
TABLE
  2
LAYER
  5
2
330
0
100
AcDbSymbolTable
 70
    20
  0
LAYER
  5
10
330
2
100
AcDbSymbolTableRecord
100
AcDbLayerTableRecord
  2
0
 70
     0
 62
     7
  6
CONTINUOUS
  0
LAYER
  5
3D
330
2
100
AcDbSymbolTableRecord
100
AcDbLayerTableRecord
  2
}}ﾊﾊGG血CCТ
 70
     0
 62
     3
  6
CONTINUOUS
  0
LAYER
  5
AA
330
2
100
AcDbSymbolTableRecord
100
AcDbLayerTableRecord
  2
GR1-1
 70
     0
 62
     7
  6
CONTINUOUS
  0
LAYER
  5
1C3
330
2
100
AcDbSymbolTableRecord
100
AcDbLayerTableRecord
  2
0-1
 70
     0
 62
     7
  6
CONTINUOUS
  0
ENDTAB
  0
TABLE
  2
STYLE
  5
3
330
0
100
AcDbSymbolTable
 70
     4
  0
STYLE
  5
11
330
3
100
AcDbSymbolTableRecord
100
AcDbTextStyleTableRecord
  2
STANDARD
 70
     0
 40
0.0
 41
1.0
 50
0.0
 71
     0
 42
0.2
  3
txt
  4

  0
STYLE
  5
3F
330
3
100
AcDbSymbolTableRecord
100
AcDbTextStyleTableRecord
  2
STYLE1
 70
     0
 40
0.0
 41
1.0
 50
0.0
 71
     0
 42
0.2
  3
MONOTXT.SHX
  4
extfont.shx
  0
STYLE
  5
40
330
3
100
AcDbSymbolTableRecord
100
AcDbTextStyleTableRecord
  2
FX_VECTOR
 70
     0
 40
0.0
 41
1.0
 50
0.0
 71
     0
 42
0.2
  3
MONOTXT.SHX
  4
BIGFONT.SHX
  0
ENDTAB
  0
TABLE
  2
VIEW
  5
6
330
0
100
AcDbSymbolTable
 70
     0
  0
ENDTAB
  0
TABLE
  2
UCS
  5
7
330
0
100
AcDbSymbolTable
 70
     0
  0
ENDTAB
  0
TABLE
  2
APPID
  5
9
330
0
100
AcDbSymbolTable
 70
     1
  0
APPID
  5
12
330
9
100
AcDbSymbolTableRecord
100
AcDbRegAppTableRecord
  2
ACAD
 70
     0
  0
ENDTAB
  0
TABLE
  2
DIMSTYLE
  5
A
330
0
100
AcDbSymbolTable
 70
     2
  0
DIMSTYLE
105
27
330
A
100
AcDbSymbolTableRecord
100
AcDbDimStyleTableRecord
  2
STANDARD
 70
     0
  3

  4

  5

  6

  7

 40
1.0
 41
0.18
 42
0.0625
 43
0.38
 44
0.18
 45
0.0
 46
0.0
 47
0.0
 48
0.0
140
0.18
141
0.09
142
0.0
143
25.4
144
1.0
145
0.0
146
1.0
147
0.09
 71
     0
 72
     0
 73
     1
 74
     1
 75
     0
 76
     0
 77
     0
 78
     0
170
     0
171
     2
172
     0
173
     0
174
     0
175
     0
176
     0
177
     0
178
     0
270
     2
271
     4
272
     4
273
     2
274
     2
340
11
275
     0
280
     0
281
     0
282
     0
283
     1
284
     0
285
     0
286
     0
287
     3
288
     0
  0
DIMSTYLE
105
A7
102
{ACAD_REACTORS
330
189
330
195
330
19F
330
1A9
102
}
330
A
100
AcDbSymbolTableRecord
100
AcDbDimStyleTableRecord
  2
FXDIMINFO
 70
     0
  3

  4

  5

  6
FXTIP_ARROW_S
  7
FXTIP_ARROW_E
 40
1.0
 41
3.0
 42
1.0
 43
8.0
 44
1.0
 45
0.0
 46
6.0
 47
0.0
 48
0.0
140
4.0
141
2.5
142
0.0
143
0.03937
144
1.0
145
0.0
146
1.0
147
1.0
 71
     0
 72
     0
 73
     0
 74
     0
 75
     0
 76
     0
 77
     1
 78
     8
170
     0
171
     3
172
     1
173
     1
174
     0
175
     0
176
     7
177
     7
178
     7
179
     2
270
     2
271
     2
272
     2
273
     2
274
     3
340
3F
275
     0
280
     0
281
     0
282
     0
283
     0
284
     8
285
     0
286
     0
287
     3
288
     0
  0
ENDTAB
  0
TABLE
  2
BLOCK_RECORD
  5
1
330
0
100
AcDbSymbolTable
 70
    27
  0
BLOCK_RECORD
  5
1F
330
1
100
AcDbSymbolTableRecord
100
AcDbBlockTableRecord
  2
*MODEL_SPACE
  0
BLOCK_RECORD
  5
1B
330
1
100
AcDbSymbolTableRecord
100
AcDbBlockTableRecord
  2
*PAPER_SPACE
  0
BLOCK_RECORD
  5
41
330
1
100
AcDbSymbolTableRecord
100
AcDbBlockTableRecord
  2
FXTIP_ARROW_S
  0
BLOCK_RECORD
  5
47
330
1
100
AcDbSymbolTableRecord
100
AcDbBlockTableRecord
  2
FXTIP_ARROW_E
  0
BLOCK_RECORD
  5
4D
330
1
100
AcDbSymbolTableRecord
100
AcDbBlockTableRecord
  2
FXTIP_BLACKDOT_S
  0
BLOCK_RECORD
  5
53
330
1
100
AcDbSymbolTableRecord
100
AcDbBlockTableRecord
  2
FXTIP_BLACKDOT_E
  0
BLOCK_RECORD
  5
59
330
1
100
AcDbSymbolTableRecord
100
AcDbBlockTableRecord
  2
FXTIP_TRIANGLE_S
  0
BLOCK_RECORD
  5
60
330
1
100
AcDbSymbolTableRecord
100
AcDbBlockTableRecord
  2
FXTIP_TRIANGLE_E
  0
BLOCK_RECORD
  5
67
330
1
100
AcDbSymbolTableRecord
100
AcDbBlockTableRecord
  2
FXTIP_ARCHITECT_S
  0
BLOCK_RECORD
  5
6D
330
1
100
AcDbSymbolTableRecord
100
AcDbBlockTableRecord
  2
FXTIP_ARCHITECT_E
  0
BLOCK_RECORD
  5
73
330
1
100
AcDbSymbolTableRecord
100
AcDbBlockTableRecord
  2
FXTIP_CIVIL_S
  0
BLOCK_RECORD
  5
79
330
1
100
AcDbSymbolTableRecord
100
AcDbBlockTableRecord
  2
FXTIP_CIVIL_E
  0
BLOCK_RECORD
  5
7F
330
1
100
AcDbSymbolTableRecord
100
AcDbBlockTableRecord
  2
FXTIP_WHITEDOT_S
  0
BLOCK_RECORD
  5
84
330
1
100
AcDbSymbolTableRecord
100
AcDbBlockTableRecord
  2
FXTIP_WHITEDOT_E
  0
BLOCK_RECORD
  5
89
330
1
100
AcDbSymbolTableRecord
100
AcDbBlockTableRecord
  2
FXTIP_UPARROW_S
  0
BLOCK_RECORD
  5
8E
330
1
100
AcDbSymbolTableRecord
100
AcDbBlockTableRecord
  2
FXTIP_UPARROW_E
  0
BLOCK_RECORD
  5
93
330
1
100
AcDbSymbolTableRecord
100
AcDbBlockTableRecord
  2
FXTIP_DOWNARROW_S
  0
BLOCK_RECORD
  5
98
330
1
100
AcDbSymbolTableRecord
100
AcDbBlockTableRecord
  2
FXTIP_DOWNARROW_E
  0
BLOCK_RECORD
  5
9D
330
1
100
AcDbSymbolTableRecord
100
AcDbBlockTableRecord
  2
FXTIP_BLACKTRIANGLE_S
  0
BLOCK_RECORD
  5
A2
330
1
100
AcDbSymbolTableRecord
100
AcDbBlockTableRecord
  2
FXTIP_BLACKTRIANGLE_E
  0
BLOCK_RECORD
  5
F3
330
1
100
AcDbSymbolTableRecord
100
AcDbBlockTableRecord
  2
BLKF021
  0
BLOCK_RECORD
  5
18A
330
1
100
AcDbSymbolTableRecord
100
AcDbBlockTableRecord
  2
*D20
  0
BLOCK_RECORD
  5
196
330
1
100
AcDbSymbolTableRecord
100
AcDbBlockTableRecord
  2
*D21
  0
BLOCK_RECORD
  5
1A0
330
1
100
AcDbSymbolTableRecord
100
AcDbBlockTableRecord
  2
*D22
  0
BLOCK_RECORD
  5
1AA
330
1
100
AcDbSymbolTableRecord
100
AcDbBlockTableRecord
  2
*D23
  0
BLOCK_RECORD
  5
1B3
330
1
100
AcDbSymbolTableRecord
100
AcDbBlockTableRecord
  2
BLKF026
  0
BLOCK_RECORD
  5
1BF
330
1
100
AcDbSymbolTableRecord
100
AcDbBlockTableRecord
  2
BLKF027
  0
BLOCK_RECORD
  5
1C8
330
1
100
AcDbSymbolTableRecord
100
AcDbBlockTableRecord
  2
BLKF028
  0
ENDTAB
  0
ENDSEC
  0
SECTION
  2
BLOCKS
  0
BLOCK
  5
20
330
1F
100
AcDbEntity
  8
0
100
AcDbBlockBegin
  2
*MODEL_SPACE
 70
     0
 71
     0
 10
0.0
 20
0.0
 30
0.0
  3
*MODEL_SPACE
  1

  0
ENDBLK
  5
21
330
1F
100
AcDbEntity
  8
0
100
AcDbBlockEnd
  0
BLOCK
  5
1C
330
1B
100
AcDbEntity
 67
     1
  8
0
100
AcDbBlockBegin
  2
*PAPER_SPACE
 70
     0
 71
     0
 10
0.0
 20
0.0
 30
0.0
  3
*PAPER_SPACE
  1

  0
ENDBLK
  5
1D
330
1B
100
AcDbEntity
 67
     1
  8
0
100
AcDbBlockEnd
  0
BLOCK
  5
42
330
41
100
AcDbEntity
  8
0
100
AcDbBlockBegin
  2
FXTIP_ARROW_S
 70
     0
 71
     0
 10
0.0
 20
0.0
 30
0.0
  3
FXTIP_ARROW_S
  1

  0
LINE
  5
44
330
41
100
AcDbEntity
  8
0
  6
CONTINUOUS
 62
     0
100
AcDbLine
 10
0.0
 20
0.0
 30
0.0
 11
-1.0
 21
0.0
 31
0.0
  0
LINE
  5
45
330
41
100
AcDbEntity
  8
0
  6
CONTINUOUS
 62
     0
100
AcDbLine
 10
0.0
 20
0.0
 30
0.0
 11
-0.965926
 21
-0.258819
 31
0.0
  0
LINE
  5
46
330
41
100
AcDbEntity
  8
0
  6
CONTINUOUS
 62
     0
100
AcDbLine
 10
0.0
 20
0.0
 30
0.0
 11
-0.965926
 21
0.258819
 31
0.0
  0
ENDBLK
  5
43
330
41
100
AcDbEntity
  8
0
100
AcDbBlockEnd
  0
BLOCK
  5
48
330
47
100
AcDbEntity
  8
0
100
AcDbBlockBegin
  2
FXTIP_ARROW_E
 70
     0
 71
     0
 10
0.0
 20
0.0
 30
0.0
  3
FXTIP_ARROW_E
  1

  0
LINE
  5
4A
330
47
100
AcDbEntity
  8
0
  6
CONTINUOUS
 62
     0
100
AcDbLine
 10
0.0
 20
0.0
 30
0.0
 11
-1.0
 21
0.0
 31
0.0
  0
LINE
  5
4B
330
47
100
AcDbEntity
  8
0
  6
CONTINUOUS
 62
     0
100
AcDbLine
 10
0.0
 20
0.0
 30
0.0
 11
-0.965926
 21
0.258819
 31
0.0
  0
LINE
  5
4C
330
47
100
AcDbEntity
  8
0
  6
CONTINUOUS
 62
     0
100
AcDbLine
 10
0.0
 20
0.0
 30
0.0
 11
-0.965926
 21
-0.258819
 31
0.0
  0
ENDBLK
  5
49
330
47
100
AcDbEntity
  8
0
100
AcDbBlockEnd
  0
BLOCK
  5
4E
330
4D
100
AcDbEntity
  8
0
100
AcDbBlockBegin
  2
FXTIP_BLACKDOT_S
 70
     0
 71
     0
 10
0.0
 20
0.0
 30
0.0
  3
FXTIP_BLACKDOT_S
  1

  0
LINE
  5
50
330
4D
100
AcDbEntity
  8
0
  6
CONTINUOUS
 62
     0
100
AcDbLine
 10
0.0
 20
0.0
 30
0.0
 11
-1.0
 21
0.0
 31
0.0
  0
LWPOLYLINE
  5
51
330
4D
100
AcDbEntity
  8
0
  6
CONTINUOUS
 62
     0
100
AcDbPolyline
 90
        2
 70
     1
 10
-0.25
 20
0.0
 40
0.5
 41
0.5
 42
1.0
 10
0.25
 20
0.0
 40
0.5
 41
0.5
 42
1.0
  0
CIRCLE
  5
52
330
4D
100
AcDbEntity
  8
0
  6
CONTINUOUS
 62
     0
100
AcDbCircle
 10
0.0
 20
0.0
 30
0.0
 40
0.5
  0
ENDBLK
  5
4F
330
4D
100
AcDbEntity
  8
0
100
AcDbBlockEnd
  0
BLOCK
  5
54
330
53
100
AcDbEntity
  8
0
100
AcDbBlockBegin
  2
FXTIP_BLACKDOT_E
 70
     0
 71
     0
 10
0.0
 20
0.0
 30
0.0
  3
FXTIP_BLACKDOT_E
  1

  0
LINE
  5
56
330
53
100
AcDbEntity
  8
0
  6
CONTINUOUS
 62
     0
100
AcDbLine
 10
0.0
 20
0.0
 30
0.0
 11
-1.0
 21
0.0
 31
0.0
  0
LWPOLYLINE
  5
57
330
53
100
AcDbEntity
  8
0
  6
CONTINUOUS
 62
     0
100
AcDbPolyline
 90
        2
 70
     1
 10
-0.25
 20
0.0
 40
0.5
 41
0.5
 42
1.0
 10
0.25
 20
0.0
 40
0.5
 41
0.5
 42
1.0
  0
CIRCLE
  5
58
330
53
100
AcDbEntity
  8
0
  6
CONTINUOUS
 62
     0
100
AcDbCircle
 10
0.0
 20
0.0
 30
0.0
 40
0.5
  0
ENDBLK
  5
55
330
53
100
AcDbEntity
  8
0
100
AcDbBlockEnd
  0
BLOCK
  5
5A
330
59
100
AcDbEntity
  8
0
100
AcDbBlockBegin
  2
FXTIP_TRIANGLE_S
 70
     0
 71
     0
 10
0.0
 20
0.0
 30
0.0
  3
FXTIP_TRIANGLE_S
  1

  0
LINE
  5
5C
330
59
100
AcDbEntity
  8
0
  6
CONTINUOUS
 62
     0
100
AcDbLine
 10
0.0
 20
0.0
 30
0.0
 11
-1.0
 21
0.0
 31
0.0
  0
LINE
  5
5D
330
59
100
AcDbEntity
  8
0
  6
CONTINUOUS
 62
     0
100
AcDbLine
 10
0.0
 20
0.0
 30
0.0
 11
-0.965926
 21
-0.258819
 31
0.0
  0
LINE
  5
5E
330
59
100
AcDbEntity
  8
0
  6
CONTINUOUS
 62
     0
100
AcDbLine
 10
0.0
 20
0.0
 30
0.0
 11
-0.965926
 21
0.258819
 31
0.0
  0
LINE
  5
5F
330
59
100
AcDbEntity
  8
0
  6
CONTINUOUS
 62
     0
100
AcDbLine
 10
-0.965926
 20
-0.258819
 30
0.0
 11
-0.965926
 21
0.258819
 31
0.0
  0
ENDBLK
  5
5B
330
59
100
AcDbEntity
  8
0
100
AcDbBlockEnd
  0
BLOCK
  5
61
330
60
100
AcDbEntity
  8
0
100
AcDbBlockBegin
  2
FXTIP_TRIANGLE_E
 70
     0
 71
     0
 10
0.0
 20
0.0
 30
0.0
  3
FXTIP_TRIANGLE_E
  1

  0
LINE
  5
63
330
60
100
AcDbEntity
  8
0
  6
CONTINUOUS
 62
     0
100
AcDbLine
 10
0.0
 20
0.0
 30
0.0
 11
-1.0
 21
0.0
 31
0.0
  0
LINE
  5
64
330
60
100
AcDbEntity
  8
0
  6
CONTINUOUS
 62
     0
100
AcDbLine
 10
0.0
 20
0.0
 30
0.0
 11
-0.965926
 21
0.258819
 31
0.0
  0
LINE
  5
65
330
60
100
AcDbEntity
  8
0
  6
CONTINUOUS
 62
     0
100
AcDbLine
 10
0.0
 20
0.0
 30
0.0
 11
-0.965926
 21
-0.258819
 31
0.0
  0
LINE
  5
66
330
60
100
AcDbEntity
  8
0
  6
CONTINUOUS
 62
     0
100
AcDbLine
 10
-0.965926
 20
0.258819
 30
0.0
 11
-0.965926
 21
-0.258819
 31
0.0
  0
ENDBLK
  5
62
330
60
100
AcDbEntity
  8
0
100
AcDbBlockEnd
  0
BLOCK
  5
68
330
67
100
AcDbEntity
  8
0
100
AcDbBlockBegin
  2
FXTIP_ARCHITECT_S
 70
     0
 71
     0
 10
0.0
 20
0.0
 30
0.0
  3
FXTIP_ARCHITECT_S
  1

  0
LINE
  5
6A
330
67
100
AcDbEntity
  8
0
  6
CONTINUOUS
 62
     0
100
AcDbLine
 10
0.0
 20
0.0
 30
0.0
 11
-1.0
 21
0.0
 31
0.0
  0
LINE
  5
6B
330
67
100
AcDbEntity
  8
0
  6
CONTINUOUS
 62
     0
100
AcDbLine
 10
0.0
 20
0.0
 30
0.0
 11
-0.707107
 21
-0.707107
 31
0.0
  0
LINE
  5
6C
330
67
100
AcDbEntity
  8
0
  6
CONTINUOUS
 62
     0
100
AcDbLine
 10
0.0
 20
0.0
 30
0.0
 11
0.707107
 21
0.707107
 31
0.0
  0
ENDBLK
  5
69
330
67
100
AcDbEntity
  8
0
100
AcDbBlockEnd
  0
BLOCK
  5
6E
330
6D
100
AcDbEntity
  8
0
100
AcDbBlockBegin
  2
FXTIP_ARCHITECT_E
 70
     0
 71
     0
 10
0.0
 20
0.0
 30
0.0
  3
FXTIP_ARCHITECT_E
  1

  0
LINE
  5
70
330
6D
100
AcDbEntity
  8
0
  6
CONTINUOUS
 62
     0
100
AcDbLine
 10
0.0
 20
0.0
 30
0.0
 11
-1.0
 21
0.0
 31
0.0
  0
LINE
  5
71
330
6D
100
AcDbEntity
  8
0
  6
CONTINUOUS
 62
     0
100
AcDbLine
 10
0.0
 20
0.0
 30
0.0
 11
0.707107
 21
0.707107
 31
0.0
  0
LINE
  5
72
330
6D
100
AcDbEntity
  8
0
  6
CONTINUOUS
 62
     0
100
AcDbLine
 10
0.0
 20
0.0
 30
0.0
 11
-0.707107
 21
-0.707107
 31
0.0
  0
ENDBLK
  5
6F
330
6D
100
AcDbEntity
  8
0
100
AcDbBlockEnd
  0
BLOCK
  5
74
330
73
100
AcDbEntity
  8
0
100
AcDbBlockBegin
  2
FXTIP_CIVIL_S
 70
     0
 71
     0
 10
0.0
 20
0.0
 30
0.0
  3
FXTIP_CIVIL_S
  1

  0
LINE
  5
76
330
73
100
AcDbEntity
  8
0
  6
CONTINUOUS
 62
     0
100
AcDbLine
 10
0.0
 20
0.0
 30
0.0
 11
-1.0
 21
0.0
 31
0.0
  0
LINE
  5
77
330
73
100
AcDbEntity
  8
0
  6
CONTINUOUS
 62
     0
100
AcDbLine
 10
0.0
 20
-0.083333
 30
0.0
 11
-1.0
 21
-0.083333
 31
0.0
  0
LINE
  5
78
330
73
100
AcDbEntity
  8
0
  6
CONTINUOUS
 62
     0
100
AcDbLine
 10
0.0
 20
-0.166667
 30
0.0
 11
-1.0
 21
-0.166667
 31
0.0
  0
ENDBLK
  5
75
330
73
100
AcDbEntity
  8
0
100
AcDbBlockEnd
  0
BLOCK
  5
7A
330
79
100
AcDbEntity
  8
0
100
AcDbBlockBegin
  2
FXTIP_CIVIL_E
 70
     0
 71
     0
 10
0.0
 20
0.0
 30
0.0
  3
FXTIP_CIVIL_E
  1

  0
LINE
  5
7C
330
79
100
AcDbEntity
  8
0
  6
CONTINUOUS
 62
     0
100
AcDbLine
 10
0.0
 20
0.0
 30
0.0
 11
-1.0
 21
0.0
 31
0.0
  0
LINE
  5
7D
330
79
100
AcDbEntity
  8
0
  6
CONTINUOUS
 62
     0
100
AcDbLine
 10
0.0
 20
0.083333
 30
0.0
 11
-1.0
 21
0.083333
 31
0.0
  0
LINE
  5
7E
330
79
100
AcDbEntity
  8
0
  6
CONTINUOUS
 62
     0
100
AcDbLine
 10
0.0
 20
0.166667
 30
0.0
 11
-1.0
 21
0.166667
 31
0.0
  0
ENDBLK
  5
7B
330
79
100
AcDbEntity
  8
0
100
AcDbBlockEnd
  0
BLOCK
  5
80
330
7F
100
AcDbEntity
  8
0
100
AcDbBlockBegin
  2
FXTIP_WHITEDOT_S
 70
     0
 71
     0
 10
0.0
 20
0.0
 30
0.0
  3
FXTIP_WHITEDOT_S
  1

  0
LINE
  5
82
330
7F
100
AcDbEntity
  8
0
  6
CONTINUOUS
 62
     0
100
AcDbLine
 10
0.0
 20
0.0
 30
0.0
 11
-1.0
 21
0.0
 31
0.0
  0
CIRCLE
  5
83
330
7F
100
AcDbEntity
  8
0
  6
CONTINUOUS
 62
     0
100
AcDbCircle
 10
0.0
 20
0.0
 30
0.0
 40
0.5
  0
ENDBLK
  5
81
330
7F
100
AcDbEntity
  8
0
100
AcDbBlockEnd
  0
BLOCK
  5
85
330
84
100
AcDbEntity
  8
0
100
AcDbBlockBegin
  2
FXTIP_WHITEDOT_E
 70
     0
 71
     0
 10
0.0
 20
0.0
 30
0.0
  3
FXTIP_WHITEDOT_E
  1

  0
LINE
  5
87
330
84
100
AcDbEntity
  8
0
  6
CONTINUOUS
 62
     0
100
AcDbLine
 10
0.0
 20
0.0
 30
0.0
 11
-1.0
 21
0.0
 31
0.0
  0
CIRCLE
  5
88
330
84
100
AcDbEntity
  8
0
  6
CONTINUOUS
 62
     0
100
AcDbCircle
 10
0.0
 20
0.0
 30
0.0
 40
0.5
  0
ENDBLK
  5
86
330
84
100
AcDbEntity
  8
0
100
AcDbBlockEnd
  0
BLOCK
  5
8A
330
89
100
AcDbEntity
  8
0
100
AcDbBlockBegin
  2
FXTIP_UPARROW_S
 70
     0
 71
     0
 10
0.0
 20
0.0
 30
0.0
  3
FXTIP_UPARROW_S
  1

  0
LINE
  5
8C
330
89
100
AcDbEntity
  8
0
  6
CONTINUOUS
 62
     0
100
AcDbLine
 10
0.0
 20
0.0
 30
0.0
 11
-1.0
 21
0.0
 31
0.0
  0
LINE
  5
8D
330
89
100
AcDbEntity
  8
0
  6
CONTINUOUS
 62
     0
100
AcDbLine
 10
0.0
 20
0.0
 30
0.0
 11
-0.965926
 21
-0.258819
 31
0.0
  0
ENDBLK
  5
8B
330
89
100
AcDbEntity
  8
0
100
AcDbBlockEnd
  0
BLOCK
  5
8F
330
8E
100
AcDbEntity
  8
0
100
AcDbBlockBegin
  2
FXTIP_UPARROW_E
 70
     0
 71
     0
 10
0.0
 20
0.0
 30
0.0
  3
FXTIP_UPARROW_E
  1

  0
LINE
  5
91
330
8E
100
AcDbEntity
  8
0
  6
CONTINUOUS
 62
     0
100
AcDbLine
 10
0.0
 20
0.0
 30
0.0
 11
-1.0
 21
0.0
 31
0.0
  0
LINE
  5
92
330
8E
100
AcDbEntity
  8
0
  6
CONTINUOUS
 62
     0
100
AcDbLine
 10
0.0
 20
0.0
 30
0.0
 11
-0.965926
 21
0.258819
 31
0.0
  0
ENDBLK
  5
90
330
8E
100
AcDbEntity
  8
0
100
AcDbBlockEnd
  0
BLOCK
  5
94
330
93
100
AcDbEntity
  8
0
100
AcDbBlockBegin
  2
FXTIP_DOWNARROW_S
 70
     0
 71
     0
 10
0.0
 20
0.0
 30
0.0
  3
FXTIP_DOWNARROW_S
  1

  0
LINE
  5
96
330
93
100
AcDbEntity
  8
0
  6
CONTINUOUS
 62
     0
100
AcDbLine
 10
0.0
 20
0.0
 30
0.0
 11
-1.0
 21
0.0
 31
0.0
  0
LINE
  5
97
330
93
100
AcDbEntity
  8
0
  6
CONTINUOUS
 62
     0
100
AcDbLine
 10
0.0
 20
0.0
 30
0.0
 11
-0.965926
 21
0.258819
 31
0.0
  0
ENDBLK
  5
95
330
93
100
AcDbEntity
  8
0
100
AcDbBlockEnd
  0
BLOCK
  5
99
330
98
100
AcDbEntity
  8
0
100
AcDbBlockBegin
  2
FXTIP_DOWNARROW_E
 70
     0
 71
     0
 10
0.0
 20
0.0
 30
0.0
  3
FXTIP_DOWNARROW_E
  1

  0
LINE
  5
9B
330
98
100
AcDbEntity
  8
0
  6
CONTINUOUS
 62
     0
100
AcDbLine
 10
0.0
 20
0.0
 30
0.0
 11
-1.0
 21
0.0
 31
0.0
  0
LINE
  5
9C
330
98
100
AcDbEntity
  8
0
  6
CONTINUOUS
 62
     0
100
AcDbLine
 10
0.0
 20
0.0
 30
0.0
 11
-0.965926
 21
-0.258819
 31
0.0
  0
ENDBLK
  5
9A
330
98
100
AcDbEntity
  8
0
100
AcDbBlockEnd
  0
BLOCK
  5
9E
330
9D
100
AcDbEntity
  8
0
100
AcDbBlockBegin
  2
FXTIP_BLACKTRIANGLE_S
 70
     0
 71
     0
 10
0.0
 20
0.0
 30
0.0
  3
FXTIP_BLACKTRIANGLE_S
  1

  0
LINE
  5
A0
330
9D
100
AcDbEntity
  8
0
  6
CONTINUOUS
 62
     0
100
AcDbLine
 10
0.0
 20
0.0
 30
0.0
 11
-1.0
 21
0.0
 31
0.0
  0
SOLID
  5
A1
330
9D
100
AcDbEntity
  8
0
  6
CONTINUOUS
 62
     0
100
AcDbTrace
 10
0.0
 20
0.0
 30
0.0
 11
-0.965926
 21
-0.258819
 31
0.0
 12
-0.965926
 22
0.258819
 32
0.0
 13
-0.965926
 23
0.258819
 33
0.0
  0
ENDBLK
  5
9F
330
9D
100
AcDbEntity
  8
0
100
AcDbBlockEnd
  0
BLOCK
  5
A3
330
A2
100
AcDbEntity
  8
0
100
AcDbBlockBegin
  2
FXTIP_BLACKTRIANGLE_E
 70
     0
 71
     0
 10
0.0
 20
0.0
 30
0.0
  3
FXTIP_BLACKTRIANGLE_E
  1

  0
LINE
  5
A5
330
A2
100
AcDbEntity
  8
0
  6
CONTINUOUS
 62
     0
100
AcDbLine
 10
0.0
 20
0.0
 30
0.0
 11
-1.0
 21
0.0
 31
0.0
  0
SOLID
  5
A6
330
A2
100
AcDbEntity
  8
0
  6
CONTINUOUS
 62
     0
100
AcDbTrace
 10
0.0
 20
0.0
 30
0.0
 11
-0.965926
 21
0.258819
 31
0.0
 12
-0.965926
 22
-0.258819
 32
0.0
 13
-0.965926
 23
-0.258819
 33
0.0
  0
ENDBLK
  5
A4
330
A2
100
AcDbEntity
  8
0
100
AcDbBlockEnd
  0
BLOCK
  5
F4
330
F3
100
AcDbEntity
  8
0
100
AcDbBlockBegin
  2
BLKF021
 70
     0
 71
     0
 10
0.0
 20
0.0
 30
0.0
  3
BLKF021
  1

  0
LINE
  5
F7
330
F3
100
AcDbEntity
  8
GR1-1
  6
CONTINUOUS
 62
     7
100
AcDbLine
 10
205.99907
 20
128.781322
 30
0.0
 11
206.079643
 21
129.238273
 31
0.0
  0
LINE
  5
F8
330
F3
100
AcDbEntity
  8
GR1-1
  6
CONTINUOUS
 62
     7
100
AcDbLine
 10
205.730308
 20
128.593133
 30
0.0
 11
205.891454
 21
129.507034
 31
0.0
  0
LINE
  5
F9
330
F3
100
AcDbEntity
  8
GR1-1
  6
CONTINUOUS
 62
     7
100
AcDbLine
 10
205.461546
 20
128.404944
 30
0.0
 11
205.703265
 21
129.775796
 31
0.0
  0
LINE
  5
FA
330
F3
100
AcDbEntity
  8
GR1-1
  6
CONTINUOUS
 62
     7
100
AcDbLine
 10
205.192785
 20
128.216755
 30
0.0
 11
205.515076
 21
130.044558
 31
0.0
  0
LINE
  5
FB
330
F3
100
AcDbEntity
  8
GR1-1
  6
CONTINUOUS
 62
     7
100
AcDbLine
 10
204.924023
 20
128.028566
 30
0.0
 11
205.201962
 21
129.604839
 31
0.0
  0
LINE
  5
FC
330
F3
100
AcDbEntity
  8
GR1-1
  6
CONTINUOUS
 62
     7
100
AcDbLine
 10
205.278011
 20
130.036133
 30
0.0
 11
205.326887
 21
130.31332
 31
0.0
  0
LINE
  5
FD
330
F3
100
AcDbEntity
  8
GR1-1
  6
CONTINUOUS
 62
     7
100
AcDbLine
 10
204.655261
 20
127.840377
 30
0.0
 11
204.933201
 21
129.41665
 31
0.0
  0
LINE
  5
FE
330
F3
100
AcDbEntity
  8
GR1-1
  6
CONTINUOUS
 62
     7
100
AcDbLine
 10
205.089822
 20
130.304894
 30
0.0
 11
205.138698
 21
130.582082
 31
0.0
  0
LINE
  5
FF
330
F3
100
AcDbEntity
  8
GR1-1
  6
CONTINUOUS
 62
     7
100
AcDbLine
 10
204.386499
 20
127.652188
 30
0.0
 11
204.664439
 21
129.228461
 31
0.0
  0
LINE
  5
100
330
F3
100
AcDbEntity
  8
GR1-1
  6
CONTINUOUS
 62
     7
100
AcDbLine
 10
204.901633
 20
130.573656
 30
0.0
 11
204.950509
 21
130.850843
 31
0.0
  0
LINE
  5
101
330
F3
100
AcDbEntity
  8
GR1-1
  6
CONTINUOUS
 62
     7
100
AcDbLine
 10
204.117737
 20
127.463999
 30
0.0
 11
204.428576
 21
129.226853
 31
0.0
  0
LINE
  5
102
330
F3
100
AcDbEntity
  8
GR1-1
  6
CONTINUOUS
 62
     7
100
AcDbLine
 10
204.713444
 20
130.842418
 30
0.0
 11
204.76232
 21
131.119605
 31
0.0
  0
LINE
  5
103
330
F3
100
AcDbEntity
  8
GR1-1
  6
CONTINUOUS
 62
     7
100
AcDbLine
 10
203.848976
 20
127.27581
 30
0.0
 11
204.240387
 21
129.495615
 31
0.0
  0
LINE
  5
104
330
F3
100
AcDbEntity
  8
GR1-1
  6
CONTINUOUS
 62
     7
100
AcDbLine
 10
204.525255
 20
131.11118
 30
0.0
 11
204.57413
 21
131.388367
 31
0.0
  0
LINE
  5
105
330
F3
100
AcDbEntity
  8
GR1-1
  6
CONTINUOUS
 62
     7
100
AcDbLine
 10
203.580214
 20
127.087621
 30
0.0
 11
204.052198
 21
129.764376
 31
0.0
  0
LINE
  5
106
330
F3
100
AcDbEntity
  8
GR1-1
  6
CONTINUOUS
 62
     7
100
AcDbLine
 10
204.337066
 20
131.379941
 30
0.0
 11
204.385941
 21
131.657129
 31
0.0
  0
LINE
  5
107
330
F3
100
AcDbEntity
  8
GR1-1
  6
CONTINUOUS
 62
     7
100
AcDbLine
 10
203.311452
 20
126.899432
 30
0.0
 11
203.840469
 21
129.899632
 31
0.0
  0
LINE
  5
108
330
F3
100
AcDbEntity
  8
GR1-1
  6
CONTINUOUS
 62
     7
100
AcDbLine
 10
204.148877
 20
131.648703
 30
0.0
 11
204.197752
 21
131.92589
 31
0.0
  0
LINE
  5
109
330
F3
100
AcDbEntity
  8
GR1-1
  6
CONTINUOUS
 62
     7
100
AcDbLine
 10
203.04269
 20
126.711243
 30
0.0
 11
203.123263
 21
127.168193
 31
0.0
  0
LINE
  5
10A
330
F3
100
AcDbEntity
  8
GR1-1
  6
CONTINUOUS
 62
     7
100
AcDbLine
 10
203.897293
 20
131.557938
 30
0.0
 11
204.009563
 21
132.194652
 31
0.0
  0
LINE
  5
10B
330
F3
100
AcDbEntity
  8
GR1-1
  6
CONTINUOUS
 62
     7
100
AcDbLine
 10
202.773929
 20
126.523054
 30
0.0
 11
202.894788
 21
127.20848
 31
0.0
  0
LINE
  5
10C
330
F3
100
AcDbEntity
  8
GR1-1
  6
CONTINUOUS
 62
     7
100
AcDbLine
 10
203.628532
 20
131.369749
 30
0.0
 11
203.821374
 21
132.463414
 31
0.0
  0
LINE
  5
10D
330
F3
100
AcDbEntity
  8
GR1-1
  6
CONTINUOUS
 62
     7
100
AcDbLine
 10
202.505167
 20
126.334865
 30
0.0
 11
202.666312
 21
127.248766
 31
0.0
  0
LINE
  5
10E
330
F3
100
AcDbEntity
  8
GR1-1
  6
CONTINUOUS
 62
     7
100
AcDbLine
 10
203.35977
 20
131.18156
 30
0.0
 11
203.44523
 21
131.666229
 31
0.0
  0
LINE
  5
10F
330
F3
100
AcDbEntity
  8
GR1-1
  6
CONTINUOUS
 62
     7
100
AcDbLine
 10
203.47204
 20
131.818274
 30
0.0
 11
203.633185
 21
132.732176
 31
0.0
  0
LINE
  5
110
330
F3
100
AcDbEntity
  8
GR1-1
  6
CONTINUOUS
 62
     7
100
AcDbLine
 10
202.236405
 20
126.146676
 30
0.0
 11
202.437837
 21
127.289053
 31
0.0
  0
LINE
  5
111
330
F3
100
AcDbEntity
  8
GR1-1
  6
CONTINUOUS
 62
     7
100
AcDbLine
 10
203.091008
 20
130.993371
 30
0.0
 11
203.176468
 21
131.47804
 31
0.0
  0
LINE
  5
112
330
F3
100
AcDbEntity
  8
GR1-1
  6
CONTINUOUS
 62
     7
100
AcDbLine
 10
203.243564
 20
131.858561
 30
0.0
 11
203.444996
 21
133.000938
 31
0.0
  0
LINE
  5
113
330
F3
100
AcDbEntity
  8
GR1-1
  6
CONTINUOUS
 62
     7
100
AcDbLine
 10
201.967643
 20
125.958487
 30
0.0
 11
202.209362
 21
127.329339
 31
0.0
  0
LINE
  5
114
330
F3
100
AcDbEntity
  8
GR1-1
  6
CONTINUOUS
 62
     7
100
AcDbLine
 10
202.822246
 20
130.805182
 30
0.0
 11
202.907707
 21
131.289851
 31
0.0
  0
LINE
  5
115
330
F3
100
AcDbEntity
  8
GR1-1
  6
CONTINUOUS
 62
     7
100
AcDbLine
 10
203.015089
 20
131.898847
 30
0.0
 11
203.256807
 21
133.269699
 31
0.0
  0
LINE
  5
116
330
F3
100
AcDbEntity
  8
GR1-1
  6
CONTINUOUS
 62
     7
100
AcDbLine
 10
201.698881
 20
125.770297
 30
0.0
 11
201.980886
 21
127.369625
 31
0.0
  0
LINE
  5
117
330
F3
100
AcDbEntity
  8
GR1-1
  6
CONTINUOUS
 62
     7
100
AcDbLine
 10
202.182318
 20
128.512002
 30
0.0
 11
202.410618
 21
129.806756
 31
0.0
  0
LINE
  5
118
330
F3
100
AcDbEntity
  8
GR1-1
  6
CONTINUOUS
 62
     7
100
AcDbLine
 10
202.553485
 20
130.616993
 30
0.0
 11
202.638945
 21
131.101662
 31
0.0
  0
LINE
  5
119
330
F3
100
AcDbEntity
  8
GR1-1
  6
CONTINUOUS
 62
     7
100
AcDbLine
 10
202.786614
 20
131.939133
 30
0.0
 11
203.068618
 21
133.538461
 31
0.0
  0
LINE
  5
11A
330
F3
100
AcDbEntity
  8
GR1-1
  6
CONTINUOUS
 62
     7
100
AcDbLine
 10
201.43012
 20
125.582108
 30
0.0
 11
201.752411
 21
127.409912
 31
0.0
  0
LINE
  5
11B
330
F3
100
AcDbEntity
  8
GR1-1
  6
CONTINUOUS
 62
     7
100
AcDbLine
 10
201.953843
 20
128.552289
 30
0.0
 11
202.142289
 21
129.621021
 31
0.0
  0
LINE
  5
11C
330
F3
100
AcDbEntity
  8
GR1-1
  6
CONTINUOUS
 62
     7
100
AcDbLine
 10
202.284723
 20
130.428804
 30
0.0
 11
202.370183
 21
130.913473
 31
0.0
  0
LINE
  5
11D
330
F3
100
AcDbEntity
  8
GR1-1
  6
CONTINUOUS
 62
     7
100
AcDbLine
 10
202.558138
 20
131.97942
 30
0.0
 11
202.880429
 21
133.807223
 31
0.0
  0
LINE
  5
11E
330
F3
100
AcDbEntity
  8
GR1-1
  6
CONTINUOUS
 62
     7
100
AcDbLine
 10
201.161358
 20
125.393919
 30
0.0
 11
201.523935
 21
127.450198
 31
0.0
  0
LINE
  5
11F
330
F3
100
AcDbEntity
  8
GR1-1
  6
CONTINUOUS
 62
     7
100
AcDbLine
 10
201.725367
 20
128.592575
 30
0.0
 11
201.873527
 21
129.432832
 31
0.0
  0
LINE
  5
120
330
F3
100
AcDbEntity
  8
GR1-1
  6
CONTINUOUS
 62
     7
100
AcDbLine
 10
202.015961
 20
130.240615
 30
0.0
 11
202.128231
 21
130.877329
 31
0.0
  0
LINE
  5
121
330
F3
100
AcDbEntity
  8
GR1-1
  6
CONTINUOUS
 62
     7
100
AcDbLine
 10
202.329663
 20
132.019706
 30
0.0
 11
202.69224
 21
134.075985
 31
0.0
  0
LINE
  5
122
330
F3
100
AcDbEntity
  8
GR1-1
  6
CONTINUOUS
 62
     7
100
AcDbLine
 10
200.892596
 20
125.20573
 30
0.0
 11
201.29546
 21
127.490484
 31
0.0
  0
LINE
  5
123
330
F3
100
AcDbEntity
  8
GR1-1
  6
CONTINUOUS
 62
     7
100
AcDbLine
 10
201.496892
 20
128.632861
 30
0.0
 11
201.649448
 21
129.498051
 31
0.0
  0
LINE
  5
124
330
F3
100
AcDbEntity
  8
GR1-1
  6
CONTINUOUS
 62
     7
100
AcDbLine
 10
201.747199
 20
130.052426
 30
0.0
 11
201.899756
 21
130.917615
 31
0.0
  0
LINE
  5
125
330
F3
100
AcDbEntity
  8
GR1-1
  6
CONTINUOUS
 62
     7
100
AcDbLine
 10
202.101187
 20
132.059992
 30
0.0
 11
202.504051
 21
134.344746
 31
0.0
  0
LINE
  5
126
330
F3
100
AcDbEntity
  8
GR1-1
  6
CONTINUOUS
 62
     7
100
AcDbLine
 10
200.623834
 20
125.017541
 30
0.0
 11
201.066985
 21
127.530771
 31
0.0
  0
LINE
  5
127
330
F3
100
AcDbEntity
  8
GR1-1
  6
CONTINUOUS
 62
     7
100
AcDbLine
 10
201.268416
 20
128.673148
 30
0.0
 11
201.461259
 21
129.766813
 31
0.0
  0
LINE
  5
128
330
F3
100
AcDbEntity
  8
GR1-1
  6
CONTINUOUS
 62
     7
100
AcDbLine
 10
201.478438
 20
129.864237
 30
0.0
 11
201.67128
 21
130.957902
 31
0.0
  0
LINE
  5
129
330
F3
100
AcDbEntity
  8
GR1-1
  6
CONTINUOUS
 62
     7
100
AcDbLine
 10
201.872712
 20
132.100279
 30
0.0
 11
202.315862
 21
134.613508
 31
0.0
  0
LINE
  5
12A
330
F3
100
AcDbEntity
  8
GR1-1
  6
CONTINUOUS
 62
     7
100
AcDbLine
 10
200.418467
 20
125.18888
 30
0.0
 11
200.838509
 21
127.571057
 31
0.0
  0
LINE
  5
12B
330
F3
100
AcDbEntity
  8
GR1-1
  6
CONTINUOUS
 62
     7
100
AcDbLine
 10
201.039941
 20
128.713434
 30
0.0
 11
201.442805
 21
130.998188
 31
0.0
  0
LINE
  5
12C
330
F3
100
AcDbEntity
  8
GR1-1
  6
CONTINUOUS
 62
     7
100
AcDbLine
 10
201.644237
 20
132.140565
 30
0.0
 11
202.064279
 21
134.522743
 31
0.0
  0
LINE
  5
12D
330
F3
100
AcDbEntity
  8
GR1-1
  6
CONTINUOUS
 62
     7
100
AcDbLine
 10
200.230278
 20
125.457641
 30
0.0
 11
200.610034
 21
127.611344
 31
0.0
  0
LINE
  5
12E
330
F3
100
AcDbEntity
  8
GR1-1
  6
CONTINUOUS
 62
     7
100
AcDbLine
 10
200.811466
 20
128.753721
 30
0.0
 11
201.214329
 21
131.038475
 31
0.0
  0
LINE
  5
12F
330
F3
100
AcDbEntity
  8
GR1-1
  6
CONTINUOUS
 62
     7
100
AcDbLine
 10
201.415761
 20
132.180852
 30
0.0
 11
201.795517
 21
134.334554
 31
0.0
  0
LINE
  5
130
330
F3
100
AcDbEntity
  8
GR1-1
  6
CONTINUOUS
 62
     7
100
AcDbLine
 10
200.042089
 20
125.726403
 30
0.0
 11
200.381558
 21
127.65163
 31
0.0
  0
LINE
  5
131
330
F3
100
AcDbEntity
  8
GR1-1
  6
CONTINUOUS
 62
     7
100
AcDbLine
 10
200.58299
 20
128.794007
 30
0.0
 11
200.985854
 21
131.078761
 31
0.0
  0
LINE
  5
132
330
F3
100
AcDbEntity
  8
GR1-1
  6
CONTINUOUS
 62
     7
100
AcDbLine
 10
201.187286
 20
132.221138
 30
0.0
 11
201.526755
 21
134.146365
 31
0.0
  0
LINE
  5
133
330
F3
100
AcDbEntity
  8
GR1-1
  6
CONTINUOUS
 62
     7
100
AcDbLine
 10
199.8539
 20
125.995165
 30
0.0
 11
200.153083
 21
127.691916
 31
0.0
  0
LINE
  5
134
330
F3
100
AcDbEntity
  8
GR1-1
  6
CONTINUOUS
 62
     7
100
AcDbLine
 10
200.354515
 20
128.834293
 30
0.0
 11
200.757379
 21
131.119047
 31
0.0
  0
LINE
  5
135
330
F3
100
AcDbEntity
  8
GR1-1
  6
CONTINUOUS
 62
     7
100
AcDbLine
 10
200.95881
 20
132.261424
 30
0.0
 11
201.257994
 21
133.958176
 31
0.0
  0
LINE
  5
136
330
F3
100
AcDbEntity
  8
GR1-1
  6
CONTINUOUS
 62
     7
100
AcDbLine
 10
199.665711
 20
126.263927
 30
0.0
 11
199.924608
 21
127.732203
 31
0.0
  0
LINE
  5
137
330
F3
100
AcDbEntity
  8
GR1-1
  6
CONTINUOUS
 62
     7
100
AcDbLine
 10
200.126039
 20
128.87458
 30
0.0
 11
200.528903
 21
131.159334
 31
0.0
  0
LINE
  5
138
330
F3
100
AcDbEntity
  8
GR1-1
  6
CONTINUOUS
 62
     7
100
AcDbLine
 10
200.730335
 20
132.301711
 30
0.0
 11
200.989232
 21
133.769987
 31
0.0
  0
LINE
  5
139
330
F3
100
AcDbEntity
  8
GR1-1
  6
CONTINUOUS
 62
     7
100
AcDbLine
 10
199.477522
 20
126.532689
 30
0.0
 11
199.696132
 21
127.772489
 31
0.0
  0
LINE
  5
13A
330
F3
100
AcDbEntity
  8
GR1-1
  6
CONTINUOUS
 62
     7
100
AcDbLine
 10
200.50186
 20
132.341997
 30
0.0
 11
200.72047
 21
133.581798
 31
0.0
  0
LINE
  5
13B
330
F3
100
AcDbEntity
  8
GR1-1
  6
CONTINUOUS
 62
     7
100
AcDbLine
 10
199.289333
 20
126.80145
 30
0.0
 11
199.467657
 21
127.812775
 31
0.0
  0
LINE
  5
13C
330
F3
100
AcDbEntity
  8
GR1-1
  6
CONTINUOUS
 62
     7
100
AcDbLine
 10
200.273384
 20
132.382283
 30
0.0
 11
200.451708
 21
133.393608
 31
0.0
  0
LINE
  5
13D
330
F3
100
AcDbEntity
  8
GR1-1
  6
CONTINUOUS
 62
     7
100
AcDbLine
 10
199.101144
 20
127.070212
 30
0.0
 11
199.239181
 21
127.853062
 31
0.0
  0
LINE
  5
13E
330
F3
100
AcDbEntity
  8
GR1-1
  6
CONTINUOUS
 62
     7
100
AcDbLine
 10
200.044909
 20
132.42257
 30
0.0
 11
200.182946
 21
133.205419
 31
0.0
  0
LINE
  5
13F
330
F3
100
AcDbEntity
  8
GR1-1
  6
CONTINUOUS
 62
     7
100
AcDbLine
 10
198.912955
 20
127.338974
 30
0.0
 11
199.010706
 21
127.893348
 31
0.0
  0
LINE
  5
140
330
F3
100
AcDbEntity
  8
GR1-1
  6
CONTINUOUS
 62
     7
100
AcDbLine
 10
199.816433
 20
132.462856
 30
0.0
 11
199.914185
 21
133.01723
 31
0.0
  0
LINE
  5
141
330
F3
100
AcDbEntity
  8
GR1-1
  6
CONTINUOUS
 62
     7
100
AcDbLine
 10
198.724766
 20
127.607736
 30
0.0
 11
198.782231
 21
127.933635
 31
0.0
  0
LINE
  5
142
330
F3
100
AcDbEntity
  8
GR1-1
  6
CONTINUOUS
 62
     7
100
AcDbLine
 10
199.587958
 20
132.503143
 30
0.0
 11
199.645423
 21
132.829041
 31
0.0
  0
LINE
  5
143
330
F3
100
AcDbEntity
  8
GR1-1
  6
CONTINUOUS
 62
     7
100
AcDbLine
 10
198.536577
 20
127.876497
 30
0.0
 11
199.376661
 21
132.640852
 31
0.0
  0
LINE
  5
144
330
F3
100
AcDbEntity
  8
GR1-1
  6
CONTINUOUS
 62
     7
100
AcDbLine
 10
198.348388
 20
128.145259
 30
0.0
 11
199.107899
 21
132.452663
 31
0.0
  0
LINE
  5
145
330
F3
100
AcDbEntity
  8
GR1-1
  6
CONTINUOUS
 62
     7
100
AcDbLine
 10
198.160199
 20
128.414021
 30
0.0
 11
198.839138
 21
132.264474
 31
0.0
  0
LINE
  5
146
330
F3
100
AcDbEntity
  8
GR1-1
  6
CONTINUOUS
 62
     7
100
AcDbLine
 10
197.97201
 20
128.682783
 30
0.0
 11
198.570376
 21
132.076285
 31
0.0
  0
LINE
  5
147
330
F3
100
AcDbEntity
  8
GR1-1
  6
CONTINUOUS
 62
     7
100
AcDbLine
 10
197.783821
 20
128.951545
 30
0.0
 11
198.301614
 21
131.888096
 31
0.0
  0
LINE
  5
148
330
F3
100
AcDbEntity
  8
GR1-1
  6
CONTINUOUS
 62
     7
100
AcDbLine
 10
197.595632
 20
129.220306
 30
0.0
 11
198.032852
 21
131.699907
 31
0.0
  0
LINE
  5
149
330
F3
100
AcDbEntity
  8
GR1-1
  6
CONTINUOUS
 62
     7
100
AcDbLine
 10
197.407443
 20
129.489068
 30
0.0
 11
197.76409
 21
131.511718
 31
0.0
  0
LINE
  5
14A
330
F3
100
AcDbEntity
  8
GR1-1
  6
CONTINUOUS
 62
     7
100
AcDbLine
 10
197.219254
 20
129.75783
 30
0.0
 11
197.495329
 21
131.323529
 31
0.0
  0
LINE
  5
14B
330
F3
100
AcDbEntity
  8
GR1-1
  6
CONTINUOUS
 62
     7
100
AcDbLine
 10
197.031065
 20
130.026592
 30
0.0
 11
197.226567
 21
131.13534
 31
0.0
  0
LINE
  5
14C
330
F3
100
AcDbEntity
  8
GR1-1
  6
CONTINUOUS
 62
     7
100
AcDbLine
 10
196.842876
 20
130.295353
 30
0.0
 11
196.957805
 21
130.947151
 31
0.0
  0
LINE
  5
14D
330
F3
100
AcDbEntity
  8
GR1-1
  6
CONTINUOUS
 62
     7
100
AcDbLine
 10
196.654687
 20
130.564115
 30
0.0
 11
196.689043
 21
130.758962
 31
0.0
  0
ENDBLK
  5
F5
330
F3
100
AcDbEntity
  8
0
100
AcDbBlockEnd
  0
BLOCK
  5
18B
330
18A
100
AcDbEntity
  8
0
100
AcDbBlockBegin
  2
*D20
 70
     1
 71
     0
 10
0.0
 20
0.0
 30
0.0
  3
*D20
  1

  0
TEXT
  5
18D
330
18A
100
AcDbEntity
  8
GR1-1
  6
CONTINUOUS
 62
     7
100
AcDbText
 10
113.577789
 20
105.130768
 30
0.0
 40
4.0
  1
φ8.2
 50
90.0
 41
0.969231
  7
FX_VECTOR
 72
     5
 11
113.577789
 21
117.130768
 31
0.0
100
AcDbText
  0
LINE
  5
18E
330
18A
100
AcDbEntity
  8
GR1-1
  6
CONTINUOUS
 62
     7
100
AcDbLine
 10
105.577788
 20
107.030769
 30
0.0
 11
105.577788
 21
115.230769
 31
0.0
  0
LINE
  5
18F
330
18A
100
AcDbEntity
  8
GR1-1
  6
CONTINUOUS
 62
     7
100
AcDbLine
 10
99.13469
 20
107.030769
 30
0.0
 11
106.577788
 21
107.030769
 31
0.0
  0
LINE
  5
190
330
18A
100
AcDbEntity
  8
GR1-1
  6
CONTINUOUS
 62
     7
100
AcDbLine
 10
99.13469
 20
115.230769
 30
0.0
 11
106.577788
 21
115.230769
 31
0.0
  0
LINE
  5
191
330
18A
100
AcDbEntity
  8
GR1-1
  6
CONTINUOUS
 62
     7
100
AcDbLine
 10
105.577788
 20
101.030769
 30
0.0
 11
105.577788
 21
107.030769
 31
0.0
  0
INSERT
  5
192
330
18A
100
AcDbEntity
  8
GR1-1
  6
CONTINUOUS
 62
     7
100
AcDbBlockReference
  2
FXTIP_ARROW_E
 10
105.577788
 20
107.030769
 30
0.0
 41
3.0
 42
3.0
 50
90.0
  0
LINE
  5
193
330
18A
100
AcDbEntity
  8
GR1-1
  6
CONTINUOUS
 62
     7
100
AcDbLine
 10
105.577788
 20
115.230769
 30
0.0
 11
105.577788
 21
121.230769
 31
0.0
  0
INSERT
  5
194
330
18A
100
AcDbEntity
  8
GR1-1
  6
CONTINUOUS
 62
     7
100
AcDbBlockReference
  2
FXTIP_ARROW_S
 10
105.577788
 20
115.230769
 30
0.0
 41
3.0
 42
3.0
 50
270.0
  0
ENDBLK
  5
18C
330
18A
100
AcDbEntity
  8
0
100
AcDbBlockEnd
  0
BLOCK
  5
197
330
196
100
AcDbEntity
  8
0
100
AcDbBlockBegin
  2
*D21
 70
     1
 71
     0
 10
0.0
 20
0.0
 30
0.0
  3
*D21
  1

  0
TEXT
  5
199
330
196
100
AcDbEntity
  8
GR1-1
  6
CONTINUOUS
 62
     7
100
AcDbText
 10
128.366348
 20
106.630768
 30
0.0
 40
4.0
  1
φ75
 50
90.0
 41
0.859091
  7
FX_VECTOR
 72
     5
 11
128.366348
 21
115.630768
 31
0.0
100
AcDbText
  0
LINE
  5
19A
330
196
100
AcDbEntity
  8
GR1-1
  6
CONTINUOUS
 62
     7
100
AcDbLine
 10
129.366346
 20
73.630769
 30
0.0
 11
129.366346
 21
148.630769
 31
0.0
  0
INSERT
  5
19B
330
196
100
AcDbEntity
  8
GR1-1
  6
CONTINUOUS
 62
     7
100
AcDbBlockReference
  2
FXTIP_ARROW_S
 10
129.366346
 20
73.630769
 30
0.0
 41
3.0
 42
3.0
 50
270.0
  0
INSERT
  5
19C
330
196
100
AcDbEntity
  8
GR1-1
  6
CONTINUOUS
 62
     7
100
AcDbBlockReference
  2
FXTIP_ARROW_E
 10
129.366346
 20
148.630769
 30
0.0
 41
3.0
 42
3.0
 50
90.0
  0
LINE
  5
19D
330
196
100
AcDbEntity
  8
GR1-1
  6
CONTINUOUS
 62
     7
100
AcDbLine
 10
85.13469
 20
73.630769
 30
0.0
 11
130.366346
 21
73.630769
 31
0.0
  0
LINE
  5
19E
330
196
100
AcDbEntity
  8
GR1-1
  6
CONTINUOUS
 62
     7
100
AcDbLine
 10
85.13469
 20
148.630769
 30
0.0
 11
130.366346
 21
148.630769
 31
0.0
  0
ENDBLK
  5
198
330
196
100
AcDbEntity
  8
0
100
AcDbBlockEnd
  0
BLOCK
  5
1A1
330
1A0
100
AcDbEntity
  8
0
100
AcDbBlockBegin
  2
*D22
 70
     1
 71
     0
 10
0.0
 20
0.0
 30
0.0
  3
*D22
  1

  0
TEXT
  5
1A3
330
1A0
100
AcDbEntity
  8
GR1-1
  6
CONTINUOUS
 62
     7
100
AcDbText
 10
81.134689
 20
62.612541
 30
0.0
 40
4.0
  1
25
 41
0.851351
  7
FX_VECTOR
 72
     5
 11
87.134689
 21
62.612541
 31
0.0
100
AcDbText
  0
LINE
  5
1A4
330
1A0
100
AcDbEntity
  8
GR1-1
  6
CONTINUOUS
 62
     7
100
AcDbLine
 10
71.63469
 20
61.612542
 30
0.0
 11
96.63469
 21
61.612542
 31
0.0
  0
INSERT
  5
1A5
330
1A0
100
AcDbEntity
  8
GR1-1
  6
CONTINUOUS
 62
     7
100
AcDbBlockReference
  2
FXTIP_ARROW_S
 10
71.63469
 20
61.612542
 30
0.0
 41
3.0
 42
3.0
 50
180.0
  0
INSERT
  5
1A6
330
1A0
100
AcDbEntity
  8
GR1-1
  6
CONTINUOUS
 62
     7
100
AcDbBlockReference
  2
FXTIP_ARROW_E
 10
96.63469
 20
61.612542
 30
0.0
 41
3.0
 42
3.0
 50
360.0
  0
LINE
  5
1A7
330
1A0
100
AcDbEntity
  8
GR1-1
  6
CONTINUOUS
 62
     7
100
AcDbLine
 10
71.63469
 20
76.291545
 30
0.0
 11
71.63469
 21
60.612542
 31
0.0
  0
LINE
  5
1A8
330
1A0
100
AcDbEntity
  8
GR1-1
  6
CONTINUOUS
 62
     7
100
AcDbLine
 10
96.63469
 20
75.8357
 30
0.0
 11
96.63469
 21
60.612542
 31
0.0
  0
ENDBLK
  5
1A2
330
1A0
100
AcDbEntity
  8
0
100
AcDbBlockEnd
  0
BLOCK
  5
1AB
330
1AA
100
AcDbEntity
  8
0
100
AcDbBlockBegin
  2
*D23
 70
     1
 71
     0
 10
0.0
 20
0.0
 30
0.0
  3
*D23
  1

  0
TEXT
  5
1AD
330
1AA
100
AcDbEntity
  8
GR1-1
  6
CONTINUOUS
 62
     7
100
AcDbText
 10
81.134689
 20
54.322506
 30
0.0
 40
4.0
  1
30
 41
0.851351
  7
FX_VECTOR
 72
     5
 11
87.134689
 21
54.322506
 31
0.0
100
AcDbText
  0
LINE
  5
1AE
330
1AA
100
AcDbEntity
  8
GR1-1
  6
CONTINUOUS
 62
     7
100
AcDbLine
 10
69.13469
 20
53.322508
 30
0.0
 11
99.13469
 21
53.322508
 31
0.0
  0
INSERT
  5
1AF
330
1AA
100
AcDbEntity
  8
GR1-1
  6
CONTINUOUS
 62
     7
100
AcDbBlockReference
  2
FXTIP_ARROW_S
 10
69.13469
 20
53.322508
 30
0.0
 41
3.0
 42
3.0
 50
180.0
  0
INSERT
  5
1B0
330
1AA
100
AcDbEntity
  8
GR1-1
  6
CONTINUOUS
 62
     7
100
AcDbBlockReference
  2
FXTIP_ARROW_E
 10
99.13469
 20
53.322508
 30
0.0
 41
3.0
 42
3.0
 50
360.0
  0
LINE
  5
1B1
330
1AA
100
AcDbEntity
  8
GR1-1
  6
CONTINUOUS
 62
     7
100
AcDbLine
 10
69.13469
 20
103.630769
 30
0.0
 11
69.13469
 21
52.322508
 31
0.0
  0
LINE
  5
1B2
330
1AA
100
AcDbEntity
  8
GR1-1
  6
CONTINUOUS
 62
     7
100
AcDbLine
 10
99.13469
 20
103.630769
 30
0.0
 11
99.13469
 21
52.322508
 31
0.0
  0
ENDBLK
  5
1AC
330
1AA
100
AcDbEntity
  8
0
100
AcDbBlockEnd
  0
BLOCK
  5
1B4
330
1B3
100
AcDbEntity
  8
0
100
AcDbBlockBegin
  2
BLKF026
 70
     0
 71
     0
 10
0.0
 20
0.0
 30
0.0
  3
BLKF026
  1

  0
LINE
  5
1B7
330
1B3
100
AcDbEntity
  8
}}ﾊﾊGG血CCТ
  6
CONTINUOUS
 62
     7
100
AcDbLine
 10
10.0
 20
10.0
 30
0.0
 11
287.0
 21
10.0
 31
0.0
  0
LINE
  5
1B8
330
1B3
100
AcDbEntity
  8
}}ﾊﾊGG血CCТ
  6
CONTINUOUS
 62
     7
100
AcDbLine
 10
10.0
 20
10.0
 30
0.0
 11
10.0
 21
200.0
 31
0.0
  0
LINE
  5
1B9
330
1B3
100
AcDbEntity
  8
}}ﾊﾊGG血CCТ
  6
CONTINUOUS
 62
     7
100
AcDbLine
 10
10.0
 20
200.0
 30
0.0
 11
287.0
 21
200.0
 31
0.0
  0
LINE
  5
1BA
330
1B3
100
AcDbEntity
  8
}}ﾊﾊGG血CCТ
  6
CONTINUOUS
 62
     7
100
AcDbLine
 10
287.0
 20
200.0
 30
0.0
 11
287.0
 21
10.0
 31
0.0
  0
LINE
  5
1BB
330
1B3
100
AcDbEntity
  8
}}ﾊﾊGG血CCТ
  6
CONTINUOUS
 62
     7
100
AcDbLine
 10
30.0
 20
10.0
 30
0.0
 11
30.0
 21
20.0
 31
0.0
  0
TEXT
  5
1BC
330
1B3
100
AcDbEntity
  8
}}ﾊﾊGG血CCТ
  6
CONTINUOUS
 62
     7
100
AcDbText
 10
14.738815
 20
11.596879
 30
0.0
 40
6.648749
  1
品名
 41
1.083413
  7
FX_VECTOR
 72
     5
 11
26.058355
 21
11.596879
 31
0.0
100
AcDbText
  0
LINE
  5
1BD
330
1B3
100
AcDbEntity
  8
}}ﾊﾊGG血CCТ
  6
CONTINUOUS
 62
     7
100
AcDbLine
 10
110.0
 20
20.0
 30
0.0
 11
110.0
 21
10.0
 31
0.0
  0
LINE
  5
1BE
330
1B3
100
AcDbEntity
  8
}}ﾊﾊGG血CCТ
  6
CONTINUOUS
 62
     7
100
AcDbLine
 10
10.0
 20
20.0
 30
0.0
 11
287.0
 21
20.0
 31
0.0
  0
INSERT
  5
1C2
330
1B3
100
AcDbEntity
  8
0
100
AcDbBlockReference
  2
BLKF027
 10
0.0
 20
0.0
 30
0.0
  0
INSERT
  5
1CB
330
1B3
100
AcDbEntity
  8
0
100
AcDbBlockReference
  2
BLKF028
 10
0.0
 20
0.0
 30
0.0
  0
HATCH
  5
1DB
330
1B3
100
AcDbEntity
  8
GR1-1
  6
CONTINUOUS
 62
     7
100
AcDbHatch
 10
0.0
 20
0.0
 30
0.0
210
0.0
220
0.0
230
1.0
  2

 70
     0
 71
     1
 91
        2
 92
        0
 93
        4
 72
     1
 10
215.8018997861325
 20
17.91346152
 11
221.8018997861325
 21
17.91346152
 72
     1
 10
221.8018997861325
 20
17.91346152
 11
221.8018997861325
 21
11.91346152
 72
     1
 10
221.8018997861325
 20
11.91346152
 11
215.8018997861325
 21
11.91346152
 72
     1
 10
215.8018997861325
 20
11.91346152
 11
215.8018997861325
 21
17.91346152
 97
        0
 92
        0
 93
       15
 72
     1
 10
218.8018997861325
 20
17.76923076000002
 11
215.9461305461325
 21
14.91346152
 72
     1
 10
215.9461305461325
 20
14.91346152
 11
218.8018997861325
 21
12.05769228000001
 72
     1
 10
218.8018997861325
 20
12.05769228000001
 11
220.3595920661325
 21
13.61538462
 72
     1
 10
220.3595920661325
 20
13.61538462
 11
220.3595920661325
 21
12.98076924
 72
     1
 10
220.3595920661325
 20
12.98076924
 11
221.2249766861325
 21
12.98076924
 72
     1
 10
221.2249766861325
 20
12.98076924
 11
221.2249766861325
 21
15.00000000000001
 72
     1
 10
221.2249766861325
 20
15.00000000000001
 11
218.8018997861325
 21
15.00000000000001
 72
     1
 10
218.8018997861325
 20
15.00000000000001
 11
218.8018997861325
 21
14.13461538000001
 72
     1
 10
218.8018997861325
 20
14.13461538000001
 11
219.2461305461325
 21
14.13461538000001
 72
     1
 10
219.2461305461325
 20
14.13461538000001
 11
218.8018997861325
 21
13.69038462
 72
     1
 10
218.8018997861325
 20
13.69038462
 11
217.5788228861325
 21
14.91346152
 72
     1
 10
217.5788228861325
 20
14.91346152
 11
218.8018997861325
 21
16.13653842000003
 72
     1
 10
218.8018997861325
 20
16.13653842000003
 11
219.5922844061325
 21
15.3461538
 72
     1
 10
219.5922844061325
 20
15.3461538
 11
221.2249766861325
 21
15.3461538
 72
     1
 10
221.2249766861325
 20
15.3461538
 11
218.8018997861325
 21
17.76923076000002
 97
        0
 75
     0
 76
     0
 52
45.0
 41
0.05
 77
     0
 78
     1
 53
45.0
 43
0.0
 44
0.0
 45
-0.0353553390593274
 46
0.0353553390593274
 79
     0
 98
        0
  0
TEXT
  5
1DC
330
1B3
100
AcDbEntity
  8
}}ﾊﾊGG血CCТ
  6
CONTINUOUS
 62
     7
100
AcDbText
 10
226.225754
 20
11.461285
 30
0.0
 40
6.0
  1
GOLD CASTER
 41
0.719626
  7
FX_VECTOR
 72
     5
 11
270.225754
 21
11.461285
 31
0.0
100
AcDbText
  0
LINE
  5
1DD
330
1B3
100
AcDbEntity
  8
}}ﾊﾊGG血CCТ
  6
CONTINUOUS
 62
     7
100
AcDbLine
 10
130.0
 20
10.0
 30
0.0
 11
130.0
 21
20.0
 31
0.0
  0
TEXT
  5
1DE
330
1B3
100
AcDbEntity
  8
}}ﾊﾊGG血CCТ
  6
CONTINUOUS
 62
     7
100
AcDbText
 10
114.738815
 20
11.596879
 30
0.0
 40
6.648749
  1
図番
 41
1.083413
  7
FX_VECTOR
 72
     5
 11
126.058355
 21
11.596879
 31
0.0
100
AcDbText
  0
LINE
  5
1DF
330
1B3
100
AcDbEntity
  8
}}ﾊﾊGG血CCТ
  6
CONTINUOUS
 62
     7
100
AcDbLine
 10
210.0
 20
20.0
 30
0.0
 11
210.0
 21
10.0
 31
0.0
  0
ENDBLK
  5
1B5
330
1B3
100
AcDbEntity
  8
0
100
AcDbBlockEnd
  0
BLOCK
  5
1C0
330
1BF
100
AcDbEntity
  8
0
100
AcDbBlockBegin
  2
BLKF027
 70
     0
 71
     0
 10
0.0
 20
0.0
 30
0.0
  3
BLKF027
  1

  0
LINE
  5
1C4
330
1BF
100
AcDbEntity
  8
0-1
  6
CONTINUOUS
 62
     7
100
AcDbLine
 10
221.8019
 20
17.913462
 30
0.0
 11
215.8019
 21
17.913462
 31
0.0
  0
LINE
  5
1C5
330
1BF
100
AcDbEntity
  8
0-1
  6
CONTINUOUS
 62
     7
100
AcDbLine
 10
215.8019
 20
17.913462
 30
0.0
 11
215.8019
 21
11.913462
 31
0.0
  0
LINE
  5
1C6
330
1BF
100
AcDbEntity
  8
0-1
  6
CONTINUOUS
 62
     7
100
AcDbLine
 10
215.8019
 20
11.913462
 30
0.0
 11
221.8019
 21
11.913462
 31
0.0
  0
LINE
  5
1C7
330
1BF
100
AcDbEntity
  8
0-1
  6
CONTINUOUS
 62
     7
100
AcDbLine
 10
221.8019
 20
11.913462
 30
0.0
 11
221.8019
 21
17.913462
 31
0.0
  0
ENDBLK
  5
1C1
330
1BF
100
AcDbEntity
  8
0
100
AcDbBlockEnd
  0
BLOCK
  5
1C9
330
1C8
100
AcDbEntity
  8
0
100
AcDbBlockBegin
  2
BLKF028
 70
     0
 71
     0
 10
0.0
 20
0.0
 30
0.0
  3
BLKF028
  1

  0
LINE
  5
1CC
330
1C8
100
AcDbEntity
  8
0-1
  6
CONTINUOUS
 62
     7
100
AcDbLine
 10
221.224977
 20
15.346154
 30
0.0
 11
218.8019
 21
17.769231
 31
0.0
  0
LINE
  5
1CD
330
1C8
100
AcDbEntity
  8
0-1
  6
CONTINUOUS
 62
     7
100
AcDbLine
 10
218.8019
 20
17.769231
 30
0.0
 11
215.946131
 21
14.913462
 31
0.0
  0
LINE
  5
1CE
330
1C8
100
AcDbEntity
  8
0-1
  6
CONTINUOUS
 62
     7
100
AcDbLine
 10
215.946131
 20
14.913462
 30
0.0
 11
218.8019
 21
12.057692
 31
0.0
  0
LINE
  5
1CF
330
1C8
100
AcDbEntity
  8
0-1
  6
CONTINUOUS
 62
     7
100
AcDbLine
 10
218.8019
 20
12.057692
 30
0.0
 11
220.359592
 21
13.615385
 31
0.0
  0
LINE
  5
1D0
330
1C8
100
AcDbEntity
  8
0-1
  6
CONTINUOUS
 62
     7
100
AcDbLine
 10
220.359592
 20
13.615385
 30
0.0
 11
220.359592
 21
12.980769
 31
0.0
  0
LINE
  5
1D1
330
1C8
100
AcDbEntity
  8
0-1
  6
CONTINUOUS
 62
     7
100
AcDbLine
 10
220.359592
 20
12.980769
 30
0.0
 11
221.224977
 21
12.980769
 31
0.0
  0
LINE
  5
1D2
330
1C8
100
AcDbEntity
  8
0-1
  6
CONTINUOUS
 62
     7
100
AcDbLine
 10
221.224977
 20
12.980769
 30
0.0
 11
221.224977
 21
15.0
 31
0.0
  0
LINE
  5
1D3
330
1C8
100
AcDbEntity
  8
0-1
  6
CONTINUOUS
 62
     7
100
AcDbLine
 10
221.224977
 20
15.0
 30
0.0
 11
218.8019
 21
15.0
 31
0.0
  0
LINE
  5
1D4
330
1C8
100
AcDbEntity
  8
0-1
  6
CONTINUOUS
 62
     7
100
AcDbLine
 10
218.8019
 20
15.0
 30
0.0
 11
218.8019
 21
14.134615
 31
0.0
  0
LINE
  5
1D5
330
1C8
100
AcDbEntity
  8
0-1
  6
CONTINUOUS
 62
     7
100
AcDbLine
 10
218.8019
 20
14.134615
 30
0.0
 11
219.246131
 21
14.134615
 31
0.0
  0
LINE
  5
1D6
330
1C8
100
AcDbEntity
  8
0-1
  6
CONTINUOUS
 62
     7
100
AcDbLine
 10
219.246131
 20
14.134615
 30
0.0
 11
218.8019
 21
13.690385
 31
0.0
  0
LINE
  5
1D7
330
1C8
100
AcDbEntity
  8
0-1
  6
CONTINUOUS
 62
     7
100
AcDbLine
 10
218.8019
 20
13.690385
 30
0.0
 11
217.578823
 21
14.913462
 31
0.0
  0
LINE
  5
1D8
330
1C8
100
AcDbEntity
  8
0-1
  6
CONTINUOUS
 62
     7
100
AcDbLine
 10
217.578823
 20
14.913462
 30
0.0
 11
218.8019
 21
16.136538
 31
0.0
  0
LINE
  5
1D9
330
1C8
100
AcDbEntity
  8
0-1
  6
CONTINUOUS
 62
     7
100
AcDbLine
 10
218.8019
 20
16.136538
 30
0.0
 11
219.592284
 21
15.346154
 31
0.0
  0
LINE
  5
1DA
330
1C8
100
AcDbEntity
  8
0-1
  6
CONTINUOUS
 62
     7
100
AcDbLine
 10
219.592284
 20
15.346154
 30
0.0
 11
221.224977
 21
15.346154
 31
0.0
  0
ENDBLK
  5
1CA
330
1C8
100
AcDbEntity
  8
0
100
AcDbBlockEnd
  0
ENDSEC
  0
SECTION
  2
ENTITIES
  0
TEXT
  5
A8
330
1F
100
AcDbEntity
  8
}}ﾊﾊGG血CCТ
  6
CONTINUOUS
 62
     7
100
AcDbText
 10
32.547703
 20
12.0
 30
0.0
 40
6.0
  1
Ｓ－　７５　Ｎ
 41
0.796748
  7
FX_VECTOR
 72
     5
 11
60.547703
 21
12.0
 31
0.0
100
AcDbText
  0
TEXT
  5
A9
330
1F
100
AcDbEntity
  8
}}ﾊﾊGG血CCТ
  6
CONTINUOUS
 62
     7
100
AcDbText
 10
132.381073
 20
12.0
 30
0.0
 40
6.0
  1
2S25FUAA-C02
 41
0.7
  7
FX_VECTOR
 72
     5
 11
180.381073
 21
12.0
 31
0.0
100
AcDbText
  0
ARC
  5
AB
330
1F
100
AcDbEntity
  8
GR1-1
  6
CONTINUOUS
 62
     3
100
AcDbCircle
 10
84.13469
 20
68.630769
 30
0.0
 40
80.0
100
AcDbArc
 50
82.26362
 51
97.73638
  0
ARC
  5
AC
330
1F
100
AcDbEntity
  8
GR1-1
  6
CONTINUOUS
 62
     3
100
AcDbCircle
 10
73.63469
 20
145.920807
 30
0.0
 40
2.0
100
AcDbArc
 50
97.73638
 51
180.0
  0
ARC
  5
AD
330
1F
100
AcDbEntity
  8
GR1-1
  6
CONTINUOUS
 62
     3
100
AcDbCircle
 10
72.63469
 20
143.630769
 30
0.0
 40
1.0
100
AcDbArc
 50
180.0
 51
270.0
  0
ARC
  5
AE
330
1F
100
AcDbEntity
  8
GR1-1
  6
CONTINUOUS
 62
     3
100
AcDbCircle
 10
72.63469
 20
122.130769
 30
0.0
 40
1.0
100
AcDbArc
 50
90.0
 51
180.0
  0
ARC
  5
AF
330
1F
100
AcDbEntity
  8
GR1-1
  6
CONTINUOUS
 62
     3
100
AcDbCircle
 10
70.13469
 20
117.630769
 30
0.0
 40
1.0
100
AcDbArc
 50
90.0
 51
180.0
  0
LINE
  5
B0
330
1F
100
AcDbEntity
  8
GR1-1
  6
CONTINUOUS
 62
     3
100
AcDbLine
 10
72.63469
 20
142.630769
 30
0.0
 11
78.38469
 21
142.630769
 31
0.0
  0
LINE
  5
B1
330
1F
100
AcDbEntity
  8
GR1-1
  6
CONTINUOUS
 62
     3
100
AcDbLine
 10
78.38469
 20
123.130769
 30
0.0
 11
72.63469
 21
123.130769
 31
0.0
  0
LINE
  5
B2
330
1F
100
AcDbEntity
  8
GR1-1
  6
CONTINUOUS
 62
     3
100
AcDbLine
 10
71.63469
 20
118.630769
 30
0.0
 11
71.63469
 21
145.920807
 31
0.0
  0
LINE
  5
B3
330
1F
100
AcDbEntity
  8
GR1-1
  6
CONTINUOUS
 62
     3
100
AcDbLine
 10
71.63469
 20
118.630769
 30
0.0
 11
70.13469
 21
118.630769
 31
0.0
  0
LINE
  5
B4
330
1F
100
AcDbEntity
  8
GR1-1
  6
CONTINUOUS
 62
     3
100
AcDbLine
 10
69.13469
 20
117.630769
 30
0.0
 11
69.13469
 21
104.630769
 31
0.0
  0
LINE
  5
B5
330
1F
100
AcDbEntity
  8
GR1-1
  6
CONTINUOUS
 62
     3
100
AcDbLine
 10
69.13469
 20
116.130769
 30
0.0
 11
70.13469
 21
116.130769
 31
0.0
  0
LINE
  5
B6
330
1F
100
AcDbEntity
  8
GR1-1
  6
CONTINUOUS
 62
     3
100
AcDbLine
 10
70.13469
 20
116.130769
 30
0.0
 11
70.13469
 21
115.280769
 31
0.0
  0
LINE
  5
B7
330
1F
100
AcDbEntity
  8
GR1-1
  6
CONTINUOUS
 62
     3
100
AcDbLine
 10
78.38469
 20
142.630769
 30
0.0
 11
78.38469
 21
123.130769
 31
0.0
  0
LINE
  5
B8
330
1F
100
AcDbEntity
  8
GR1-1
  6
CONTINUOUS
 62
     6
100
AcDbLine
 10
70.13469
 20
115.280769
 30
0.0
 11
70.13469
 21
106.980769
 31
0.0
  0
ARC
  5
B9
330
1F
100
AcDbEntity
  8
GR1-1
  6
CONTINUOUS
 62
     3
100
AcDbCircle
 10
94.63469
 20
145.920807
 30
0.0
 40
2.0
100
AcDbArc
 50
0.0
 51
82.26362
  0
ARC
  5
BA
330
1F
100
AcDbEntity
  8
GR1-1
  6
CONTINUOUS
 62
     3
100
AcDbCircle
 10
95.63469
 20
143.630769
 30
0.0
 40
1.0
100
AcDbArc
 50
270.0
 51
360.0
  0
ARC
  5
BB
330
1F
100
AcDbEntity
  8
GR1-1
  6
CONTINUOUS
 62
     3
100
AcDbCircle
 10
95.63469
 20
122.130769
 30
0.0
 40
1.0
100
AcDbArc
 50
0.0
 51
90.0
  0
ARC
  5
BC
330
1F
100
AcDbEntity
  8
GR1-1
  6
CONTINUOUS
 62
     3
100
AcDbCircle
 10
98.13469
 20
117.630769
 30
0.0
 40
1.0
100
AcDbArc
 50
0.0
 51
90.0
  0
LINE
  5
BD
330
1F
100
AcDbEntity
  8
GR1-1
  6
CONTINUOUS
 62
     3
100
AcDbLine
 10
95.63469
 20
142.630769
 30
0.0
 11
89.88469
 21
142.630769
 31
0.0
  0
LINE
  5
BE
330
1F
100
AcDbEntity
  8
GR1-1
  6
CONTINUOUS
 62
     3
100
AcDbLine
 10
89.88469
 20
123.130769
 30
0.0
 11
95.63469
 21
123.130769
 31
0.0
  0
LINE
  5
BF
330
1F
100
AcDbEntity
  8
GR1-1
  6
CONTINUOUS
 62
     3
100
AcDbLine
 10
96.63469
 20
118.630769
 30
0.0
 11
96.63469
 21
145.920807
 31
0.0
  0
LINE
  5
C0
330
1F
100
AcDbEntity
  8
GR1-1
  6
CONTINUOUS
 62
     3
100
AcDbLine
 10
96.63469
 20
118.630769
 30
0.0
 11
98.13469
 21
118.630769
 31
0.0
  0
LINE
  5
C1
330
1F
100
AcDbEntity
  8
GR1-1
  6
CONTINUOUS
 62
     3
100
AcDbLine
 10
99.13469
 20
117.630769
 30
0.0
 11
99.13469
 21
104.630769
 31
0.0
  0
LINE
  5
C2
330
1F
100
AcDbEntity
  8
GR1-1
  6
CONTINUOUS
 62
     3
100
AcDbLine
 10
99.13469
 20
116.130769
 30
0.0
 11
98.13469
 21
116.130769
 31
0.0
  0
LINE
  5
C3
330
1F
100
AcDbEntity
  8
GR1-1
  6
CONTINUOUS
 62
     3
100
AcDbLine
 10
98.13469
 20
116.130769
 30
0.0
 11
98.13469
 21
115.280769
 31
0.0
  0
LINE
  5
C4
330
1F
100
AcDbEntity
  8
GR1-1
  6
CONTINUOUS
 62
     3
100
AcDbLine
 10
89.88469
 20
142.630769
 30
0.0
 11
89.88469
 21
123.130769
 31
0.0
  0
LINE
  5
C5
330
1F
100
AcDbEntity
  8
GR1-1
  6
CONTINUOUS
 62
     6
100
AcDbLine
 10
98.13469
 20
115.280769
 30
0.0
 11
98.13469
 21
106.980769
 31
0.0
  0
ARC
  5
C6
330
1F
100
AcDbEntity
  8
GR1-1
  6
CONTINUOUS
 62
     3
100
AcDbCircle
 10
84.13469
 20
153.630769
 30
0.0
 40
80.0
100
AcDbArc
 50
262.26362
 51
277.73638
  0
ARC
  5
C7
330
1F
100
AcDbEntity
  8
GR1-1
  6
CONTINUOUS
 62
     3
100
AcDbCircle
 10
73.63469
 20
76.340731
 30
0.0
 40
2.0
100
AcDbArc
 50
180.0
 51
262.26362
  0
ARC
  5
C8
330
1F
100
AcDbEntity
  8
GR1-1
  6
CONTINUOUS
 62
     3
100
AcDbCircle
 10
72.63469
 20
78.630769
 30
0.0
 40
1.0
100
AcDbArc
 50
90.0
 51
180.0
  0
ARC
  5
C9
330
1F
100
AcDbEntity
  8
GR1-1
  6
CONTINUOUS
 62
     3
100
AcDbCircle
 10
78.88469
 20
82.630769
 30
0.0
 40
3.0
100
AcDbArc
 50
270.0
 51
360.0
  0
ARC
  5
CA
330
1F
100
AcDbEntity
  8
GR1-1
  6
CONTINUOUS
 62
     3
100
AcDbCircle
 10
78.88469
 20
96.130769
 30
0.0
 40
3.0
100
AcDbArc
 50
0.0
 51
90.0
  0
ARC
  5
CB
330
1F
100
AcDbEntity
  8
GR1-1
  6
CONTINUOUS
 62
     3
100
AcDbCircle
 10
72.63469
 20
100.130769
 30
0.0
 40
1.0
100
AcDbArc
 50
180.0
 51
270.0
  0
ARC
  5
CC
330
1F
100
AcDbEntity
  8
GR1-1
  6
CONTINUOUS
 62
     3
100
AcDbCircle
 10
70.13469
 20
104.630769
 30
0.0
 40
1.0
100
AcDbArc
 50
180.0
 51
270.0
  0
LINE
  5
CD
330
1F
100
AcDbEntity
  8
GR1-1
  6
CONTINUOUS
 62
     3
100
AcDbLine
 10
72.63469
 20
79.630769
 30
0.0
 11
78.88469
 21
79.630769
 31
0.0
  0
LINE
  5
CE
330
1F
100
AcDbEntity
  8
GR1-1
  6
CONTINUOUS
 62
     3
100
AcDbLine
 10
81.88469
 20
82.630769
 30
0.0
 11
81.88469
 21
96.130769
 31
0.0
  0
LINE
  5
CF
330
1F
100
AcDbEntity
  8
GR1-1
  6
CONTINUOUS
 62
     3
100
AcDbLine
 10
78.88469
 20
99.130769
 30
0.0
 11
72.63469
 21
99.130769
 31
0.0
  0
LINE
  5
D0
330
1F
100
AcDbEntity
  8
GR1-1
  6
CONTINUOUS
 62
     3
100
AcDbLine
 10
71.63469
 20
103.630769
 30
0.0
 11
71.63469
 21
76.340731
 31
0.0
  0
LINE
  5
D1
330
1F
100
AcDbEntity
  8
GR1-1
  6
CONTINUOUS
 62
     3
100
AcDbLine
 10
71.63469
 20
103.630769
 30
0.0
 11
70.13469
 21
103.630769
 31
0.0
  0
LINE
  5
D2
330
1F
100
AcDbEntity
  8
GR1-1
  6
CONTINUOUS
 62
     3
100
AcDbLine
 10
69.13469
 20
106.130769
 30
0.0
 11
70.13469
 21
106.130769
 31
0.0
  0
LINE
  5
D3
330
1F
100
AcDbEntity
  8
GR1-1
  6
CONTINUOUS
 62
     3
100
AcDbLine
 10
70.13469
 20
106.130769
 30
0.0
 11
70.13469
 21
106.980769
 31
0.0
  0
LINE
  5
D4
330
1F
100
AcDbEntity
  8
GR1-1
  6
CONTINUOUS
 62
     3
100
AcDbLine
 10
78.38469
 20
79.630769
 30
0.0
 11
78.38469
 21
99.130769
 31
0.0
  0
ARC
  5
D5
330
1F
100
AcDbEntity
  8
GR1-1
  6
CONTINUOUS
 62
     3
100
AcDbCircle
 10
94.63469
 20
76.340731
 30
0.0
 40
2.0
100
AcDbArc
 50
277.73638
 51
360.0
  0
ARC
  5
D6
330
1F
100
AcDbEntity
  8
GR1-1
  6
CONTINUOUS
 62
     3
100
AcDbCircle
 10
95.63469
 20
78.630769
 30
0.0
 40
1.0
100
AcDbArc
 50
0.0
 51
90.0
  0
ARC
  5
D7
330
1F
100
AcDbEntity
  8
GR1-1
  6
CONTINUOUS
 62
     3
100
AcDbCircle
 10
89.38469
 20
82.630769
 30
0.0
 40
3.0
100
AcDbArc
 50
180.0
 51
270.0
  0
ARC
  5
D8
330
1F
100
AcDbEntity
  8
GR1-1
  6
CONTINUOUS
 62
     3
100
AcDbCircle
 10
89.38469
 20
96.130769
 30
0.0
 40
3.0
100
AcDbArc
 50
90.0
 51
180.0
  0
ARC
  5
D9
330
1F
100
AcDbEntity
  8
GR1-1
  6
CONTINUOUS
 62
     3
100
AcDbCircle
 10
95.63469
 20
100.130769
 30
0.0
 40
1.0
100
AcDbArc
 50
270.0
 51
360.0
  0
ARC
  5
DA
330
1F
100
AcDbEntity
  8
GR1-1
  6
CONTINUOUS
 62
     3
100
AcDbCircle
 10
98.13469
 20
104.630769
 30
0.0
 40
1.0
100
AcDbArc
 50
270.0
 51
360.0
  0
LINE
  5
DB
330
1F
100
AcDbEntity
  8
GR1-1
  6
CONTINUOUS
 62
     3
100
AcDbLine
 10
95.63469
 20
79.630769
 30
0.0
 11
89.38469
 21
79.630769
 31
0.0
  0
LINE
  5
DC
330
1F
100
AcDbEntity
  8
GR1-1
  6
CONTINUOUS
 62
     3
100
AcDbLine
 10
86.38469
 20
82.630769
 30
0.0
 11
86.38469
 21
96.130769
 31
0.0
  0
LINE
  5
DD
330
1F
100
AcDbEntity
  8
GR1-1
  6
CONTINUOUS
 62
     3
100
AcDbLine
 10
89.38469
 20
99.130769
 30
0.0
 11
95.63469
 21
99.130769
 31
0.0
  0
LINE
  5
DE
330
1F
100
AcDbEntity
  8
GR1-1
  6
CONTINUOUS
 62
     3
100
AcDbLine
 10
96.63469
 20
103.630769
 30
0.0
 11
96.63469
 21
76.340731
 31
0.0
  0
LINE
  5
DF
330
1F
100
AcDbEntity
  8
GR1-1
  6
CONTINUOUS
 62
     3
100
AcDbLine
 10
96.63469
 20
103.630769
 30
0.0
 11
98.13469
 21
103.630769
 31
0.0
  0
LINE
  5
E0
330
1F
100
AcDbEntity
  8
GR1-1
  6
CONTINUOUS
 62
     3
100
AcDbLine
 10
99.13469
 20
106.130769
 30
0.0
 11
98.13469
 21
106.130769
 31
0.0
  0
LINE
  5
E1
330
1F
100
AcDbEntity
  8
GR1-1
  6
CONTINUOUS
 62
     3
100
AcDbLine
 10
98.13469
 20
106.130769
 30
0.0
 11
98.13469
 21
106.980769
 31
0.0
  0
LINE
  5
E2
330
1F
100
AcDbEntity
  8
GR1-1
  6
CONTINUOUS
 62
     3
100
AcDbLine
 10
89.88469
 20
79.630769
 30
0.0
 11
89.88469
 21
99.130769
 31
0.0
  0
LINE
  5
E3
330
1F
100
AcDbEntity
  8
GR1-1
  6
CENTER
 62
     6
100
AcDbLine
 10
67.935821
 20
111.130769
 30
0.0
 11
100.204032
 21
111.130769
 31
0.0
  0
LINE
  5
E4
330
1F
100
AcDbEntity
  8
GR1-1
  6
CENTER
 62
     6
100
AcDbLine
 10
84.13469
 20
149.893924
 30
0.0
 11
84.13469
 21
72.412422
 31
0.0
  0
CIRCLE
  5
E5
330
1F
100
AcDbEntity
  8
GR1-1
  6
CONTINUOUS
 62
     3
100
AcDbCircle
 10
214.601923
 20
111.0
 30
0.0
 40
5.0
  0
CIRCLE
  5
E6
330
1F
100
AcDbEntity
  8
GR1-1
  6
CONTINUOUS
 62
     6
100
AcDbCircle
 10
214.601923
 20
111.0
 30
0.0
 40
7.5
  0
CIRCLE
  5
E7
330
1F
100
AcDbEntity
  8
GR1-1
  6
CONTINUOUS
 62
     6
100
AcDbCircle
 10
214.601923
 20
111.0
 30
0.0
 40
12.0
  0
CIRCLE
  5
E8
330
1F
100
AcDbEntity
  8
GR1-1
  6
CONTINUOUS
 62
     6
100
AcDbCircle
 10
214.601923
 20
111.0
 30
0.0
 40
31.5
  0
CIRCLE
  5
E9
330
1F
100
AcDbEntity
  8
GR1-1
  6
CONTINUOUS
 62
     3
100
AcDbCircle
 10
214.601923
 20
111.0
 30
0.0
 40
4.149999999999977
  0
CIRCLE
  5
EA
330
1F
100
AcDbEntity
  8
GR1-1
  6
CONTINUOUS
 62
     3
100
AcDbCircle
 10
214.601923
 20
111.0
 30
0.0
 40
37.5
  0
ARC
  5
EB
330
1F
100
AcDbEntity
  8
GR1-1
  6
CONTINUOUS
 62
     6
100
AcDbCircle
 10
214.601923
 20
111.0
 30
0.0
 40
29.5
100
AcDbArc
 50
183.696866
 51
234.340338
  0
ARC
  5
EC
330
1F
100
AcDbEntity
  8
GR1-1
  6
CONTINUOUS
 62
     6
100
AcDbCircle
 10
214.601923
 20
111.0
 30
0.0
 40
14.0
100
AcDbArc
 50
175.889411
 51
203.71599
  0
CIRCLE
  5
ED
330
1F
100
AcDbEntity
  8
GR1-1
  6
CENTER
 62
     6
100
AcDbCircle
 10
214.601923
 20
111.0
 30
0.0
 40
10.0
  0
ARC
  5
EE
330
1F
100
AcDbEntity
  8
GR1-1
  6
CONTINUOUS
 62
     6
100
AcDbCircle
 10
200.203324
 20
66.685669
 30
0.0
 40
55.0
100
AcDbArc
 50
81.705138
 51
106.896168
  0
ARC
  5
EF
330
1F
100
AcDbEntity
  8
GR1-1
  6
CONTINUOUS
 62
     6
100
AcDbCircle
 10
200.203324
 20
66.685669
 30
0.0
 40
45.0
100
AcDbArc
 50
90.797672
 51
109.52527
  0
ARC
  5
F0
330
1F
100
AcDbEntity
  8
GR1-1
  6
CONTINUOUS
 62
     6
100
AcDbCircle
 10
187.146859
 20
112.571454
 30
0.0
 40
4.0
100
AcDbArc
 50
176.724119
 51
240.271695
  0
LINE
  5
F1
330
1F
100
AcDbEntity
  8
GR1-1
  6
CONTINUOUS
 62
     6
100
AcDbLine
 10
201.210939
 20
112.568461
 30
0.0
 11
204.630357
 21
117.675918
 31
0.0
  0
ARC
  5
F2
330
1F
100
AcDbEntity
  8
GR1-1
  6
CONTINUOUS
 62
     6
100
AcDbCircle
 10
199.549011
 20
113.681114
 30
0.0
 40
2.0
100
AcDbArc
 50
270.797672
 51
326.197871
  0
INSERT
  5
F6
330
1F
100
AcDbEntity
  8
0
100
AcDbBlockReference
  2
BLKF021
 10
0.0
 20
0.0
 30
0.0
  0
LINE
  5
14E
330
1F
100
AcDbEntity
  8
GR1-1
  6
CONTINUOUS
 62
     7
100
AcDbLine
 10
200.566533
 20
124.977419
 30
0.0
 11
206.267832
 21
128.969511
 31
0.0
  0
LINE
  5
14F
330
1F
100
AcDbEntity
  8
GR1-1
  6
CONTINUOUS
 62
     7
100
AcDbLine
 10
206.267832
 20
128.969511
 30
0.0
 11
202.27574
 21
134.670809
 31
0.0
  0
LINE
  5
150
330
1F
100
AcDbEntity
  8
GR1-1
  6
CONTINUOUS
 62
     7
100
AcDbLine
 10
202.27574
 20
134.670809
 30
0.0
 11
196.574441
 21
130.678717
 31
0.0
  0
LINE
  5
151
330
1F
100
AcDbEntity
  8
GR1-1
  6
CONTINUOUS
 62
     7
100
AcDbLine
 10
196.574441
 20
130.678717
 30
0.0
 11
200.566533
 21
124.977419
 31
0.0
  0
LINE
  5
152
330
1F
100
AcDbEntity
  8
GR1-1
  6
CONTINUOUS
 62
     7
100
AcDbLine
 10
198.733519
 20
127.942224
 30
0.0
 11
199.539246
 21
132.511732
 31
0.0
  0
LINE
  5
153
330
1F
100
AcDbEntity
  8
GR1-1
  6
CONTINUOUS
 62
     7
100
AcDbLine
 10
199.539246
 20
132.511732
 30
0.0
 11
203.624085
 21
131.791465
 31
0.0
  0
LINE
  5
154
330
1F
100
AcDbEntity
  8
GR1-1
  6
CONTINUOUS
 62
     7
100
AcDbLine
 10
203.624085
 20
131.791465
 30
0.0
 11
202.280276
 21
130.850519
 31
0.0
  0
LINE
  5
155
330
1F
100
AcDbEntity
  8
GR1-1
  6
CONTINUOUS
 62
     7
100
AcDbLine
 10
202.280276
 20
130.850519
 30
0.0
 11
200.480191
 21
131.167923
 31
0.0
  0
LINE
  5
156
330
1F
100
AcDbEntity
  8
GR1-1
  6
CONTINUOUS
 62
     7
100
AcDbLine
 10
200.480191
 20
131.167923
 30
0.0
 11
200.077328
 21
128.883169
 31
0.0
  0
LINE
  5
157
330
1F
100
AcDbEntity
  8
GR1-1
  6
CONTINUOUS
 62
     7
100
AcDbLine
 10
200.077328
 20
128.883169
 30
0.0
 11
202.362082
 21
128.480305
 31
0.0
  0
LINE
  5
158
330
1F
100
AcDbEntity
  8
GR1-1
  6
CONTINUOUS
 62
     7
100
AcDbLine
 10
202.362082
 20
128.480305
 30
0.0
 11
202.573882
 21
129.681482
 31
0.0
  0
ARC
  5
159
330
1F
100
AcDbEntity
  8
GR1-1
  6
CONTINUOUS
 62
     7
100
AcDbCircle
 10
202.459644
 20
129.701626
 30
0.0
 40
0.116
100
AcDbArc
 50
-10.0
 51
125.0
  0
LINE
  5
15A
330
1F
100
AcDbEntity
  8
GR1-1
  6
CONTINUOUS
 62
     7
100
AcDbLine
 10
202.393109
 20
129.796647
 30
0.0
 11
201.753811
 21
129.349006
 31
0.0
  0
LINE
  5
15B
330
1F
100
AcDbEntity
  8
GR1-1
  6
CONTINUOUS
 62
     7
100
AcDbLine
 10
201.753811
 20
129.349006
 30
0.0
 11
201.421137
 21
129.824114
 31
0.0
  0
LINE
  5
15C
330
1F
100
AcDbEntity
  8
GR1-1
  6
CONTINUOUS
 62
     7
100
AcDbLine
 10
201.421137
 20
129.824114
 30
0.0
 11
204.108754
 21
131.706004
 31
0.0
  0
LINE
  5
15D
330
1F
100
AcDbEntity
  8
GR1-1
  6
CONTINUOUS
 62
     7
100
AcDbLine
 10
204.108754
 20
131.706004
 30
0.0
 11
205.455633
 21
129.782462
 31
0.0
  0
LINE
  5
15E
330
1F
100
AcDbEntity
  8
GR1-1
  6
CONTINUOUS
 62
     7
100
AcDbLine
 10
205.455633
 20
129.782462
 30
0.0
 11
204.505417
 21
129.117113
 31
0.0
  0
LINE
  5
15F
330
1F
100
AcDbEntity
  8
GR1-1
  6
CONTINUOUS
 62
     7
100
AcDbLine
 10
204.505417
 20
129.117113
 30
0.0
 11
203.984516
 21
129.861037
 31
0.0
  0
ARC
  5
160
330
1F
100
AcDbEntity
  8
GR1-1
  6
CONTINUOUS
 62
     7
100
AcDbCircle
 10
203.889494
 20
129.794502
 30
0.0
 40
0.116
100
AcDbArc
 50
35.0
 51
170.0
  0
LINE
  5
161
330
1F
100
AcDbEntity
  8
GR1-1
  6
CONTINUOUS
 62
     7
100
AcDbLine
 10
203.775257
 20
129.814645
 30
0.0
 11
203.303027
 21
127.136496
 31
0.0
  0
LINE
  5
162
330
1F
100
AcDbEntity
  8
GR1-1
  6
CONTINUOUS
 62
     7
100
AcDbLine
 10
203.303027
 20
127.136496
 30
0.0
 11
198.733519
 21
127.942224
 31
0.0
  0
TEXT
  5
163
330
1F
100
AcDbEntity
  8
GR1-1
  6
CONTINUOUS
 62
     7
100
AcDbText
 10
216.103516
 20
88.842155
 30
0.0
 40
5.967263
  1
2
 50
180.0
 41
0.652945
  7
FX_VECTOR
 72
     5
 11
212.949375
 21
88.842155
 31
0.0
100
AcDbText
  0
TEXT
  5
164
330
1F
100
AcDbEntity
  8
GR1-1
  6
CONTINUOUS
 62
     7
100
AcDbText
 10
218.814362
 20
89.189072
 30
0.0
 40
5.967263
  1
X
 50
187.0
 41
0.652945
  7
FX_VECTOR
 72
     5
 11
215.683731
 21
88.804679
 31
0.0
100
AcDbText
  0
TEXT
  5
165
330
1F
100
AcDbEntity
  8
GR1-1
  6
CONTINUOUS
 62
     7
100
AcDbText
 10
221.462708
 20
89.863777
 30
0.0
 40
5.967263
  1
5
 50
194.0
 41
0.652945
  7
FX_VECTOR
 72
     5
 11
218.402258
 21
89.100721
 31
0.0
100
AcDbText
  0
TEXT
  5
166
330
1F
100
AcDbEntity
  8
GR1-1
  6
CONTINUOUS
 62
     7
100
AcDbText
 10
224.009094
 20
90.856201
 30
0.0
 40
5.967263
  1
7
 50
201.0
 41
0.652945
  7
FX_VECTOR
 72
     5
 11
221.06445
 21
89.725858
 31
0.0
100
AcDbText
  0
TEXT
  5
167
330
1F
100
AcDbEntity
  8
GR1-1
  6
CONTINUOUS
 62
     7
100
AcDbText
 10
213.370605
 20
88.828186
 30
0.0
 40
5.967263
  1
5
 50
173.0
 41
0.652945
  7
FX_VECTOR
 72
     5
 11
210.239975
 21
89.212579
 31
0.0
100
AcDbText
  0
ARC
  5
168
330
1F
100
AcDbEntity
  8
GR1-1
  6
CONTINUOUS
 62
     6
100
AcDbCircle
 10
252.297944
 20
83.612237
 30
0.0
 40
55.0
100
AcDbArc
 50
153.705138
 51
178.896168
  0
ARC
  5
169
330
1F
100
AcDbEntity
  8
GR1-1
  6
CONTINUOUS
 62
     6
100
AcDbCircle
 10
252.297944
 20
83.612237
 30
0.0
 40
45.0
100
AcDbArc
 50
162.797672
 51
181.52527
  0
ARC
  5
16A
330
1F
100
AcDbEntity
  8
GR1-1
  6
CONTINUOUS
 62
     6
100
AcDbCircle
 10
204.623301
 20
85.374288
 30
0.0
 40
4.0
100
AcDbArc
 50
248.724119
 51
312.271695
  0
LINE
  5
16B
330
1F
100
AcDbEntity
  8
GR1-1
  6
CONTINUOUS
 62
     6
100
AcDbLine
 10
208.972186
 20
98.749098
 30
0.0
 11
205.171365
 21
103.57945
 31
0.0
  0
ARC
  5
16C
330
1F
100
AcDbEntity
  8
GR1-1
  6
CONTINUOUS
 62
     6
100
AcDbCircle
 10
207.400426
 20
97.51234
 30
0.0
 40
2.0
100
AcDbArc
 50
-17.202328
 51
38.197871
  0
ARC
  5
16D
330
1F
100
AcDbEntity
  8
GR1-1
  6
CONTINUOUS
 62
     6
100
AcDbCircle
 10
252.297944
 20
138.387763
 30
0.0
 40
55.0
100
AcDbArc
 50
225.705138
 51
250.896168
  0
ARC
  5
16E
330
1F
100
AcDbEntity
  8
GR1-1
  6
CONTINUOUS
 62
     6
100
AcDbCircle
 10
252.297944
 20
138.387763
 30
0.0
 40
45.0
100
AcDbArc
 50
234.797672
 51
253.52527
  0
ARC
  5
16F
330
1F
100
AcDbEntity
  8
GR1-1
  6
CONTINUOUS
 62
     6
100
AcDbCircle
 10
235.889859
 20
93.590986
 30
0.0
 40
4.0
100
AcDbArc
 50
-39.275881
 51
24.271695
  0
LINE
  5
170
330
1F
100
AcDbEntity
  8
GR1-1
  6
CONTINUOUS
 62
     6
100
AcDbLine
 10
224.513539
 20
101.860065
 30
0.0
 11
218.745083
 21
99.73793
 31
0.0
  0
ARC
  5
171
330
1F
100
AcDbEntity
  8
GR1-1
  6
CONTINUOUS
 62
     6
100
AcDbCircle
 10
225.204065
 20
99.983053
 30
0.0
 40
2.0
100
AcDbArc
 50
54.797672
 51
110.197871
  0
ARC
  5
172
330
1F
100
AcDbEntity
  8
GR1-1
  6
CONTINUOUS
 62
     6
100
AcDbCircle
 10
200.203324
 20
155.314331
 30
0.0
 40
55.0
100
AcDbArc
 50
297.705138
 51
322.896168
  0
ARC
  5
173
330
1F
100
AcDbEntity
  8
GR1-1
  6
CONTINUOUS
 62
     6
100
AcDbCircle
 10
200.203324
 20
155.314331
 30
0.0
 40
45.0
100
AcDbArc
 50
306.797672
 51
325.52527
  0
ARC
  5
174
330
1F
100
AcDbEntity
  8
GR1-1
  6
CONTINUOUS
 62
     6
100
AcDbCircle
 10
237.737214
 20
125.866349
 30
0.0
 40
4.0
100
AcDbArc
 50
32.724119
 51
96.271695
  0
LINE
  5
175
330
1F
100
AcDbEntity
  8
GR1-1
  6
CONTINUOUS
 62
     6
100
AcDbLine
 10
226.357376
 20
117.602111
 30
0.0
 11
226.593095
 21
111.460208
 31
0.0
  0
ARC
  5
176
330
1F
100
AcDbEntity
  8
GR1-1
  6
CONTINUOUS
 62
     6
100
AcDbCircle
 10
228.355904
 20
117.678813
 30
0.0
 40
2.0
100
AcDbArc
 50
126.797672
 51
182.197871
  0
ARC
  5
177
330
1F
100
AcDbEntity
  8
GR1-1
  6
CONTINUOUS
 62
     6
100
AcDbCircle
 10
168.007078
 20
111.0
 30
0.0
 40
55.0
100
AcDbArc
 50
9.705138
 51
34.896168
  0
ARC
  5
178
330
1F
100
AcDbEntity
  8
GR1-1
  6
CONTINUOUS
 62
     6
100
AcDbCircle
 10
168.007078
 20
111.0
 30
0.0
 40
45.0
100
AcDbArc
 50
18.797672
 51
37.52527
  0
ARC
  5
179
330
1F
100
AcDbEntity
  8
GR1-1
  6
CONTINUOUS
 62
     6
100
AcDbCircle
 10
207.612383
 20
137.596923
 30
0.0
 40
4.0
100
AcDbArc
 50
104.724119
 51
168.271695
  0
LINE
  5
17A
330
1F
100
AcDbEntity
  8
GR1-1
  6
CONTINUOUS
 62
     6
100
AcDbLine
 10
211.955577
 20
124.220264
 30
0.0
 11
217.869715
 21
122.546495
 31
0.0
  0
ARC
  5
17B
330
1F
100
AcDbEntity
  8
GR1-1
  6
CONTINUOUS
 62
     6
100
AcDbCircle
 10
212.500209
 20
126.14468
 30
0.0
 40
2.0
100
AcDbArc
 50
198.797672
 51
254.197871
  0
ARC
  5
17C
330
1F
100
AcDbEntity
  8
GR1-1
  6
CONTINUOUS
 62
     6
100
AcDbCircle
 10
214.601923
 20
111.0
 30
0.0
 40
14.0
100
AcDbArc
 50
247.889411
 51
275.71599
  0
ARC
  5
17D
330
1F
100
AcDbEntity
  8
GR1-1
  6
CONTINUOUS
 62
     6
100
AcDbCircle
 10
214.601923
 20
111.0
 30
0.0
 40
14.0
100
AcDbArc
 50
319.889411
 51
347.71599
  0
ARC
  5
17E
330
1F
100
AcDbEntity
  8
GR1-1
  6
CONTINUOUS
 62
     6
100
AcDbCircle
 10
214.601923
 20
111.0
 30
0.0
 40
14.0
100
AcDbArc
 50
31.889411
 51
59.459031
  0
ARC
  5
17F
330
1F
100
AcDbEntity
  8
GR1-1
  6
CONTINUOUS
 62
     6
100
AcDbCircle
 10
214.601923
 20
111.0
 30
0.0
 40
14.0
100
AcDbArc
 50
103.889411
 51
131.71599
  0
ARC
  5
180
330
1F
100
AcDbEntity
  8
GR1-1
  6
CONTINUOUS
 62
     6
100
AcDbCircle
 10
214.601923
 20
111.0
 30
0.0
 40
29.5
100
AcDbArc
 50
111.696866
 51
162.340338
  0
ARC
  5
181
330
1F
100
AcDbEntity
  8
GR1-1
  6
CONTINUOUS
 62
     6
100
AcDbCircle
 10
214.601923
 20
111.0
 30
0.0
 40
29.5
100
AcDbArc
 50
39.696866
 51
90.340338
  0
ARC
  5
182
330
1F
100
AcDbEntity
  8
GR1-1
  6
CONTINUOUS
 62
     6
100
AcDbCircle
 10
214.601923
 20
111.0
 30
0.0
 40
29.5
100
AcDbArc
 50
-32.303134
 51
18.340338
  0
ARC
  5
183
330
1F
100
AcDbEntity
  8
GR1-1
  6
CONTINUOUS
 62
     6
100
AcDbCircle
 10
214.601923
 20
111.0
 30
0.0
 40
29.5
100
AcDbArc
 50
255.696866
 51
306.340338
  0
LINE
  5
184
330
1F
100
AcDbEntity
  8
GR1-1
  6
CENTER
 62
     6
100
AcDbLine
 10
174.500599
 20
111.0
 30
0.0
 11
254.429181
 21
111.0
 31
0.0
  0
LINE
  5
185
330
1F
100
AcDbEntity
  8
GR1-1
  6
CENTER
 62
     6
100
AcDbLine
 10
214.601923
 20
151.80978
 30
0.0
 11
214.601923
 21
70.625775
 31
0.0
  0
LINE
  5
186
330
1F
100
AcDbEntity
  8
GR1-1
  6
CONTINUOUS
 62
     3
100
AcDbLine
 10
70.13469
 20
107.030769
 30
0.0
 11
98.13469
 21
107.030769
 31
0.0
  0
LINE
  5
187
330
1F
100
AcDbEntity
  8
GR1-1
  6
CONTINUOUS
 62
     3
100
AcDbLine
 10
70.13469
 20
115.230769
 30
0.0
 11
98.13469
 21
115.230769
 31
0.0
  0
HATCH
  5
188
330
1F
100
AcDbEntity
  8
GR1-1
  6
CONTINUOUS
 62
     3
100
AcDbHatch
 10
0.0
 20
0.0
 30
0.0
210
0.0
220
0.0
230
1.0
  2

 70
     0
 71
     1
 91
        2
 92
        0
 93
       28
 72
     1
 10
78.38469027656186
 20
142.6307692307692
 11
78.38469027656186
 21
123.1307692307692
 72
     1
 10
78.38469027656186
 20
123.1307692307692
 11
72.63469027656186
 21
123.1307692307692
 72
     2
 10
72.63469027656186
 20
122.1307692307692
 40
1.0
 50
90.0
 51
180.0
 73
     1
 72
     1
 10
71.63469027656186
 20
122.1307692307692
 11
71.63469027656186
 21
118.6307692307692
 72
     1
 10
71.63469027656186
 20
118.6307692307692
 11
70.13469027656186
 21
118.6307692307692
 72
     2
 10
70.13469027656186
 20
117.6307692307692
 40
1.0
 50
90.0
 51
180.0
 73
     1
 72
     1
 10
69.13469027656186
 20
117.6307692307692
 11
69.13469027656186
 21
116.1307692307692
 72
     1
 10
69.13469027656186
 20
116.1307692307692
 11
70.13469027656186
 21
116.1307692307692
 72
     1
 10
70.13469027656186
 20
116.1307692307692
 11
70.13469027656184
 21
115.2307692307692
 72
     1
 10
70.13469027656184
 20
115.2307692307692
 11
98.13469027656187
 21
115.2307692307692
 72
     1
 10
98.13469027656187
 20
115.2307692307692
 11
98.13469027656187
 21
116.1307692307692
 72
     1
 10
98.13469027656187
 20
116.1307692307692
 11
99.13469027656187
 21
116.1307692307692
 72
     1
 10
99.13469027656187
 20
116.1307692307692
 11
99.13469027656187
 21
117.6307692307692
 72
     2
 10
98.13469027656184
 20
117.6307692307692
 40
1.0
 50
0.0
 51
90.0
 73
     1
 72
     1
 10
98.13469027656184
 20
118.6307692307692
 11
96.63469027656186
 21
118.6307692307692
 72
     1
 10
96.63469027656186
 20
118.6307692307692
 11
96.63469027656186
 21
122.1307692307692
 72
     2
 10
95.63469027656186
 20
122.1307692307692
 40
1.0
 50
0.0
 51
90.0
 73
     1
 72
     1
 10
95.63469027656186
 20
123.1307692307692
 11
89.88469027656186
 21
123.1307692307692
 72
     1
 10
89.88469027656186
 20
123.1307692307692
 11
89.88469027656186
 21
142.6307692307692
 72
     1
 10
89.88469027656186
 20
142.6307692307692
 11
95.63469027656186
 21
142.6307692307692
 72
     2
 10
95.63469027656186
 20
143.6307692307692
 40
1.0
 50
270.0
 51
360.0
 73
     1
 72
     1
 10
96.63469027656186
 20
143.6307692307692
 11
96.63469027656186
 21
145.9208073986987
 72
     2
 10
94.63469027656186
 20
145.9208073986987
 40
2.0
 50
0.0
 51
82.26361996004538
 73
     1
 72
     2
 10
84.13469027656183
 20
68.63076923076923
 40
80.0
 50
82.26361996004552
 51
97.73638003995444
 73
     1
 72
     2
 10
73.63469027656186
 20
145.9208073986987
 40
2.0
 50
97.73638003995464
 51
180.0
 73
     1
 72
     1
 10
71.63469027656186
 20
145.9208073986987
 11
71.63469027656186
 21
143.6307692307692
 72
     2
 10
72.63469027656186
 20
143.6307692307692
 40
1.0
 50
180.0
 51
270.0
 73
     1
 72
     1
 10
72.63469027656186
 20
142.6307692307692
 11
78.38469027656186
 21
142.6307692307692
 97
        0
 92
        0
 93
       34
 72
     1
 10
98.1346902765619
 20
107.0307692307692
 11
70.13469027656184
 21
107.0307692307692
 72
     1
 10
70.13469027656184
 20
107.0307692307692
 11
70.13469027656186
 21
106.1307692307692
 72
     1
 10
70.13469027656186
 20
106.1307692307692
 11
69.13469027656186
 21
106.1307692307692
 72
     1
 10
69.13469027656186
 20
106.1307692307692
 11
69.13469027656186
 21
104.6307692307692
 72
     2
 10
70.13469027656186
 20
104.6307692307692
 40
1.0
 50
180.0
 51
270.0
 73
     1
 72
     1
 10
70.13469027656186
 20
103.6307692307692
 11
71.63469027656186
 21
103.6307692307692
 72
     1
 10
71.63469027656186
 20
103.6307692307692
 11
71.63469027656186
 21
100.1307692307692
 72
     2
 10
72.63469027656186
 20
100.1307692307692
 40
1.0
 50
180.0
 51
270.0
 73
     1
 72
     1
 10
72.63469027656186
 20
99.13076923076923
 11
78.88469027656186
 21
99.13076923076923
 72
     2
 10
78.88469027656186
 20
96.13076923076923
 40
3.0
 50
0.0
 51
90.0
 73
     0
 72
     1
 10
81.88469027656186
 20
96.13076923076923
 11
81.88469027656186
 21
82.63076923076923
 72
     2
 10
78.88469027656186
 20
82.63076923076923
 40
3.0
 50
270.0
 51
360.0
 73
     0
 72
     1
 10
78.88469027656186
 20
79.63076923076923
 11
72.63469027656186
 21
79.63076923076923
 72
     2
 10
72.63469027656186
 20
78.63076923076923
 40
1.0
 50
90.0
 51
180.0
 73
     1
 72
     1
 10
71.63469027656186
 20
78.63076923076923
 11
71.63469027656186
 21
76.34073106283972
 72
     2
 10
73.63469027656186
 20
76.34073106283972
 40
2.0
 50
180.0
 51
262.2636199600454
 73
     1
 72
     2
 10
84.13469027656183
 20
153.6307692307692
 40
80.0
 50
262.2636199600456
 51
277.7363800399545
 73
     1
 72
     2
 10
94.63469027656186
 20
76.34073106283972
 40
2.0
 50
277.7363800399546
 51
360.0
 73
     1
 72
     1
 10
96.63469027656186
 20
76.34073106283972
 11
96.63469027656186
 21
78.63076923076923
 72
     2
 10
95.63469027656186
 20
78.63076923076923
 40
1.0
 50
0.0
 51
90.0
 73
     1
 72
     1
 10
95.63469027656186
 20
79.63076923076923
 11
89.38469027656186
 21
79.63076923076923
 72
     2
 10
89.38469027656186
 20
82.63076923076923
 40
3.0
 50
180.0
 51
270.0
 73
     0
 72
     1
 10
86.38469027656186
 20
82.63076923076923
 11
86.38469027656186
 21
96.13076923076923
 72
     2
 10
89.38469027656186
 20
96.13076923076923
 40
3.0
 50
90.0
 51
180.0
 73
     0
 72
     1
 10
89.38469027656186
 20
99.13076923076923
 11
95.63469027656186
 21
99.13076923076923
 72
     2
 10
95.63469027656186
 20
100.1307692307692
 40
1.0
 50
270.0
 51
360.0
 73
     1
 72
     1
 10
96.63469027656186
 20
100.1307692307692
 11
96.63469027656186
 21
103.6307692307692
 72
     1
 10
96.63469027656186
 20
103.6307692307692
 11
98.13469027656184
 21
103.6307692307692
 72
     2
 10
98.13469027656184
 20
104.6307692307692
 40
1.0
 50
270.0
 51
360.0
 73
     1
 72
     1
 10
99.13469027656187
 20
104.6307692307692
 11
99.13469027656187
 21
106.1307692307692
 72
     1
 10
99.13469027656187
 20
106.1307692307692
 11
98.13469027656187
 21
106.1307692307692
 72
     1
 10
98.13469027656187
 20
106.1307692307692
 11
98.13469027656187
 21
107.0307692307692
 72
     1
 10
98.13469027656187
 20
107.0307692307692
 11
70.13469027656184
 21
107.0307692307692
 72
     1
 10
70.13469027656184
 20
107.0307692307692
 11
98.1346902765619
 21
107.0307692307692
 97
        0
 75
     0
 76
     0
 52
45.0
 41
2.0
 77
     0
 78
     1
 53
45.0
 43
0.0
 44
0.0
 45
-1.414213562373095
 46
1.414213562373095
 79
     0
 98
        0
  0
DIMENSION
  5
189
330
1F
100
AcDbEntity
  8
GR1-1
100
AcDbDimension
  2
*D20
 10
105.577788
 20
115.230769
 30
0.0
 11
113.577789
 21
111.130768
 31
0.0
 70
    33
  3
FXDIMINFO
100
AcDbAlignedDimension
 13
98.13469
 23
107.030769
 33
0.0
 14
98.13469
 24
115.230769
 34
0.0
  0
DIMENSION
  5
195
330
1F
100
AcDbEntity
  8
GR1-1
100
AcDbDimension
  2
*D21
 10
129.366346
 20
148.630769
 30
0.0
 11
128.366348
 21
111.130768
 31
0.0
 70
    33
  3
FXDIMINFO
100
AcDbAlignedDimension
 13
84.13469
 23
73.630769
 33
0.0
 14
84.13469
 24
148.630769
 34
0.0
1001
ACAD
1000
DSTYLE
1002
{
1070
     7
1000
FXTIP_ARROW_E
1070
     6
1000
FXTIP_ARROW_S
1070
   173
1070
     1
1002
}
  0
DIMENSION
  5
19F
330
1F
100
AcDbEntity
  8
GR1-1
100
AcDbDimension
  2
*D22
 10
96.63469
 20
61.612542
 30
0.0
 11
84.134689
 21
62.612541
 31
0.0
 70
    32
  3
FXDIMINFO
100
AcDbAlignedDimension
 13
71.63469
 23
77.291545
 33
0.0
 14
96.63469
 24
76.8357
 34
0.0
 50
180.0
100
AcDbRotatedDimension
1001
ACAD
1000
DSTYLE
1002
{
1070
     7
1000
FXTIP_ARROW_E
1070
     6
1000
FXTIP_ARROW_S
1070
   173
1070
     1
1002
}
  0
DIMENSION
  5
1A9
330
1F
100
AcDbEntity
  8
GR1-1
100
AcDbDimension
  2
*D23
 10
99.13469
 20
53.322508
 30
0.0
 11
84.134689
 21
54.322506
 31
0.0
 70
    33
  3
FXDIMINFO
100
AcDbAlignedDimension
 13
69.13469
 23
104.630769
 33
0.0
 14
99.13469
 24
104.630769
 34
0.0
1001
ACAD
1000
DSTYLE
1002
{
1070
     7
1000
FXTIP_ARROW_E
1070
     6
1000
FXTIP_ARROW_S
1070
   173
1070
     1
1002
}
  0
INSERT
  5
1B6
330
1F
100
AcDbEntity
  8
0
100
AcDbBlockReference
  2
BLKF026
 10
0.0
 20
0.0
 30
0.0
  0
ENDSEC
  0
SECTION
  2
OBJECTS
  0
DICTIONARY
  5
C
330
0
100
AcDbDictionary
  3
ACAD_GROUP
350
D
  3
ACAD_LAYOUT
350
1A
  3
ACAD_MLINESTYLE
350
17
  3
ACAD_PLOTSETTINGS
350
19
  3
ACDBHEADERROUNDTRIPXREC
350
1E0
  0
DICTIONARY
  5
D
102
{ACAD_REACTORS
330
C
102
}
330
C
100
AcDbDictionary
  0
DICTIONARY
  5
1A
102
{ACAD_REACTORS
330
C
102
}
330
C
100
AcDbDictionary
  0
DICTIONARY
  5
17
102
{ACAD_REACTORS
330
C
102
}
330
C
100
AcDbDictionary
  3
STANDARD
350
18
  0
DICTIONARY
  5
19
102
{ACAD_REACTORS
330
C
102
}
330
C
100
AcDbDictionary
  0
DICTIONARY
  5
1E0
102
{ACAD_REACTORS
330
C
102
}
330
C
100
AcDbDictionary
  3
CEPSNTYPE
350
1E9
  3
DIMSTYLEDATA
350
1FF
  3
FINGERPRINTGUID
350
1EA
  3
HYPERLINKBASE
350
1E3
  3
INSUNITS
350
1E8
  3
LAYOUTDICT
350
1E5
  3
LWETCUNION
350
1E7
  3
PLOTSETDICT
350
1E6
  3
PSVPSCALE
350
1EC
  3
PUCSBASE
350
1EF
  3
PUCSORGBACK
350
1F5
  3
PUCSORGBOTTOM
350
1F1
  3
PUCSORGFRONT
350
1F4
  3
PUCSORGLEFT
350
1F2
  3
PUCSORGRIGHT
350
1F3
  3
PUCSORGTOP
350
1F0
  3
PUCSORTHOREF
350
1ED
  3
PUCSORTHOVIEW
350
1EE
  3
STYLESHEET
350
1E4
  3
TSTACKALIGN
350
1E1
  3
TSTACKSIZE
350
1E2
  3
UCSBASE
350
1F8
  3
UCSORGBACK
350
1FE
  3
UCSORGBOTTOM
350
1FA
  3
UCSORGFRONT
350
1FD
  3
UCSORGLEFT
350
1FB
  3
UCSORGRIGHT
350
1FC
  3
UCSORGTOP
350
1F9
  3
UCSORTHOREF
350
1F6
  3
UCSORTHOVIEW
350
1F7
  3
VERSIONGUID
350
1EB
  0
MLINESTYLE
  5
18
102
{ACAD_REACTORS
330
17
102
}
330
17
100
AcDbMlineStyle
  2
Standard
 70
     0
  3

 62
   256
 51
90.0
 52
90.0
 71
     2
 49
0.5
 62
   256
  6
BYLAYER
 49
-0.5
 62
   256
  6
BYLAYER
  0
XRECORD
  5
1E9
102
{ACAD_REACTORS
330
1E0
102
}
330
1E0
100
AcDbXrecord
 90
        0
  0
XRECORD
  5
1FF
102
{ACAD_REACTORS
330
1E0
102
}
330
1E0
100
AcDbXrecord
1000
DSTYLE
1002
{
1070
   179
 70
     2
1070
   171
 70
     3
1070
   143
 40
0.03937
1070
   274
 70
     3
1070
    41
 40
3.0
1070
   343
340
41
1070
   344
340
47
1070
   141
 40
2.5
1070
   176
 70
     7
1070
   177
 70
     7
1070
   178
 70
     7
1070
   271
 70
     2
1070
    46
 40
6.0
1070
    43
 40
8.0
1070
    44
 40
1.0
1070
    42
 40
1.0
1070
   147
 40
1.0
1070
   341
340
41
1070
   173
 70
     1
1070
    77
 70
     1
1070
   272
 70
     2
1070
    73
 70
     0
1070
   172
 70
     1
1070
    74
 70
     0
1070
   283
 70
     0
1070
   340
340
3F
1070
   140
 40
4.0
1070
   284
 70
     8
1070
    78
 70
     8
1002
}
  0
XRECORD
  5
1EA
102
{ACAD_REACTORS
330
1E0
102
}
330
1E0
100
AcDbXrecord
  1
{769E9BA7-24C8-4DEA-93CA-CCBFE1247661}
  0
XRECORD
  5
1E3
102
{ACAD_REACTORS
330
1E0
102
}
330
1E0
100
AcDbXrecord
  1

  0
XRECORD
  5
1E8
102
{ACAD_REACTORS
330
1E0
102
}
330
1E0
100
AcDbXrecord
 90
        1
  0
XRECORD
  5
1E5
102
{ACAD_REACTORS
330
1E0
102
}
330
1E0
100
AcDbXrecord
340
1A
  0
XRECORD
  5
1E7
102
{ACAD_REACTORS
330
1E0
102
}
330
1E0
100
AcDbXrecord
 90
    10781
  0
XRECORD
  5
1E6
102
{ACAD_REACTORS
330
1E0
102
}
330
1E0
100
AcDbXrecord
340
19
  0
XRECORD
  5
1EC
102
{ACAD_REACTORS
330
1E0
102
}
330
1E0
100
AcDbXrecord
 40
0.0
  0
XRECORD
  5
1EF
102
{ACAD_REACTORS
330
1E0
102
}
330
1E0
100
AcDbXrecord
340
0
  0
XRECORD
  5
1F5
102
{ACAD_REACTORS
330
1E0
102
}
330
1E0
100
AcDbXrecord
 10
0.0
 20
0.0
 30
0.0
  0
XRECORD
  5
1F1
102
{ACAD_REACTORS
330
1E0
102
}
330
1E0
100
AcDbXrecord
 10
0.0
 20
0.0
 30
0.0
  0
XRECORD
  5
1F4
102
{ACAD_REACTORS
330
1E0
102
}
330
1E0
100
AcDbXrecord
 10
0.0
 20
0.0
 30
0.0
  0
XRECORD
  5
1F2
102
{ACAD_REACTORS
330
1E0
102
}
330
1E0
100
AcDbXrecord
 10
0.0
 20
0.0
 30
0.0
  0
XRECORD
  5
1F3
102
{ACAD_REACTORS
330
1E0
102
}
330
1E0
100
AcDbXrecord
 10
0.0
 20
0.0
 30
0.0
  0
XRECORD
  5
1F0
102
{ACAD_REACTORS
330
1E0
102
}
330
1E0
100
AcDbXrecord
 10
0.0
 20
0.0
 30
0.0
  0
XRECORD
  5
1ED
102
{ACAD_REACTORS
330
1E0
102
}
330
1E0
100
AcDbXrecord
340
0
  0
XRECORD
  5
1EE
102
{ACAD_REACTORS
330
1E0
102
}
330
1E0
100
AcDbXrecord
 70
     0
  0
XRECORD
  5
1E4
102
{ACAD_REACTORS
330
1E0
102
}
330
1E0
100
AcDbXrecord
  1

  0
XRECORD
  5
1E1
102
{ACAD_REACTORS
330
1E0
102
}
330
1E0
100
AcDbXrecord
 90
        1
  0
XRECORD
  5
1E2
102
{ACAD_REACTORS
330
1E0
102
}
330
1E0
100
AcDbXrecord
 90
       70
  0
XRECORD
  5
1F8
102
{ACAD_REACTORS
330
1E0
102
}
330
1E0
100
AcDbXrecord
340
0
  0
XRECORD
  5
1FE
102
{ACAD_REACTORS
330
1E0
102
}
330
1E0
100
AcDbXrecord
 10
0.0
 20
0.0
 30
0.0
  0
XRECORD
  5
1FA
102
{ACAD_REACTORS
330
1E0
102
}
330
1E0
100
AcDbXrecord
 10
0.0
 20
0.0
 30
0.0
  0
XRECORD
  5
1FD
102
{ACAD_REACTORS
330
1E0
102
}
330
1E0
100
AcDbXrecord
 10
0.0
 20
0.0
 30
0.0
  0
XRECORD
  5
1FB
102
{ACAD_REACTORS
330
1E0
102
}
330
1E0
100
AcDbXrecord
 10
0.0
 20
0.0
 30
0.0
  0
XRECORD
  5
1FC
102
{ACAD_REACTORS
330
1E0
102
}
330
1E0
100
AcDbXrecord
 10
0.0
 20
0.0
 30
0.0
  0
XRECORD
  5
1F9
102
{ACAD_REACTORS
330
1E0
102
}
330
1E0
100
AcDbXrecord
 10
0.0
 20
0.0
 30
0.0
  0
XRECORD
  5
1F6
102
{ACAD_REACTORS
330
1E0
102
}
330
1E0
100
AcDbXrecord
340
0
  0
XRECORD
  5
1F7
102
{ACAD_REACTORS
330
1E0
102
}
330
1E0
100
AcDbXrecord
 70
     0
  0
XRECORD
  5
1EB
102
{ACAD_REACTORS
330
1E0
102
}
330
1E0
100
AcDbXrecord
  1
{FAEB1C32-E019-11D5-929B-00C0DF256EC4}
  0
ENDSEC
  0
EOF
