  0
SECTION
  2
HEADER
  9
$ACADVER
  1
AC1014
  9
$ACADMAINTVER
 70
     9
  9
$DWGCODEPAGE
  3
ANSI_932
  9
$INSBASE
 10
0.0
 20
0.0
 30
0.0
  9
$EXTMIN
 10
0.0
 20
0.0
 30
0.0
  9
$EXTMAX
 10
297.0
 20
210.0
 30
0.0
  9
$LIMMIN
 10
0.0
 20
0.0
  9
$LIMMAX
 10
297.0
 20
210.0
  9
$ORTHOMODE
 70
     0
  9
$REGENMODE
 70
     1
  9
$FILLMODE
 70
     1
  9
$QTEXTMODE
 70
     0
  9
$MIRRTEXT
 70
     1
  9
$DRAGMODE
 70
     2
  9
$LTSCALE
 40
1.0
  9
$OSMODE
 70
    37
  9
$ATTMODE
 70
     1
  9
$TEXTSIZE
 40
0.2
  9
$TRACEWID
 40
0.05
  9
$TEXTSTYLE
  7
STYLE1
  9
$CLAYER
  8
0
  9
$CELTYPE
  6
BYLAYER
  9
$CECOLOR
 62
   256
  9
$CELTSCALE
 40
1.0
  9
$DELOBJ
 70
     1
  9
$DISPSILH
 70
     0
  9
$DIMSCALE
 40
1.0
  9
$DIMASZ
 40
3.0
  9
$DIMEXO
 40
1.0
  9
$DIMDLI
 40
8.0
  9
$DIMRND
 40
0.0
  9
$DIMDLE
 40
6.0
  9
$DIMEXE
 40
1.0
  9
$DIMTP
 40
0.0
  9
$DIMTM
 40
0.0
  9
$DIMTXT
 40
4.0
  9
$DIMCEN
 40
2.5
  9
$DIMTSZ
 40
0.0
  9
$DIMTOL
 70
     0
  9
$DIMLIM
 70
     0
  9
$DIMTIH
 70
     0
  9
$DIMTOH
 70
     0
  9
$DIMSE1
 70
     0
  9
$DIMSE2
 70
     0
  9
$DIMTAD
 70
     1
  9
$DIMZIN
 70
     8
  9
$DIMBLK
  1

  9
$DIMASO
 70
     1
  9
$DIMSHO
 70
     1
  9
$DIMPOST
  1

  9
$DIMAPOST
  1

  9
$DIMALT
 70
     0
  9
$DIMALTD
 70
     3
  9
$DIMALTF
 40
0.03937
  9
$DIMLFAC
 40
1.0
  9
$DIMTOFL
 70
     1
  9
$DIMTVP
 40
0.0
  9
$DIMTIX
 70
     0
  9
$DIMSOXD
 70
     0
  9
$DIMSAH
 70
     1
  9
$DIMBLK1
  1
FXTIP_ARROW_S
  9
$DIMBLK2
  1
FXTIP_ARROW_E
  9
$DIMSTYLE
  2
FXDIMINFO
  9
$DIMCLRD
 70
     7
  9
$DIMCLRE
 70
     7
  9
$DIMCLRT
 70
     7
  9
$DIMTFAC
 40
1.0
  9
$DIMGAP
 40
1.0
  9
$DIMJUST
 70
     0
  9
$DIMSD1
 70
     0
  9
$DIMSD2
 70
     0
  9
$DIMTOLJ
 70
     0
  9
$DIMTZIN
 70
     8
  9
$DIMALTZ
 70
     0
  9
$DIMALTTZ
 70
     0
  9
$DIMFIT
 70
     3
  9
$DIMUPT
 70
     0
  9
$DIMUNIT
 70
     2
  9
$DIMDEC
 70
     2
  9
$DIMTDEC
 70
     2
  9
$DIMALTU
 70
     2
  9
$DIMALTTD
 70
     3
  9
$DIMTXSTY
  7
STYLE1
  9
$DIMAUNIT
 70
     0
  9
$LUNITS
 70
     2
  9
$LUPREC
 70
     4
  9
$SKETCHINC
 40
0.1
  9
$FILLETRAD
 40
0.5
  9
$AUNITS
 70
     0
  9
$AUPREC
 70
     0
  9
$MENU
  1
.
  9
$ELEVATION
 40
0.0
  9
$PELEVATION
 40
0.0
  9
$THICKNESS
 40
0.0
  9
$LIMCHECK
 70
     0
  9
$CHAMFERA
 40
0.5
  9
$CHAMFERB
 40
0.5
  9
$CHAMFERC
 40
1.0
  9
$CHAMFERD
 40
0.0
  9
$SKPOLY
 70
     0
  9
$TDCREATE
 40
2455300.724048796
  9
$TDUPDATE
 40
2455300.724048808
  9
$TDINDWG
 40
0.0000000116
  9
$TDUSRTIMER
 40
0.0000000116
  9
$USRTIMER
 70
     1
  9
$ANGBASE
 50
0.0
  9
$ANGDIR
 70
     0
  9
$PDMODE
 70
     0
  9
$PDSIZE
 40
0.0
  9
$PLINEWID
 40
0.0
  9
$COORDS
 70
     1
  9
$SPLFRAME
 70
     0
  9
$SPLINETYPE
 70
     6
  9
$SPLINESEGS
 70
     8
  9
$ATTDIA
 70
     0
  9
$ATTREQ
 70
     1
  9
$HANDLING
 70
     1
  9
$HANDSEED
  5
255
  9
$SURFTAB1
 70
     6
  9
$SURFTAB2
 70
     6
  9
$SURFTYPE
 70
     6
  9
$SURFU
 70
     6
  9
$SURFV
 70
     6
  9
$UCSNAME
  2

  9
$UCSORG
 10
0.0
 20
0.0
 30
0.0
  9
$UCSXDIR
 10
1.0
 20
0.0
 30
0.0
  9
$UCSYDIR
 10
0.0
 20
1.0
 30
0.0
  9
$PUCSNAME
  2

  9
$PUCSORG
 10
0.0
 20
0.0
 30
0.0
  9
$PUCSXDIR
 10
1.0
 20
0.0
 30
0.0
  9
$PUCSYDIR
 10
0.0
 20
1.0
 30
0.0
  9
$USERI1
 70
     0
  9
$USERI2
 70
     0
  9
$USERI3
 70
     0
  9
$USERI4
 70
     0
  9
$USERI5
 70
     0
  9
$USERR1
 40
0.0
  9
$USERR2
 40
0.0
  9
$USERR3
 40
0.0
  9
$USERR4
 40
0.0
  9
$USERR5
 40
0.0
  9
$WORLDVIEW
 70
     1
  9
$SHADEDGE
 70
     3
  9
$SHADEDIF
 70
    70
  9
$TILEMODE
 70
     1
  9
$MAXACTVP
 70
    64
  9
$PINSBASE
 10
0.0
 20
0.0
 30
0.0
  9
$PLIMCHECK
 70
     0
  9
$PEXTMIN
 10
1.000000E+20
 20
1.000000E+20
 30
1.000000E+20
  9
$PEXTMAX
 10
-1.000000E+20
 20
-1.000000E+20
 30
-1.000000E+20
  9
$PLIMMIN
 10
0.0
 20
0.0
  9
$PLIMMAX
 10
12.0
 20
9.0
  9
$UNITMODE
 70
     0
  9
$VISRETAIN
 70
     1
  9
$PLINEGEN
 70
     0
  9
$PSLTSCALE
 70
     1
  9
$TREEDEPTH
 70
  3020
  9
$PICKSTYLE
 70
     1
  9
$CMLSTYLE
  2
STANDARD
  9
$CMLJUST
 70
     0
  9
$CMLSCALE
 40
1.0
  9
$PROXYGRAPHICS
 70
     1
  9
$MEASUREMENT
 70
     0
  0
ENDSEC
  0
SECTION
  2
CLASSES
  0
CLASS
  1
ACDBDICTIONARYWDFLT
  2
AcDbDictionaryWithDefault
  3
ObjectDBX Classes
 90
        0
280
     0
281
     0
  0
CLASS
  1
XRECORD
  2
AcDbXrecord
  3
AutoCAD 2000
 90
        0
280
     0
281
     0
  0
CLASS
  1
LWPOLYLINE
  2
AcDbPolyline
  3
AutoCAD 2000
 90
        0
280
     0
281
     1
  0
CLASS
  1
HATCH
  2
AcDbHatch
  3
AutoCAD 2000
 90
        0
280
     0
281
     1
  0
CLASS
  1
ACDBPLACEHOLDER
  2
AcDbPlaceHolder
  3
ObjectDBX Classes
 90
        0
280
     0
281
     0
  0
CLASS
  1
LAYOUT
  2
AcDbLayout
  3
ObjectDBX Classes
 90
        0
280
     0
281
     0
  0
ENDSEC
  0
SECTION
  2
TABLES
  0
TABLE
  2
VPORT
  5
8
330
0
100
AcDbSymbolTable
 70
     1
  0
VPORT
  5
29
330
8
100
AcDbSymbolTableRecord
100
AcDbViewportTableRecord
  2
*ACTIVE
 70
     0
 10
0.0
 20
0.0
 11
1.0
 21
1.0
 12
148.5
 22
105.0
 13
0.0
 23
0.0
 14
0.5
 24
0.5
 15
0.5
 25
0.5
 16
0.0
 26
0.0
 36
1.0
 17
0.0
 27
0.0
 37
0.0
 40
210.0
 41
1.414286
 42
50.0
 43
0.0
 44
0.0
 50
0.0
 51
0.0
 71
     0
 72
   100
 73
     1
 74
     3
 75
     0
 76
     0
 77
     0
 78
     0
  0
ENDTAB
  0
TABLE
  2
LTYPE
  5
5
330
0
100
AcDbSymbolTable
 70
     4
  0
LTYPE
  5
14
330
5
100
AcDbSymbolTableRecord
100
AcDbLinetypeTableRecord
  2
BYBLOCK
 70
     0
  3

 72
    65
 73
     0
 40
0.0
  0
LTYPE
  5
15
330
5
100
AcDbSymbolTableRecord
100
AcDbLinetypeTableRecord
  2
BYLAYER
 70
     0
  3

 72
    65
 73
     0
 40
0.0
  0
LTYPE
  5
16
330
5
100
AcDbSymbolTableRecord
100
AcDbLinetypeTableRecord
  2
CONTINUOUS
 70
     0
  3
--------------------
 72
    65
 73
     0
 40
0.0
  0
LTYPE
  5
2A
330
5
100
AcDbSymbolTableRecord
100
AcDbLinetypeTableRecord
  2
CENTER
 70
     0
  3
Center ____ _ ____ _ ____ _ ____ _ ____ _ ____
 72
    65
 73
     4
 40
13.0
 49
10.0
 74
     0
 49
-1.0
 74
     0
 49
1.0
 74
     0
 49
-1.0
 74
     0
  0
ENDTAB
  0
TABLE
  2
LAYER
  5
2
330
0
100
AcDbSymbolTable
 70
    20
  0
LAYER
  5
10
330
2
100
AcDbSymbolTableRecord
100
AcDbLayerTableRecord
  2
0
 70
     0
 62
     7
  6
CONTINUOUS
  0
LAYER
  5
2D
330
2
100
AcDbSymbolTableRecord
100
AcDbLayerTableRecord
  2
LAYERGROUP-1
 70
     0
 62
     3
  6
CONTINUOUS
  0
LAYER
  5
3D
330
2
100
AcDbSymbolTableRecord
100
AcDbLayerTableRecord
  2
}}ﾊﾊGG血CCТ
 70
     0
 62
     3
  6
CONTINUOUS
  0
LAYER
  5
AA
330
2
100
AcDbSymbolTableRecord
100
AcDbLayerTableRecord
  2
GR1-1
 70
     0
 62
     7
  6
CONTINUOUS
  0
LAYER
  5
218
330
2
100
AcDbSymbolTableRecord
100
AcDbLayerTableRecord
  2
0-1
 70
     0
 62
     7
  6
CONTINUOUS
  0
ENDTAB
  0
TABLE
  2
STYLE
  5
3
330
0
100
AcDbSymbolTable
 70
     4
  0
STYLE
  5
11
330
3
100
AcDbSymbolTableRecord
100
AcDbTextStyleTableRecord
  2
STANDARD
 70
     0
 40
0.0
 41
1.0
 50
0.0
 71
     0
 42
0.2
  3
txt
  4

  0
STYLE
  5
3F
330
3
100
AcDbSymbolTableRecord
100
AcDbTextStyleTableRecord
  2
STYLE1
 70
     0
 40
0.0
 41
1.0
 50
0.0
 71
     0
 42
0.2
  3
MONOTXT.SHX
  4
extfont.shx
  0
STYLE
  5
40
330
3
100
AcDbSymbolTableRecord
100
AcDbTextStyleTableRecord
  2
FX_VECTOR
 70
     0
 40
0.0
 41
1.0
 50
0.0
 71
     0
 42
0.2
  3
MONOTXT.SHX
  4
BIGFONT.SHX
  0
ENDTAB
  0
TABLE
  2
VIEW
  5
6
330
0
100
AcDbSymbolTable
 70
     0
  0
ENDTAB
  0
TABLE
  2
UCS
  5
7
330
0
100
AcDbSymbolTable
 70
     0
  0
ENDTAB
  0
TABLE
  2
APPID
  5
9
330
0
100
AcDbSymbolTable
 70
     1
  0
APPID
  5
12
330
9
100
AcDbSymbolTableRecord
100
AcDbRegAppTableRecord
  2
ACAD
 70
     0
  0
ENDTAB
  0
TABLE
  2
DIMSTYLE
  5
A
330
0
100
AcDbSymbolTable
 70
     2
  0
DIMSTYLE
105
27
330
A
100
AcDbSymbolTableRecord
100
AcDbDimStyleTableRecord
  2
STANDARD
 70
     0
  3

  4

  5

  6

  7

 40
1.0
 41
0.18
 42
0.0625
 43
0.38
 44
0.18
 45
0.0
 46
0.0
 47
0.0
 48
0.0
140
0.18
141
0.09
142
0.0
143
25.4
144
1.0
145
0.0
146
1.0
147
0.09
 71
     0
 72
     0
 73
     1
 74
     1
 75
     0
 76
     0
 77
     0
 78
     0
170
     0
171
     2
172
     0
173
     0
174
     0
175
     0
176
     0
177
     0
178
     0
270
     2
271
     4
272
     4
273
     2
274
     2
340
11
275
     0
280
     0
281
     0
282
     0
283
     1
284
     0
285
     0
286
     0
287
     3
288
     0
  0
DIMSTYLE
105
A7
102
{ACAD_REACTORS
330
E5
330
1E8
330
1F2
330
1FE
102
}
330
A
100
AcDbSymbolTableRecord
100
AcDbDimStyleTableRecord
  2
FXDIMINFO
 70
     0
  3

  4

  5

  6
FXTIP_ARROW_S
  7
FXTIP_ARROW_E
 40
1.0
 41
3.0
 42
1.0
 43
8.0
 44
1.0
 45
0.0
 46
6.0
 47
0.0
 48
0.0
140
4.0
141
2.5
142
0.0
143
0.03937
144
1.0
145
0.0
146
1.0
147
1.0
 71
     0
 72
     0
 73
     0
 74
     0
 75
     0
 76
     0
 77
     1
 78
     8
170
     0
171
     3
172
     1
173
     1
174
     0
175
     0
176
     7
177
     7
178
     7
179
     2
270
     2
271
     2
272
     2
273
     2
274
     3
340
3F
275
     0
280
     0
281
     0
282
     0
283
     0
284
     8
285
     0
286
     0
287
     3
288
     0
  0
ENDTAB
  0
TABLE
  2
BLOCK_RECORD
  5
1
330
0
100
AcDbSymbolTable
 70
    27
  0
BLOCK_RECORD
  5
1F
330
1
100
AcDbSymbolTableRecord
100
AcDbBlockTableRecord
  2
*MODEL_SPACE
  0
BLOCK_RECORD
  5
1B
330
1
100
AcDbSymbolTableRecord
100
AcDbBlockTableRecord
  2
*PAPER_SPACE
  0
BLOCK_RECORD
  5
41
330
1
100
AcDbSymbolTableRecord
100
AcDbBlockTableRecord
  2
FXTIP_ARROW_S
  0
BLOCK_RECORD
  5
47
330
1
100
AcDbSymbolTableRecord
100
AcDbBlockTableRecord
  2
FXTIP_ARROW_E
  0
BLOCK_RECORD
  5
4D
330
1
100
AcDbSymbolTableRecord
100
AcDbBlockTableRecord
  2
FXTIP_BLACKDOT_S
  0
BLOCK_RECORD
  5
53
330
1
100
AcDbSymbolTableRecord
100
AcDbBlockTableRecord
  2
FXTIP_BLACKDOT_E
  0
BLOCK_RECORD
  5
59
330
1
100
AcDbSymbolTableRecord
100
AcDbBlockTableRecord
  2
FXTIP_TRIANGLE_S
  0
BLOCK_RECORD
  5
60
330
1
100
AcDbSymbolTableRecord
100
AcDbBlockTableRecord
  2
FXTIP_TRIANGLE_E
  0
BLOCK_RECORD
  5
67
330
1
100
AcDbSymbolTableRecord
100
AcDbBlockTableRecord
  2
FXTIP_ARCHITECT_S
  0
BLOCK_RECORD
  5
6D
330
1
100
AcDbSymbolTableRecord
100
AcDbBlockTableRecord
  2
FXTIP_ARCHITECT_E
  0
BLOCK_RECORD
  5
73
330
1
100
AcDbSymbolTableRecord
100
AcDbBlockTableRecord
  2
FXTIP_CIVIL_S
  0
BLOCK_RECORD
  5
79
330
1
100
AcDbSymbolTableRecord
100
AcDbBlockTableRecord
  2
FXTIP_CIVIL_E
  0
BLOCK_RECORD
  5
7F
330
1
100
AcDbSymbolTableRecord
100
AcDbBlockTableRecord
  2
FXTIP_WHITEDOT_S
  0
BLOCK_RECORD
  5
84
330
1
100
AcDbSymbolTableRecord
100
AcDbBlockTableRecord
  2
FXTIP_WHITEDOT_E
  0
BLOCK_RECORD
  5
89
330
1
100
AcDbSymbolTableRecord
100
AcDbBlockTableRecord
  2
FXTIP_UPARROW_S
  0
BLOCK_RECORD
  5
8E
330
1
100
AcDbSymbolTableRecord
100
AcDbBlockTableRecord
  2
FXTIP_UPARROW_E
  0
BLOCK_RECORD
  5
93
330
1
100
AcDbSymbolTableRecord
100
AcDbBlockTableRecord
  2
FXTIP_DOWNARROW_S
  0
BLOCK_RECORD
  5
98
330
1
100
AcDbSymbolTableRecord
100
AcDbBlockTableRecord
  2
FXTIP_DOWNARROW_E
  0
BLOCK_RECORD
  5
9D
330
1
100
AcDbSymbolTableRecord
100
AcDbBlockTableRecord
  2
FXTIP_BLACKTRIANGLE_S
  0
BLOCK_RECORD
  5
A2
330
1
100
AcDbSymbolTableRecord
100
AcDbBlockTableRecord
  2
FXTIP_BLACKTRIANGLE_E
  0
BLOCK_RECORD
  5
E6
330
1
100
AcDbSymbolTableRecord
100
AcDbBlockTableRecord
  2
*D19
  0
BLOCK_RECORD
  5
F9
330
1
100
AcDbSymbolTableRecord
100
AcDbBlockTableRecord
  2
BLKF022
  0
BLOCK_RECORD
  5
1E9
330
1
100
AcDbSymbolTableRecord
100
AcDbBlockTableRecord
  2
*D21
  0
BLOCK_RECORD
  5
1F3
330
1
100
AcDbSymbolTableRecord
100
AcDbBlockTableRecord
  2
*D22
  0
BLOCK_RECORD
  5
1FF
330
1
100
AcDbSymbolTableRecord
100
AcDbBlockTableRecord
  2
*D23
  0
BLOCK_RECORD
  5
208
330
1
100
AcDbSymbolTableRecord
100
AcDbBlockTableRecord
  2
BLKF026
  0
BLOCK_RECORD
  5
214
330
1
100
AcDbSymbolTableRecord
100
AcDbBlockTableRecord
  2
BLKF027
  0
BLOCK_RECORD
  5
21D
330
1
100
AcDbSymbolTableRecord
100
AcDbBlockTableRecord
  2
BLKF028
  0
ENDTAB
  0
ENDSEC
  0
SECTION
  2
BLOCKS
  0
BLOCK
  5
20
330
1F
100
AcDbEntity
  8
0
100
AcDbBlockBegin
  2
*MODEL_SPACE
 70
     0
 71
     0
 10
0.0
 20
0.0
 30
0.0
  3
*MODEL_SPACE
  1

  0
ENDBLK
  5
21
330
1F
100
AcDbEntity
  8
0
100
AcDbBlockEnd
  0
BLOCK
  5
1C
330
1B
100
AcDbEntity
 67
     1
  8
0
100
AcDbBlockBegin
  2
*PAPER_SPACE
 70
     0
 71
     0
 10
0.0
 20
0.0
 30
0.0
  3
*PAPER_SPACE
  1

  0
ENDBLK
  5
1D
330
1B
100
AcDbEntity
 67
     1
  8
0
100
AcDbBlockEnd
  0
BLOCK
  5
42
330
41
100
AcDbEntity
  8
0
100
AcDbBlockBegin
  2
FXTIP_ARROW_S
 70
     0
 71
     0
 10
0.0
 20
0.0
 30
0.0
  3
FXTIP_ARROW_S
  1

  0
LINE
  5
44
330
41
100
AcDbEntity
  8
0
  6
CONTINUOUS
 62
     0
100
AcDbLine
 10
0.0
 20
0.0
 30
0.0
 11
-1.0
 21
0.0
 31
0.0
  0
LINE
  5
45
330
41
100
AcDbEntity
  8
0
  6
CONTINUOUS
 62
     0
100
AcDbLine
 10
0.0
 20
0.0
 30
0.0
 11
-0.965926
 21
-0.258819
 31
0.0
  0
LINE
  5
46
330
41
100
AcDbEntity
  8
0
  6
CONTINUOUS
 62
     0
100
AcDbLine
 10
0.0
 20
0.0
 30
0.0
 11
-0.965926
 21
0.258819
 31
0.0
  0
ENDBLK
  5
43
330
41
100
AcDbEntity
  8
0
100
AcDbBlockEnd
  0
BLOCK
  5
48
330
47
100
AcDbEntity
  8
0
100
AcDbBlockBegin
  2
FXTIP_ARROW_E
 70
     0
 71
     0
 10
0.0
 20
0.0
 30
0.0
  3
FXTIP_ARROW_E
  1

  0
LINE
  5
4A
330
47
100
AcDbEntity
  8
0
  6
CONTINUOUS
 62
     0
100
AcDbLine
 10
0.0
 20
0.0
 30
0.0
 11
-1.0
 21
0.0
 31
0.0
  0
LINE
  5
4B
330
47
100
AcDbEntity
  8
0
  6
CONTINUOUS
 62
     0
100
AcDbLine
 10
0.0
 20
0.0
 30
0.0
 11
-0.965926
 21
0.258819
 31
0.0
  0
LINE
  5
4C
330
47
100
AcDbEntity
  8
0
  6
CONTINUOUS
 62
     0
100
AcDbLine
 10
0.0
 20
0.0
 30
0.0
 11
-0.965926
 21
-0.258819
 31
0.0
  0
ENDBLK
  5
49
330
47
100
AcDbEntity
  8
0
100
AcDbBlockEnd
  0
BLOCK
  5
4E
330
4D
100
AcDbEntity
  8
0
100
AcDbBlockBegin
  2
FXTIP_BLACKDOT_S
 70
     0
 71
     0
 10
0.0
 20
0.0
 30
0.0
  3
FXTIP_BLACKDOT_S
  1

  0
LINE
  5
50
330
4D
100
AcDbEntity
  8
0
  6
CONTINUOUS
 62
     0
100
AcDbLine
 10
0.0
 20
0.0
 30
0.0
 11
-1.0
 21
0.0
 31
0.0
  0
LWPOLYLINE
  5
51
330
4D
100
AcDbEntity
  8
0
  6
CONTINUOUS
 62
     0
100
AcDbPolyline
 90
        2
 70
     1
 10
-0.25
 20
0.0
 40
0.5
 41
0.5
 42
1.0
 10
0.25
 20
0.0
 40
0.5
 41
0.5
 42
1.0
  0
CIRCLE
  5
52
330
4D
100
AcDbEntity
  8
0
  6
CONTINUOUS
 62
     0
100
AcDbCircle
 10
0.0
 20
0.0
 30
0.0
 40
0.5
  0
ENDBLK
  5
4F
330
4D
100
AcDbEntity
  8
0
100
AcDbBlockEnd
  0
BLOCK
  5
54
330
53
100
AcDbEntity
  8
0
100
AcDbBlockBegin
  2
FXTIP_BLACKDOT_E
 70
     0
 71
     0
 10
0.0
 20
0.0
 30
0.0
  3
FXTIP_BLACKDOT_E
  1

  0
LINE
  5
56
330
53
100
AcDbEntity
  8
0
  6
CONTINUOUS
 62
     0
100
AcDbLine
 10
0.0
 20
0.0
 30
0.0
 11
-1.0
 21
0.0
 31
0.0
  0
LWPOLYLINE
  5
57
330
53
100
AcDbEntity
  8
0
  6
CONTINUOUS
 62
     0
100
AcDbPolyline
 90
        2
 70
     1
 10
-0.25
 20
0.0
 40
0.5
 41
0.5
 42
1.0
 10
0.25
 20
0.0
 40
0.5
 41
0.5
 42
1.0
  0
CIRCLE
  5
58
330
53
100
AcDbEntity
  8
0
  6
CONTINUOUS
 62
     0
100
AcDbCircle
 10
0.0
 20
0.0
 30
0.0
 40
0.5
  0
ENDBLK
  5
55
330
53
100
AcDbEntity
  8
0
100
AcDbBlockEnd
  0
BLOCK
  5
5A
330
59
100
AcDbEntity
  8
0
100
AcDbBlockBegin
  2
FXTIP_TRIANGLE_S
 70
     0
 71
     0
 10
0.0
 20
0.0
 30
0.0
  3
FXTIP_TRIANGLE_S
  1

  0
LINE
  5
5C
330
59
100
AcDbEntity
  8
0
  6
CONTINUOUS
 62
     0
100
AcDbLine
 10
0.0
 20
0.0
 30
0.0
 11
-1.0
 21
0.0
 31
0.0
  0
LINE
  5
5D
330
59
100
AcDbEntity
  8
0
  6
CONTINUOUS
 62
     0
100
AcDbLine
 10
0.0
 20
0.0
 30
0.0
 11
-0.965926
 21
-0.258819
 31
0.0
  0
LINE
  5
5E
330
59
100
AcDbEntity
  8
0
  6
CONTINUOUS
 62
     0
100
AcDbLine
 10
0.0
 20
0.0
 30
0.0
 11
-0.965926
 21
0.258819
 31
0.0
  0
LINE
  5
5F
330
59
100
AcDbEntity
  8
0
  6
CONTINUOUS
 62
     0
100
AcDbLine
 10
-0.965926
 20
-0.258819
 30
0.0
 11
-0.965926
 21
0.258819
 31
0.0
  0
ENDBLK
  5
5B
330
59
100
AcDbEntity
  8
0
100
AcDbBlockEnd
  0
BLOCK
  5
61
330
60
100
AcDbEntity
  8
0
100
AcDbBlockBegin
  2
FXTIP_TRIANGLE_E
 70
     0
 71
     0
 10
0.0
 20
0.0
 30
0.0
  3
FXTIP_TRIANGLE_E
  1

  0
LINE
  5
63
330
60
100
AcDbEntity
  8
0
  6
CONTINUOUS
 62
     0
100
AcDbLine
 10
0.0
 20
0.0
 30
0.0
 11
-1.0
 21
0.0
 31
0.0
  0
LINE
  5
64
330
60
100
AcDbEntity
  8
0
  6
CONTINUOUS
 62
     0
100
AcDbLine
 10
0.0
 20
0.0
 30
0.0
 11
-0.965926
 21
0.258819
 31
0.0
  0
LINE
  5
65
330
60
100
AcDbEntity
  8
0
  6
CONTINUOUS
 62
     0
100
AcDbLine
 10
0.0
 20
0.0
 30
0.0
 11
-0.965926
 21
-0.258819
 31
0.0
  0
LINE
  5
66
330
60
100
AcDbEntity
  8
0
  6
CONTINUOUS
 62
     0
100
AcDbLine
 10
-0.965926
 20
0.258819
 30
0.0
 11
-0.965926
 21
-0.258819
 31
0.0
  0
ENDBLK
  5
62
330
60
100
AcDbEntity
  8
0
100
AcDbBlockEnd
  0
BLOCK
  5
68
330
67
100
AcDbEntity
  8
0
100
AcDbBlockBegin
  2
FXTIP_ARCHITECT_S
 70
     0
 71
     0
 10
0.0
 20
0.0
 30
0.0
  3
FXTIP_ARCHITECT_S
  1

  0
LINE
  5
6A
330
67
100
AcDbEntity
  8
0
  6
CONTINUOUS
 62
     0
100
AcDbLine
 10
0.0
 20
0.0
 30
0.0
 11
-1.0
 21
0.0
 31
0.0
  0
LINE
  5
6B
330
67
100
AcDbEntity
  8
0
  6
CONTINUOUS
 62
     0
100
AcDbLine
 10
0.0
 20
0.0
 30
0.0
 11
-0.707107
 21
-0.707107
 31
0.0
  0
LINE
  5
6C
330
67
100
AcDbEntity
  8
0
  6
CONTINUOUS
 62
     0
100
AcDbLine
 10
0.0
 20
0.0
 30
0.0
 11
0.707107
 21
0.707107
 31
0.0
  0
ENDBLK
  5
69
330
67
100
AcDbEntity
  8
0
100
AcDbBlockEnd
  0
BLOCK
  5
6E
330
6D
100
AcDbEntity
  8
0
100
AcDbBlockBegin
  2
FXTIP_ARCHITECT_E
 70
     0
 71
     0
 10
0.0
 20
0.0
 30
0.0
  3
FXTIP_ARCHITECT_E
  1

  0
LINE
  5
70
330
6D
100
AcDbEntity
  8
0
  6
CONTINUOUS
 62
     0
100
AcDbLine
 10
0.0
 20
0.0
 30
0.0
 11
-1.0
 21
0.0
 31
0.0
  0
LINE
  5
71
330
6D
100
AcDbEntity
  8
0
  6
CONTINUOUS
 62
     0
100
AcDbLine
 10
0.0
 20
0.0
 30
0.0
 11
0.707107
 21
0.707107
 31
0.0
  0
LINE
  5
72
330
6D
100
AcDbEntity
  8
0
  6
CONTINUOUS
 62
     0
100
AcDbLine
 10
0.0
 20
0.0
 30
0.0
 11
-0.707107
 21
-0.707107
 31
0.0
  0
ENDBLK
  5
6F
330
6D
100
AcDbEntity
  8
0
100
AcDbBlockEnd
  0
BLOCK
  5
74
330
73
100
AcDbEntity
  8
0
100
AcDbBlockBegin
  2
FXTIP_CIVIL_S
 70
     0
 71
     0
 10
0.0
 20
0.0
 30
0.0
  3
FXTIP_CIVIL_S
  1

  0
LINE
  5
76
330
73
100
AcDbEntity
  8
0
  6
CONTINUOUS
 62
     0
100
AcDbLine
 10
0.0
 20
0.0
 30
0.0
 11
-1.0
 21
0.0
 31
0.0
  0
LINE
  5
77
330
73
100
AcDbEntity
  8
0
  6
CONTINUOUS
 62
     0
100
AcDbLine
 10
0.0
 20
-0.083333
 30
0.0
 11
-1.0
 21
-0.083333
 31
0.0
  0
LINE
  5
78
330
73
100
AcDbEntity
  8
0
  6
CONTINUOUS
 62
     0
100
AcDbLine
 10
0.0
 20
-0.166667
 30
0.0
 11
-1.0
 21
-0.166667
 31
0.0
  0
ENDBLK
  5
75
330
73
100
AcDbEntity
  8
0
100
AcDbBlockEnd
  0
BLOCK
  5
7A
330
79
100
AcDbEntity
  8
0
100
AcDbBlockBegin
  2
FXTIP_CIVIL_E
 70
     0
 71
     0
 10
0.0
 20
0.0
 30
0.0
  3
FXTIP_CIVIL_E
  1

  0
LINE
  5
7C
330
79
100
AcDbEntity
  8
0
  6
CONTINUOUS
 62
     0
100
AcDbLine
 10
0.0
 20
0.0
 30
0.0
 11
-1.0
 21
0.0
 31
0.0
  0
LINE
  5
7D
330
79
100
AcDbEntity
  8
0
  6
CONTINUOUS
 62
     0
100
AcDbLine
 10
0.0
 20
0.083333
 30
0.0
 11
-1.0
 21
0.083333
 31
0.0
  0
LINE
  5
7E
330
79
100
AcDbEntity
  8
0
  6
CONTINUOUS
 62
     0
100
AcDbLine
 10
0.0
 20
0.166667
 30
0.0
 11
-1.0
 21
0.166667
 31
0.0
  0
ENDBLK
  5
7B
330
79
100
AcDbEntity
  8
0
100
AcDbBlockEnd
  0
BLOCK
  5
80
330
7F
100
AcDbEntity
  8
0
100
AcDbBlockBegin
  2
FXTIP_WHITEDOT_S
 70
     0
 71
     0
 10
0.0
 20
0.0
 30
0.0
  3
FXTIP_WHITEDOT_S
  1

  0
LINE
  5
82
330
7F
100
AcDbEntity
  8
0
  6
CONTINUOUS
 62
     0
100
AcDbLine
 10
0.0
 20
0.0
 30
0.0
 11
-1.0
 21
0.0
 31
0.0
  0
CIRCLE
  5
83
330
7F
100
AcDbEntity
  8
0
  6
CONTINUOUS
 62
     0
100
AcDbCircle
 10
0.0
 20
0.0
 30
0.0
 40
0.5
  0
ENDBLK
  5
81
330
7F
100
AcDbEntity
  8
0
100
AcDbBlockEnd
  0
BLOCK
  5
85
330
84
100
AcDbEntity
  8
0
100
AcDbBlockBegin
  2
FXTIP_WHITEDOT_E
 70
     0
 71
     0
 10
0.0
 20
0.0
 30
0.0
  3
FXTIP_WHITEDOT_E
  1

  0
LINE
  5
87
330
84
100
AcDbEntity
  8
0
  6
CONTINUOUS
 62
     0
100
AcDbLine
 10
0.0
 20
0.0
 30
0.0
 11
-1.0
 21
0.0
 31
0.0
  0
CIRCLE
  5
88
330
84
100
AcDbEntity
  8
0
  6
CONTINUOUS
 62
     0
100
AcDbCircle
 10
0.0
 20
0.0
 30
0.0
 40
0.5
  0
ENDBLK
  5
86
330
84
100
AcDbEntity
  8
0
100
AcDbBlockEnd
  0
BLOCK
  5
8A
330
89
100
AcDbEntity
  8
0
100
AcDbBlockBegin
  2
FXTIP_UPARROW_S
 70
     0
 71
     0
 10
0.0
 20
0.0
 30
0.0
  3
FXTIP_UPARROW_S
  1

  0
LINE
  5
8C
330
89
100
AcDbEntity
  8
0
  6
CONTINUOUS
 62
     0
100
AcDbLine
 10
0.0
 20
0.0
 30
0.0
 11
-1.0
 21
0.0
 31
0.0
  0
LINE
  5
8D
330
89
100
AcDbEntity
  8
0
  6
CONTINUOUS
 62
     0
100
AcDbLine
 10
0.0
 20
0.0
 30
0.0
 11
-0.965926
 21
-0.258819
 31
0.0
  0
ENDBLK
  5
8B
330
89
100
AcDbEntity
  8
0
100
AcDbBlockEnd
  0
BLOCK
  5
8F
330
8E
100
AcDbEntity
  8
0
100
AcDbBlockBegin
  2
FXTIP_UPARROW_E
 70
     0
 71
     0
 10
0.0
 20
0.0
 30
0.0
  3
FXTIP_UPARROW_E
  1

  0
LINE
  5
91
330
8E
100
AcDbEntity
  8
0
  6
CONTINUOUS
 62
     0
100
AcDbLine
 10
0.0
 20
0.0
 30
0.0
 11
-1.0
 21
0.0
 31
0.0
  0
LINE
  5
92
330
8E
100
AcDbEntity
  8
0
  6
CONTINUOUS
 62
     0
100
AcDbLine
 10
0.0
 20
0.0
 30
0.0
 11
-0.965926
 21
0.258819
 31
0.0
  0
ENDBLK
  5
90
330
8E
100
AcDbEntity
  8
0
100
AcDbBlockEnd
  0
BLOCK
  5
94
330
93
100
AcDbEntity
  8
0
100
AcDbBlockBegin
  2
FXTIP_DOWNARROW_S
 70
     0
 71
     0
 10
0.0
 20
0.0
 30
0.0
  3
FXTIP_DOWNARROW_S
  1

  0
LINE
  5
96
330
93
100
AcDbEntity
  8
0
  6
CONTINUOUS
 62
     0
100
AcDbLine
 10
0.0
 20
0.0
 30
0.0
 11
-1.0
 21
0.0
 31
0.0
  0
LINE
  5
97
330
93
100
AcDbEntity
  8
0
  6
CONTINUOUS
 62
     0
100
AcDbLine
 10
0.0
 20
0.0
 30
0.0
 11
-0.965926
 21
0.258819
 31
0.0
  0
ENDBLK
  5
95
330
93
100
AcDbEntity
  8
0
100
AcDbBlockEnd
  0
BLOCK
  5
99
330
98
100
AcDbEntity
  8
0
100
AcDbBlockBegin
  2
FXTIP_DOWNARROW_E
 70
     0
 71
     0
 10
0.0
 20
0.0
 30
0.0
  3
FXTIP_DOWNARROW_E
  1

  0
LINE
  5
9B
330
98
100
AcDbEntity
  8
0
  6
CONTINUOUS
 62
     0
100
AcDbLine
 10
0.0
 20
0.0
 30
0.0
 11
-1.0
 21
0.0
 31
0.0
  0
LINE
  5
9C
330
98
100
AcDbEntity
  8
0
  6
CONTINUOUS
 62
     0
100
AcDbLine
 10
0.0
 20
0.0
 30
0.0
 11
-0.965926
 21
-0.258819
 31
0.0
  0
ENDBLK
  5
9A
330
98
100
AcDbEntity
  8
0
100
AcDbBlockEnd
  0
BLOCK
  5
9E
330
9D
100
AcDbEntity
  8
0
100
AcDbBlockBegin
  2
FXTIP_BLACKTRIANGLE_S
 70
     0
 71
     0
 10
0.0
 20
0.0
 30
0.0
  3
FXTIP_BLACKTRIANGLE_S
  1

  0
LINE
  5
A0
330
9D
100
AcDbEntity
  8
0
  6
CONTINUOUS
 62
     0
100
AcDbLine
 10
0.0
 20
0.0
 30
0.0
 11
-1.0
 21
0.0
 31
0.0
  0
SOLID
  5
A1
330
9D
100
AcDbEntity
  8
0
  6
CONTINUOUS
 62
     0
100
AcDbTrace
 10
0.0
 20
0.0
 30
0.0
 11
-0.965926
 21
-0.258819
 31
0.0
 12
-0.965926
 22
0.258819
 32
0.0
 13
-0.965926
 23
0.258819
 33
0.0
  0
ENDBLK
  5
9F
330
9D
100
AcDbEntity
  8
0
100
AcDbBlockEnd
  0
BLOCK
  5
A3
330
A2
100
AcDbEntity
  8
0
100
AcDbBlockBegin
  2
FXTIP_BLACKTRIANGLE_E
 70
     0
 71
     0
 10
0.0
 20
0.0
 30
0.0
  3
FXTIP_BLACKTRIANGLE_E
  1

  0
LINE
  5
A5
330
A2
100
AcDbEntity
  8
0
  6
CONTINUOUS
 62
     0
100
AcDbLine
 10
0.0
 20
0.0
 30
0.0
 11
-1.0
 21
0.0
 31
0.0
  0
SOLID
  5
A6
330
A2
100
AcDbEntity
  8
0
  6
CONTINUOUS
 62
     0
100
AcDbTrace
 10
0.0
 20
0.0
 30
0.0
 11
-0.965926
 21
0.258819
 31
0.0
 12
-0.965926
 22
-0.258819
 32
0.0
 13
-0.965926
 23
-0.258819
 33
0.0
  0
ENDBLK
  5
A4
330
A2
100
AcDbEntity
  8
0
100
AcDbBlockEnd
  0
BLOCK
  5
E7
330
E6
100
AcDbEntity
  8
0
100
AcDbBlockBegin
  2
*D19
 70
     1
 71
     0
 10
0.0
 20
0.0
 30
0.0
  3
*D19
  1

  0
TEXT
  5
E9
330
E6
100
AcDbEntity
  8
LAYERGROUP-1
  6
CONTINUOUS
 62
     7
100
AcDbText
 10
146.249756
 20
119.833015
 30
0.0
 40
4.0
  1
%%c65
 50
90.0
 41
0.84375
  7
FX_VECTOR
 72
     5
 11
146.249756
 21
128.833015
 31
0.0
100
AcDbText
  0
LINE
  5
EA
330
E6
100
AcDbEntity
  8
LAYERGROUP-1
  6
CONTINUOUS
 62
     7
100
AcDbLine
 10
147.249766
 20
91.833015
 30
0.0
 11
147.249766
 21
156.833015
 31
0.0
  0
INSERT
  5
EB
330
E6
100
AcDbEntity
  8
LAYERGROUP-1
  6
CONTINUOUS
 62
     7
100
AcDbBlockReference
  2
FXTIP_ARROW_S
 10
147.249766
 20
91.833015
 30
0.0
 41
3.0
 42
3.0
 50
270.0
  0
INSERT
  5
EC
330
E6
100
AcDbEntity
  8
LAYERGROUP-1
  6
CONTINUOUS
 62
     7
100
AcDbBlockReference
  2
FXTIP_ARROW_E
 10
147.249766
 20
156.833015
 30
0.0
 41
3.0
 42
3.0
 50
90.0
  0
LINE
  5
ED
330
E6
100
AcDbEntity
  8
LAYERGROUP-1
  6
CONTINUOUS
 62
     7
100
AcDbLine
 10
101.523077
 20
91.833015
 30
0.0
 11
148.249766
 21
91.833015
 31
0.0
  0
LINE
  5
EE
330
E6
100
AcDbEntity
  8
LAYERGROUP-1
  6
CONTINUOUS
 62
     7
100
AcDbLine
 10
101.523077
 20
156.833015
 30
0.0
 11
148.249766
 21
156.833015
 31
0.0
  0
ENDBLK
  5
E8
330
E6
100
AcDbEntity
  8
0
100
AcDbBlockEnd
  0
BLOCK
  5
FA
330
F9
100
AcDbEntity
  8
0
100
AcDbBlockBegin
  2
BLKF022
 70
     0
 71
     0
 10
0.0
 20
0.0
 30
0.0
  3
BLKF022
  1

  0
LINE
  5
FD
330
F9
100
AcDbEntity
  8
GR1-1
  6
CONTINUOUS
 62
     7
100
AcDbLine
 10
196.828125
 20
142.788243
 30
0.0
 11
196.808951
 21
143.007405
 31
0.0
  0
LINE
  5
FE
330
F9
100
AcDbEntity
  8
GR1-1
  6
CONTINUOUS
 62
     7
100
AcDbLine
 10
196.728131
 20
142.669074
 30
0.0
 11
196.689782
 21
143.1074
 31
0.0
  0
LINE
  5
FF
330
F9
100
AcDbEntity
  8
GR1-1
  6
CONTINUOUS
 62
     7
100
AcDbLine
 10
196.628136
 20
142.549905
 30
0.0
 11
196.570614
 21
143.207394
 31
0.0
  0
LINE
  5
100
330
F9
100
AcDbEntity
  8
GR1-1
  6
CONTINUOUS
 62
     7
100
AcDbLine
 10
196.528142
 20
142.430737
 30
0.0
 11
196.451445
 21
143.307388
 31
0.0
  0
LINE
  5
101
330
F9
100
AcDbEntity
  8
GR1-1
  6
CONTINUOUS
 62
     7
100
AcDbLine
 10
196.428148
 20
142.311568
 30
0.0
 11
196.362005
 21
143.067581
 31
0.0
  0
LINE
  5
102
330
F9
100
AcDbEntity
  8
GR1-1
  6
CONTINUOUS
 62
     7
100
AcDbLine
 10
196.343908
 20
143.274438
 30
0.0
 11
196.332276
 21
143.407383
 31
0.0
  0
LINE
  5
103
330
F9
100
AcDbEntity
  8
GR1-1
  6
CONTINUOUS
 62
     7
100
AcDbLine
 10
196.328153
 20
142.1924
 30
0.0
 11
196.262011
 21
142.948412
 31
0.0
  0
LINE
  5
104
330
F9
100
AcDbEntity
  8
GR1-1
  6
CONTINUOUS
 62
     7
100
AcDbLine
 10
196.224739
 20
143.374432
 30
0.0
 11
196.213108
 21
143.507377
 31
0.0
  0
LINE
  5
105
330
F9
100
AcDbEntity
  8
GR1-1
  6
CONTINUOUS
 62
     7
100
AcDbLine
 10
196.228159
 20
142.073231
 30
0.0
 11
196.162017
 21
142.829244
 31
0.0
  0
LINE
  5
106
330
F9
100
AcDbEntity
  8
GR1-1
  6
CONTINUOUS
 62
     7
100
AcDbLine
 10
196.10557
 20
143.474427
 30
0.0
 11
196.093939
 21
143.607371
 31
0.0
  0
LINE
  5
107
330
F9
100
AcDbEntity
  8
GR1-1
  6
CONTINUOUS
 62
     7
100
AcDbLine
 10
196.128165
 20
141.954063
 30
0.0
 11
196.054193
 21
142.799563
 31
0.0
  0
LINE
  5
108
330
F9
100
AcDbEntity
  8
GR1-1
  6
CONTINUOUS
 62
     7
100
AcDbLine
 10
195.986402
 20
143.574421
 30
0.0
 11
195.974771
 21
143.707365
 31
0.0
  0
LINE
  5
109
330
F9
100
AcDbEntity
  8
GR1-1
  6
CONTINUOUS
 62
     7
100
AcDbLine
 10
196.028171
 20
141.834894
 30
0.0
 11
195.935025
 21
142.899557
 31
0.0
  0
LINE
  5
10A
330
F9
100
AcDbEntity
  8
GR1-1
  6
CONTINUOUS
 62
     7
100
AcDbLine
 10
195.867233
 20
143.674415
 30
0.0
 11
195.855602
 21
143.80736
 31
0.0
  0
LINE
  5
10B
330
F9
100
AcDbEntity
  8
GR1-1
  6
CONTINUOUS
 62
     7
100
AcDbLine
 10
195.928176
 20
141.715726
 30
0.0
 11
195.815856
 21
142.999552
 31
0.0
  0
LINE
  5
10C
330
F9
100
AcDbEntity
  8
GR1-1
  6
CONTINUOUS
 62
     7
100
AcDbLine
 10
195.748065
 20
143.774409
 30
0.0
 11
195.736434
 21
143.907354
 31
0.0
  0
LINE
  5
10D
330
F9
100
AcDbEntity
  8
GR1-1
  6
CONTINUOUS
 62
     7
100
AcDbLine
 10
195.828182
 20
141.596557
 30
0.0
 11
195.70229
 21
143.035514
 31
0.0
  0
LINE
  5
10E
330
F9
100
AcDbEntity
  8
GR1-1
  6
CONTINUOUS
 62
     7
100
AcDbLine
 10
195.628896
 20
143.874404
 30
0.0
 11
195.617265
 21
144.007348
 31
0.0
  0
LINE
  5
10F
330
F9
100
AcDbEntity
  8
GR1-1
  6
CONTINUOUS
 62
     7
100
AcDbLine
 10
195.728188
 20
141.477389
 30
0.0
 11
195.709013
 21
141.696551
 31
0.0
  0
LINE
  5
110
330
F9
100
AcDbEntity
  8
GR1-1
  6
CONTINUOUS
 62
     7
100
AcDbLine
 10
195.524814
 20
143.801961
 30
0.0
 11
195.498097
 21
144.107343
 31
0.0
  0
LINE
  5
111
330
F9
100
AcDbEntity
  8
GR1-1
  6
CONTINUOUS
 62
     7
100
AcDbLine
 10
195.628193
 20
141.35822
 30
0.0
 11
195.599432
 21
141.686964
 31
0.0
  0
LINE
  5
112
330
F9
100
AcDbEntity
  8
GR1-1
  6
CONTINUOUS
 62
     7
100
AcDbLine
 10
195.42482
 20
143.682793
 30
0.0
 11
195.378928
 21
144.207337
 31
0.0
  0
LINE
  5
113
330
F9
100
AcDbEntity
  8
GR1-1
  6
CONTINUOUS
 62
     7
100
AcDbLine
 10
195.528199
 20
141.239051
 30
0.0
 11
195.489851
 21
141.677377
 31
0.0
  0
LINE
  5
114
330
F9
100
AcDbEntity
  8
GR1-1
  6
CONTINUOUS
 62
     7
100
AcDbLine
 10
195.324825
 20
143.563624
 30
0.0
 11
195.304488
 21
143.796082
 31
0.0
  0
LINE
  5
115
330
F9
100
AcDbEntity
  8
GR1-1
  6
CONTINUOUS
 62
     7
100
AcDbLine
 10
195.298108
 20
143.869005
 30
0.0
 11
195.259759
 21
144.307331
 31
0.0
  0
LINE
  5
116
330
F9
100
AcDbEntity
  8
GR1-1
  6
CONTINUOUS
 62
     7
100
AcDbLine
 10
195.428205
 20
141.119883
 30
0.0
 11
195.380269
 21
141.66779
 31
0.0
  0
LINE
  5
117
330
F9
100
AcDbEntity
  8
GR1-1
  6
CONTINUOUS
 62
     7
100
AcDbLine
 10
195.224831
 20
143.444456
 30
0.0
 11
195.204494
 21
143.676913
 31
0.0
  0
LINE
  5
118
330
F9
100
AcDbEntity
  8
GR1-1
  6
CONTINUOUS
 62
     7
100
AcDbLine
 10
195.188527
 20
143.859418
 30
0.0
 11
195.140591
 21
144.407325
 31
0.0
  0
LINE
  5
119
330
F9
100
AcDbEntity
  8
GR1-1
  6
CONTINUOUS
 62
     7
100
AcDbLine
 10
195.328211
 20
141.000714
 30
0.0
 11
195.270688
 21
141.658203
 31
0.0
  0
LINE
  5
11A
330
F9
100
AcDbEntity
  8
GR1-1
  6
CONTINUOUS
 62
     7
100
AcDbLine
 10
195.124837
 20
143.325287
 30
0.0
 11
195.104499
 21
143.557745
 31
0.0
  0
LINE
  5
11B
330
F9
100
AcDbEntity
  8
GR1-1
  6
CONTINUOUS
 62
     7
100
AcDbLine
 10
195.078945
 20
143.849831
 30
0.0
 11
195.021422
 21
144.50732
 31
0.0
  0
LINE
  5
11C
330
F9
100
AcDbEntity
  8
GR1-1
  6
CONTINUOUS
 62
     7
100
AcDbLine
 10
195.228216
 20
140.881546
 30
0.0
 11
195.161106
 21
141.648616
 31
0.0
  0
LINE
  5
11D
330
F9
100
AcDbEntity
  8
GR1-1
  6
CONTINUOUS
 62
     7
100
AcDbLine
 10
195.113171
 20
142.196523
 30
0.0
 11
195.058841
 21
142.817513
 31
0.0
  0
LINE
  5
11E
330
F9
100
AcDbEntity
  8
GR1-1
  6
CONTINUOUS
 62
     7
100
AcDbLine
 10
195.024843
 20
143.206119
 30
0.0
 11
195.004505
 21
143.438576
 31
0.0
  0
LINE
  5
11F
330
F9
100
AcDbEntity
  8
GR1-1
  6
CONTINUOUS
 62
     7
100
AcDbLine
 10
194.969364
 20
143.840244
 30
0.0
 11
194.902254
 21
144.607314
 31
0.0
  0
LINE
  5
120
330
F9
100
AcDbEntity
  8
GR1-1
  6
CONTINUOUS
 62
     7
100
AcDbLine
 10
195.128222
 20
140.762377
 30
0.0
 11
195.051525
 21
141.639029
 31
0.0
  0
LINE
  5
121
330
F9
100
AcDbEntity
  8
GR1-1
  6
CONTINUOUS
 62
     7
100
AcDbLine
 10
195.003589
 20
142.186936
 30
0.0
 11
194.958744
 21
142.699521
 31
0.0
  0
LINE
  5
122
330
F9
100
AcDbEntity
  8
GR1-1
  6
CONTINUOUS
 62
     7
100
AcDbLine
 10
194.924848
 20
143.08695
 30
0.0
 11
194.904511
 21
143.319407
 31
0.0
  0
LINE
  5
123
330
F9
100
AcDbEntity
  8
GR1-1
  6
CONTINUOUS
 62
     7
100
AcDbLine
 10
194.859782
 20
143.830657
 30
0.0
 11
194.783085
 21
144.707308
 31
0.0
  0
LINE
  5
124
330
F9
100
AcDbEntity
  8
GR1-1
  6
CONTINUOUS
 62
     7
100
AcDbLine
 10
195.028228
 20
140.643209
 30
0.0
 11
194.941944
 21
141.629441
 31
0.0
  0
LINE
  5
125
330
F9
100
AcDbEntity
  8
GR1-1
  6
CONTINUOUS
 62
     7
100
AcDbLine
 10
194.894008
 20
142.177349
 30
0.0
 11
194.85875
 21
142.580353
 31
0.0
  0
LINE
  5
126
330
F9
100
AcDbEntity
  8
GR1-1
  6
CONTINUOUS
 62
     7
100
AcDbLine
 10
194.824854
 20
142.967782
 30
0.0
 11
194.798137
 21
143.273163
 31
0.0
  0
LINE
  5
127
330
F9
100
AcDbEntity
  8
GR1-1
  6
CONTINUOUS
 62
     7
100
AcDbLine
 10
194.750201
 20
143.82107
 30
0.0
 11
194.663917
 21
144.807303
 31
0.0
  0
LINE
  5
128
330
F9
100
AcDbEntity
  8
GR1-1
  6
CONTINUOUS
 62
     7
100
AcDbLine
 10
194.928233
 20
140.52404
 30
0.0
 11
194.832362
 21
141.619854
 31
0.0
  0
LINE
  5
129
330
F9
100
AcDbEntity
  8
GR1-1
  6
CONTINUOUS
 62
     7
100
AcDbLine
 10
194.784426
 20
142.167761
 30
0.0
 11
194.748122
 21
142.582724
 31
0.0
  0
LINE
  5
12A
330
F9
100
AcDbEntity
  8
GR1-1
  6
CONTINUOUS
 62
     7
100
AcDbLine
 10
194.72486
 20
142.848613
 30
0.0
 11
194.688555
 21
143.263576
 31
0.0
  0
LINE
  5
12B
330
F9
100
AcDbEntity
  8
GR1-1
  6
CONTINUOUS
 62
     7
100
AcDbLine
 10
194.64062
 20
143.811483
 30
0.0
 11
194.544748
 21
144.907297
 31
0.0
  0
LINE
  5
12C
330
F9
100
AcDbEntity
  8
GR1-1
  6
CONTINUOUS
 62
     7
100
AcDbLine
 10
194.828239
 20
140.404872
 30
0.0
 11
194.722781
 21
141.610267
 31
0.0
  0
LINE
  5
12D
330
F9
100
AcDbEntity
  8
GR1-1
  6
CONTINUOUS
 62
     7
100
AcDbLine
 10
194.674845
 20
142.158174
 30
0.0
 11
194.628953
 21
142.682718
 31
0.0
  0
LINE
  5
12E
330
F9
100
AcDbEntity
  8
GR1-1
  6
CONTINUOUS
 62
     7
100
AcDbLine
 10
194.624865
 20
142.729444
 30
0.0
 11
194.578974
 21
143.253988
 31
0.0
  0
LINE
  5
12F
330
F9
100
AcDbEntity
  8
GR1-1
  6
CONTINUOUS
 62
     7
100
AcDbLine
 10
194.531038
 20
143.801896
 30
0.0
 11
194.42558
 21
145.007291
 31
0.0
  0
LINE
  5
130
330
F9
100
AcDbEntity
  8
GR1-1
  6
CONTINUOUS
 62
     7
100
AcDbLine
 10
194.713159
 20
140.45814
 30
0.0
 11
194.613199
 21
141.60068
 31
0.0
  0
LINE
  5
131
330
F9
100
AcDbEntity
  8
GR1-1
  6
CONTINUOUS
 62
     7
100
AcDbLine
 10
194.565264
 20
142.148587
 30
0.0
 11
194.469392
 21
143.244401
 31
0.0
  0
LINE
  5
132
330
F9
100
AcDbEntity
  8
GR1-1
  6
CONTINUOUS
 62
     7
100
AcDbLine
 10
194.421457
 20
143.792308
 30
0.0
 11
194.321497
 21
144.934849
 31
0.0
  0
LINE
  5
133
330
F9
100
AcDbEntity
  8
GR1-1
  6
CONTINUOUS
 62
     7
100
AcDbLine
 10
194.59399
 20
140.558134
 30
0.0
 11
194.503618
 21
141.591093
 31
0.0
  0
LINE
  5
134
330
F9
100
AcDbEntity
  8
GR1-1
  6
CONTINUOUS
 62
     7
100
AcDbLine
 10
194.455682
 20
142.139
 30
0.0
 11
194.359811
 21
143.234814
 31
0.0
  0
LINE
  5
135
330
F9
100
AcDbEntity
  8
GR1-1
  6
CONTINUOUS
 62
     7
100
AcDbLine
 10
194.311875
 20
143.782721
 30
0.0
 11
194.221503
 21
144.81568
 31
0.0
  0
LINE
  5
136
330
F9
100
AcDbEntity
  8
GR1-1
  6
CONTINUOUS
 62
     7
100
AcDbLine
 10
194.474822
 20
140.658128
 30
0.0
 11
194.394036
 21
141.581506
 31
0.0
  0
LINE
  5
137
330
F9
100
AcDbEntity
  8
GR1-1
  6
CONTINUOUS
 62
     7
100
AcDbLine
 10
194.346101
 20
142.129413
 30
0.0
 11
194.25023
 21
143.225227
 31
0.0
  0
LINE
  5
138
330
F9
100
AcDbEntity
  8
GR1-1
  6
CONTINUOUS
 62
     7
100
AcDbLine
 10
194.202294
 20
143.773134
 30
0.0
 11
194.121509
 21
144.696512
 31
0.0
  0
LINE
  5
139
330
F9
100
AcDbEntity
  8
GR1-1
  6
CONTINUOUS
 62
     7
100
AcDbLine
 10
194.355653
 20
140.758122
 30
0.0
 11
194.284455
 21
141.571919
 31
0.0
  0
LINE
  5
13A
330
F9
100
AcDbEntity
  8
GR1-1
  6
CONTINUOUS
 62
     7
100
AcDbLine
 10
194.236519
 20
142.119826
 30
0.0
 11
194.140648
 21
143.21564
 31
0.0
  0
LINE
  5
13B
330
F9
100
AcDbEntity
  8
GR1-1
  6
CONTINUOUS
 62
     7
100
AcDbLine
 10
194.092712
 20
143.763547
 30
0.0
 11
194.021514
 21
144.577343
 31
0.0
  0
LINE
  5
13C
330
F9
100
AcDbEntity
  8
GR1-1
  6
CONTINUOUS
 62
     7
100
AcDbLine
 10
194.236484
 20
140.858117
 30
0.0
 11
194.174874
 21
141.562332
 31
0.0
  0
LINE
  5
13D
330
F9
100
AcDbEntity
  8
GR1-1
  6
CONTINUOUS
 62
     7
100
AcDbLine
 10
194.126938
 20
142.110239
 30
0.0
 11
194.031067
 21
143.206053
 31
0.0
  0
LINE
  5
13E
330
F9
100
AcDbEntity
  8
GR1-1
  6
CONTINUOUS
 62
     7
100
AcDbLine
 10
193.983131
 20
143.75396
 30
0.0
 11
193.92152
 21
144.458175
 31
0.0
  0
LINE
  5
13F
330
F9
100
AcDbEntity
  8
GR1-1
  6
CONTINUOUS
 62
     7
100
AcDbLine
 10
194.117316
 20
140.958111
 30
0.0
 11
194.065292
 21
141.552744
 31
0.0
  0
LINE
  5
140
330
F9
100
AcDbEntity
  8
GR1-1
  6
CONTINUOUS
 62
     7
100
AcDbLine
 10
193.87355
 20
143.744373
 30
0.0
 11
193.821526
 21
144.339006
 31
0.0
  0
LINE
  5
141
330
F9
100
AcDbEntity
  8
GR1-1
  6
CONTINUOUS
 62
     7
100
AcDbLine
 10
193.998147
 20
141.058105
 30
0.0
 11
193.955711
 21
141.543157
 31
0.0
  0
LINE
  5
142
330
F9
100
AcDbEntity
  8
GR1-1
  6
CONTINUOUS
 62
     7
100
AcDbLine
 10
193.763968
 20
143.734786
 30
0.0
 11
193.721532
 21
144.219838
 31
0.0
  0
LINE
  5
143
330
F9
100
AcDbEntity
  8
GR1-1
  6
CONTINUOUS
 62
     7
100
AcDbLine
 10
193.878979
 20
141.1581
 30
0.0
 11
193.846129
 21
141.53357
 31
0.0
  0
LINE
  5
144
330
F9
100
AcDbEntity
  8
GR1-1
  6
CONTINUOUS
 62
     7
100
AcDbLine
 10
193.654387
 20
143.725198
 30
0.0
 11
193.621537
 21
144.100669
 31
0.0
  0
LINE
  5
145
330
F9
100
AcDbEntity
  8
GR1-1
  6
CONTINUOUS
 62
     7
100
AcDbLine
 10
193.75981
 20
141.258094
 30
0.0
 11
193.736548
 21
141.523983
 31
0.0
  0
LINE
  5
146
330
F9
100
AcDbEntity
  8
GR1-1
  6
CONTINUOUS
 62
     7
100
AcDbLine
 10
193.544805
 20
143.715611
 30
0.0
 11
193.521543
 21
143.9815
 31
0.0
  0
LINE
  5
147
330
F9
100
AcDbEntity
  8
GR1-1
  6
CONTINUOUS
 62
     7
100
AcDbLine
 10
193.640642
 20
141.358088
 30
0.0
 11
193.626967
 21
141.514396
 31
0.0
  0
LINE
  5
148
330
F9
100
AcDbEntity
  8
GR1-1
  6
CONTINUOUS
 62
     7
100
AcDbLine
 10
193.435224
 20
143.706024
 30
0.0
 11
193.421549
 21
143.862332
 31
0.0
  0
LINE
  5
149
330
F9
100
AcDbEntity
  8
GR1-1
  6
CONTINUOUS
 62
     7
100
AcDbLine
 10
193.521473
 20
141.458082
 30
0.0
 11
193.321555
 21
143.743163
 31
0.0
  0
LINE
  5
14A
330
F9
100
AcDbEntity
  8
GR1-1
  6
CONTINUOUS
 62
     7
100
AcDbLine
 10
193.402305
 20
141.558077
 30
0.0
 11
193.22156
 21
143.623995
 31
0.0
  0
LINE
  5
14B
330
F9
100
AcDbEntity
  8
GR1-1
  6
CONTINUOUS
 62
     7
100
AcDbLine
 10
193.283136
 20
141.658071
 30
0.0
 11
193.121566
 21
143.504826
 31
0.0
  0
LINE
  5
14C
330
F9
100
AcDbEntity
  8
GR1-1
  6
CONTINUOUS
 62
     7
100
AcDbLine
 10
193.163968
 20
141.758065
 30
0.0
 11
193.021572
 21
143.385658
 31
0.0
  0
LINE
  5
14D
330
F9
100
AcDbEntity
  8
GR1-1
  6
CONTINUOUS
 62
     7
100
AcDbLine
 10
193.044799
 20
141.85806
 30
0.0
 11
192.921577
 21
143.266489
 31
0.0
  0
LINE
  5
14E
330
F9
100
AcDbEntity
  8
GR1-1
  6
CONTINUOUS
 62
     7
100
AcDbLine
 10
192.92563
 20
141.958054
 30
0.0
 11
192.821583
 21
143.147321
 31
0.0
  0
LINE
  5
14F
330
F9
100
AcDbEntity
  8
GR1-1
  6
CONTINUOUS
 62
     7
100
AcDbLine
 10
192.806462
 20
142.058048
 30
0.0
 11
192.721589
 21
143.028152
 31
0.0
  0
LINE
  5
150
330
F9
100
AcDbEntity
  8
GR1-1
  6
CONTINUOUS
 62
     7
100
AcDbLine
 10
192.687293
 20
142.158042
 30
0.0
 11
192.621595
 21
142.908983
 31
0.0
  0
LINE
  5
151
330
F9
100
AcDbEntity
  8
GR1-1
  6
CONTINUOUS
 62
     7
100
AcDbLine
 10
192.568125
 20
142.258037
 30
0.0
 11
192.5216
 21
142.789815
 31
0.0
  0
LINE
  5
152
330
F9
100
AcDbEntity
  8
GR1-1
  6
CONTINUOUS
 62
     7
100
AcDbLine
 10
192.448956
 20
142.358031
 30
0.0
 11
192.421606
 21
142.670646
 31
0.0
  0
LINE
  5
153
330
F9
100
AcDbEntity
  8
GR1-1
  6
CONTINUOUS
 62
     7
100
AcDbLine
 10
192.329788
 20
142.458025
 30
0.0
 11
192.321612
 21
142.551478
 31
0.0
  0
ENDBLK
  5
FB
330
F9
100
AcDbEntity
  8
0
100
AcDbBlockEnd
  0
BLOCK
  5
1EA
330
1E9
100
AcDbEntity
  8
0
100
AcDbBlockBegin
  2
*D21
 70
     1
 71
     0
 10
0.0
 20
0.0
 30
0.0
  3
*D21
  1

  0
TEXT
  5
1EC
330
1E9
100
AcDbEntity
  8
GR1-1
  6
CONTINUOUS
 62
     7
100
AcDbText
 10
97.523079
 20
73.665169
 30
0.0
 40
4.0
  1
31
 41
1.016129
  7
FX_VECTOR
 72
     5
 11
103.523079
 21
73.665169
 31
0.0
100
AcDbText
  0
LINE
  5
1ED
330
1E9
100
AcDbEntity
  8
GR1-1
  6
CONTINUOUS
 62
     7
100
AcDbLine
 10
85.023077
 20
72.665174
 30
0.0
 11
116.023077
 21
72.665174
 31
0.0
  0
INSERT
  5
1EE
330
1E9
100
AcDbEntity
  8
GR1-1
  6
CONTINUOUS
 62
     7
100
AcDbBlockReference
  2
FXTIP_ARROW_S
 10
85.023077
 20
72.665174
 30
0.0
 41
3.0
 42
3.0
 50
180.0
  0
INSERT
  5
1EF
330
1E9
100
AcDbEntity
  8
GR1-1
  6
CONTINUOUS
 62
     7
100
AcDbBlockReference
  2
FXTIP_ARROW_E
 10
116.023077
 20
72.665174
 30
0.0
 41
3.0
 42
3.0
 50
360.0
  0
LINE
  5
1F0
330
1E9
100
AcDbEntity
  8
GR1-1
  6
CONTINUOUS
 62
     7
100
AcDbLine
 10
85.023077
 20
117.333015
 30
0.0
 11
85.023077
 21
71.665174
 31
0.0
  0
LINE
  5
1F1
330
1E9
100
AcDbEntity
  8
GR1-1
  6
CONTINUOUS
 62
     7
100
AcDbLine
 10
116.023077
 20
117.333015
 30
0.0
 11
116.023077
 21
71.665174
 31
0.0
  0
ENDBLK
  5
1EB
330
1E9
100
AcDbEntity
  8
0
100
AcDbBlockEnd
  0
BLOCK
  5
1F4
330
1F3
100
AcDbEntity
  8
0
100
AcDbBlockBegin
  2
*D22
 70
     1
 71
     0
 10
0.0
 20
0.0
 30
0.0
  3
*D22
  1

  0
TEXT
  5
1F6
330
1F3
100
AcDbEntity
  8
GR1-1
  6
CONTINUOUS
 62
     7
100
AcDbText
 10
131.912064
 20
118.333015
 30
0.0
 40
4.0
  1
φ8.2
 50
90.0
 41
0.969231
  7
FX_VECTOR
 72
     5
 11
131.912064
 21
130.333015
 31
0.0
100
AcDbText
  0
LINE
  5
1F7
330
1F3
100
AcDbEntity
  8
GR1-1
  6
CONTINUOUS
 62
     7
100
AcDbLine
 10
123.912067
 20
120.233015
 30
0.0
 11
123.912067
 21
128.433015
 31
0.0
  0
LINE
  5
1F8
330
1F3
100
AcDbEntity
  8
GR1-1
  6
CONTINUOUS
 62
     7
100
AcDbLine
 10
116.523077
 20
120.233015
 30
0.0
 11
124.912067
 21
120.233015
 31
0.0
  0
LINE
  5
1F9
330
1F3
100
AcDbEntity
  8
GR1-1
  6
CONTINUOUS
 62
     7
100
AcDbLine
 10
116.523077
 20
128.433015
 30
0.0
 11
124.912067
 21
128.433015
 31
0.0
  0
LINE
  5
1FA
330
1F3
100
AcDbEntity
  8
GR1-1
  6
CONTINUOUS
 62
     7
100
AcDbLine
 10
123.912067
 20
114.233015
 30
0.0
 11
123.912067
 21
120.233015
 31
0.0
  0
INSERT
  5
1FB
330
1F3
100
AcDbEntity
  8
GR1-1
  6
CONTINUOUS
 62
     7
100
AcDbBlockReference
  2
FXTIP_ARROW_E
 10
123.912067
 20
120.233015
 30
0.0
 41
3.0
 42
3.0
 50
90.0
  0
LINE
  5
1FC
330
1F3
100
AcDbEntity
  8
GR1-1
  6
CONTINUOUS
 62
     7
100
AcDbLine
 10
123.912067
 20
128.433015
 30
0.0
 11
123.912067
 21
134.433015
 31
0.0
  0
INSERT
  5
1FD
330
1F3
100
AcDbEntity
  8
GR1-1
  6
CONTINUOUS
 62
     7
100
AcDbBlockReference
  2
FXTIP_ARROW_S
 10
123.912067
 20
128.433015
 30
0.0
 41
3.0
 42
3.0
 50
270.0
  0
ENDBLK
  5
1F5
330
1F3
100
AcDbEntity
  8
0
100
AcDbBlockEnd
  0
BLOCK
  5
200
330
1FF
100
AcDbEntity
  8
0
100
AcDbBlockBegin
  2
*D23
 70
     1
 71
     0
 10
0.0
 20
0.0
 30
0.0
  3
*D23
  1

  0
TEXT
  5
202
330
1FF
100
AcDbEntity
  8
GR1-1
  6
CONTINUOUS
 62
     7
100
AcDbText
 10
97.523079
 20
81.660698
 30
0.0
 40
4.0
  1
25
 41
0.851351
  7
FX_VECTOR
 72
     5
 11
103.523079
 21
81.660698
 31
0.0
100
AcDbText
  0
LINE
  5
203
330
1FF
100
AcDbEntity
  8
GR1-1
  6
CONTINUOUS
 62
     7
100
AcDbLine
 10
88.023077
 20
80.660694
 30
0.0
 11
113.023077
 21
80.660694
 31
0.0
  0
INSERT
  5
204
330
1FF
100
AcDbEntity
  8
GR1-1
  6
CONTINUOUS
 62
     7
100
AcDbBlockReference
  2
FXTIP_ARROW_S
 10
88.023077
 20
80.660694
 30
0.0
 41
3.0
 42
3.0
 50
180.0
  0
INSERT
  5
205
330
1FF
100
AcDbEntity
  8
GR1-1
  6
CONTINUOUS
 62
     7
100
AcDbBlockReference
  2
FXTIP_ARROW_E
 10
113.023077
 20
80.660694
 30
0.0
 41
3.0
 42
3.0
 50
360.0
  0
LINE
  5
206
330
1FF
100
AcDbEntity
  8
GR1-1
  6
CONTINUOUS
 62
     7
100
AcDbLine
 10
88.023077
 20
93.542977
 30
0.0
 11
88.023077
 21
79.660694
 31
0.0
  0
LINE
  5
207
330
1FF
100
AcDbEntity
  8
GR1-1
  6
CONTINUOUS
 62
     7
100
AcDbLine
 10
113.023077
 20
93.542977
 30
0.0
 11
113.023077
 21
79.660694
 31
0.0
  0
ENDBLK
  5
201
330
1FF
100
AcDbEntity
  8
0
100
AcDbBlockEnd
  0
BLOCK
  5
209
330
208
100
AcDbEntity
  8
0
100
AcDbBlockBegin
  2
BLKF026
 70
     0
 71
     0
 10
0.0
 20
0.0
 30
0.0
  3
BLKF026
  1

  0
LINE
  5
20C
330
208
100
AcDbEntity
  8
}}ﾊﾊGG血CCТ
  6
CONTINUOUS
 62
     7
100
AcDbLine
 10
10.0
 20
10.0
 30
0.0
 11
287.0
 21
10.0
 31
0.0
  0
LINE
  5
20D
330
208
100
AcDbEntity
  8
}}ﾊﾊGG血CCТ
  6
CONTINUOUS
 62
     7
100
AcDbLine
 10
10.0
 20
10.0
 30
0.0
 11
10.0
 21
200.0
 31
0.0
  0
LINE
  5
20E
330
208
100
AcDbEntity
  8
}}ﾊﾊGG血CCТ
  6
CONTINUOUS
 62
     7
100
AcDbLine
 10
10.0
 20
200.0
 30
0.0
 11
287.0
 21
200.0
 31
0.0
  0
LINE
  5
20F
330
208
100
AcDbEntity
  8
}}ﾊﾊGG血CCТ
  6
CONTINUOUS
 62
     7
100
AcDbLine
 10
287.0
 20
200.0
 30
0.0
 11
287.0
 21
10.0
 31
0.0
  0
LINE
  5
210
330
208
100
AcDbEntity
  8
}}ﾊﾊGG血CCТ
  6
CONTINUOUS
 62
     7
100
AcDbLine
 10
30.0
 20
10.0
 30
0.0
 11
30.0
 21
20.0
 31
0.0
  0
TEXT
  5
211
330
208
100
AcDbEntity
  8
}}ﾊﾊGG血CCТ
  6
CONTINUOUS
 62
     7
100
AcDbText
 10
14.738815
 20
11.596879
 30
0.0
 40
6.648749
  1
品名
 41
1.083413
  7
FX_VECTOR
 72
     5
 11
26.058355
 21
11.596879
 31
0.0
100
AcDbText
  0
LINE
  5
212
330
208
100
AcDbEntity
  8
}}ﾊﾊGG血CCТ
  6
CONTINUOUS
 62
     7
100
AcDbLine
 10
110.0
 20
20.0
 30
0.0
 11
110.0
 21
10.0
 31
0.0
  0
LINE
  5
213
330
208
100
AcDbEntity
  8
}}ﾊﾊGG血CCТ
  6
CONTINUOUS
 62
     7
100
AcDbLine
 10
10.0
 20
20.0
 30
0.0
 11
287.0
 21
20.0
 31
0.0
  0
INSERT
  5
217
330
208
100
AcDbEntity
  8
0
100
AcDbBlockReference
  2
BLKF027
 10
0.0
 20
0.0
 30
0.0
  0
INSERT
  5
220
330
208
100
AcDbEntity
  8
0
100
AcDbBlockReference
  2
BLKF028
 10
0.0
 20
0.0
 30
0.0
  0
HATCH
  5
230
330
208
100
AcDbEntity
  8
GR1-1
  6
CONTINUOUS
 62
     7
100
AcDbHatch
 10
0.0
 20
0.0
 30
0.0
210
0.0
220
0.0
230
1.0
  2

 70
     0
 71
     1
 91
        2
 92
        0
 93
        4
 72
     1
 10
215.8018997861325
 20
17.91346152
 11
221.8018997861325
 21
17.91346152
 72
     1
 10
221.8018997861325
 20
17.91346152
 11
221.8018997861325
 21
11.91346152
 72
     1
 10
221.8018997861325
 20
11.91346152
 11
215.8018997861325
 21
11.91346152
 72
     1
 10
215.8018997861325
 20
11.91346152
 11
215.8018997861325
 21
17.91346152
 97
        0
 92
        0
 93
       15
 72
     1
 10
218.8018997861325
 20
17.76923076000002
 11
215.9461305461325
 21
14.91346152
 72
     1
 10
215.9461305461325
 20
14.91346152
 11
218.8018997861325
 21
12.05769228000001
 72
     1
 10
218.8018997861325
 20
12.05769228000001
 11
220.3595920661325
 21
13.61538462
 72
     1
 10
220.3595920661325
 20
13.61538462
 11
220.3595920661325
 21
12.98076924
 72
     1
 10
220.3595920661325
 20
12.98076924
 11
221.2249766861325
 21
12.98076924
 72
     1
 10
221.2249766861325
 20
12.98076924
 11
221.2249766861325
 21
15.00000000000001
 72
     1
 10
221.2249766861325
 20
15.00000000000001
 11
218.8018997861325
 21
15.00000000000001
 72
     1
 10
218.8018997861325
 20
15.00000000000001
 11
218.8018997861325
 21
14.13461538000001
 72
     1
 10
218.8018997861325
 20
14.13461538000001
 11
219.2461305461325
 21
14.13461538000001
 72
     1
 10
219.2461305461325
 20
14.13461538000001
 11
218.8018997861325
 21
13.69038462
 72
     1
 10
218.8018997861325
 20
13.69038462
 11
217.5788228861325
 21
14.91346152
 72
     1
 10
217.5788228861325
 20
14.91346152
 11
218.8018997861325
 21
16.13653842000003
 72
     1
 10
218.8018997861325
 20
16.13653842000003
 11
219.5922844061325
 21
15.3461538
 72
     1
 10
219.5922844061325
 20
15.3461538
 11
221.2249766861325
 21
15.3461538
 72
     1
 10
221.2249766861325
 20
15.3461538
 11
218.8018997861325
 21
17.76923076000002
 97
        0
 75
     0
 76
     0
 52
45.0
 41
0.05
 77
     0
 78
     1
 53
45.0
 43
0.0
 44
0.0
 45
-0.0353553390593274
 46
0.0353553390593274
 79
     0
 98
        0
  0
TEXT
  5
231
330
208
100
AcDbEntity
  8
}}ﾊﾊGG血CCТ
  6
CONTINUOUS
 62
     7
100
AcDbText
 10
226.225754
 20
11.461285
 30
0.0
 40
6.0
  1
GOLD CASTER
 41
0.719626
  7
FX_VECTOR
 72
     5
 11
270.225754
 21
11.461285
 31
0.0
100
AcDbText
  0
LINE
  5
232
330
208
100
AcDbEntity
  8
}}ﾊﾊGG血CCТ
  6
CONTINUOUS
 62
     7
100
AcDbLine
 10
130.0
 20
10.0
 30
0.0
 11
130.0
 21
20.0
 31
0.0
  0
TEXT
  5
233
330
208
100
AcDbEntity
  8
}}ﾊﾊGG血CCТ
  6
CONTINUOUS
 62
     7
100
AcDbText
 10
114.738815
 20
11.596879
 30
0.0
 40
6.648749
  1
図番
 41
1.083413
  7
FX_VECTOR
 72
     5
 11
126.058355
 21
11.596879
 31
0.0
100
AcDbText
  0
LINE
  5
234
330
208
100
AcDbEntity
  8
}}ﾊﾊGG血CCТ
  6
CONTINUOUS
 62
     7
100
AcDbLine
 10
210.0
 20
20.0
 30
0.0
 11
210.0
 21
10.0
 31
0.0
  0
ENDBLK
  5
20A
330
208
100
AcDbEntity
  8
0
100
AcDbBlockEnd
  0
BLOCK
  5
215
330
214
100
AcDbEntity
  8
0
100
AcDbBlockBegin
  2
BLKF027
 70
     0
 71
     0
 10
0.0
 20
0.0
 30
0.0
  3
BLKF027
  1

  0
LINE
  5
219
330
214
100
AcDbEntity
  8
0-1
  6
CONTINUOUS
 62
     7
100
AcDbLine
 10
221.8019
 20
17.913462
 30
0.0
 11
215.8019
 21
17.913462
 31
0.0
  0
LINE
  5
21A
330
214
100
AcDbEntity
  8
0-1
  6
CONTINUOUS
 62
     7
100
AcDbLine
 10
215.8019
 20
17.913462
 30
0.0
 11
215.8019
 21
11.913462
 31
0.0
  0
LINE
  5
21B
330
214
100
AcDbEntity
  8
0-1
  6
CONTINUOUS
 62
     7
100
AcDbLine
 10
215.8019
 20
11.913462
 30
0.0
 11
221.8019
 21
11.913462
 31
0.0
  0
LINE
  5
21C
330
214
100
AcDbEntity
  8
0-1
  6
CONTINUOUS
 62
     7
100
AcDbLine
 10
221.8019
 20
11.913462
 30
0.0
 11
221.8019
 21
17.913462
 31
0.0
  0
ENDBLK
  5
216
330
214
100
AcDbEntity
  8
0
100
AcDbBlockEnd
  0
BLOCK
  5
21E
330
21D
100
AcDbEntity
  8
0
100
AcDbBlockBegin
  2
BLKF028
 70
     0
 71
     0
 10
0.0
 20
0.0
 30
0.0
  3
BLKF028
  1

  0
LINE
  5
221
330
21D
100
AcDbEntity
  8
0-1
  6
CONTINUOUS
 62
     7
100
AcDbLine
 10
221.224977
 20
15.346154
 30
0.0
 11
218.8019
 21
17.769231
 31
0.0
  0
LINE
  5
222
330
21D
100
AcDbEntity
  8
0-1
  6
CONTINUOUS
 62
     7
100
AcDbLine
 10
218.8019
 20
17.769231
 30
0.0
 11
215.946131
 21
14.913462
 31
0.0
  0
LINE
  5
223
330
21D
100
AcDbEntity
  8
0-1
  6
CONTINUOUS
 62
     7
100
AcDbLine
 10
215.946131
 20
14.913462
 30
0.0
 11
218.8019
 21
12.057692
 31
0.0
  0
LINE
  5
224
330
21D
100
AcDbEntity
  8
0-1
  6
CONTINUOUS
 62
     7
100
AcDbLine
 10
218.8019
 20
12.057692
 30
0.0
 11
220.359592
 21
13.615385
 31
0.0
  0
LINE
  5
225
330
21D
100
AcDbEntity
  8
0-1
  6
CONTINUOUS
 62
     7
100
AcDbLine
 10
220.359592
 20
13.615385
 30
0.0
 11
220.359592
 21
12.980769
 31
0.0
  0
LINE
  5
226
330
21D
100
AcDbEntity
  8
0-1
  6
CONTINUOUS
 62
     7
100
AcDbLine
 10
220.359592
 20
12.980769
 30
0.0
 11
221.224977
 21
12.980769
 31
0.0
  0
LINE
  5
227
330
21D
100
AcDbEntity
  8
0-1
  6
CONTINUOUS
 62
     7
100
AcDbLine
 10
221.224977
 20
12.980769
 30
0.0
 11
221.224977
 21
15.0
 31
0.0
  0
LINE
  5
228
330
21D
100
AcDbEntity
  8
0-1
  6
CONTINUOUS
 62
     7
100
AcDbLine
 10
221.224977
 20
15.0
 30
0.0
 11
218.8019
 21
15.0
 31
0.0
  0
LINE
  5
229
330
21D
100
AcDbEntity
  8
0-1
  6
CONTINUOUS
 62
     7
100
AcDbLine
 10
218.8019
 20
15.0
 30
0.0
 11
218.8019
 21
14.134615
 31
0.0
  0
LINE
  5
22A
330
21D
100
AcDbEntity
  8
0-1
  6
CONTINUOUS
 62
     7
100
AcDbLine
 10
218.8019
 20
14.134615
 30
0.0
 11
219.246131
 21
14.134615
 31
0.0
  0
LINE
  5
22B
330
21D
100
AcDbEntity
  8
0-1
  6
CONTINUOUS
 62
     7
100
AcDbLine
 10
219.246131
 20
14.134615
 30
0.0
 11
218.8019
 21
13.690385
 31
0.0
  0
LINE
  5
22C
330
21D
100
AcDbEntity
  8
0-1
  6
CONTINUOUS
 62
     7
100
AcDbLine
 10
218.8019
 20
13.690385
 30
0.0
 11
217.578823
 21
14.913462
 31
0.0
  0
LINE
  5
22D
330
21D
100
AcDbEntity
  8
0-1
  6
CONTINUOUS
 62
     7
100
AcDbLine
 10
217.578823
 20
14.913462
 30
0.0
 11
218.8019
 21
16.136538
 31
0.0
  0
LINE
  5
22E
330
21D
100
AcDbEntity
  8
0-1
  6
CONTINUOUS
 62
     7
100
AcDbLine
 10
218.8019
 20
16.136538
 30
0.0
 11
219.592284
 21
15.346154
 31
0.0
  0
LINE
  5
22F
330
21D
100
AcDbEntity
  8
0-1
  6
CONTINUOUS
 62
     7
100
AcDbLine
 10
219.592284
 20
15.346154
 30
0.0
 11
221.224977
 21
15.346154
 31
0.0
  0
ENDBLK
  5
21F
330
21D
100
AcDbEntity
  8
0
100
AcDbBlockEnd
  0
ENDSEC
  0
SECTION
  2
ENTITIES
  0
TEXT
  5
A8
330
1F
100
AcDbEntity
  8
}}ﾊﾊGG血CCТ
  6
CONTINUOUS
 62
     7
100
AcDbText
 10
33.8097
 20
12.0
 30
0.0
 40
6.0
  1
Ｓ－　６５　ＵＢ
 41
0.794326
  7
FX_VECTOR
 72
     5
 11
65.8097
 21
12.0
 31
0.0
100
AcDbText
  0
TEXT
  5
A9
330
1F
100
AcDbEntity
  8
}}ﾊﾊGG血CCТ
  6
CONTINUOUS
 62
     7
100
AcDbText
 10
133.381729
 20
12.0
 30
0.0
 40
6.0
  1
1S23FFAA-C02
 41
0.711864
  7
FX_VECTOR
 72
     5
 11
181.381729
 21
12.0
 31
0.0
100
AcDbText
  0
ARC
  5
AB
330
1F
100
AcDbEntity
  8
GR1-1
  6
CONTINUOUS
 62
     3
100
AcDbCircle
 10
100.523077
 20
76.833015
 30
0.0
 40
80.0
100
AcDbArc
 50
82.26362
 51
97.73638
  0
ARC
  5
AC
330
1F
100
AcDbEntity
  8
GR1-1
  6
CONTINUOUS
 62
     3
100
AcDbCircle
 10
90.023077
 20
154.123053
 30
0.0
 40
2.0
100
AcDbArc
 50
97.73638
 51
180.0
  0
LINE
  5
AD
330
1F
100
AcDbEntity
  8
GR1-1
  6
CONTINUOUS
 62
     3
100
AcDbLine
 10
114.523077
 20
137.916684
 30
0.0
 11
114.523077
 21
130.833015
 31
0.0
  0
LINE
  5
AE
330
1F
100
AcDbEntity
  8
GR1-1
  6
CONTINUOUS
 62
     3
100
AcDbLine
 10
113.023077
 20
154.123053
 30
0.0
 11
113.023077
 21
138.964248
 31
0.0
  0
ARC
  5
AF
330
1F
100
AcDbEntity
  8
GR1-1
  6
CONTINUOUS
 62
     3
100
AcDbCircle
 10
111.023077
 20
154.123053
 30
0.0
 40
2.0
100
AcDbArc
 50
0.0
 51
82.26362
  0
LINE
  5
B0
330
1F
100
AcDbEntity
  8
GR1-1
  6
CONTINUOUS
 62
     3
100
AcDbLine
 10
110.023077
 20
150.333015
 30
0.0
 11
111.023077
 21
148.833015
 31
0.0
  0
LINE
  5
B1
330
1F
100
AcDbEntity
  8
GR1-1
  6
CONTINUOUS
 62
     3
100
AcDbLine
 10
111.023077
 20
148.833015
 30
0.0
 11
90.023077
 21
148.833015
 31
0.0
  0
LINE
  5
B2
330
1F
100
AcDbEntity
  8
GR1-1
  6
CONTINUOUS
 62
     3
100
AcDbLine
 10
90.023077
 20
148.833015
 30
0.0
 11
91.023077
 21
150.333015
 31
0.0
  0
LINE
  5
B3
330
1F
100
AcDbEntity
  8
GR1-1
  6
CONTINUOUS
 62
     3
100
AcDbLine
 10
91.023077
 20
150.333015
 30
0.0
 11
88.023077
 21
150.333015
 31
0.0
  0
LINE
  5
B4
330
1F
100
AcDbEntity
  8
GR1-1
  6
CONTINUOUS
 62
     3
100
AcDbLine
 10
110.023077
 20
150.333015
 30
0.0
 11
113.023077
 21
150.333015
 31
0.0
  0
ARC
  5
B5
330
1F
100
AcDbEntity
  8
GR1-1
  6
CONTINUOUS
 62
     3
100
AcDbCircle
 10
111.023077
 20
94.542977
 30
0.0
 40
2.0
100
AcDbArc
 50
277.73638
 51
360.0
  0
LINE
  5
B6
330
1F
100
AcDbEntity
  8
GR1-1
  6
CONTINUOUS
 62
     3
100
AcDbLine
 10
113.023077
 20
98.333015
 30
0.0
 11
110.023077
 21
98.333015
 31
0.0
  0
LINE
  5
B7
330
1F
100
AcDbEntity
  8
GR1-1
  6
CONTINUOUS
 62
     3
100
AcDbLine
 10
110.023077
 20
98.333015
 30
0.0
 11
111.023077
 21
99.833015
 31
0.0
  0
LINE
  5
B8
330
1F
100
AcDbEntity
  8
GR1-1
  6
CONTINUOUS
 62
     3
100
AcDbLine
 10
111.023077
 20
99.833015
 30
0.0
 11
90.023077
 21
99.833015
 31
0.0
  0
LINE
  5
B9
330
1F
100
AcDbEntity
  8
GR1-1
  6
CONTINUOUS
 62
     3
100
AcDbLine
 10
90.023077
 20
99.833015
 30
0.0
 11
91.023077
 21
98.333015
 31
0.0
  0
LINE
  5
BA
330
1F
100
AcDbEntity
  8
GR1-1
  6
CONTINUOUS
 62
     3
100
AcDbLine
 10
91.023077
 20
98.333015
 30
0.0
 11
88.023077
 21
98.333015
 31
0.0
  0
ARC
  5
BB
330
1F
100
AcDbEntity
  8
GR1-1
  6
CONTINUOUS
 62
     3
100
AcDbCircle
 10
90.023077
 20
94.542977
 30
0.0
 40
2.0
100
AcDbArc
 50
180.0
 51
262.26362
  0
ARC
  5
BC
330
1F
100
AcDbEntity
  8
GR1-1
  6
CONTINUOUS
 62
     3
100
AcDbCircle
 10
100.523077
 20
171.833015
 30
0.0
 40
80.0
100
AcDbArc
 50
262.26362
 51
277.73638
  0
LINE
  5
BD
330
1F
100
AcDbEntity
  8
GR1-1
  6
CONTINUOUS
 62
     6
100
AcDbLine
 10
90.023077
 20
99.833015
 30
0.0
 11
100.523077
 21
100.833015
 31
0.0
  0
LINE
  5
BE
330
1F
100
AcDbEntity
  8
GR1-1
  6
CONTINUOUS
 62
     6
100
AcDbLine
 10
100.523077
 20
100.833015
 30
0.0
 11
111.023077
 21
99.833015
 31
0.0
  0
LINE
  5
BF
330
1F
100
AcDbEntity
  8
GR1-1
  6
CONTINUOUS
 62
     6
100
AcDbLine
 10
111.023077
 20
148.833015
 30
0.0
 11
100.523077
 21
147.833015
 31
0.0
  0
LINE
  5
C0
330
1F
100
AcDbEntity
  8
GR1-1
  6
CONTINUOUS
 62
     6
100
AcDbLine
 10
100.523077
 20
147.833015
 30
0.0
 11
90.023077
 21
148.833015
 31
0.0
  0
LINE
  5
C1
330
1F
100
AcDbEntity
  8
GR1-1
  6
CENTER
 62
     6
100
AcDbLine
 10
83.494566
 20
124.333015
 30
0.0
 11
117.946786
 21
124.333015
 31
0.0
  0
LINE
  5
C2
330
1F
100
AcDbEntity
  8
GR1-1
  6
CENTER
 62
     6
100
AcDbLine
 10
100.523077
 20
90.153683
 30
0.0
 11
100.523077
 21
158.152483
 31
0.0
  0
LINE
  5
C3
330
1F
100
AcDbEntity
  8
GR1-1
  6
CONTINUOUS
 62
     3
100
AcDbLine
 10
86.523077
 20
130.833015
 30
0.0
 11
86.523077
 21
137.916684
 31
0.0
  0
LINE
  5
C4
330
1F
100
AcDbEntity
  8
GR1-1
  6
CONTINUOUS
 62
     3
100
AcDbLine
 10
86.523077
 20
117.833015
 30
0.0
 11
86.523077
 21
110.749346
 31
0.0
  0
LINE
  5
C5
330
1F
100
AcDbEntity
  8
GR1-1
  6
CONTINUOUS
 62
     3
100
AcDbLine
 10
114.523077
 20
117.833015
 30
0.0
 11
114.523077
 21
110.749346
 31
0.0
  0
ARC
  5
C6
330
1F
100
AcDbEntity
  8
GR1-1
  6
CONTINUOUS
 62
     3
100
AcDbCircle
 10
105.273077
 20
141.649925
 30
0.0
 40
2.0
100
AcDbArc
 50
180.0
 51
265.0
  0
ARC
  5
C7
330
1F
100
AcDbEntity
  8
GR1-1
  6
CONTINUOUS
 62
     3
100
AcDbCircle
 10
113.523077
 20
137.916684
 30
0.0
 40
1.0
100
AcDbArc
 50
0.0
 51
85.0
  0
LINE
  5
C8
330
1F
100
AcDbEntity
  8
GR1-1
  6
CONTINUOUS
 62
     3
100
AcDbLine
 10
105.098765
 20
139.657536
 30
0.0
 11
113.610233
 21
138.912879
 31
0.0
  0
ARC
  5
C9
330
1F
100
AcDbEntity
  8
GR1-1
  6
CONTINUOUS
 62
     3
100
AcDbCircle
 10
95.773077
 20
141.649925
 30
0.0
 40
2.0
100
AcDbArc
 50
275.0
 51
360.0
  0
ARC
  5
CA
330
1F
100
AcDbEntity
  8
GR1-1
  6
CONTINUOUS
 62
     3
100
AcDbCircle
 10
87.523077
 20
137.916684
 30
0.0
 40
1.0
100
AcDbArc
 50
95.0
 51
180.0
  0
LINE
  5
CB
330
1F
100
AcDbEntity
  8
GR1-1
  6
CONTINUOUS
 62
     3
100
AcDbLine
 10
95.947388
 20
139.657536
 30
0.0
 11
87.435921
 21
138.912879
 31
0.0
  0
ARC
  5
CC
330
1F
100
AcDbEntity
  8
GR1-1
  6
CONTINUOUS
 62
     3
100
AcDbCircle
 10
105.273077
 20
107.016105
 30
0.0
 40
2.0
100
AcDbArc
 50
95.0
 51
180.0
  0
ARC
  5
CD
330
1F
100
AcDbEntity
  8
GR1-1
  6
CONTINUOUS
 62
     3
100
AcDbCircle
 10
113.523077
 20
110.749346
 30
0.0
 40
1.0
100
AcDbArc
 50
275.0
 51
360.0
  0
LINE
  5
CE
330
1F
100
AcDbEntity
  8
GR1-1
  6
CONTINUOUS
 62
     3
100
AcDbLine
 10
105.098765
 20
109.008495
 30
0.0
 11
113.610233
 21
109.753152
 31
0.0
  0
ARC
  5
CF
330
1F
100
AcDbEntity
  8
GR1-1
  6
CONTINUOUS
 62
     3
100
AcDbCircle
 10
95.773077
 20
107.016105
 30
0.0
 40
2.0
100
AcDbArc
 50
0.0
 51
85.0
  0
ARC
  5
D0
330
1F
100
AcDbEntity
  8
GR1-1
  6
CONTINUOUS
 62
     3
100
AcDbCircle
 10
87.523077
 20
110.749346
 30
0.0
 40
1.0
100
AcDbArc
 50
180.0
 51
265.0
  0
LINE
  5
D1
330
1F
100
AcDbEntity
  8
GR1-1
  6
CONTINUOUS
 62
     3
100
AcDbLine
 10
95.947388
 20
109.008495
 30
0.0
 11
87.435921
 21
109.753152
 31
0.0
  0
ARC
  5
D2
330
1F
100
AcDbEntity
  8
GR1-1
  6
CONTINUOUS
 62
     3
100
AcDbCircle
 10
112.023077
 20
146.702302
 30
0.0
 40
1.0
100
AcDbArc
 50
278.0
 51
360.0
  0
ARC
  5
D3
330
1F
100
AcDbEntity
  8
GR1-1
  6
CONTINUOUS
 62
     3
100
AcDbCircle
 10
105.273077
 20
142.724169
 30
0.0
 40
2.0
100
AcDbArc
 50
98.0
 51
180.0
  0
LINE
  5
D4
330
1F
100
AcDbEntity
  8
GR1-1
  6
CONTINUOUS
 62
     3
100
AcDbLine
 10
104.994731
 20
144.704705
 30
0.0
 11
112.16225
 21
145.712034
 31
0.0
  0
LINE
  5
D5
330
1F
100
AcDbEntity
  8
GR1-1
  6
CONTINUOUS
 62
     3
100
AcDbLine
 10
103.273077
 20
142.724169
 30
0.0
 11
103.273077
 21
141.649925
 31
0.0
  0
LINE
  5
D6
330
1F
100
AcDbEntity
  8
GR1-1
  6
CONTINUOUS
 62
     3
100
AcDbLine
 10
88.023077
 20
154.123053
 30
0.0
 11
88.023077
 21
138.964248
 31
0.0
  0
ARC
  5
D7
330
1F
100
AcDbEntity
  8
GR1-1
  6
CONTINUOUS
 62
     3
100
AcDbCircle
 10
89.023077
 20
146.702302
 30
0.0
 40
1.0
100
AcDbArc
 50
180.0
 51
262.0
  0
ARC
  5
D8
330
1F
100
AcDbEntity
  8
GR1-1
  6
CONTINUOUS
 62
     3
100
AcDbCircle
 10
95.773077
 20
142.724169
 30
0.0
 40
2.0
100
AcDbArc
 50
0.0
 51
82.0
  0
LINE
  5
D9
330
1F
100
AcDbEntity
  8
GR1-1
  6
CONTINUOUS
 62
     3
100
AcDbLine
 10
96.051423
 20
144.704705
 30
0.0
 11
88.883904
 21
145.712034
 31
0.0
  0
LINE
  5
DA
330
1F
100
AcDbEntity
  8
GR1-1
  6
CONTINUOUS
 62
     3
100
AcDbLine
 10
97.773077
 20
142.724169
 30
0.0
 11
97.773077
 21
141.649925
 31
0.0
  0
LINE
  5
DB
330
1F
100
AcDbEntity
  8
GR1-1
  6
CONTINUOUS
 62
     3
100
AcDbLine
 10
113.023077
 20
94.542977
 30
0.0
 11
113.023077
 21
109.701782
 31
0.0
  0
ARC
  5
DC
330
1F
100
AcDbEntity
  8
GR1-1
  6
CONTINUOUS
 62
     3
100
AcDbCircle
 10
112.023077
 20
101.963729
 30
0.0
 40
1.0
100
AcDbArc
 50
0.0
 51
82.0
  0
ARC
  5
DD
330
1F
100
AcDbEntity
  8
GR1-1
  6
CONTINUOUS
 62
     3
100
AcDbCircle
 10
105.273077
 20
105.941862
 30
0.0
 40
2.0
100
AcDbArc
 50
180.0
 51
262.0
  0
LINE
  5
DE
330
1F
100
AcDbEntity
  8
GR1-1
  6
CONTINUOUS
 62
     3
100
AcDbLine
 10
104.994731
 20
103.961326
 30
0.0
 11
112.16225
 21
102.953997
 31
0.0
  0
LINE
  5
DF
330
1F
100
AcDbEntity
  8
GR1-1
  6
CONTINUOUS
 62
     3
100
AcDbLine
 10
103.273077
 20
105.941862
 30
0.0
 11
103.273077
 21
107.016105
 31
0.0
  0
LINE
  5
E0
330
1F
100
AcDbEntity
  8
GR1-1
  6
CONTINUOUS
 62
     3
100
AcDbLine
 10
88.023077
 20
94.542977
 30
0.0
 11
88.023077
 21
109.701782
 31
0.0
  0
ARC
  5
E1
330
1F
100
AcDbEntity
  8
GR1-1
  6
CONTINUOUS
 62
     3
100
AcDbCircle
 10
89.023077
 20
101.963729
 30
0.0
 40
1.0
100
AcDbArc
 50
98.0
 51
180.0
  0
ARC
  5
E2
330
1F
100
AcDbEntity
  8
GR1-1
  6
CONTINUOUS
 62
     3
100
AcDbCircle
 10
95.773077
 20
105.941862
 30
0.0
 40
2.0
100
AcDbArc
 50
278.0
 51
360.0
  0
LINE
  5
E3
330
1F
100
AcDbEntity
  8
GR1-1
  6
CONTINUOUS
 62
     3
100
AcDbLine
 10
96.051423
 20
103.961326
 30
0.0
 11
88.883904
 21
102.953997
 31
0.0
  0
LINE
  5
E4
330
1F
100
AcDbEntity
  8
GR1-1
  6
CONTINUOUS
 62
     3
100
AcDbLine
 10
97.773077
 20
105.941862
 30
0.0
 11
97.773077
 21
107.016105
 31
0.0
  0
DIMENSION
  5
E5
330
1F
100
AcDbEntity
  8
LAYERGROUP-1
100
AcDbDimension
  2
*D19
 10
147.249766
 20
156.833015
 30
0.0
 11
146.249756
 21
124.333015
 31
0.0
 70
    33
  3
FXDIMINFO
100
AcDbAlignedDimension
 13
100.523077
 23
91.833015
 33
0.0
 14
100.523077
 24
156.833015
 34
0.0
1001
ACAD
1000
DSTYLE
1002
{
1070
     7
1000
FXTIP_ARROW_E
1070
     6
1000
FXTIP_ARROW_S
1070
   173
1070
     1
1002
}
  0
CIRCLE
  5
EF
330
1F
100
AcDbEntity
  8
GR1-1
  6
CONTINUOUS
 62
     3
100
AcDbCircle
 10
216.523077
 20
124.333015
 30
0.0
 40
32.5
  0
CIRCLE
  5
F0
330
1F
100
AcDbEntity
  8
GR1-1
  6
CONTINUOUS
 62
     3
100
AcDbCircle
 10
216.523077
 20
124.333015
 30
0.0
 40
26.0
  0
CIRCLE
  5
F1
330
1F
100
AcDbEntity
  8
GR1-1
  6
CONTINUOUS
 62
     3
100
AcDbCircle
 10
216.523077
 20
124.333015
 30
0.0
 40
6.5
  0
LINE
  5
F2
330
1F
100
AcDbEntity
  8
GR1-1
  6
CENTER
 62
     6
100
AcDbLine
 10
181.173435
 20
124.333015
 30
0.0
 11
252.448123
 21
124.333015
 31
0.0
  0
CIRCLE
  5
F3
330
1F
100
AcDbEntity
  8
GR1-1
  6
CONTINUOUS
 62
     6
100
AcDbCircle
 10
216.523077
 20
124.333015
 30
0.0
 40
14.0
  0
LINE
  5
F4
330
1F
100
AcDbEntity
  8
GR1-1
  6
CENTER
 62
     6
100
AcDbLine
 10
216.523077
 20
159.29733
 30
0.0
 11
216.523077
 21
89.012568
 31
0.0
  0
CIRCLE
  5
F5
330
1F
100
AcDbEntity
  8
GR1-1
  6
CONTINUOUS
 62
     6
100
AcDbCircle
 10
216.523077
 20
124.333015
 30
0.0
 40
9.999999999999972
  0
CIRCLE
  5
F6
330
1F
100
AcDbEntity
  8
GR1-1
  6
CONTINUOUS
 62
     3
100
AcDbCircle
 10
216.523077
 20
124.333015
 30
0.0
 40
4.099999999999966
  0
CIRCLE
  5
F7
330
1F
100
AcDbEntity
  8
GR1-1
  6
CONTINUOUS
 62
     3
100
AcDbCircle
 10
216.523077
 20
124.333015
 30
0.0
 40
5.999999999999943
  0
CIRCLE
  5
F8
330
1F
100
AcDbEntity
  8
LAYERGROUP-1
  6
CONTINUOUS
 62
     6
100
AcDbCircle
 10
216.523077
 20
124.333015
 30
0.0
 40
21.5
  0
INSERT
  5
FC
330
1F
100
AcDbEntity
  8
0
100
AcDbBlockReference
  2
BLKF022
 10
0.0
 20
0.0
 30
0.0
  0
LINE
  5
154
330
1F
100
AcDbEntity
  8
GR1-1
  6
CONTINUOUS
 62
     3
100
AcDbLine
 10
194.80692
 20
140.379464
 30
0.0
 11
196.928119
 21
142.907411
 31
0.0
  0
LINE
  5
155
330
1F
100
AcDbEntity
  8
GR1-1
  6
CONTINUOUS
 62
     3
100
AcDbLine
 10
196.928119
 20
142.907411
 30
0.0
 11
194.400173
 21
145.02861
 31
0.0
  0
LINE
  5
156
330
1F
100
AcDbEntity
  8
GR1-1
  6
CONTINUOUS
 62
     3
100
AcDbLine
 10
194.400173
 20
145.02861
 30
0.0
 11
192.278973
 21
142.500664
 31
0.0
  0
LINE
  5
157
330
1F
100
AcDbEntity
  8
GR1-1
  6
CONTINUOUS
 62
     3
100
AcDbLine
 10
192.278973
 20
142.500664
 30
0.0
 11
194.80692
 21
140.379464
 31
0.0
  0
LINE
  5
158
330
1F
100
AcDbEntity
  8
GR1-1
  6
CONTINUOUS
 62
     3
100
AcDbLine
 10
193.603603
 20
141.512352
 30
0.0
 11
193.411861
 21
143.70398
 31
0.0
  0
LINE
  5
159
330
1F
100
AcDbEntity
  8
GR1-1
  6
CONTINUOUS
 62
     3
100
AcDbLine
 10
193.411861
 20
143.70398
 30
0.0
 11
195.371032
 21
143.875385
 31
0.0
  0
LINE
  5
15A
330
1F
100
AcDbEntity
  8
GR1-1
  6
CONTINUOUS
 62
     3
100
AcDbLine
 10
195.371032
 20
143.875385
 30
0.0
 11
194.87106
 21
143.279543
 31
0.0
  0
LINE
  5
15B
330
1F
100
AcDbEntity
  8
GR1-1
  6
CONTINUOUS
 62
     3
100
AcDbLine
 10
194.87106
 20
143.279543
 30
0.0
 11
194.007704
 21
143.204009
 31
0.0
  0
LINE
  5
15C
330
1F
100
AcDbEntity
  8
GR1-1
  6
CONTINUOUS
 62
     3
100
AcDbLine
 10
194.007704
 20
143.204009
 30
0.0
 11
194.103575
 21
142.108195
 31
0.0
  0
LINE
  5
15D
330
1F
100
AcDbEntity
  8
GR1-1
  6
CONTINUOUS
 62
     3
100
AcDbLine
 10
194.103575
 20
142.108195
 30
0.0
 11
195.199389
 21
142.204066
 31
0.0
  0
LINE
  5
15E
330
1F
100
AcDbEntity
  8
GR1-1
  6
CONTINUOUS
 62
     3
100
AcDbLine
 10
195.199389
 20
142.204066
 30
0.0
 11
195.148986
 21
142.780175
 31
0.0
  0
ARC
  5
15F
330
1F
100
AcDbEntity
  8
GR1-1
  6
CONTINUOUS
 62
     3
100
AcDbCircle
 10
195.094195
 20
142.775381
 30
0.0
 40
0.055
100
AcDbArc
 50
5.0
 51
140.0
  0
LINE
  5
160
330
1F
100
AcDbEntity
  8
GR1-1
  6
CONTINUOUS
 62
     3
100
AcDbLine
 10
195.052063
 20
142.810735
 30
0.0
 11
194.814209
 21
142.527271
 31
0.0
  0
LINE
  5
161
330
1F
100
AcDbEntity
  8
GR1-1
  6
CONTINUOUS
 62
     3
100
AcDbLine
 10
194.814209
 20
142.527271
 30
0.0
 11
194.603546
 21
142.704037
 31
0.0
  0
LINE
  5
162
330
1F
100
AcDbEntity
  8
GR1-1
  6
CONTINUOUS
 62
     3
100
AcDbLine
 10
194.603546
 20
142.704037
 30
0.0
 11
195.603489
 21
143.895723
 31
0.0
  0
LINE
  5
163
330
1F
100
AcDbEntity
  8
GR1-1
  6
CONTINUOUS
 62
     3
100
AcDbLine
 10
195.603489
 20
143.895723
 30
0.0
 11
196.456385
 21
143.180058
 31
0.0
  0
LINE
  5
164
330
1F
100
AcDbEntity
  8
GR1-1
  6
CONTINUOUS
 62
     3
100
AcDbLine
 10
196.456385
 20
143.180058
 30
0.0
 11
196.102852
 21
142.758734
 31
0.0
  0
LINE
  5
165
330
1F
100
AcDbEntity
  8
GR1-1
  6
CONTINUOUS
 62
     3
100
AcDbLine
 10
196.102852
 20
142.758734
 30
0.0
 11
195.772997
 21
143.035515
 31
0.0
  0
ARC
  5
166
330
1F
100
AcDbEntity
  8
GR1-1
  6
CONTINUOUS
 62
     3
100
AcDbCircle
 10
195.737644
 20
142.993382
 30
0.0
 40
0.055
100
AcDbArc
 50
50.0
 51
185.0
  0
LINE
  5
167
330
1F
100
AcDbEntity
  8
GR1-1
  6
CONTINUOUS
 62
     3
100
AcDbLine
 10
195.682853
 20
142.988589
 30
0.0
 11
195.795232
 21
141.704094
 31
0.0
  0
LINE
  5
168
330
1F
100
AcDbEntity
  8
GR1-1
  6
CONTINUOUS
 62
     3
100
AcDbLine
 10
195.795232
 20
141.704094
 30
0.0
 11
193.603603
 21
141.512352
 31
0.0
  0
TEXT
  5
169
330
1F
100
AcDbEntity
  8
LAYERGROUP-1
  6
CONTINUOUS
 62
     7
100
AcDbText
 10
199.979126
 20
145.381653
 30
0.0
 40
3.909615
  1
G
 50
33.0
 41
1.476526
  7
FX_VECTOR
 72
     5
 11
204.128855
 21
148.076518
 31
0.0
100
AcDbText
  0
TEXT
  5
16A
330
1F
100
AcDbEntity
  8
LAYERGROUP-1
  6
CONTINUOUS
 62
     7
100
AcDbText
 10
203.680038
 20
147.823517
 30
0.0
 40
3.909615
  1
O
 50
23.5
 41
1.398814
  7
FX_VECTOR
 72
     5
 11
208.217637
 21
149.796521
 31
0.0
100
AcDbText
  0
TEXT
  5
16B
330
1F
100
AcDbEntity
  8
LAYERGROUP-1
  6
CONTINUOUS
 62
     7
100
AcDbText
 10
206.63855
 20
149.213593
 30
0.0
 40
3.909615
  1
L
 50
16.5
 41
1.661092
  7
FX_VECTOR
 72
     5
 11
211.382775
 21
150.618896
 31
0.0
100
AcDbText
  0
TEXT
  5
16C
330
1F
100
AcDbEntity
  8
LAYERGROUP-1
  6
CONTINUOUS
 62
     7
100
AcDbText
 10
210.880585
 20
150.503799
 30
0.0
 40
3.909615
  1
D
 50
7.0
 41
1.476526
  7
FX_VECTOR
 72
     5
 11
215.791687
 21
151.106807
 31
0.0
100
AcDbText
  0
TEXT
  5
16D
330
1F
100
AcDbEntity
  8
LAYERGROUP-1
  6
CONTINUOUS
 62
     7
100
AcDbText
 10
217.379486
 20
151.091446
 30
0.0
 40
3.909615
  1
C
 50
353.0
 41
1.476526
  7
FX_VECTOR
 72
     5
 11
222.290589
 21
150.488438
 31
0.0
100
AcDbText
  0
TEXT
  5
16E
330
1F
100
AcDbEntity
  8
LAYERGROUP-1
  6
CONTINUOUS
 62
     7
100
AcDbText
 10
221.095215
 20
150.711853
 30
0.0
 40
3.909615
  1
A
 50
345.0
 41
1.563381
  7
FX_VECTOR
 72
     5
 11
225.874601
 21
149.43122
 31
0.0
100
AcDbText
  0
TEXT
  5
16F
330
1F
100
AcDbEntity
  8
LAYERGROUP-1
  6
CONTINUOUS
 62
     7
100
AcDbText
 10
225.386261
 20
149.595459
 30
0.0
 40
3.909615
  1
S
 50
335.5
 41
1.563381
  7
FX_VECTOR
 72
     5
 11
229.888735
 21
147.543563
 31
0.0
100
AcDbText
  0
TEXT
  5
170
330
1F
100
AcDbEntity
  8
LAYERGROUP-1
  6
CONTINUOUS
 62
     7
100
AcDbText
 10
229.022949
 20
148.007919
 30
0.0
 40
3.909615
  1
T
 50
327.0
 41
1.771831
  7
FX_VECTOR
 72
     5
 11
233.172678
 21
145.313054
 31
0.0
100
AcDbText
  0
TEXT
  5
171
330
1F
100
AcDbEntity
  8
LAYERGROUP-1
  6
CONTINUOUS
 62
     7
100
AcDbText
 10
232.38501
 20
145.900269
 30
0.0
 40
3.909615
  1
E
 50
318.5
 41
1.563381
  7
FX_VECTOR
 72
     5
 11
236.090831
 21
142.621635
 31
0.0
100
AcDbText
  0
TEXT
  5
172
330
1F
100
AcDbEntity
  8
LAYERGROUP-1
  6
CONTINUOUS
 62
     7
100
AcDbText
 10
235.232239
 20
143.482819
 30
0.0
 40
3.909615
  1
R
 50
310.5
 41
1.476526
  7
FX_VECTOR
 72
     5
 11
238.445697
 21
139.720342
 31
0.0
100
AcDbText
  0
TEXT
  5
173
330
1F
100
AcDbEntity
  8
LAYERGROUP-1
  6
CONTINUOUS
 62
     7
100
AcDbText
 10
215.324524
 20
97.576065
 30
0.0
 40
3.909615
  1
2
 50
172.0
 41
1.563381
  7
FX_VECTOR
 72
     5
 11
210.424693
 21
98.264691
 31
0.0
100
AcDbText
  0
TEXT
  5
174
330
1F
100
AcDbEntity
  8
LAYERGROUP-1
  6
CONTINUOUS
 62
     7
100
AcDbText
 10
222.746185
 20
98.282219
 30
0.0
 40
3.909615
  1
5
 50
188.0
 41
1.563381
  7
FX_VECTOR
 72
     5
 11
217.846355
 21
97.593593
 31
0.0
100
AcDbText
  0
TEXT
  5
175
330
1F
100
AcDbEntity
  8
LAYERGROUP-1
  6
CONTINUOUS
 62
     7
100
AcDbText
 10
226.311188
 20
99.401833
 30
0.0
 40
3.909615
  1
6
 50
196.0
 41
1.563381
  7
FX_VECTOR
 72
     5
 11
221.55488
 21
98.037983
 31
0.0
100
AcDbText
  0
TEXT
  5
176
330
1F
100
AcDbEntity
  8
LAYERGROUP-1
  6
CONTINUOUS
 62
     7
100
AcDbText
 10
211.612335
 20
98.003265
 30
0.0
 40
3.909615
  1
5
 50
164.0
 41
1.563381
  7
FX_VECTOR
 72
     5
 11
206.856028
 21
99.367115
 31
0.0
100
AcDbText
  0
TEXT
  5
177
330
1F
100
AcDbEntity
  8
LAYERGROUP-1
  6
CONTINUOUS
 62
     7
100
AcDbText
 10
219.060059
 20
97.669655
 30
0.0
 40
3.909615
  1
X
 50
180.0
 41
1.563381
  7
FX_VECTOR
 72
     5
 11
214.112074
 21
97.669655
 31
0.0
100
AcDbText
  0
HATCH
  5
178
330
1F
100
AcDbEntity
  8
GR1-1
  6
CONTINUOUS
 62
     6
100
AcDbHatch
 10
0.0
 20
0.0
 30
0.0
210
0.0
220
0.0
230
1.0
  2

 70
     0
 71
     1
 91
        1
 92
        0
 93
       37
 72
     1
 10
104.9947307211568
 20
144.7047047906778
 11
112.162250024037
 21
145.7120339362502
 72
     2
 10
112.0230769230769
 20
146.7023020049918
 40
1.0
 50
278.0000000000009
 51
360.0
 73
     1
 72
     1
 10
113.0230769230769
 20
146.7023020049918
 11
113.0230769230769
 21
150.3330152671755
 72
     1
 10
113.0230769230769
 20
150.3330152671755
 11
110.0230769230769
 21
150.3330152671755
 72
     1
 10
110.0230769230769
 20
150.3330152671755
 11
111.0230769230774
 21
148.8330152671755
 72
     1
 10
111.0230769230774
 20
148.8330152671755
 11
100.5230769230769
 21
147.8330152671755
 72
     1
 10
100.5230769230769
 20
147.8330152671755
 11
90.02307692307647
 21
148.8330152671755
 72
     1
 10
90.02307692307647
 20
148.8330152671755
 11
91.02307692307693
 21
150.3330152671755
 72
     1
 10
91.02307692307693
 20
150.3330152671755
 11
88.02307692307693
 21
150.3330152671755
 72
     1
 10
88.02307692307693
 20
150.3330152671755
 11
88.02307692307693
 21
146.7023020049918
 72
     2
 10
89.02307692307693
 20
146.7023020049918
 40
1.0
 50
180.0
 51
261.9999999999991
 73
     1
 72
     1
 10
88.88390382211685
 20
145.7120339362502
 11
96.05142312499709
 21
144.7047047906778
 72
     2
 10
95.77307692307693
 20
142.7241686531947
 40
2.0
 50
0.0
 51
81.99999999999925
 73
     0
 72
     1
 10
97.77307692307693
 20
142.7241686531947
 11
97.77307692307693
 21
141.649925079877
 72
     2
 10
95.77307692307693
 20
141.649925079877
 40
2.0
 50
274.9999999999998
 51
360.0
 73
     0
 72
     1
 10
95.94738840857224
 20
139.6575356836935
 11
87.43592118032929
 21
138.9128787912499
 72
     2
 10
87.52307692307694
 20
137.9166840931581
 40
1.0
 50
94.99999999999989
 51
180.0
 73
     1
 72
     1
 10
86.52307692307694
 20
137.9166840931581
 11
86.52307692307693
 21
134.3330152671755
 72
     1
 10
86.52307692307693
 20
134.3330152671755
 11
87.34604396165007
 21
134.3330152671755
 72
     2
 10
87.34604396165004
 20
135.3330152671755
 40
1.0
 50
270.0000000000016
 51
338.1985905136473
 73
     1
 72
     1
 10
88.27452065253527
 20
134.9616245908214
 11
88.77163319361856
 21
136.2044059435296
 72
     2
 10
89.70010988450382
 20
135.8330152671755
 40
1.0
 50
90.00000000000081
 51
158.1985905136479
 73
     0
 72
     1
 10
89.7001098845038
 20
136.8330152671755
 11
93.5230769230769
 21
136.8330152671755
 72
     1
 10
93.5230769230769
 20
136.8330152671755
 11
93.5230769230769
 21
135.3330152671756
 72
     1
 10
93.5230769230769
 20
135.3330152671756
 11
107.5230769230769
 21
135.3330152671756
 72
     1
 10
107.5230769230769
 20
135.3330152671756
 11
107.5230769230769
 21
136.8330152671755
 72
     1
 10
107.5230769230769
 20
136.8330152671755
 11
111.34604396165
 21
136.8330152671755
 72
     2
 10
111.34604396165
 20
135.8330152671755
 40
1.0
 50
21.80140948635211
 51
89.99999999999919
 73
     0
 72
     1
 10
112.2745206525353
 20
136.2044059435296
 11
112.7716331936186
 21
134.9616245908214
 72
     2
 10
113.7001098845038
 20
135.3330152671755
 40
1.0
 50
201.8014094863527
 51
270.0
 73
     1
 72
     1
 10
113.7001098845038
 20
134.3330152671755
 11
114.5230769230769
 21
134.3330152671755
 72
     1
 10
114.5230769230769
 20
134.3330152671755
 11
114.5230769230769
 21
137.9166840931581
 72
     2
 10
113.5230769230769
 20
137.9166840931581
 40
1.0
 50
0.0
 51
85.00000000000011
 73
     1
 72
     1
 10
113.6102326658246
 20
138.9128787912499
 11
105.0987654375816
 21
139.6575356836935
 72
     2
 10
105.2730769230769
 20
141.649925079877
 40
2.0
 50
180.0
 51
265.0000000000002
 73
     0
 72
     1
 10
103.2730769230769
 20
141.649925079877
 11
103.2730769230769
 21
142.7241686531947
 72
     2
 10
105.2730769230769
 20
142.7241686531947
 40
2.0
 50
98.00000000000077
 51
180.0
 73
     0
 97
        0
 75
     0
 76
     0
 52
45.0
 41
2.0
 77
     0
 78
     1
 53
45.0
 43
0.0
 44
0.0
 45
-1.414213562373095
 46
1.414213562373095
 79
     0
 98
        0
  0
HATCH
  5
179
330
1F
100
AcDbEntity
  8
GR1-1
  6
CONTINUOUS
 62
     6
100
AcDbHatch
 10
0.0
 20
0.0
 30
0.0
210
0.0
220
0.0
230
1.0
  2

 70
     0
 71
     1
 91
        1
 92
        0
 93
       37
 72
     1
 10
88.88390382211685
 20
102.9539965981009
 11
96.05142312499709
 21
103.9613257436733
 72
     2
 10
95.77307692307693
 20
105.9418618811565
 40
2.0
 50
278.0000000000007
 51
360.0
 73
     1
 72
     1
 10
97.77307692307693
 20
105.9418618811565
 11
97.77307692307693
 21
107.0161054544741
 72
     2
 10
95.77307692307693
 20
107.0161054544741
 40
2.0
 50
0.0
 51
85.00000000000019
 73
     1
 72
     1
 10
95.94738840857224
 20
109.0084948506576
 11
87.43592118032929
 21
109.7531517431013
 72
     2
 10
87.52307692307694
 20
110.749346441193
 40
1.0
 50
180.0
 51
265.0000000000001
 73
     0
 72
     1
 10
86.52307692307694
 20
110.749346441193
 11
86.52307692307693
 21
114.3330152671756
 72
     1
 10
86.52307692307693
 20
114.3330152671756
 11
87.34604396165004
 21
114.3330152671756
 72
     2
 10
87.34604396165004
 20
113.3330152671756
 40
1.0
 50
21.80140948635273
 51
90.0
 73
     0
 72
     1
 10
88.27452065253527
 20
113.7044059435297
 11
88.77163319361856
 21
112.4616245908215
 72
     2
 10
89.70010988450382
 20
112.8330152671757
 40
1.0
 50
201.8014094863521
 51
269.9999999999992
 73
     1
 72
     1
 10
89.7001098845038
 20
111.8330152671757
 11
93.5230769230769
 21
111.8330152671756
 72
     1
 10
93.5230769230769
 20
111.8330152671756
 11
93.5230769230769
 21
113.3330152671756
 72
     1
 10
93.5230769230769
 20
113.3330152671756
 11
107.5230769230769
 21
113.3330152671756
 72
     1
 10
107.5230769230769
 20
113.3330152671756
 11
107.5230769230769
 21
111.8330152671756
 72
     1
 10
107.5230769230769
 20
111.8330152671756
 11
111.34604396165
 21
111.8330152671757
 72
     2
 10
111.34604396165
 20
112.8330152671757
 40
1.0
 50
270.0000000000008
 51
338.1985905136479
 73
     1
 72
     1
 10
112.2745206525353
 20
112.4616245908215
 11
112.7716331936185
 21
113.7044059435297
 72
     2
 10
113.7001098845038
 20
113.3330152671756
 40
1.0
 50
90.0
 51
158.1985905136479
 73
     0
 72
     1
 10
113.7001098845038
 20
114.3330152671756
 11
114.5230769230769
 21
114.3330152671756
 72
     1
 10
114.5230769230769
 20
114.3330152671756
 11
114.5230769230769
 21
110.749346441193
 72
     2
 10
113.5230769230769
 20
110.749346441193
 40
1.0
 50
274.9999999999999
 51
360.0
 73
     0
 72
     1
 10
113.6102326658246
 20
109.7531517431013
 11
105.0987654375816
 21
109.0084948506576
 72
     2
 10
105.2730769230769
 20
107.0161054544741
 40
2.0
 50
94.99999999999983
 51
180.0
 73
     1
 72
     1
 10
103.2730769230769
 20
107.0161054544741
 11
103.2730769230769
 21
105.9418618811565
 72
     2
 10
105.2730769230769
 20
105.9418618811565
 40
2.0
 50
180.0
 51
261.9999999999992
 73
     1
 72
     1
 10
104.9947307211568
 20
103.9613257436733
 11
112.162250024037
 21
102.9539965981009
 72
     2
 10
112.0230769230769
 20
101.9637285293594
 40
1.0
 50
0.0
 51
81.99999999999925
 73
     0
 72
     1
 10
113.0230769230769
 20
101.9637285293594
 11
113.0230769230769
 21
98.33301526717558
 72
     1
 10
113.0230769230769
 20
98.33301526717558
 11
110.0230769230769
 21
98.3330152671756
 72
     1
 10
110.0230769230769
 20
98.3330152671756
 11
111.0230769230774
 21
99.8330152671756
 72
     1
 10
111.0230769230774
 20
99.8330152671756
 11
100.5230769230769
 21
100.8330152671756
 72
     1
 10
100.5230769230769
 20
100.8330152671756
 11
90.02307692307647
 21
99.8330152671756
 72
     1
 10
90.02307692307647
 20
99.8330152671756
 11
91.02307692307693
 21
98.3330152671756
 72
     1
 10
91.02307692307693
 20
98.3330152671756
 11
88.02307692307693
 21
98.33301526717558
 72
     1
 10
88.02307692307693
 20
98.33301526717558
 11
88.02307692307693
 21
101.9637285293594
 72
     2
 10
89.02307692307693
 20
101.9637285293594
 40
1.0
 50
98.0000000000009
 51
180.0
 73
     0
 97
        0
 75
     0
 76
     0
 52
45.0
 41
2.0
 77
     0
 78
     1
 53
45.0
 43
0.0
 44
0.0
 45
-1.414213562373095
 46
1.414213562373095
 79
     0
 98
        0
  0
LINE
  5
17A
330
1F
100
AcDbEntity
  8
GR1-1
  6
CONTINUOUS
 62
     3
100
AcDbLine
 10
110.523077
 20
118.333015
 30
0.0
 11
116.023077
 21
118.333015
 31
0.0
  0
LINE
  5
17B
330
1F
100
AcDbEntity
  8
GR1-1
  6
CONTINUOUS
 62
     3
100
AcDbLine
 10
116.023077
 20
130.333015
 30
0.0
 11
110.523077
 21
130.333015
 31
0.0
  0
LINE
  5
17C
330
1F
100
AcDbEntity
  8
GR1-1
  6
CONTINUOUS
 62
     3
100
AcDbLine
 10
110.523077
 20
130.833015
 30
0.0
 11
114.523077
 21
130.833015
 31
0.0
  0
LINE
  5
17D
330
1F
100
AcDbEntity
  8
GR1-1
  6
CONTINUOUS
 62
     3
100
AcDbLine
 10
111.346044
 20
136.833015
 30
0.0
 11
107.523077
 21
136.833015
 31
0.0
  0
LINE
  5
17E
330
1F
100
AcDbEntity
  8
GR1-1
  6
CONTINUOUS
 62
     3
100
AcDbLine
 10
107.523077
 20
136.833015
 30
0.0
 11
107.523077
 21
135.333015
 31
0.0
  0
LINE
  5
17F
330
1F
100
AcDbEntity
  8
GR1-1
  6
CONTINUOUS
 62
     3
100
AcDbLine
 10
114.523077
 20
134.333015
 30
0.0
 11
113.70011
 21
134.333015
 31
0.0
  0
LINE
  5
180
330
1F
100
AcDbEntity
  8
GR1-1
  6
CONTINUOUS
 62
     3
100
AcDbLine
 10
112.771633
 20
134.961625
 30
0.0
 11
112.274521
 21
136.204406
 31
0.0
  0
ARC
  5
181
330
1F
100
AcDbEntity
  8
GR1-1
  6
CONTINUOUS
 62
     3
100
AcDbCircle
 10
111.346044
 20
135.833015
 30
0.0
 40
1.0
100
AcDbArc
 50
21.801409
 51
90.0
  0
ARC
  5
182
330
1F
100
AcDbEntity
  8
GR1-1
  6
CONTINUOUS
 62
     3
100
AcDbCircle
 10
113.70011
 20
135.333015
 30
0.0
 40
1.0
100
AcDbArc
 50
201.801409
 51
270.0
  0
LINE
  5
183
330
1F
100
AcDbEntity
  8
GR1-1
  6
CONTINUOUS
 62
     3
100
AcDbLine
 10
111.346044
 20
111.833015
 30
0.0
 11
107.523077
 21
111.833015
 31
0.0
  0
LINE
  5
184
330
1F
100
AcDbEntity
  8
GR1-1
  6
CONTINUOUS
 62
     3
100
AcDbLine
 10
107.523077
 20
111.833015
 30
0.0
 11
107.523077
 21
113.333015
 31
0.0
  0
LINE
  5
185
330
1F
100
AcDbEntity
  8
GR1-1
  6
CONTINUOUS
 62
     3
100
AcDbLine
 10
114.523077
 20
114.333015
 30
0.0
 11
113.70011
 21
114.333015
 31
0.0
  0
LINE
  5
186
330
1F
100
AcDbEntity
  8
GR1-1
  6
CONTINUOUS
 62
     3
100
AcDbLine
 10
112.771633
 20
113.704406
 30
0.0
 11
112.274521
 21
112.461625
 31
0.0
  0
ARC
  5
187
330
1F
100
AcDbEntity
  8
GR1-1
  6
CONTINUOUS
 62
     3
100
AcDbCircle
 10
111.346044
 20
112.833015
 30
0.0
 40
1.0
100
AcDbArc
 50
270.0
 51
338.198591
  0
ARC
  5
188
330
1F
100
AcDbEntity
  8
GR1-1
  6
CONTINUOUS
 62
     3
100
AcDbCircle
 10
113.70011
 20
113.333015
 30
0.0
 40
1.0
100
AcDbArc
 50
90.0
 51
158.198591
  0
LINE
  5
189
330
1F
100
AcDbEntity
  8
GR1-1
  6
CONTINUOUS
 62
     3
100
AcDbLine
 10
110.523077
 20
117.833015
 30
0.0
 11
114.523077
 21
117.833015
 31
0.0
  0
LINE
  5
18A
330
1F
100
AcDbEntity
  8
GR1-1
  6
CONTINUOUS
 62
     3
100
AcDbLine
 10
110.523077
 20
135.333015
 30
0.0
 11
90.523077
 21
135.333015
 31
0.0
  0
LINE
  5
18B
330
1F
100
AcDbEntity
  8
GR1-1
  6
CONTINUOUS
 62
     3
100
AcDbLine
 10
115.523077
 20
128.433015
 30
0.0
 11
85.523077
 21
128.433015
 31
0.0
  0
LINE
  5
18C
330
1F
100
AcDbEntity
  8
LAYERGROUP-1
  6
CONTINUOUS
 62
     3
100
AcDbLine
 10
105.21245
 20
130.333015
 30
0.0
 11
95.833704
 21
130.333015
 31
0.0
  0
LINE
  5
18D
330
1F
100
AcDbEntity
  8
LAYERGROUP-1
  6
CONTINUOUS
 62
     3
100
AcDbLine
 10
104.990027
 20
133.083015
 30
0.0
 11
96.056127
 21
133.083015
 31
0.0
  0
LINE
  5
18E
330
1F
100
AcDbEntity
  8
GR1-1
  6
CONTINUOUS
 62
     3
100
AcDbLine
 10
116.023077
 20
130.333015
 30
0.0
 11
116.023077
 21
128.933015
 31
0.0
  0
LINE
  5
18F
330
1F
100
AcDbEntity
  8
GR1-1
  6
CONTINUOUS
 62
     3
100
AcDbLine
 10
106.523077
 20
133.833015
 30
0.0
 11
110.523077
 21
133.833015
 31
0.0
  0
CIRCLE
  5
190
330
1F
100
AcDbEntity
  8
LAYERGROUP-1
  6
CONTINUOUS
 62
     3
100
AcDbCircle
 10
106.523077
 20
131.823015
 30
0.0
 40
1.9844
  0
LINE
  5
191
330
1F
100
AcDbEntity
  8
LAYERGROUP-1
  6
CONTINUOUS
 62
     6
100
AcDbLine
 10
107.523077
 20
131.823015
 30
0.0
 11
105.523077
 21
131.823015
 31
0.0
  0
LINE
  5
192
330
1F
100
AcDbEntity
  8
LAYERGROUP-1
  6
CONTINUOUS
 62
     6
100
AcDbLine
 10
106.523077
 20
130.823015
 30
0.0
 11
106.523077
 21
132.823015
 31
0.0
  0
LINE
  5
193
330
1F
100
AcDbEntity
  8
LAYERGROUP-1
  6
CONTINUOUS
 62
     3
100
AcDbLine
 10
110.523077
 20
130.333015
 30
0.0
 11
107.833704
 21
130.333015
 31
0.0
  0
LINE
  5
194
330
1F
100
AcDbEntity
  8
GR1-1
  6
CONTINUOUS
 62
     3
100
AcDbLine
 10
110.523077
 20
133.833015
 30
0.0
 11
110.523077
 21
135.333015
 31
0.0
  0
LINE
  5
195
330
1F
100
AcDbEntity
  8
LAYERGROUP-1
  6
CONTINUOUS
 62
     3
100
AcDbLine
 10
116.023077
 20
128.933015
 30
0.0
 11
116.023077
 21
119.733015
 31
0.0
  0
LINE
  5
196
330
1F
100
AcDbEntity
  8
LAYERGROUP-1
  6
CONTINUOUS
 62
     3
100
AcDbLine
 10
115.523077
 20
128.433015
 30
0.0
 11
116.023077
 21
128.933015
 31
0.0
  0
LINE
  5
197
330
1F
100
AcDbEntity
  8
LAYERGROUP-1
  6
CONTINUOUS
 62
     6
100
AcDbLine
 10
115.523077
 20
128.433015
 30
0.0
 11
115.523077
 21
120.233015
 31
0.0
  0
LINE
  5
198
330
1F
100
AcDbEntity
  8
LAYERGROUP-1
  6
CONTINUOUS
 62
     6
100
AcDbLine
 10
109.607477
 20
132.833015
 30
0.0
 11
109.607477
 21
130.833015
 31
0.0
  0
LINE
  5
199
330
1F
100
AcDbEntity
  8
LAYERGROUP-1
  6
CONTINUOUS
 62
     6
100
AcDbLine
 10
109.607477
 20
130.833015
 30
0.0
 11
105.407477
 21
130.833015
 31
0.0
  0
LINE
  5
19A
330
1F
100
AcDbEntity
  8
LAYERGROUP-1
  6
CONTINUOUS
 62
     6
100
AcDbLine
 10
105.407477
 20
130.833015
 30
0.0
 11
105.407477
 21
132.833015
 31
0.0
  0
LINE
  5
19B
330
1F
100
AcDbEntity
  8
LAYERGROUP-1
  6
CONTINUOUS
 62
     6
100
AcDbLine
 10
105.407477
 20
132.833015
 30
0.0
 11
109.607477
 21
132.833015
 31
0.0
  0
LINE
  5
19C
330
1F
100
AcDbEntity
  8
GR1-1
  6
CONTINUOUS
 62
     3
100
AcDbLine
 10
110.523077
 20
113.333015
 30
0.0
 11
90.523077
 21
113.333015
 31
0.0
  0
LINE
  5
19D
330
1F
100
AcDbEntity
  8
GR1-1
  6
CONTINUOUS
 62
     3
100
AcDbLine
 10
115.523077
 20
120.233015
 30
0.0
 11
85.523077
 21
120.233015
 31
0.0
  0
LINE
  5
19E
330
1F
100
AcDbEntity
  8
LAYERGROUP-1
  6
CONTINUOUS
 62
     3
100
AcDbLine
 10
105.21245
 20
118.333015
 30
0.0
 11
95.833704
 21
118.333015
 31
0.0
  0
LINE
  5
19F
330
1F
100
AcDbEntity
  8
LAYERGROUP-1
  6
CONTINUOUS
 62
     3
100
AcDbLine
 10
104.990027
 20
115.583015
 30
0.0
 11
96.056127
 21
115.583015
 31
0.0
  0
LINE
  5
1A0
330
1F
100
AcDbEntity
  8
GR1-1
  6
CONTINUOUS
 62
     3
100
AcDbLine
 10
116.023077
 20
118.333015
 30
0.0
 11
116.023077
 21
119.733015
 31
0.0
  0
LINE
  5
1A1
330
1F
100
AcDbEntity
  8
GR1-1
  6
CONTINUOUS
 62
     3
100
AcDbLine
 10
106.523077
 20
114.833015
 30
0.0
 11
110.523077
 21
114.833015
 31
0.0
  0
CIRCLE
  5
1A2
330
1F
100
AcDbEntity
  8
LAYERGROUP-1
  6
CONTINUOUS
 62
     3
100
AcDbCircle
 10
106.523077
 20
116.843015
 30
0.0
 40
1.9844
  0
LINE
  5
1A3
330
1F
100
AcDbEntity
  8
LAYERGROUP-1
  6
CONTINUOUS
 62
     6
100
AcDbLine
 10
107.523077
 20
116.843015
 30
0.0
 11
105.523077
 21
116.843015
 31
0.0
  0
LINE
  5
1A4
330
1F
100
AcDbEntity
  8
LAYERGROUP-1
  6
CONTINUOUS
 62
     6
100
AcDbLine
 10
106.523077
 20
117.843015
 30
0.0
 11
106.523077
 21
115.843015
 31
0.0
  0
LINE
  5
1A5
330
1F
100
AcDbEntity
  8
LAYERGROUP-1
  6
CONTINUOUS
 62
     3
100
AcDbLine
 10
110.523077
 20
118.333015
 30
0.0
 11
107.833704
 21
118.333015
 31
0.0
  0
LINE
  5
1A6
330
1F
100
AcDbEntity
  8
GR1-1
  6
CONTINUOUS
 62
     3
100
AcDbLine
 10
110.523077
 20
114.833015
 30
0.0
 11
110.523077
 21
113.333015
 31
0.0
  0
LINE
  5
1A7
330
1F
100
AcDbEntity
  8
LAYERGROUP-1
  6
CONTINUOUS
 62
     3
100
AcDbLine
 10
115.523077
 20
120.233015
 30
0.0
 11
116.023077
 21
119.733015
 31
0.0
  0
LINE
  5
1A8
330
1F
100
AcDbEntity
  8
LAYERGROUP-1
  6
CONTINUOUS
 62
     6
100
AcDbLine
 10
109.607477
 20
115.833015
 30
0.0
 11
109.607477
 21
117.833015
 31
0.0
  0
LINE
  5
1A9
330
1F
100
AcDbEntity
  8
LAYERGROUP-1
  6
CONTINUOUS
 62
     6
100
AcDbLine
 10
109.607477
 20
117.833015
 30
0.0
 11
105.407477
 21
117.833015
 31
0.0
  0
LINE
  5
1AA
330
1F
100
AcDbEntity
  8
LAYERGROUP-1
  6
CONTINUOUS
 62
     6
100
AcDbLine
 10
105.407477
 20
117.833015
 30
0.0
 11
105.407477
 21
115.833015
 31
0.0
  0
LINE
  5
1AB
330
1F
100
AcDbEntity
  8
LAYERGROUP-1
  6
CONTINUOUS
 62
     6
100
AcDbLine
 10
105.407477
 20
115.833015
 30
0.0
 11
109.607477
 21
115.833015
 31
0.0
  0
LINE
  5
1AC
330
1F
100
AcDbEntity
  8
LAYERGROUP-1
  6
CONTINUOUS
 62
     6
100
AcDbLine
 10
110.523077
 20
130.333015
 30
0.0
 11
110.523077
 21
130.833015
 31
0.0
  0
LINE
  5
1AD
330
1F
100
AcDbEntity
  8
LAYERGROUP-1
  6
CONTINUOUS
 62
     6
100
AcDbLine
 10
110.523077
 20
118.333015
 30
0.0
 11
110.523077
 21
117.833015
 31
0.0
  0
LINE
  5
1AE
330
1F
100
AcDbEntity
  8
LAYERGROUP-1
  6
CONTINUOUS
 62
     3
100
AcDbLine
 10
110.523077
 20
133.833015
 30
0.0
 11
110.523077
 21
130.833015
 31
0.0
  0
LINE
  5
1AF
330
1F
100
AcDbEntity
  8
LAYERGROUP-1
  6
CONTINUOUS
 62
     3
100
AcDbLine
 10
110.523077
 20
117.833015
 30
0.0
 11
110.523077
 21
114.833015
 31
0.0
  0
LINE
  5
1B0
330
1F
100
AcDbEntity
  8
LAYERGROUP-1
  6
CONTINUOUS
 62
     6
100
AcDbLine
 10
114.523077
 20
117.833015
 30
0.0
 11
114.523077
 21
118.333015
 31
0.0
  0
LINE
  5
1B1
330
1F
100
AcDbEntity
  8
LAYERGROUP-1
  6
CONTINUOUS
 62
     6
100
AcDbLine
 10
114.523077
 20
130.833015
 30
0.0
 11
114.523077
 21
130.333015
 31
0.0
  0
ARC
  5
1B2
330
1F
100
AcDbEntity
  8
LAYERGROUP-1
  6
CONTINUOUS
 62
     3
100
AcDbCircle
 10
106.551437
 20
131.833216
 30
0.0
 40
2.0
100
AcDbArc
 50
90.812485
 51
141.325192
  0
ARC
  5
1B3
330
1F
100
AcDbEntity
  8
LAYERGROUP-1
  6
CONTINUOUS
 62
     3
100
AcDbCircle
 10
106.551437
 20
116.832814
 30
0.0
 40
2.0
100
AcDbArc
 50
218.674808
 51
269.187515
  0
HATCH
  5
1B4
330
1F
100
AcDbEntity
  8
LAYERGROUP-1
  6
CONTINUOUS
 62
     6
100
AcDbHatch
 10
0.0
 20
0.0
 30
0.0
210
0.0
220
0.0
230
1.0
  2

 70
     0
 71
     1
 91
        2
 92
        0
 93
       11
 72
     1
 10
107.5230769230769
 20
136.8330152671755
 11
111.34604396165
 21
136.8330152671755
 72
     2
 10
111.34604396165
 20
135.8330152671755
 40
1.0
 50
21.80140948635211
 51
89.99999999999919
 73
     0
 72
     1
 10
112.2745206525353
 20
136.2044059435296
 11
112.7716331936186
 21
134.9616245908214
 72
     2
 10
113.7001098845038
 20
135.3330152671755
 40
1.0
 50
201.8014094863527
 51
270.0
 73
     1
 72
     1
 10
113.7001098845038
 20
134.3330152671755
 11
114.5230769230769
 21
134.3330152671755
 72
     1
 10
114.5230769230769
 20
134.3330152671755
 11
114.5230769230769
 21
130.8330152671755
 72
     1
 10
114.5230769230769
 20
130.8330152671755
 11
110.5230769230769
 21
130.8330152671755
 72
     1
 10
110.5230769230769
 20
130.8330152671755
 11
110.5230769230769
 21
133.8330152671756
 72
     1
 10
110.5230769230769
 20
133.8330152671756
 11
110.5230769230769
 21
135.3330152671756
 72
     1
 10
110.5230769230769
 20
135.3330152671756
 11
107.5230769230769
 21
135.3330152671756
 72
     1
 10
107.5230769230769
 20
135.3330152671756
 11
107.5230769230769
 21
136.8330152671755
 97
        0
 92
        0
 93
       11
 72
     1
 10
114.5230769230769
 20
117.8330152671756
 11
110.5230769230769
 21
117.8330152671756
 72
     1
 10
110.5230769230769
 20
117.8330152671756
 11
110.5230769230769
 21
114.8330152671756
 72
     1
 10
110.5230769230769
 20
114.8330152671756
 11
110.5230769230769
 21
113.3330152671756
 72
     1
 10
110.5230769230769
 20
113.3330152671756
 11
107.5230769230769
 21
113.3330152671756
 72
     1
 10
107.5230769230769
 20
113.3330152671756
 11
107.5230769230769
 21
111.8330152671756
 72
     1
 10
107.5230769230769
 20
111.8330152671756
 11
111.34604396165
 21
111.8330152671757
 72
     2
 10
111.34604396165
 20
112.8330152671757
 40
1.0
 50
270.0000000000008
 51
338.1985905136479
 73
     1
 72
     1
 10
112.2745206525353
 20
112.4616245908215
 11
112.7716331936186
 21
113.7044059435297
 72
     2
 10
113.7001098845038
 20
113.3330152671756
 40
1.0
 50
90.0
 51
158.1985905136473
 73
     0
 72
     1
 10
113.7001098845038
 20
114.3330152671756
 11
114.5230769230769
 21
114.3330152671756
 72
     1
 10
114.5230769230769
 20
114.3330152671756
 11
114.5230769230769
 21
117.8330152671756
 97
        0
 75
     0
 76
     0
 52
45.0
 41
2.0
 77
     0
 78
     1
 53
45.0
 43
0.0
 44
0.0
 45
-1.414213562373095
 46
1.414213562373095
 79
     0
 98
        0
  0
LINE
  5
1B5
330
1F
100
AcDbEntity
  8
GR1-1
  6
CONTINUOUS
 62
     3
100
AcDbLine
 10
90.523077
 20
118.333015
 30
0.0
 11
85.023077
 21
118.333015
 31
0.0
  0
LINE
  5
1B6
330
1F
100
AcDbEntity
  8
GR1-1
  6
CONTINUOUS
 62
     3
100
AcDbLine
 10
85.023077
 20
130.333015
 30
0.0
 11
90.523077
 21
130.333015
 31
0.0
  0
LINE
  5
1B7
330
1F
100
AcDbEntity
  8
GR1-1
  6
CONTINUOUS
 62
     3
100
AcDbLine
 10
90.523077
 20
130.833015
 30
0.0
 11
86.523077
 21
130.833015
 31
0.0
  0
LINE
  5
1B8
330
1F
100
AcDbEntity
  8
GR1-1
  6
CONTINUOUS
 62
     3
100
AcDbLine
 10
89.70011
 20
136.833015
 30
0.0
 11
93.523077
 21
136.833015
 31
0.0
  0
LINE
  5
1B9
330
1F
100
AcDbEntity
  8
GR1-1
  6
CONTINUOUS
 62
     3
100
AcDbLine
 10
93.523077
 20
136.833015
 30
0.0
 11
93.523077
 21
135.333015
 31
0.0
  0
LINE
  5
1BA
330
1F
100
AcDbEntity
  8
GR1-1
  6
CONTINUOUS
 62
     3
100
AcDbLine
 10
86.523077
 20
134.333015
 30
0.0
 11
87.346044
 21
134.333015
 31
0.0
  0
LINE
  5
1BB
330
1F
100
AcDbEntity
  8
GR1-1
  6
CONTINUOUS
 62
     3
100
AcDbLine
 10
88.274521
 20
134.961625
 30
0.0
 11
88.771633
 21
136.204406
 31
0.0
  0
ARC
  5
1BC
330
1F
100
AcDbEntity
  8
GR1-1
  6
CONTINUOUS
 62
     3
100
AcDbCircle
 10
89.70011
 20
135.833015
 30
0.0
 40
1.0
100
AcDbArc
 50
90.0
 51
158.198591
  0
ARC
  5
1BD
330
1F
100
AcDbEntity
  8
GR1-1
  6
CONTINUOUS
 62
     3
100
AcDbCircle
 10
87.346044
 20
135.333015
 30
0.0
 40
1.0
100
AcDbArc
 50
270.0
 51
338.198591
  0
LINE
  5
1BE
330
1F
100
AcDbEntity
  8
GR1-1
  6
CONTINUOUS
 62
     3
100
AcDbLine
 10
89.70011
 20
111.833015
 30
0.0
 11
93.523077
 21
111.833015
 31
0.0
  0
LINE
  5
1BF
330
1F
100
AcDbEntity
  8
GR1-1
  6
CONTINUOUS
 62
     3
100
AcDbLine
 10
93.523077
 20
111.833015
 30
0.0
 11
93.523077
 21
113.333015
 31
0.0
  0
LINE
  5
1C0
330
1F
100
AcDbEntity
  8
GR1-1
  6
CONTINUOUS
 62
     3
100
AcDbLine
 10
86.523077
 20
114.333015
 30
0.0
 11
87.346044
 21
114.333015
 31
0.0
  0
LINE
  5
1C1
330
1F
100
AcDbEntity
  8
GR1-1
  6
CONTINUOUS
 62
     3
100
AcDbLine
 10
88.274521
 20
113.704406
 30
0.0
 11
88.771633
 21
112.461625
 31
0.0
  0
ARC
  5
1C2
330
1F
100
AcDbEntity
  8
GR1-1
  6
CONTINUOUS
 62
     3
100
AcDbCircle
 10
89.70011
 20
112.833015
 30
0.0
 40
1.0
100
AcDbArc
 50
201.801409
 51
270.0
  0
ARC
  5
1C3
330
1F
100
AcDbEntity
  8
GR1-1
  6
CONTINUOUS
 62
     3
100
AcDbCircle
 10
87.346044
 20
113.333015
 30
0.0
 40
1.0
100
AcDbArc
 50
21.801409
 51
90.0
  0
LINE
  5
1C4
330
1F
100
AcDbEntity
  8
GR1-1
  6
CONTINUOUS
 62
     3
100
AcDbLine
 10
90.523077
 20
117.833015
 30
0.0
 11
86.523077
 21
117.833015
 31
0.0
  0
LINE
  5
1C5
330
1F
100
AcDbEntity
  8
GR1-1
  6
CONTINUOUS
 62
     3
100
AcDbLine
 10
85.023077
 20
130.333015
 30
0.0
 11
85.023077
 21
128.933015
 31
0.0
  0
LINE
  5
1C6
330
1F
100
AcDbEntity
  8
GR1-1
  6
CONTINUOUS
 62
     3
100
AcDbLine
 10
94.523077
 20
133.833015
 30
0.0
 11
90.523077
 21
133.833015
 31
0.0
  0
CIRCLE
  5
1C7
330
1F
100
AcDbEntity
  8
LAYERGROUP-1
  6
CONTINUOUS
 62
     3
100
AcDbCircle
 10
94.523077
 20
131.823015
 30
0.0
 40
1.9844
  0
LINE
  5
1C8
330
1F
100
AcDbEntity
  8
LAYERGROUP-1
  6
CONTINUOUS
 62
     6
100
AcDbLine
 10
93.523077
 20
131.823015
 30
0.0
 11
95.523077
 21
131.823015
 31
0.0
  0
LINE
  5
1C9
330
1F
100
AcDbEntity
  8
LAYERGROUP-1
  6
CONTINUOUS
 62
     6
100
AcDbLine
 10
94.523077
 20
130.823015
 30
0.0
 11
94.523077
 21
132.823015
 31
0.0
  0
LINE
  5
1CA
330
1F
100
AcDbEntity
  8
LAYERGROUP-1
  6
CONTINUOUS
 62
     3
100
AcDbLine
 10
90.523077
 20
130.333015
 30
0.0
 11
93.21245
 21
130.333015
 31
0.0
  0
LINE
  5
1CB
330
1F
100
AcDbEntity
  8
GR1-1
  6
CONTINUOUS
 62
     3
100
AcDbLine
 10
90.523077
 20
133.833015
 30
0.0
 11
90.523077
 21
135.333015
 31
0.0
  0
LINE
  5
1CC
330
1F
100
AcDbEntity
  8
LAYERGROUP-1
  6
CONTINUOUS
 62
     3
100
AcDbLine
 10
85.023077
 20
128.933015
 30
0.0
 11
85.023077
 21
119.733015
 31
0.0
  0
LINE
  5
1CD
330
1F
100
AcDbEntity
  8
LAYERGROUP-1
  6
CONTINUOUS
 62
     3
100
AcDbLine
 10
85.523077
 20
128.433015
 30
0.0
 11
85.023077
 21
128.933015
 31
0.0
  0
LINE
  5
1CE
330
1F
100
AcDbEntity
  8
LAYERGROUP-1
  6
CONTINUOUS
 62
     6
100
AcDbLine
 10
85.523077
 20
128.433015
 30
0.0
 11
85.523077
 21
120.233015
 31
0.0
  0
LINE
  5
1CF
330
1F
100
AcDbEntity
  8
LAYERGROUP-1
  6
CONTINUOUS
 62
     6
100
AcDbLine
 10
91.438677
 20
132.833015
 30
0.0
 11
91.438677
 21
130.833015
 31
0.0
  0
LINE
  5
1D0
330
1F
100
AcDbEntity
  8
LAYERGROUP-1
  6
CONTINUOUS
 62
     6
100
AcDbLine
 10
91.438677
 20
130.833015
 30
0.0
 11
95.638677
 21
130.833015
 31
0.0
  0
LINE
  5
1D1
330
1F
100
AcDbEntity
  8
LAYERGROUP-1
  6
CONTINUOUS
 62
     6
100
AcDbLine
 10
95.638677
 20
130.833015
 30
0.0
 11
95.638677
 21
132.833015
 31
0.0
  0
LINE
  5
1D2
330
1F
100
AcDbEntity
  8
LAYERGROUP-1
  6
CONTINUOUS
 62
     6
100
AcDbLine
 10
95.638677
 20
132.833015
 30
0.0
 11
91.438677
 21
132.833015
 31
0.0
  0
LINE
  5
1D3
330
1F
100
AcDbEntity
  8
GR1-1
  6
CONTINUOUS
 62
     3
100
AcDbLine
 10
85.023077
 20
118.333015
 30
0.0
 11
85.023077
 21
119.733015
 31
0.0
  0
LINE
  5
1D4
330
1F
100
AcDbEntity
  8
GR1-1
  6
CONTINUOUS
 62
     3
100
AcDbLine
 10
94.523077
 20
114.833015
 30
0.0
 11
90.523077
 21
114.833015
 31
0.0
  0
CIRCLE
  5
1D5
330
1F
100
AcDbEntity
  8
LAYERGROUP-1
  6
CONTINUOUS
 62
     3
100
AcDbCircle
 10
94.523077
 20
116.843015
 30
0.0
 40
1.9844
  0
LINE
  5
1D6
330
1F
100
AcDbEntity
  8
LAYERGROUP-1
  6
CONTINUOUS
 62
     6
100
AcDbLine
 10
93.523077
 20
116.843015
 30
0.0
 11
95.523077
 21
116.843015
 31
0.0
  0
LINE
  5
1D7
330
1F
100
AcDbEntity
  8
LAYERGROUP-1
  6
CONTINUOUS
 62
     6
100
AcDbLine
 10
94.523077
 20
117.843015
 30
0.0
 11
94.523077
 21
115.843015
 31
0.0
  0
LINE
  5
1D8
330
1F
100
AcDbEntity
  8
LAYERGROUP-1
  6
CONTINUOUS
 62
     3
100
AcDbLine
 10
90.523077
 20
118.333015
 30
0.0
 11
93.21245
 21
118.333015
 31
0.0
  0
LINE
  5
1D9
330
1F
100
AcDbEntity
  8
GR1-1
  6
CONTINUOUS
 62
     3
100
AcDbLine
 10
90.523077
 20
114.833015
 30
0.0
 11
90.523077
 21
113.333015
 31
0.0
  0
LINE
  5
1DA
330
1F
100
AcDbEntity
  8
LAYERGROUP-1
  6
CONTINUOUS
 62
     3
100
AcDbLine
 10
85.523077
 20
120.233015
 30
0.0
 11
85.023077
 21
119.733015
 31
0.0
  0
LINE
  5
1DB
330
1F
100
AcDbEntity
  8
LAYERGROUP-1
  6
CONTINUOUS
 62
     6
100
AcDbLine
 10
91.438677
 20
115.833015
 30
0.0
 11
91.438677
 21
117.833015
 31
0.0
  0
LINE
  5
1DC
330
1F
100
AcDbEntity
  8
LAYERGROUP-1
  6
CONTINUOUS
 62
     6
100
AcDbLine
 10
91.438677
 20
117.833015
 30
0.0
 11
95.638677
 21
117.833015
 31
0.0
  0
LINE
  5
1DD
330
1F
100
AcDbEntity
  8
LAYERGROUP-1
  6
CONTINUOUS
 62
     6
100
AcDbLine
 10
95.638677
 20
117.833015
 30
0.0
 11
95.638677
 21
115.833015
 31
0.0
  0
LINE
  5
1DE
330
1F
100
AcDbEntity
  8
LAYERGROUP-1
  6
CONTINUOUS
 62
     6
100
AcDbLine
 10
95.638677
 20
115.833015
 30
0.0
 11
91.438677
 21
115.833015
 31
0.0
  0
LINE
  5
1DF
330
1F
100
AcDbEntity
  8
LAYERGROUP-1
  6
CONTINUOUS
 62
     6
100
AcDbLine
 10
90.523077
 20
130.333015
 30
0.0
 11
90.523077
 21
130.833015
 31
0.0
  0
LINE
  5
1E0
330
1F
100
AcDbEntity
  8
LAYERGROUP-1
  6
CONTINUOUS
 62
     6
100
AcDbLine
 10
90.523077
 20
118.333015
 30
0.0
 11
90.523077
 21
117.833015
 31
0.0
  0
LINE
  5
1E1
330
1F
100
AcDbEntity
  8
LAYERGROUP-1
  6
CONTINUOUS
 62
     3
100
AcDbLine
 10
90.523077
 20
133.833015
 30
0.0
 11
90.523077
 21
130.833015
 31
0.0
  0
LINE
  5
1E2
330
1F
100
AcDbEntity
  8
LAYERGROUP-1
  6
CONTINUOUS
 62
     3
100
AcDbLine
 10
90.523077
 20
117.833015
 30
0.0
 11
90.523077
 21
114.833015
 31
0.0
  0
LINE
  5
1E3
330
1F
100
AcDbEntity
  8
LAYERGROUP-1
  6
CONTINUOUS
 62
     6
100
AcDbLine
 10
86.523077
 20
117.833015
 30
0.0
 11
86.523077
 21
118.333015
 31
0.0
  0
LINE
  5
1E4
330
1F
100
AcDbEntity
  8
LAYERGROUP-1
  6
CONTINUOUS
 62
     6
100
AcDbLine
 10
86.523077
 20
130.833015
 30
0.0
 11
86.523077
 21
130.333015
 31
0.0
  0
ARC
  5
1E5
330
1F
100
AcDbEntity
  8
LAYERGROUP-1
  6
CONTINUOUS
 62
     3
100
AcDbCircle
 10
94.494717
 20
131.833216
 30
0.0
 40
2.0
100
AcDbArc
 50
38.674808
 51
89.187515
  0
ARC
  5
1E6
330
1F
100
AcDbEntity
  8
LAYERGROUP-1
  6
CONTINUOUS
 62
     3
100
AcDbCircle
 10
94.494717
 20
116.832814
 30
0.0
 40
2.0
100
AcDbArc
 50
270.812485
 51
321.325192
  0
HATCH
  5
1E7
330
1F
100
AcDbEntity
  8
LAYERGROUP-1
  6
CONTINUOUS
 62
     6
100
AcDbHatch
 10
0.0
 20
0.0
 30
0.0
210
0.0
220
0.0
230
1.0
  2

 70
     0
 71
     1
 91
        2
 92
        0
 93
       11
 72
     1
 10
93.52307692307693
 20
136.8330152671755
 11
89.70010988450383
 21
136.8330152671755
 72
     2
 10
89.70010988450385
 20
135.8330152671755
 40
1.0
 50
90.00000000000081
 51
158.1985905136479
 73
     0
 72
     1
 10
88.77163319361858
 20
136.2044059435296
 11
88.2745206525353
 21
134.9616245908214
 72
     2
 10
87.34604396165007
 20
135.3330152671755
 40
1.0
 50
270.0
 51
338.1985905136476
 73
     1
 72
     1
 10
87.34604396165007
 20
134.3330152671755
 11
86.52307692307694
 21
134.3330152671755
 72
     1
 10
86.52307692307694
 20
134.3330152671755
 11
86.52307692307691
 21
130.8330152671755
 72
     1
 10
86.52307692307691
 20
130.8330152671755
 11
90.52307692307694
 21
130.8330152671755
 72
     1
 10
90.52307692307694
 20
130.8330152671755
 11
90.52307692307693
 21
133.8330152671756
 72
     1
 10
90.52307692307693
 20
133.8330152671756
 11
90.52307692307693
 21
135.3330152671756
 72
     1
 10
90.52307692307693
 20
135.3330152671756
 11
93.52307692307693
 21
135.3330152671756
 72
     1
 10
93.52307692307693
 20
135.3330152671756
 11
93.52307692307693
 21
136.8330152671755
 97
        0
 92
        0
 93
       11
 72
     1
 10
86.52307692307691
 20
117.8330152671756
 11
90.52307692307694
 21
117.8330152671756
 72
     1
 10
90.52307692307694
 20
117.8330152671756
 11
90.52307692307693
 21
114.8330152671756
 72
     1
 10
90.52307692307693
 20
114.8330152671756
 11
90.52307692307693
 21
113.3330152671756
 72
     1
 10
90.52307692307693
 20
113.3330152671756
 11
93.52307692307693
 21
113.3330152671756
 72
     1
 10
93.52307692307693
 20
113.3330152671756
 11
93.52307692307693
 21
111.8330152671756
 72
     1
 10
93.52307692307693
 20
111.8330152671756
 11
89.70010988450383
 21
111.8330152671757
 72
     2
 10
89.70010988450385
 20
112.8330152671757
 40
1.0
 50
201.8014094863521
 51
269.9999999999992
 73
     1
 72
     1
 10
88.77163319361858
 20
112.4616245908215
 11
88.2745206525353
 21
113.7044059435297
 72
     2
 10
87.34604396165007
 20
113.3330152671756
 40
1.0
 50
21.80140948635317
 51
90.0
 73
     0
 72
     1
 10
87.34604396165007
 20
114.3330152671756
 11
86.52307692307697
 21
114.3330152671756
 72
     1
 10
86.52307692307697
 20
114.3330152671756
 11
86.52307692307691
 21
117.8330152671756
 97
        0
 75
     0
 76
     0
 52
45.0
 41
2.0
 77
     0
 78
     1
 53
45.0
 43
0.0
 44
0.0
 45
-1.414213562373095
 46
1.414213562373095
 79
     0
 98
        0
  0
DIMENSION
  5
1E8
330
1F
100
AcDbEntity
  8
GR1-1
100
AcDbDimension
  2
*D21
 10
116.023077
 20
72.665174
 30
0.0
 11
100.523079
 21
73.665169
 31
0.0
 70
    33
  3
FXDIMINFO
100
AcDbAlignedDimension
 13
85.023077
 23
118.333015
 33
0.0
 14
116.023077
 24
118.333015
 34
0.0
1001
ACAD
1000
DSTYLE
1002
{
1070
     7
1000
FXTIP_ARROW_E
1070
     6
1000
FXTIP_ARROW_S
1070
   173
1070
     1
1002
}
  0
DIMENSION
  5
1F2
330
1F
100
AcDbEntity
  8
GR1-1
100
AcDbDimension
  2
*D22
 10
123.912067
 20
128.433015
 30
0.0
 11
131.912064
 21
124.333015
 31
0.0
 70
    33
  3
FXDIMINFO
100
AcDbAlignedDimension
 13
115.523077
 23
120.233015
 33
0.0
 14
115.523077
 24
128.433015
 34
0.0
  0
DIMENSION
  5
1FE
330
1F
100
AcDbEntity
  8
GR1-1
100
AcDbDimension
  2
*D23
 10
113.023077
 20
80.660694
 30
0.0
 11
100.523079
 21
81.660698
 31
0.0
 70
    33
  3
FXDIMINFO
100
AcDbAlignedDimension
 13
88.023077
 23
94.542977
 33
0.0
 14
113.023077
 24
94.542977
 34
0.0
1001
ACAD
1000
DSTYLE
1002
{
1070
     7
1000
FXTIP_ARROW_E
1070
     6
1000
FXTIP_ARROW_S
1070
   173
1070
     1
1002
}
  0
INSERT
  5
20B
330
1F
100
AcDbEntity
  8
0
100
AcDbBlockReference
  2
BLKF026
 10
0.0
 20
0.0
 30
0.0
  0
ENDSEC
  0
SECTION
  2
OBJECTS
  0
DICTIONARY
  5
C
330
0
100
AcDbDictionary
  3
ACAD_GROUP
350
D
  3
ACAD_LAYOUT
350
1A
  3
ACAD_MLINESTYLE
350
17
  3
ACAD_PLOTSETTINGS
350
19
  3
ACDBHEADERROUNDTRIPXREC
350
235
  0
DICTIONARY
  5
D
102
{ACAD_REACTORS
330
C
102
}
330
C
100
AcDbDictionary
  0
DICTIONARY
  5
1A
102
{ACAD_REACTORS
330
C
102
}
330
C
100
AcDbDictionary
  0
DICTIONARY
  5
17
102
{ACAD_REACTORS
330
C
102
}
330
C
100
AcDbDictionary
  3
STANDARD
350
18
  0
DICTIONARY
  5
19
102
{ACAD_REACTORS
330
C
102
}
330
C
100
AcDbDictionary
  0
DICTIONARY
  5
235
102
{ACAD_REACTORS
330
C
102
}
330
C
100
AcDbDictionary
  3
CEPSNTYPE
350
23E
  3
DIMSTYLEDATA
350
254
  3
FINGERPRINTGUID
350
23F
  3
HYPERLINKBASE
350
238
  3
INSUNITS
350
23D
  3
LAYOUTDICT
350
23A
  3
LWETCUNION
350
23C
  3
PLOTSETDICT
350
23B
  3
PSVPSCALE
350
241
  3
PUCSBASE
350
244
  3
PUCSORGBACK
350
24A
  3
PUCSORGBOTTOM
350
246
  3
PUCSORGFRONT
350
249
  3
PUCSORGLEFT
350
247
  3
PUCSORGRIGHT
350
248
  3
PUCSORGTOP
350
245
  3
PUCSORTHOREF
350
242
  3
PUCSORTHOVIEW
350
243
  3
STYLESHEET
350
239
  3
TSTACKALIGN
350
236
  3
TSTACKSIZE
350
237
  3
UCSBASE
350
24D
  3
UCSORGBACK
350
253
  3
UCSORGBOTTOM
350
24F
  3
UCSORGFRONT
350
252
  3
UCSORGLEFT
350
250
  3
UCSORGRIGHT
350
251
  3
UCSORGTOP
350
24E
  3
UCSORTHOREF
350
24B
  3
UCSORTHOVIEW
350
24C
  3
VERSIONGUID
350
240
  0
MLINESTYLE
  5
18
102
{ACAD_REACTORS
330
17
102
}
330
17
100
AcDbMlineStyle
  2
Standard
 70
     0
  3

 62
   256
 51
90.0
 52
90.0
 71
     2
 49
0.5
 62
   256
  6
BYLAYER
 49
-0.5
 62
   256
  6
BYLAYER
  0
XRECORD
  5
23E
102
{ACAD_REACTORS
330
235
102
}
330
235
100
AcDbXrecord
 90
        0
  0
XRECORD
  5
254
102
{ACAD_REACTORS
330
235
102
}
330
235
100
AcDbXrecord
1000
DSTYLE
1002
{
1070
   179
 70
     2
1070
   171
 70
     3
1070
   143
 40
0.03937
1070
   274
 70
     3
1070
    41
 40
3.0
1070
   343
340
41
1070
   344
340
47
1070
   141
 40
2.5
1070
   176
 70
     7
1070
   177
 70
     7
1070
   178
 70
     7
1070
   271
 70
     2
1070
    46
 40
6.0
1070
    43
 40
8.0
1070
    44
 40
1.0
1070
    42
 40
1.0
1070
   147
 40
1.0
1070
   341
340
41
1070
   173
 70
     1
1070
    77
 70
     1
1070
   272
 70
     2
1070
    73
 70
     0
1070
   172
 70
     1
1070
    74
 70
     0
1070
   283
 70
     0
1070
   340
340
3F
1070
   140
 40
4.0
1070
   284
 70
     8
1070
    78
 70
     8
1002
}
  0
XRECORD
  5
23F
102
{ACAD_REACTORS
330
235
102
}
330
235
100
AcDbXrecord
  1
{D73E8EE0-F011-44B1-8B52-53D0622D6853}
  0
XRECORD
  5
238
102
{ACAD_REACTORS
330
235
102
}
330
235
100
AcDbXrecord
  1

  0
XRECORD
  5
23D
102
{ACAD_REACTORS
330
235
102
}
330
235
100
AcDbXrecord
 90
        1
  0
XRECORD
  5
23A
102
{ACAD_REACTORS
330
235
102
}
330
235
100
AcDbXrecord
340
1A
  0
XRECORD
  5
23C
102
{ACAD_REACTORS
330
235
102
}
330
235
100
AcDbXrecord
 90
    10781
  0
XRECORD
  5
23B
102
{ACAD_REACTORS
330
235
102
}
330
235
100
AcDbXrecord
340
19
  0
XRECORD
  5
241
102
{ACAD_REACTORS
330
235
102
}
330
235
100
AcDbXrecord
 40
0.0
  0
XRECORD
  5
244
102
{ACAD_REACTORS
330
235
102
}
330
235
100
AcDbXrecord
340
0
  0
XRECORD
  5
24A
102
{ACAD_REACTORS
330
235
102
}
330
235
100
AcDbXrecord
 10
0.0
 20
0.0
 30
0.0
  0
XRECORD
  5
246
102
{ACAD_REACTORS
330
235
102
}
330
235
100
AcDbXrecord
 10
0.0
 20
0.0
 30
0.0
  0
XRECORD
  5
249
102
{ACAD_REACTORS
330
235
102
}
330
235
100
AcDbXrecord
 10
0.0
 20
0.0
 30
0.0
  0
XRECORD
  5
247
102
{ACAD_REACTORS
330
235
102
}
330
235
100
AcDbXrecord
 10
0.0
 20
0.0
 30
0.0
  0
XRECORD
  5
248
102
{ACAD_REACTORS
330
235
102
}
330
235
100
AcDbXrecord
 10
0.0
 20
0.0
 30
0.0
  0
XRECORD
  5
245
102
{ACAD_REACTORS
330
235
102
}
330
235
100
AcDbXrecord
 10
0.0
 20
0.0
 30
0.0
  0
XRECORD
  5
242
102
{ACAD_REACTORS
330
235
102
}
330
235
100
AcDbXrecord
340
0
  0
XRECORD
  5
243
102
{ACAD_REACTORS
330
235
102
}
330
235
100
AcDbXrecord
 70
     0
  0
XRECORD
  5
239
102
{ACAD_REACTORS
330
235
102
}
330
235
100
AcDbXrecord
  1

  0
XRECORD
  5
236
102
{ACAD_REACTORS
330
235
102
}
330
235
100
AcDbXrecord
 90
        1
  0
XRECORD
  5
237
102
{ACAD_REACTORS
330
235
102
}
330
235
100
AcDbXrecord
 90
       70
  0
XRECORD
  5
24D
102
{ACAD_REACTORS
330
235
102
}
330
235
100
AcDbXrecord
340
0
  0
XRECORD
  5
253
102
{ACAD_REACTORS
330
235
102
}
330
235
100
AcDbXrecord
 10
0.0
 20
0.0
 30
0.0
  0
XRECORD
  5
24F
102
{ACAD_REACTORS
330
235
102
}
330
235
100
AcDbXrecord
 10
0.0
 20
0.0
 30
0.0
  0
XRECORD
  5
252
102
{ACAD_REACTORS
330
235
102
}
330
235
100
AcDbXrecord
 10
0.0
 20
0.0
 30
0.0
  0
XRECORD
  5
250
102
{ACAD_REACTORS
330
235
102
}
330
235
100
AcDbXrecord
 10
0.0
 20
0.0
 30
0.0
  0
XRECORD
  5
251
102
{ACAD_REACTORS
330
235
102
}
330
235
100
AcDbXrecord
 10
0.0
 20
0.0
 30
0.0
  0
XRECORD
  5
24E
102
{ACAD_REACTORS
330
235
102
}
330
235
100
AcDbXrecord
 10
0.0
 20
0.0
 30
0.0
  0
XRECORD
  5
24B
102
{ACAD_REACTORS
330
235
102
}
330
235
100
AcDbXrecord
340
0
  0
XRECORD
  5
24C
102
{ACAD_REACTORS
330
235
102
}
330
235
100
AcDbXrecord
 70
     0
  0
XRECORD
  5
240
102
{ACAD_REACTORS
330
235
102
}
330
235
100
AcDbXrecord
  1
{FAEB1C32-E019-11D5-929B-00C0DF256EC4}
  0
ENDSEC
  0
EOF
