  0
SECTION
  2
HEADER
  9
$ACADVER
  1
AC1014
  9
$ACADMAINTVER
 70
     9
  9
$DWGCODEPAGE
  3
ANSI_932
  9
$INSBASE
 10
0.0
 20
0.0
 30
0.0
  9
$EXTMIN
 10
0.0
 20
0.0
 30
0.0
  9
$EXTMAX
 10
420.0
 20
297.0
 30
0.0
  9
$LIMMIN
 10
0.0
 20
0.0
  9
$LIMMAX
 10
420.0
 20
297.0
  9
$ORTHOMODE
 70
     0
  9
$REGENMODE
 70
     1
  9
$FILLMODE
 70
     1
  9
$QTEXTMODE
 70
     0
  9
$MIRRTEXT
 70
     1
  9
$DRAGMODE
 70
     2
  9
$LTSCALE
 40
1.0
  9
$OSMODE
 70
    37
  9
$ATTMODE
 70
     1
  9
$TEXTSIZE
 40
0.2
  9
$TRACEWID
 40
0.05
  9
$TEXTSTYLE
  7
STYLE1
  9
$CLAYER
  8
0
  9
$CELTYPE
  6
BYLAYER
  9
$CECOLOR
 62
   256
  9
$CELTSCALE
 40
1.0
  9
$DELOBJ
 70
     1
  9
$DISPSILH
 70
     0
  9
$DIMSCALE
 40
1.0
  9
$DIMASZ
 40
4.0
  9
$DIMEXO
 40
1.0
  9
$DIMDLI
 40
10.0
  9
$DIMRND
 40
0.0
  9
$DIMDLE
 40
6.0
  9
$DIMEXE
 40
1.0
  9
$DIMTP
 40
0.0
  9
$DIMTM
 40
0.0
  9
$DIMTXT
 40
4.0
  9
$DIMCEN
 40
2.5
  9
$DIMTSZ
 40
0.0
  9
$DIMTOL
 70
     0
  9
$DIMLIM
 70
     0
  9
$DIMTIH
 70
     0
  9
$DIMTOH
 70
     0
  9
$DIMSE1
 70
     0
  9
$DIMSE2
 70
     0
  9
$DIMTAD
 70
     1
  9
$DIMZIN
 70
     8
  9
$DIMBLK
  1

  9
$DIMASO
 70
     1
  9
$DIMSHO
 70
     1
  9
$DIMPOST
  1

  9
$DIMAPOST
  1

  9
$DIMALT
 70
     0
  9
$DIMALTD
 70
     3
  9
$DIMALTF
 40
0.03937
  9
$DIMLFAC
 40
1.0
  9
$DIMTOFL
 70
     1
  9
$DIMTVP
 40
0.0
  9
$DIMTIX
 70
     0
  9
$DIMSOXD
 70
     0
  9
$DIMSAH
 70
     1
  9
$DIMBLK1
  1
FXTIP_ARROW_S
  9
$DIMBLK2
  1
FXTIP_ARROW_E
  9
$DIMSTYLE
  2
FXDIMINFO
  9
$DIMCLRD
 70
     7
  9
$DIMCLRE
 70
     7
  9
$DIMCLRT
 70
     7
  9
$DIMTFAC
 40
1.0
  9
$DIMGAP
 40
1.0
  9
$DIMJUST
 70
     0
  9
$DIMSD1
 70
     0
  9
$DIMSD2
 70
     0
  9
$DIMTOLJ
 70
     0
  9
$DIMTZIN
 70
     8
  9
$DIMALTZ
 70
     0
  9
$DIMALTTZ
 70
     0
  9
$DIMFIT
 70
     3
  9
$DIMUPT
 70
     0
  9
$DIMUNIT
 70
     2
  9
$DIMDEC
 70
     2
  9
$DIMTDEC
 70
     2
  9
$DIMALTU
 70
     2
  9
$DIMALTTD
 70
     3
  9
$DIMTXSTY
  7
STYLE1
  9
$DIMAUNIT
 70
     0
  9
$LUNITS
 70
     2
  9
$LUPREC
 70
     4
  9
$SKETCHINC
 40
0.1
  9
$FILLETRAD
 40
0.5
  9
$AUNITS
 70
     0
  9
$AUPREC
 70
     0
  9
$MENU
  1
.
  9
$ELEVATION
 40
0.0
  9
$PELEVATION
 40
0.0
  9
$THICKNESS
 40
0.0
  9
$LIMCHECK
 70
     0
  9
$CHAMFERA
 40
0.5
  9
$CHAMFERB
 40
0.5
  9
$CHAMFERC
 40
1.0
  9
$CHAMFERD
 40
0.0
  9
$SKPOLY
 70
     0
  9
$TDCREATE
 40
2455300.724149526
  9
$TDUPDATE
 40
2455300.724149537
  9
$TDINDWG
 40
0.0000000116
  9
$TDUSRTIMER
 40
0.0000000116
  9
$USRTIMER
 70
     1
  9
$ANGBASE
 50
0.0
  9
$ANGDIR
 70
     0
  9
$PDMODE
 70
     0
  9
$PDSIZE
 40
0.0
  9
$PLINEWID
 40
0.0
  9
$COORDS
 70
     1
  9
$SPLFRAME
 70
     0
  9
$SPLINETYPE
 70
     6
  9
$SPLINESEGS
 70
     8
  9
$ATTDIA
 70
     0
  9
$ATTREQ
 70
     1
  9
$HANDLING
 70
     1
  9
$HANDSEED
  5
2D4
  9
$SURFTAB1
 70
     6
  9
$SURFTAB2
 70
     6
  9
$SURFTYPE
 70
     6
  9
$SURFU
 70
     6
  9
$SURFV
 70
     6
  9
$UCSNAME
  2

  9
$UCSORG
 10
0.0
 20
0.0
 30
0.0
  9
$UCSXDIR
 10
1.0
 20
0.0
 30
0.0
  9
$UCSYDIR
 10
0.0
 20
1.0
 30
0.0
  9
$PUCSNAME
  2

  9
$PUCSORG
 10
0.0
 20
0.0
 30
0.0
  9
$PUCSXDIR
 10
1.0
 20
0.0
 30
0.0
  9
$PUCSYDIR
 10
0.0
 20
1.0
 30
0.0
  9
$USERI1
 70
     0
  9
$USERI2
 70
     0
  9
$USERI3
 70
     0
  9
$USERI4
 70
     0
  9
$USERI5
 70
     0
  9
$USERR1
 40
0.0
  9
$USERR2
 40
0.0
  9
$USERR3
 40
0.0
  9
$USERR4
 40
0.0
  9
$USERR5
 40
0.0
  9
$WORLDVIEW
 70
     1
  9
$SHADEDGE
 70
     3
  9
$SHADEDIF
 70
    70
  9
$TILEMODE
 70
     1
  9
$MAXACTVP
 70
    64
  9
$PINSBASE
 10
0.0
 20
0.0
 30
0.0
  9
$PLIMCHECK
 70
     0
  9
$PEXTMIN
 10
1.000000E+20
 20
1.000000E+20
 30
1.000000E+20
  9
$PEXTMAX
 10
-1.000000E+20
 20
-1.000000E+20
 30
-1.000000E+20
  9
$PLIMMIN
 10
0.0
 20
0.0
  9
$PLIMMAX
 10
12.0
 20
9.0
  9
$UNITMODE
 70
     0
  9
$VISRETAIN
 70
     1
  9
$PLINEGEN
 70
     0
  9
$PSLTSCALE
 70
     1
  9
$TREEDEPTH
 70
  3020
  9
$PICKSTYLE
 70
     1
  9
$CMLSTYLE
  2
STANDARD
  9
$CMLJUST
 70
     0
  9
$CMLSCALE
 40
1.0
  9
$PROXYGRAPHICS
 70
     1
  9
$MEASUREMENT
 70
     0
  0
ENDSEC
  0
SECTION
  2
CLASSES
  0
CLASS
  1
ACDBDICTIONARYWDFLT
  2
AcDbDictionaryWithDefault
  3
ObjectDBX Classes
 90
        0
280
     0
281
     0
  0
CLASS
  1
XRECORD
  2
AcDbXrecord
  3
AutoCAD 2000
 90
        0
280
     0
281
     0
  0
CLASS
  1
LWPOLYLINE
  2
AcDbPolyline
  3
AutoCAD 2000
 90
        0
280
     0
281
     1
  0
CLASS
  1
HATCH
  2
AcDbHatch
  3
AutoCAD 2000
 90
        0
280
     0
281
     1
  0
CLASS
  1
ACDBPLACEHOLDER
  2
AcDbPlaceHolder
  3
ObjectDBX Classes
 90
        0
280
     0
281
     0
  0
CLASS
  1
LAYOUT
  2
AcDbLayout
  3
ObjectDBX Classes
 90
        0
280
     0
281
     0
  0
ENDSEC
  0
SECTION
  2
TABLES
  0
TABLE
  2
VPORT
  5
8
330
0
100
AcDbSymbolTable
 70
     1
  0
VPORT
  5
29
330
8
100
AcDbSymbolTableRecord
100
AcDbViewportTableRecord
  2
*ACTIVE
 70
     0
 10
0.0
 20
0.0
 11
1.0
 21
1.0
 12
210.0
 22
148.5
 13
0.0
 23
0.0
 14
0.5
 24
0.5
 15
0.5
 25
0.5
 16
0.0
 26
0.0
 36
1.0
 17
0.0
 27
0.0
 37
0.0
 40
297.0
 41
1.414141
 42
50.0
 43
0.0
 44
0.0
 50
0.0
 51
0.0
 71
     0
 72
   100
 73
     1
 74
     3
 75
     0
 76
     0
 77
     0
 78
     0
  0
ENDTAB
  0
TABLE
  2
LTYPE
  5
5
330
0
100
AcDbSymbolTable
 70
     4
  0
LTYPE
  5
14
330
5
100
AcDbSymbolTableRecord
100
AcDbLinetypeTableRecord
  2
BYBLOCK
 70
     0
  3

 72
    65
 73
     0
 40
0.0
  0
LTYPE
  5
15
330
5
100
AcDbSymbolTableRecord
100
AcDbLinetypeTableRecord
  2
BYLAYER
 70
     0
  3

 72
    65
 73
     0
 40
0.0
  0
LTYPE
  5
16
330
5
100
AcDbSymbolTableRecord
100
AcDbLinetypeTableRecord
  2
CONTINUOUS
 70
     0
  3
--------------------
 72
    65
 73
     0
 40
0.0
  0
LTYPE
  5
2A
330
5
100
AcDbSymbolTableRecord
100
AcDbLinetypeTableRecord
  2
CENTER
 70
     0
  3
Center ____ _ ____ _ ____ _ ____ _ ____ _ ____
 72
    65
 73
     4
 40
13.0
 49
10.0
 74
     0
 49
-1.0
 74
     0
 49
1.0
 74
     0
 49
-1.0
 74
     0
  0
ENDTAB
  0
TABLE
  2
LAYER
  5
2
330
0
100
AcDbSymbolTable
 70
    21
  0
LAYER
  5
10
330
2
100
AcDbSymbolTableRecord
100
AcDbLayerTableRecord
  2
0
 70
     0
 62
     7
  6
CONTINUOUS
  0
LAYER
  5
2D
330
2
100
AcDbSymbolTableRecord
100
AcDbLayerTableRecord
  2
LAYERGROUP-1
 70
     0
 62
     3
  6
CONTINUOUS
  0
LAYER
  5
3D
330
2
100
AcDbSymbolTableRecord
100
AcDbLayerTableRecord
  2
}}ﾊﾊGG血CCТ
 70
     0
 62
     3
  6
CONTINUOUS
  0
LAYER
  5
AA
330
2
100
AcDbSymbolTableRecord
100
AcDbLayerTableRecord
  2
0-1
 70
     0
 62
     7
  6
CONTINUOUS
  0
LAYER
  5
F1
330
2
100
AcDbSymbolTableRecord
100
AcDbLayerTableRecord
  2
GR1-1
 70
     0
 62
     7
  6
CONTINUOUS
  0
LAYER
  5
19E
330
2
100
AcDbSymbolTableRecord
100
AcDbLayerTableRecord
  2
001-1
 70
     0
 62
     7
  6
CONTINUOUS
  0
ENDTAB
  0
TABLE
  2
STYLE
  5
3
330
0
100
AcDbSymbolTable
 70
     4
  0
STYLE
  5
11
330
3
100
AcDbSymbolTableRecord
100
AcDbTextStyleTableRecord
  2
STANDARD
 70
     0
 40
0.0
 41
1.0
 50
0.0
 71
     0
 42
0.2
  3
txt
  4

  0
STYLE
  5
3F
330
3
100
AcDbSymbolTableRecord
100
AcDbTextStyleTableRecord
  2
STYLE1
 70
     0
 40
0.0
 41
1.0
 50
0.0
 71
     0
 42
0.2
  3
MONOTXT.SHX
  4
extfont.shx
  0
STYLE
  5
40
330
3
100
AcDbSymbolTableRecord
100
AcDbTextStyleTableRecord
  2
FX_VECTOR
 70
     0
 40
0.0
 41
1.0
 50
0.0
 71
     0
 42
0.2
  3
MONOTXT.SHX
  4
BIGFONT.SHX
  0
ENDTAB
  0
TABLE
  2
VIEW
  5
6
330
0
100
AcDbSymbolTable
 70
     0
  0
ENDTAB
  0
TABLE
  2
UCS
  5
7
330
0
100
AcDbSymbolTable
 70
     0
  0
ENDTAB
  0
TABLE
  2
APPID
  5
9
330
0
100
AcDbSymbolTable
 70
     1
  0
APPID
  5
12
330
9
100
AcDbSymbolTableRecord
100
AcDbRegAppTableRecord
  2
ACAD
 70
     0
  0
ENDTAB
  0
TABLE
  2
DIMSTYLE
  5
A
330
0
100
AcDbSymbolTable
 70
     2
  0
DIMSTYLE
105
27
330
A
100
AcDbSymbolTableRecord
100
AcDbDimStyleTableRecord
  2
STANDARD
 70
     0
  3

  4

  5

  6

  7

 40
1.0
 41
0.18
 42
0.0625
 43
0.38
 44
0.18
 45
0.0
 46
0.0
 47
0.0
 48
0.0
140
0.18
141
0.09
142
0.0
143
25.4
144
1.0
145
0.0
146
1.0
147
0.09
 71
     0
 72
     0
 73
     1
 74
     1
 75
     0
 76
     0
 77
     0
 78
     0
170
     0
171
     2
172
     0
173
     0
174
     0
175
     0
176
     0
177
     0
178
     0
270
     2
271
     4
272
     4
273
     2
274
     2
340
11
275
     0
280
     0
281
     0
282
     0
283
     1
284
     0
285
     0
286
     0
287
     3
288
     0
  0
DIMSTYLE
105
A7
102
{ACAD_REACTORS
330
18A
330
194
330
26D
330
277
102
}
330
A
100
AcDbSymbolTableRecord
100
AcDbDimStyleTableRecord
  2
FXDIMINFO
 70
     0
  3

  4

  5

  6
FXTIP_ARROW_S
  7
FXTIP_ARROW_E
 40
1.0
 41
4.0
 42
1.0
 43
10.0
 44
1.0
 45
0.0
 46
6.0
 47
0.0
 48
0.0
140
4.0
141
2.5
142
0.0
143
0.03937
144
1.0
145
0.0
146
1.0
147
1.0
 71
     0
 72
     0
 73
     0
 74
     0
 75
     0
 76
     0
 77
     1
 78
     8
170
     0
171
     3
172
     1
173
     1
174
     0
175
     0
176
     7
177
     7
178
     7
179
     2
270
     2
271
     2
272
     2
273
     2
274
     3
340
3F
275
     0
280
     0
281
     0
282
     0
283
     0
284
     8
285
     0
286
     0
287
     3
288
     0
  0
ENDTAB
  0
TABLE
  2
BLOCK_RECORD
  5
1
330
0
100
AcDbSymbolTable
 70
    27
  0
BLOCK_RECORD
  5
1F
330
1
100
AcDbSymbolTableRecord
100
AcDbBlockTableRecord
  2
*MODEL_SPACE
  0
BLOCK_RECORD
  5
1B
330
1
100
AcDbSymbolTableRecord
100
AcDbBlockTableRecord
  2
*PAPER_SPACE
  0
BLOCK_RECORD
  5
41
330
1
100
AcDbSymbolTableRecord
100
AcDbBlockTableRecord
  2
FXTIP_ARROW_S
  0
BLOCK_RECORD
  5
47
330
1
100
AcDbSymbolTableRecord
100
AcDbBlockTableRecord
  2
FXTIP_ARROW_E
  0
BLOCK_RECORD
  5
4D
330
1
100
AcDbSymbolTableRecord
100
AcDbBlockTableRecord
  2
FXTIP_BLACKDOT_S
  0
BLOCK_RECORD
  5
53
330
1
100
AcDbSymbolTableRecord
100
AcDbBlockTableRecord
  2
FXTIP_BLACKDOT_E
  0
BLOCK_RECORD
  5
59
330
1
100
AcDbSymbolTableRecord
100
AcDbBlockTableRecord
  2
FXTIP_TRIANGLE_S
  0
BLOCK_RECORD
  5
60
330
1
100
AcDbSymbolTableRecord
100
AcDbBlockTableRecord
  2
FXTIP_TRIANGLE_E
  0
BLOCK_RECORD
  5
67
330
1
100
AcDbSymbolTableRecord
100
AcDbBlockTableRecord
  2
FXTIP_ARCHITECT_S
  0
BLOCK_RECORD
  5
6D
330
1
100
AcDbSymbolTableRecord
100
AcDbBlockTableRecord
  2
FXTIP_ARCHITECT_E
  0
BLOCK_RECORD
  5
73
330
1
100
AcDbSymbolTableRecord
100
AcDbBlockTableRecord
  2
FXTIP_CIVIL_S
  0
BLOCK_RECORD
  5
79
330
1
100
AcDbSymbolTableRecord
100
AcDbBlockTableRecord
  2
FXTIP_CIVIL_E
  0
BLOCK_RECORD
  5
7F
330
1
100
AcDbSymbolTableRecord
100
AcDbBlockTableRecord
  2
FXTIP_WHITEDOT_S
  0
BLOCK_RECORD
  5
84
330
1
100
AcDbSymbolTableRecord
100
AcDbBlockTableRecord
  2
FXTIP_WHITEDOT_E
  0
BLOCK_RECORD
  5
89
330
1
100
AcDbSymbolTableRecord
100
AcDbBlockTableRecord
  2
FXTIP_UPARROW_S
  0
BLOCK_RECORD
  5
8E
330
1
100
AcDbSymbolTableRecord
100
AcDbBlockTableRecord
  2
FXTIP_UPARROW_E
  0
BLOCK_RECORD
  5
93
330
1
100
AcDbSymbolTableRecord
100
AcDbBlockTableRecord
  2
FXTIP_DOWNARROW_S
  0
BLOCK_RECORD
  5
98
330
1
100
AcDbSymbolTableRecord
100
AcDbBlockTableRecord
  2
FXTIP_DOWNARROW_E
  0
BLOCK_RECORD
  5
9D
330
1
100
AcDbSymbolTableRecord
100
AcDbBlockTableRecord
  2
FXTIP_BLACKTRIANGLE_S
  0
BLOCK_RECORD
  5
A2
330
1
100
AcDbSymbolTableRecord
100
AcDbBlockTableRecord
  2
FXTIP_BLACKTRIANGLE_E
  0
BLOCK_RECORD
  5
102
330
1
100
AcDbSymbolTableRecord
100
AcDbBlockTableRecord
  2
BLKF021
  0
BLOCK_RECORD
  5
18B
330
1
100
AcDbSymbolTableRecord
100
AcDbBlockTableRecord
  2
*D20
  0
BLOCK_RECORD
  5
195
330
1
100
AcDbSymbolTableRecord
100
AcDbBlockTableRecord
  2
*D21
  0
BLOCK_RECORD
  5
26E
330
1
100
AcDbSymbolTableRecord
100
AcDbBlockTableRecord
  2
*D22
  0
BLOCK_RECORD
  5
278
330
1
100
AcDbSymbolTableRecord
100
AcDbBlockTableRecord
  2
*D23
  0
BLOCK_RECORD
  5
287
330
1
100
AcDbSymbolTableRecord
100
AcDbBlockTableRecord
  2
BLKF026
  0
BLOCK_RECORD
  5
293
330
1
100
AcDbSymbolTableRecord
100
AcDbBlockTableRecord
  2
BLKF027
  0
BLOCK_RECORD
  5
29B
330
1
100
AcDbSymbolTableRecord
100
AcDbBlockTableRecord
  2
BLKF028
  0
ENDTAB
  0
ENDSEC
  0
SECTION
  2
BLOCKS
  0
BLOCK
  5
20
330
1F
100
AcDbEntity
  8
0
100
AcDbBlockBegin
  2
*MODEL_SPACE
 70
     0
 71
     0
 10
0.0
 20
0.0
 30
0.0
  3
*MODEL_SPACE
  1

  0
ENDBLK
  5
21
330
1F
100
AcDbEntity
  8
0
100
AcDbBlockEnd
  0
BLOCK
  5
1C
330
1B
100
AcDbEntity
 67
     1
  8
0
100
AcDbBlockBegin
  2
*PAPER_SPACE
 70
     0
 71
     0
 10
0.0
 20
0.0
 30
0.0
  3
*PAPER_SPACE
  1

  0
ENDBLK
  5
1D
330
1B
100
AcDbEntity
 67
     1
  8
0
100
AcDbBlockEnd
  0
BLOCK
  5
42
330
41
100
AcDbEntity
  8
0
100
AcDbBlockBegin
  2
FXTIP_ARROW_S
 70
     0
 71
     0
 10
0.0
 20
0.0
 30
0.0
  3
FXTIP_ARROW_S
  1

  0
LINE
  5
44
330
41
100
AcDbEntity
  8
0
  6
CONTINUOUS
 62
     0
100
AcDbLine
 10
0.0
 20
0.0
 30
0.0
 11
-1.0
 21
0.0
 31
0.0
  0
LINE
  5
45
330
41
100
AcDbEntity
  8
0
  6
CONTINUOUS
 62
     0
100
AcDbLine
 10
0.0
 20
0.0
 30
0.0
 11
-0.965926
 21
-0.258819
 31
0.0
  0
LINE
  5
46
330
41
100
AcDbEntity
  8
0
  6
CONTINUOUS
 62
     0
100
AcDbLine
 10
0.0
 20
0.0
 30
0.0
 11
-0.965926
 21
0.258819
 31
0.0
  0
ENDBLK
  5
43
330
41
100
AcDbEntity
  8
0
100
AcDbBlockEnd
  0
BLOCK
  5
48
330
47
100
AcDbEntity
  8
0
100
AcDbBlockBegin
  2
FXTIP_ARROW_E
 70
     0
 71
     0
 10
0.0
 20
0.0
 30
0.0
  3
FXTIP_ARROW_E
  1

  0
LINE
  5
4A
330
47
100
AcDbEntity
  8
0
  6
CONTINUOUS
 62
     0
100
AcDbLine
 10
0.0
 20
0.0
 30
0.0
 11
-1.0
 21
0.0
 31
0.0
  0
LINE
  5
4B
330
47
100
AcDbEntity
  8
0
  6
CONTINUOUS
 62
     0
100
AcDbLine
 10
0.0
 20
0.0
 30
0.0
 11
-0.965926
 21
0.258819
 31
0.0
  0
LINE
  5
4C
330
47
100
AcDbEntity
  8
0
  6
CONTINUOUS
 62
     0
100
AcDbLine
 10
0.0
 20
0.0
 30
0.0
 11
-0.965926
 21
-0.258819
 31
0.0
  0
ENDBLK
  5
49
330
47
100
AcDbEntity
  8
0
100
AcDbBlockEnd
  0
BLOCK
  5
4E
330
4D
100
AcDbEntity
  8
0
100
AcDbBlockBegin
  2
FXTIP_BLACKDOT_S
 70
     0
 71
     0
 10
0.0
 20
0.0
 30
0.0
  3
FXTIP_BLACKDOT_S
  1

  0
LINE
  5
50
330
4D
100
AcDbEntity
  8
0
  6
CONTINUOUS
 62
     0
100
AcDbLine
 10
0.0
 20
0.0
 30
0.0
 11
-1.0
 21
0.0
 31
0.0
  0
LWPOLYLINE
  5
51
330
4D
100
AcDbEntity
  8
0
  6
CONTINUOUS
 62
     0
100
AcDbPolyline
 90
        2
 70
     1
 10
-0.25
 20
0.0
 40
0.5
 41
0.5
 42
1.0
 10
0.25
 20
0.0
 40
0.5
 41
0.5
 42
1.0
  0
CIRCLE
  5
52
330
4D
100
AcDbEntity
  8
0
  6
CONTINUOUS
 62
     0
100
AcDbCircle
 10
0.0
 20
0.0
 30
0.0
 40
0.5
  0
ENDBLK
  5
4F
330
4D
100
AcDbEntity
  8
0
100
AcDbBlockEnd
  0
BLOCK
  5
54
330
53
100
AcDbEntity
  8
0
100
AcDbBlockBegin
  2
FXTIP_BLACKDOT_E
 70
     0
 71
     0
 10
0.0
 20
0.0
 30
0.0
  3
FXTIP_BLACKDOT_E
  1

  0
LINE
  5
56
330
53
100
AcDbEntity
  8
0
  6
CONTINUOUS
 62
     0
100
AcDbLine
 10
0.0
 20
0.0
 30
0.0
 11
-1.0
 21
0.0
 31
0.0
  0
LWPOLYLINE
  5
57
330
53
100
AcDbEntity
  8
0
  6
CONTINUOUS
 62
     0
100
AcDbPolyline
 90
        2
 70
     1
 10
-0.25
 20
0.0
 40
0.5
 41
0.5
 42
1.0
 10
0.25
 20
0.0
 40
0.5
 41
0.5
 42
1.0
  0
CIRCLE
  5
58
330
53
100
AcDbEntity
  8
0
  6
CONTINUOUS
 62
     0
100
AcDbCircle
 10
0.0
 20
0.0
 30
0.0
 40
0.5
  0
ENDBLK
  5
55
330
53
100
AcDbEntity
  8
0
100
AcDbBlockEnd
  0
BLOCK
  5
5A
330
59
100
AcDbEntity
  8
0
100
AcDbBlockBegin
  2
FXTIP_TRIANGLE_S
 70
     0
 71
     0
 10
0.0
 20
0.0
 30
0.0
  3
FXTIP_TRIANGLE_S
  1

  0
LINE
  5
5C
330
59
100
AcDbEntity
  8
0
  6
CONTINUOUS
 62
     0
100
AcDbLine
 10
0.0
 20
0.0
 30
0.0
 11
-1.0
 21
0.0
 31
0.0
  0
LINE
  5
5D
330
59
100
AcDbEntity
  8
0
  6
CONTINUOUS
 62
     0
100
AcDbLine
 10
0.0
 20
0.0
 30
0.0
 11
-0.965926
 21
-0.258819
 31
0.0
  0
LINE
  5
5E
330
59
100
AcDbEntity
  8
0
  6
CONTINUOUS
 62
     0
100
AcDbLine
 10
0.0
 20
0.0
 30
0.0
 11
-0.965926
 21
0.258819
 31
0.0
  0
LINE
  5
5F
330
59
100
AcDbEntity
  8
0
  6
CONTINUOUS
 62
     0
100
AcDbLine
 10
-0.965926
 20
-0.258819
 30
0.0
 11
-0.965926
 21
0.258819
 31
0.0
  0
ENDBLK
  5
5B
330
59
100
AcDbEntity
  8
0
100
AcDbBlockEnd
  0
BLOCK
  5
61
330
60
100
AcDbEntity
  8
0
100
AcDbBlockBegin
  2
FXTIP_TRIANGLE_E
 70
     0
 71
     0
 10
0.0
 20
0.0
 30
0.0
  3
FXTIP_TRIANGLE_E
  1

  0
LINE
  5
63
330
60
100
AcDbEntity
  8
0
  6
CONTINUOUS
 62
     0
100
AcDbLine
 10
0.0
 20
0.0
 30
0.0
 11
-1.0
 21
0.0
 31
0.0
  0
LINE
  5
64
330
60
100
AcDbEntity
  8
0
  6
CONTINUOUS
 62
     0
100
AcDbLine
 10
0.0
 20
0.0
 30
0.0
 11
-0.965926
 21
0.258819
 31
0.0
  0
LINE
  5
65
330
60
100
AcDbEntity
  8
0
  6
CONTINUOUS
 62
     0
100
AcDbLine
 10
0.0
 20
0.0
 30
0.0
 11
-0.965926
 21
-0.258819
 31
0.0
  0
LINE
  5
66
330
60
100
AcDbEntity
  8
0
  6
CONTINUOUS
 62
     0
100
AcDbLine
 10
-0.965926
 20
0.258819
 30
0.0
 11
-0.965926
 21
-0.258819
 31
0.0
  0
ENDBLK
  5
62
330
60
100
AcDbEntity
  8
0
100
AcDbBlockEnd
  0
BLOCK
  5
68
330
67
100
AcDbEntity
  8
0
100
AcDbBlockBegin
  2
FXTIP_ARCHITECT_S
 70
     0
 71
     0
 10
0.0
 20
0.0
 30
0.0
  3
FXTIP_ARCHITECT_S
  1

  0
LINE
  5
6A
330
67
100
AcDbEntity
  8
0
  6
CONTINUOUS
 62
     0
100
AcDbLine
 10
0.0
 20
0.0
 30
0.0
 11
-1.0
 21
0.0
 31
0.0
  0
LINE
  5
6B
330
67
100
AcDbEntity
  8
0
  6
CONTINUOUS
 62
     0
100
AcDbLine
 10
0.0
 20
0.0
 30
0.0
 11
-0.707107
 21
-0.707107
 31
0.0
  0
LINE
  5
6C
330
67
100
AcDbEntity
  8
0
  6
CONTINUOUS
 62
     0
100
AcDbLine
 10
0.0
 20
0.0
 30
0.0
 11
0.707107
 21
0.707107
 31
0.0
  0
ENDBLK
  5
69
330
67
100
AcDbEntity
  8
0
100
AcDbBlockEnd
  0
BLOCK
  5
6E
330
6D
100
AcDbEntity
  8
0
100
AcDbBlockBegin
  2
FXTIP_ARCHITECT_E
 70
     0
 71
     0
 10
0.0
 20
0.0
 30
0.0
  3
FXTIP_ARCHITECT_E
  1

  0
LINE
  5
70
330
6D
100
AcDbEntity
  8
0
  6
CONTINUOUS
 62
     0
100
AcDbLine
 10
0.0
 20
0.0
 30
0.0
 11
-1.0
 21
0.0
 31
0.0
  0
LINE
  5
71
330
6D
100
AcDbEntity
  8
0
  6
CONTINUOUS
 62
     0
100
AcDbLine
 10
0.0
 20
0.0
 30
0.0
 11
0.707107
 21
0.707107
 31
0.0
  0
LINE
  5
72
330
6D
100
AcDbEntity
  8
0
  6
CONTINUOUS
 62
     0
100
AcDbLine
 10
0.0
 20
0.0
 30
0.0
 11
-0.707107
 21
-0.707107
 31
0.0
  0
ENDBLK
  5
6F
330
6D
100
AcDbEntity
  8
0
100
AcDbBlockEnd
  0
BLOCK
  5
74
330
73
100
AcDbEntity
  8
0
100
AcDbBlockBegin
  2
FXTIP_CIVIL_S
 70
     0
 71
     0
 10
0.0
 20
0.0
 30
0.0
  3
FXTIP_CIVIL_S
  1

  0
LINE
  5
76
330
73
100
AcDbEntity
  8
0
  6
CONTINUOUS
 62
     0
100
AcDbLine
 10
0.0
 20
0.0
 30
0.0
 11
-1.0
 21
0.0
 31
0.0
  0
LINE
  5
77
330
73
100
AcDbEntity
  8
0
  6
CONTINUOUS
 62
     0
100
AcDbLine
 10
0.0
 20
-0.0625
 30
0.0
 11
-1.0
 21
-0.0625
 31
0.0
  0
LINE
  5
78
330
73
100
AcDbEntity
  8
0
  6
CONTINUOUS
 62
     0
100
AcDbLine
 10
0.0
 20
-0.125
 30
0.0
 11
-1.0
 21
-0.125
 31
0.0
  0
ENDBLK
  5
75
330
73
100
AcDbEntity
  8
0
100
AcDbBlockEnd
  0
BLOCK
  5
7A
330
79
100
AcDbEntity
  8
0
100
AcDbBlockBegin
  2
FXTIP_CIVIL_E
 70
     0
 71
     0
 10
0.0
 20
0.0
 30
0.0
  3
FXTIP_CIVIL_E
  1

  0
LINE
  5
7C
330
79
100
AcDbEntity
  8
0
  6
CONTINUOUS
 62
     0
100
AcDbLine
 10
0.0
 20
0.0
 30
0.0
 11
-1.0
 21
0.0
 31
0.0
  0
LINE
  5
7D
330
79
100
AcDbEntity
  8
0
  6
CONTINUOUS
 62
     0
100
AcDbLine
 10
0.0
 20
0.0625
 30
0.0
 11
-1.0
 21
0.0625
 31
0.0
  0
LINE
  5
7E
330
79
100
AcDbEntity
  8
0
  6
CONTINUOUS
 62
     0
100
AcDbLine
 10
0.0
 20
0.125
 30
0.0
 11
-1.0
 21
0.125
 31
0.0
  0
ENDBLK
  5
7B
330
79
100
AcDbEntity
  8
0
100
AcDbBlockEnd
  0
BLOCK
  5
80
330
7F
100
AcDbEntity
  8
0
100
AcDbBlockBegin
  2
FXTIP_WHITEDOT_S
 70
     0
 71
     0
 10
0.0
 20
0.0
 30
0.0
  3
FXTIP_WHITEDOT_S
  1

  0
LINE
  5
82
330
7F
100
AcDbEntity
  8
0
  6
CONTINUOUS
 62
     0
100
AcDbLine
 10
0.0
 20
0.0
 30
0.0
 11
-1.0
 21
0.0
 31
0.0
  0
CIRCLE
  5
83
330
7F
100
AcDbEntity
  8
0
  6
CONTINUOUS
 62
     0
100
AcDbCircle
 10
0.0
 20
0.0
 30
0.0
 40
0.5
  0
ENDBLK
  5
81
330
7F
100
AcDbEntity
  8
0
100
AcDbBlockEnd
  0
BLOCK
  5
85
330
84
100
AcDbEntity
  8
0
100
AcDbBlockBegin
  2
FXTIP_WHITEDOT_E
 70
     0
 71
     0
 10
0.0
 20
0.0
 30
0.0
  3
FXTIP_WHITEDOT_E
  1

  0
LINE
  5
87
330
84
100
AcDbEntity
  8
0
  6
CONTINUOUS
 62
     0
100
AcDbLine
 10
0.0
 20
0.0
 30
0.0
 11
-1.0
 21
0.0
 31
0.0
  0
CIRCLE
  5
88
330
84
100
AcDbEntity
  8
0
  6
CONTINUOUS
 62
     0
100
AcDbCircle
 10
0.0
 20
0.0
 30
0.0
 40
0.5
  0
ENDBLK
  5
86
330
84
100
AcDbEntity
  8
0
100
AcDbBlockEnd
  0
BLOCK
  5
8A
330
89
100
AcDbEntity
  8
0
100
AcDbBlockBegin
  2
FXTIP_UPARROW_S
 70
     0
 71
     0
 10
0.0
 20
0.0
 30
0.0
  3
FXTIP_UPARROW_S
  1

  0
LINE
  5
8C
330
89
100
AcDbEntity
  8
0
  6
CONTINUOUS
 62
     0
100
AcDbLine
 10
0.0
 20
0.0
 30
0.0
 11
-1.0
 21
0.0
 31
0.0
  0
LINE
  5
8D
330
89
100
AcDbEntity
  8
0
  6
CONTINUOUS
 62
     0
100
AcDbLine
 10
0.0
 20
0.0
 30
0.0
 11
-0.965926
 21
-0.258819
 31
0.0
  0
ENDBLK
  5
8B
330
89
100
AcDbEntity
  8
0
100
AcDbBlockEnd
  0
BLOCK
  5
8F
330
8E
100
AcDbEntity
  8
0
100
AcDbBlockBegin
  2
FXTIP_UPARROW_E
 70
     0
 71
     0
 10
0.0
 20
0.0
 30
0.0
  3
FXTIP_UPARROW_E
  1

  0
LINE
  5
91
330
8E
100
AcDbEntity
  8
0
  6
CONTINUOUS
 62
     0
100
AcDbLine
 10
0.0
 20
0.0
 30
0.0
 11
-1.0
 21
0.0
 31
0.0
  0
LINE
  5
92
330
8E
100
AcDbEntity
  8
0
  6
CONTINUOUS
 62
     0
100
AcDbLine
 10
0.0
 20
0.0
 30
0.0
 11
-0.965926
 21
0.258819
 31
0.0
  0
ENDBLK
  5
90
330
8E
100
AcDbEntity
  8
0
100
AcDbBlockEnd
  0
BLOCK
  5
94
330
93
100
AcDbEntity
  8
0
100
AcDbBlockBegin
  2
FXTIP_DOWNARROW_S
 70
     0
 71
     0
 10
0.0
 20
0.0
 30
0.0
  3
FXTIP_DOWNARROW_S
  1

  0
LINE
  5
96
330
93
100
AcDbEntity
  8
0
  6
CONTINUOUS
 62
     0
100
AcDbLine
 10
0.0
 20
0.0
 30
0.0
 11
-1.0
 21
0.0
 31
0.0
  0
LINE
  5
97
330
93
100
AcDbEntity
  8
0
  6
CONTINUOUS
 62
     0
100
AcDbLine
 10
0.0
 20
0.0
 30
0.0
 11
-0.965926
 21
0.258819
 31
0.0
  0
ENDBLK
  5
95
330
93
100
AcDbEntity
  8
0
100
AcDbBlockEnd
  0
BLOCK
  5
99
330
98
100
AcDbEntity
  8
0
100
AcDbBlockBegin
  2
FXTIP_DOWNARROW_E
 70
     0
 71
     0
 10
0.0
 20
0.0
 30
0.0
  3
FXTIP_DOWNARROW_E
  1

  0
LINE
  5
9B
330
98
100
AcDbEntity
  8
0
  6
CONTINUOUS
 62
     0
100
AcDbLine
 10
0.0
 20
0.0
 30
0.0
 11
-1.0
 21
0.0
 31
0.0
  0
LINE
  5
9C
330
98
100
AcDbEntity
  8
0
  6
CONTINUOUS
 62
     0
100
AcDbLine
 10
0.0
 20
0.0
 30
0.0
 11
-0.965926
 21
-0.258819
 31
0.0
  0
ENDBLK
  5
9A
330
98
100
AcDbEntity
  8
0
100
AcDbBlockEnd
  0
BLOCK
  5
9E
330
9D
100
AcDbEntity
  8
0
100
AcDbBlockBegin
  2
FXTIP_BLACKTRIANGLE_S
 70
     0
 71
     0
 10
0.0
 20
0.0
 30
0.0
  3
FXTIP_BLACKTRIANGLE_S
  1

  0
LINE
  5
A0
330
9D
100
AcDbEntity
  8
0
  6
CONTINUOUS
 62
     0
100
AcDbLine
 10
0.0
 20
0.0
 30
0.0
 11
-1.0
 21
0.0
 31
0.0
  0
SOLID
  5
A1
330
9D
100
AcDbEntity
  8
0
  6
CONTINUOUS
 62
     0
100
AcDbTrace
 10
0.0
 20
0.0
 30
0.0
 11
-0.965926
 21
-0.258819
 31
0.0
 12
-0.965926
 22
0.258819
 32
0.0
 13
-0.965926
 23
0.258819
 33
0.0
  0
ENDBLK
  5
9F
330
9D
100
AcDbEntity
  8
0
100
AcDbBlockEnd
  0
BLOCK
  5
A3
330
A2
100
AcDbEntity
  8
0
100
AcDbBlockBegin
  2
FXTIP_BLACKTRIANGLE_E
 70
     0
 71
     0
 10
0.0
 20
0.0
 30
0.0
  3
FXTIP_BLACKTRIANGLE_E
  1

  0
LINE
  5
A5
330
A2
100
AcDbEntity
  8
0
  6
CONTINUOUS
 62
     0
100
AcDbLine
 10
0.0
 20
0.0
 30
0.0
 11
-1.0
 21
0.0
 31
0.0
  0
SOLID
  5
A6
330
A2
100
AcDbEntity
  8
0
  6
CONTINUOUS
 62
     0
100
AcDbTrace
 10
0.0
 20
0.0
 30
0.0
 11
-0.965926
 21
0.258819
 31
0.0
 12
-0.965926
 22
-0.258819
 32
0.0
 13
-0.965926
 23
-0.258819
 33
0.0
  0
ENDBLK
  5
A4
330
A2
100
AcDbEntity
  8
0
100
AcDbBlockEnd
  0
BLOCK
  5
103
330
102
100
AcDbEntity
  8
0
100
AcDbBlockBegin
  2
BLKF021
 70
     0
 71
     0
 10
0.0
 20
0.0
 30
0.0
  3
BLKF021
  1

  0
LINE
  5
106
330
102
100
AcDbEntity
  8
GR1-1
  6
CONTINUOUS
 62
     7
100
AcDbLine
 10
258.289319
 20
184.310337
 30
0.0
 11
258.268385
 21
184.709789
 31
0.0
  0
LINE
  5
107
330
102
100
AcDbEntity
  8
GR1-1
  6
CONTINUOUS
 62
     7
100
AcDbLine
 10
258.100061
 20
184.100144
 30
0.0
 11
258.058192
 21
184.899048
 31
0.0
  0
LINE
  5
108
330
102
100
AcDbEntity
  8
GR1-1
  6
CONTINUOUS
 62
     7
100
AcDbLine
 10
257.910802
 20
183.889951
 30
0.0
 11
257.847999
 21
185.088306
 31
0.0
  0
LINE
  5
109
330
102
100
AcDbEntity
  8
GR1-1
  6
CONTINUOUS
 62
     7
100
AcDbLine
 10
257.721543
 20
183.679758
 30
0.0
 11
257.637806
 21
185.277565
 31
0.0
  0
LINE
  5
10A
330
102
100
AcDbEntity
  8
GR1-1
  6
CONTINUOUS
 62
     7
100
AcDbLine
 10
257.532285
 20
183.469565
 30
0.0
 11
257.46007
 21
184.847493
 31
0.0
  0
LINE
  5
10B
330
102
100
AcDbEntity
  8
GR1-1
  6
CONTINUOUS
 62
     7
100
AcDbLine
 10
257.440311
 20
185.224516
 30
0.0
 11
257.427613
 21
185.466824
 31
0.0
  0
LINE
  5
10C
330
102
100
AcDbEntity
  8
GR1-1
  6
CONTINUOUS
 62
     7
100
AcDbLine
 10
257.343026
 20
183.259372
 30
0.0
 11
257.270812
 21
184.6373
 31
0.0
  0
LINE
  5
10D
330
102
100
AcDbEntity
  8
GR1-1
  6
CONTINUOUS
 62
     7
100
AcDbLine
 10
257.230118
 20
185.413774
 30
0.0
 11
257.21742
 21
185.656082
 31
0.0
  0
LINE
  5
10E
330
102
100
AcDbEntity
  8
GR1-1
  6
CONTINUOUS
 62
     7
100
AcDbLine
 10
257.153767
 20
183.049178
 30
0.0
 11
257.081553
 21
184.427106
 31
0.0
  0
LINE
  5
10F
330
102
100
AcDbEntity
  8
GR1-1
  6
CONTINUOUS
 62
     7
100
AcDbLine
 10
257.019925
 20
185.603033
 30
0.0
 11
257.007226
 21
185.845341
 31
0.0
  0
LINE
  5
110
330
102
100
AcDbEntity
  8
GR1-1
  6
CONTINUOUS
 62
     7
100
AcDbLine
 10
256.964508
 20
182.838985
 30
0.0
 11
256.883746
 21
184.380016
 31
0.0
  0
LINE
  5
111
330
102
100
AcDbEntity
  8
GR1-1
  6
CONTINUOUS
 62
     7
100
AcDbLine
 10
256.809732
 20
185.792292
 30
0.0
 11
256.797033
 21
186.0346
 31
0.0
  0
LINE
  5
112
330
102
100
AcDbEntity
  8
GR1-1
  6
CONTINUOUS
 62
     7
100
AcDbLine
 10
256.77525
 20
182.628792
 30
0.0
 11
256.673553
 21
184.569275
 31
0.0
  0
LINE
  5
113
330
102
100
AcDbEntity
  8
GR1-1
  6
CONTINUOUS
 62
     7
100
AcDbLine
 10
256.599539
 20
185.98155
 30
0.0
 11
256.58684
 21
186.223859
 31
0.0
  0
LINE
  5
114
330
102
100
AcDbEntity
  8
GR1-1
  6
CONTINUOUS
 62
     7
100
AcDbLine
 10
256.585991
 20
182.418599
 30
0.0
 11
256.46336
 21
184.758534
 31
0.0
  0
LINE
  5
115
330
102
100
AcDbEntity
  8
GR1-1
  6
CONTINUOUS
 62
     7
100
AcDbLine
 10
256.389346
 20
186.170809
 30
0.0
 11
256.376647
 21
186.413117
 31
0.0
  0
LINE
  5
116
330
102
100
AcDbEntity
  8
GR1-1
  6
CONTINUOUS
 62
     7
100
AcDbLine
 10
256.396732
 20
182.208406
 30
0.0
 11
256.259283
 21
184.831086
 31
0.0
  0
LINE
  5
117
330
102
100
AcDbEntity
  8
GR1-1
  6
CONTINUOUS
 62
     7
100
AcDbLine
 10
256.179153
 20
186.360068
 30
0.0
 11
256.166454
 21
186.602376
 31
0.0
  0
LINE
  5
118
330
102
100
AcDbEntity
  8
GR1-1
  6
CONTINUOUS
 62
     7
100
AcDbLine
 10
256.207474
 20
181.998213
 30
0.0
 11
256.186539
 21
182.397665
 31
0.0
  0
LINE
  5
119
330
102
100
AcDbEntity
  8
GR1-1
  6
CONTINUOUS
 62
     7
100
AcDbLine
 10
255.985431
 20
186.235039
 30
0.0
 11
255.956261
 21
186.791635
 31
0.0
  0
LINE
  5
11A
330
102
100
AcDbEntity
  8
GR1-1
  6
CONTINUOUS
 62
     7
100
AcDbLine
 10
256.018215
 20
181.78802
 30
0.0
 11
255.986813
 21
182.387198
 31
0.0
  0
LINE
  5
11B
330
102
100
AcDbEntity
  8
GR1-1
  6
CONTINUOUS
 62
     7
100
AcDbLine
 10
255.796172
 20
186.024846
 30
0.0
 11
255.746068
 21
186.980893
 31
0.0
  0
LINE
  5
11C
330
102
100
AcDbEntity
  8
GR1-1
  6
CONTINUOUS
 62
     7
100
AcDbLine
 10
255.828956
 20
181.577827
 30
0.0
 11
255.787087
 21
182.37673
 31
0.0
  0
LINE
  5
11D
330
102
100
AcDbEntity
  8
GR1-1
  6
CONTINUOUS
 62
     7
100
AcDbLine
 10
255.606913
 20
185.814653
 30
0.0
 11
255.584709
 21
186.238336
 31
0.0
  0
LINE
  5
11E
330
102
100
AcDbEntity
  8
GR1-1
  6
CONTINUOUS
 62
     7
100
AcDbLine
 10
255.577744
 20
186.371248
 30
0.0
 11
255.535875
 21
187.170152
 31
0.0
  0
LINE
  5
11F
330
102
100
AcDbEntity
  8
GR1-1
  6
CONTINUOUS
 62
     7
100
AcDbLine
 10
255.639697
 20
181.367634
 30
0.0
 11
255.587361
 21
182.366263
 31
0.0
  0
LINE
  5
120
330
102
100
AcDbEntity
  8
GR1-1
  6
CONTINUOUS
 62
     7
100
AcDbLine
 10
255.417655
 20
185.60446
 30
0.0
 11
255.39545
 21
186.028143
 31
0.0
  0
LINE
  5
121
330
102
100
AcDbEntity
  8
GR1-1
  6
CONTINUOUS
 62
     7
100
AcDbLine
 10
255.378018
 20
186.360781
 30
0.0
 11
255.325682
 21
187.359411
 31
0.0
  0
LINE
  5
122
330
102
100
AcDbEntity
  8
GR1-1
  6
CONTINUOUS
 62
     7
100
AcDbLine
 10
255.450439
 20
181.157441
 30
0.0
 11
255.387636
 21
182.355796
 31
0.0
  0
LINE
  5
123
330
102
100
AcDbEntity
  8
GR1-1
  6
CONTINUOUS
 62
     7
100
AcDbLine
 10
255.228396
 20
185.394267
 30
0.0
 11
255.206192
 21
185.817949
 31
0.0
  0
LINE
  5
124
330
102
100
AcDbEntity
  8
GR1-1
  6
CONTINUOUS
 62
     7
100
AcDbLine
 10
255.178292
 20
186.350314
 30
0.0
 11
255.115489
 21
187.54867
 31
0.0
  0
LINE
  5
125
330
102
100
AcDbEntity
  8
GR1-1
  6
CONTINUOUS
 62
     7
100
AcDbLine
 10
255.26118
 20
180.947247
 30
0.0
 11
255.18791
 21
182.345329
 31
0.0
  0
LINE
  5
126
330
102
100
AcDbEntity
  8
GR1-1
  6
CONTINUOUS
 62
     7
100
AcDbLine
 10
255.135574
 20
183.343958
 30
0.0
 11
255.076257
 21
184.475791
 31
0.0
  0
LINE
  5
127
330
102
100
AcDbEntity
  8
GR1-1
  6
CONTINUOUS
 62
     7
100
AcDbLine
 10
255.039137
 20
185.184074
 30
0.0
 11
255.016933
 21
185.607756
 31
0.0
  0
LINE
  5
128
330
102
100
AcDbEntity
  8
GR1-1
  6
CONTINUOUS
 62
     7
100
AcDbLine
 10
254.978566
 20
186.339847
 30
0.0
 11
254.905295
 21
187.737928
 31
0.0
  0
LINE
  5
129
330
102
100
AcDbEntity
  8
GR1-1
  6
CONTINUOUS
 62
     7
100
AcDbLine
 10
255.071921
 20
180.737054
 30
0.0
 11
254.988184
 21
182.334862
 31
0.0
  0
LINE
  5
12A
330
102
100
AcDbEntity
  8
GR1-1
  6
CONTINUOUS
 62
     7
100
AcDbLine
 10
254.935848
 20
183.333491
 30
0.0
 11
254.886886
 21
184.267743
 31
0.0
  0
LINE
  5
12B
330
102
100
AcDbEntity
  8
GR1-1
  6
CONTINUOUS
 62
     7
100
AcDbLine
 10
254.849879
 20
184.973881
 30
0.0
 11
254.827674
 21
185.397563
 31
0.0
  0
LINE
  5
12C
330
102
100
AcDbEntity
  8
GR1-1
  6
CONTINUOUS
 62
     7
100
AcDbLine
 10
254.77884
 20
186.32938
 30
0.0
 11
254.695102
 21
187.927187
 31
0.0
  0
LINE
  5
12D
330
102
100
AcDbEntity
  8
GR1-1
  6
CONTINUOUS
 62
     7
100
AcDbLine
 10
254.882663
 20
180.526861
 30
0.0
 11
254.788458
 21
182.324394
 31
0.0
  0
LINE
  5
12E
330
102
100
AcDbEntity
  8
GR1-1
  6
CONTINUOUS
 62
     7
100
AcDbLine
 10
254.736122
 20
183.323024
 30
0.0
 11
254.697627
 21
184.05755
 31
0.0
  0
LINE
  5
12F
330
102
100
AcDbEntity
  8
GR1-1
  6
CONTINUOUS
 62
     7
100
AcDbLine
 10
254.66062
 20
184.763688
 30
0.0
 11
254.63145
 21
185.320283
 31
0.0
  0
LINE
  5
130
330
102
100
AcDbEntity
  8
GR1-1
  6
CONTINUOUS
 62
     7
100
AcDbLine
 10
254.579114
 20
186.318913
 30
0.0
 11
254.484909
 21
188.116446
 31
0.0
  0
LINE
  5
131
330
102
100
AcDbEntity
  8
GR1-1
  6
CONTINUOUS
 62
     7
100
AcDbLine
 10
254.693404
 20
180.316668
 30
0.0
 11
254.588732
 21
182.313927
 31
0.0
  0
LINE
  5
132
330
102
100
AcDbEntity
  8
GR1-1
  6
CONTINUOUS
 62
     7
100
AcDbLine
 10
254.536396
 20
183.312557
 30
0.0
 11
254.496759
 21
184.068878
 31
0.0
  0
LINE
  5
133
330
102
100
AcDbEntity
  8
GR1-1
  6
CONTINUOUS
 62
     7
100
AcDbLine
 10
254.471361
 20
184.553494
 30
0.0
 11
254.431724
 21
185.309816
 31
0.0
  0
LINE
  5
134
330
102
100
AcDbEntity
  8
GR1-1
  6
CONTINUOUS
 62
     7
100
AcDbLine
 10
254.379388
 20
186.308445
 30
0.0
 11
254.274716
 21
188.305704
 31
0.0
  0
LINE
  5
135
330
102
100
AcDbEntity
  8
GR1-1
  6
CONTINUOUS
 62
     7
100
AcDbLine
 10
254.504145
 20
180.106475
 30
0.0
 11
254.389006
 21
182.30346
 31
0.0
  0
LINE
  5
136
330
102
100
AcDbEntity
  8
GR1-1
  6
CONTINUOUS
 62
     7
100
AcDbLine
 10
254.33667
 20
183.30209
 30
0.0
 11
254.286566
 21
184.258137
 31
0.0
  0
LINE
  5
137
330
102
100
AcDbEntity
  8
GR1-1
  6
CONTINUOUS
 62
     7
100
AcDbLine
 10
254.282102
 20
184.343301
 30
0.0
 11
254.231998
 21
185.299349
 31
0.0
  0
LINE
  5
138
330
102
100
AcDbEntity
  8
GR1-1
  6
CONTINUOUS
 62
     7
100
AcDbLine
 10
254.179662
 20
186.297978
 30
0.0
 11
254.064523
 21
188.494963
 31
0.0
  0
LINE
  5
139
330
102
100
AcDbEntity
  8
GR1-1
  6
CONTINUOUS
 62
     7
100
AcDbLine
 10
254.298415
 20
180.210569
 30
0.0
 11
254.18928
 21
182.292993
 31
0.0
  0
LINE
  5
13A
330
102
100
AcDbEntity
  8
GR1-1
  6
CONTINUOUS
 62
     7
100
AcDbLine
 10
254.136944
 20
183.291622
 30
0.0
 11
254.032272
 21
185.288881
 31
0.0
  0
LINE
  5
13B
330
102
100
AcDbEntity
  8
GR1-1
  6
CONTINUOUS
 62
     7
100
AcDbLine
 10
253.979936
 20
186.287511
 30
0.0
 11
253.870801
 21
188.369935
 31
0.0
  0
LINE
  5
13C
330
102
100
AcDbEntity
  8
GR1-1
  6
CONTINUOUS
 62
     7
100
AcDbLine
 10
254.088222
 20
180.399828
 30
0.0
 11
253.989554
 21
182.282526
 31
0.0
  0
LINE
  5
13D
330
102
100
AcDbEntity
  8
GR1-1
  6
CONTINUOUS
 62
     7
100
AcDbLine
 10
253.937218
 20
183.281155
 30
0.0
 11
253.832546
 21
185.278414
 31
0.0
  0
LINE
  5
13E
330
102
100
AcDbEntity
  8
GR1-1
  6
CONTINUOUS
 62
     7
100
AcDbLine
 10
253.78021
 20
186.277044
 30
0.0
 11
253.681542
 21
188.159741
 31
0.0
  0
LINE
  5
13F
330
102
100
AcDbEntity
  8
GR1-1
  6
CONTINUOUS
 62
     7
100
AcDbLine
 10
253.878029
 20
180.589087
 30
0.0
 11
253.789828
 21
182.272058
 31
0.0
  0
LINE
  5
140
330
102
100
AcDbEntity
  8
GR1-1
  6
CONTINUOUS
 62
     7
100
AcDbLine
 10
253.737492
 20
183.270688
 30
0.0
 11
253.63282
 21
185.267947
 31
0.0
  0
LINE
  5
141
330
102
100
AcDbEntity
  8
GR1-1
  6
CONTINUOUS
 62
     7
100
AcDbLine
 10
253.580484
 20
186.266577
 30
0.0
 11
253.492284
 21
187.949548
 31
0.0
  0
LINE
  5
142
330
102
100
AcDbEntity
  8
GR1-1
  6
CONTINUOUS
 62
     7
100
AcDbLine
 10
253.667836
 20
180.778345
 30
0.0
 11
253.590102
 21
182.261591
 31
0.0
  0
LINE
  5
143
330
102
100
AcDbEntity
  8
GR1-1
  6
CONTINUOUS
 62
     7
100
AcDbLine
 10
253.537766
 20
183.260221
 30
0.0
 11
253.433095
 21
185.25748
 31
0.0
  0
LINE
  5
144
330
102
100
AcDbEntity
  8
GR1-1
  6
CONTINUOUS
 62
     7
100
AcDbLine
 10
253.380759
 20
186.256109
 30
0.0
 11
253.303025
 21
187.739355
 31
0.0
  0
LINE
  5
145
330
102
100
AcDbEntity
  8
GR1-1
  6
CONTINUOUS
 62
     7
100
AcDbLine
 10
253.457643
 20
180.967604
 30
0.0
 11
253.390376
 21
182.251124
 31
0.0
  0
LINE
  5
146
330
102
100
AcDbEntity
  8
GR1-1
  6
CONTINUOUS
 62
     7
100
AcDbLine
 10
253.338041
 20
183.249754
 30
0.0
 11
253.233369
 21
185.247013
 31
0.0
  0
LINE
  5
147
330
102
100
AcDbEntity
  8
GR1-1
  6
CONTINUOUS
 62
     7
100
AcDbLine
 10
253.181033
 20
186.245642
 30
0.0
 11
253.113766
 21
187.529162
 31
0.0
  0
LINE
  5
148
330
102
100
AcDbEntity
  8
GR1-1
  6
CONTINUOUS
 62
     7
100
AcDbLine
 10
253.24745
 20
181.156863
 30
0.0
 11
253.190651
 21
182.240657
 31
0.0
  0
LINE
  5
149
330
102
100
AcDbEntity
  8
GR1-1
  6
CONTINUOUS
 62
     7
100
AcDbLine
 10
252.981307
 20
186.235175
 30
0.0
 11
252.924507
 21
187.318969
 31
0.0
  0
LINE
  5
14A
330
102
100
AcDbEntity
  8
GR1-1
  6
CONTINUOUS
 62
     7
100
AcDbLine
 10
253.037257
 20
181.346122
 30
0.0
 11
252.990925
 21
182.23019
 31
0.0
  0
LINE
  5
14B
330
102
100
AcDbEntity
  8
GR1-1
  6
CONTINUOUS
 62
     7
100
AcDbLine
 10
252.781581
 20
186.224708
 30
0.0
 11
252.735249
 21
187.108776
 31
0.0
  0
LINE
  5
14C
330
102
100
AcDbEntity
  8
GR1-1
  6
CONTINUOUS
 62
     7
100
AcDbLine
 10
252.827064
 20
181.53538
 30
0.0
 11
252.791199
 21
182.219722
 31
0.0
  0
LINE
  5
14D
330
102
100
AcDbEntity
  8
GR1-1
  6
CONTINUOUS
 62
     7
100
AcDbLine
 10
252.581855
 20
186.214241
 30
0.0
 11
252.54599
 21
186.898583
 31
0.0
  0
LINE
  5
14E
330
102
100
AcDbEntity
  8
GR1-1
  6
CONTINUOUS
 62
     7
100
AcDbLine
 10
252.616871
 20
181.724639
 30
0.0
 11
252.591473
 21
182.209255
 31
0.0
  0
LINE
  5
14F
330
102
100
AcDbEntity
  8
GR1-1
  6
CONTINUOUS
 62
     7
100
AcDbLine
 10
252.382129
 20
186.203773
 30
0.0
 11
252.356731
 21
186.68839
 31
0.0
  0
LINE
  5
150
330
102
100
AcDbEntity
  8
GR1-1
  6
CONTINUOUS
 62
     7
100
AcDbLine
 10
252.406677
 20
181.913898
 30
0.0
 11
252.391747
 21
182.198788
 31
0.0
  0
LINE
  5
151
330
102
100
AcDbEntity
  8
GR1-1
  6
CONTINUOUS
 62
     7
100
AcDbLine
 10
252.182403
 20
186.193306
 30
0.0
 11
252.167473
 21
186.478197
 31
0.0
  0
LINE
  5
152
330
102
100
AcDbEntity
  8
GR1-1
  6
CONTINUOUS
 62
     7
100
AcDbLine
 10
252.196484
 20
182.103156
 30
0.0
 11
251.978214
 21
186.268004
 31
0.0
  0
LINE
  5
153
330
102
100
AcDbEntity
  8
GR1-1
  6
CONTINUOUS
 62
     7
100
AcDbLine
 10
251.986291
 20
182.292415
 30
0.0
 11
251.788955
 21
186.05781
 31
0.0
  0
LINE
  5
154
330
102
100
AcDbEntity
  8
GR1-1
  6
CONTINUOUS
 62
     7
100
AcDbLine
 10
251.776098
 20
182.481674
 30
0.0
 11
251.599696
 21
185.847617
 31
0.0
  0
LINE
  5
155
330
102
100
AcDbEntity
  8
GR1-1
  6
CONTINUOUS
 62
     7
100
AcDbLine
 10
251.565905
 20
182.670933
 30
0.0
 11
251.410438
 21
185.637424
 31
0.0
  0
LINE
  5
156
330
102
100
AcDbEntity
  8
GR1-1
  6
CONTINUOUS
 62
     7
100
AcDbLine
 10
251.355712
 20
182.860191
 30
0.0
 11
251.221179
 21
185.427231
 31
0.0
  0
LINE
  5
157
330
102
100
AcDbEntity
  8
GR1-1
  6
CONTINUOUS
 62
     7
100
AcDbLine
 10
251.145519
 20
183.04945
 30
0.0
 11
251.03192
 21
185.217038
 31
0.0
  0
LINE
  5
158
330
102
100
AcDbEntity
  8
GR1-1
  6
CONTINUOUS
 62
     7
100
AcDbLine
 10
250.935326
 20
183.238709
 30
0.0
 11
250.842662
 21
185.006845
 31
0.0
  0
LINE
  5
159
330
102
100
AcDbEntity
  8
GR1-1
  6
CONTINUOUS
 62
     7
100
AcDbLine
 10
250.725133
 20
183.427967
 30
0.0
 11
250.653403
 21
184.796652
 31
0.0
  0
LINE
  5
15A
330
102
100
AcDbEntity
  8
GR1-1
  6
CONTINUOUS
 62
     7
100
AcDbLine
 10
250.51494
 20
183.617226
 30
0.0
 11
250.464144
 21
184.586459
 31
0.0
  0
LINE
  5
15B
330
102
100
AcDbEntity
  8
GR1-1
  6
CONTINUOUS
 62
     7
100
AcDbLine
 10
250.304746
 20
183.806485
 30
0.0
 11
250.274885
 21
184.376266
 31
0.0
  0
LINE
  5
15C
330
102
100
AcDbEntity
  8
GR1-1
  6
CONTINUOUS
 62
     7
100
AcDbLine
 10
250.094553
 20
183.995744
 30
0.0
 11
250.085627
 21
184.166073
 31
0.0
  0
ENDBLK
  5
104
330
102
100
AcDbEntity
  8
0
100
AcDbBlockEnd
  0
BLOCK
  5
18C
330
18B
100
AcDbEntity
  8
0
100
AcDbBlockBegin
  2
*D20
 70
     1
 71
     0
 10
0.0
 20
0.0
 30
0.0
  3
*D20
  1

  0
TEXT
  5
18E
330
18B
100
AcDbEntity
  8
LAYERGROUP-1
  6
CONTINUOUS
 62
     7
100
AcDbText
 10
107.647903
 20
67.0
 30
0.0
 40
4.0
  1
54
 41
0.828947
  7
FX_VECTOR
 72
     5
 11
113.647903
 21
67.0
 31
0.0
100
AcDbText
  0
LINE
  5
18F
330
18B
100
AcDbEntity
  8
LAYERGROUP-1
  6
CONTINUOUS
 62
     7
100
AcDbLine
 10
83.647899
 20
66.0
 30
0.0
 11
137.647899
 21
66.0
 31
0.0
  0
INSERT
  5
190
330
18B
100
AcDbEntity
  8
LAYERGROUP-1
  6
CONTINUOUS
 62
     7
100
AcDbBlockReference
  2
FXTIP_ARROW_S
 10
83.647899
 20
66.0
 30
0.0
 41
4.0
 42
4.0
 50
180.0
  0
INSERT
  5
191
330
18B
100
AcDbEntity
  8
LAYERGROUP-1
  6
CONTINUOUS
 62
     7
100
AcDbBlockReference
  2
FXTIP_ARROW_E
 10
137.647899
 20
66.0
 30
0.0
 41
4.0
 42
4.0
 50
360.0
  0
LINE
  5
192
330
18B
100
AcDbEntity
  8
LAYERGROUP-1
  6
CONTINUOUS
 62
     7
100
AcDbLine
 10
83.647899
 20
139.5
 30
0.0
 11
83.647899
 21
65.0
 31
0.0
  0
LINE
  5
193
330
18B
100
AcDbEntity
  8
LAYERGROUP-1
  6
CONTINUOUS
 62
     7
100
AcDbLine
 10
137.647899
 20
139.5
 30
0.0
 11
137.647899
 21
65.0
 31
0.0
  0
ENDBLK
  5
18D
330
18B
100
AcDbEntity
  8
0
100
AcDbBlockEnd
  0
BLOCK
  5
196
330
195
100
AcDbEntity
  8
0
100
AcDbBlockBegin
  2
*D21
 70
     1
 71
     0
 10
0.0
 20
0.0
 30
0.0
  3
*D21
  1

  0
TEXT
  5
198
330
195
100
AcDbEntity
  8
LAYERGROUP-1
  6
CONTINUOUS
 62
     7
100
AcDbText
 10
107.647903
 20
77.0
 30
0.0
 40
4.0
  1
38
 41
0.851351
  7
FX_VECTOR
 72
     5
 11
113.647903
 21
77.0
 31
0.0
100
AcDbText
  0
LINE
  5
199
330
195
100
AcDbEntity
  8
LAYERGROUP-1
  6
CONTINUOUS
 62
     7
100
AcDbLine
 10
91.547899
 20
76.0
 30
0.0
 11
129.747899
 21
76.0
 31
0.0
  0
INSERT
  5
19A
330
195
100
AcDbEntity
  8
LAYERGROUP-1
  6
CONTINUOUS
 62
     7
100
AcDbBlockReference
  2
FXTIP_ARROW_S
 10
91.547899
 20
76.0
 30
0.0
 41
4.0
 42
4.0
 50
180.0
  0
INSERT
  5
19B
330
195
100
AcDbEntity
  8
LAYERGROUP-1
  6
CONTINUOUS
 62
     7
100
AcDbBlockReference
  2
FXTIP_ARROW_E
 10
129.747899
 20
76.0
 30
0.0
 41
4.0
 42
4.0
 50
360.0
  0
LINE
  5
19C
330
195
100
AcDbEntity
  8
LAYERGROUP-1
  6
CONTINUOUS
 62
     7
100
AcDbLine
 10
91.547899
 20
99.5
 30
0.0
 11
91.547899
 21
75.0
 31
0.0
  0
LINE
  5
19D
330
195
100
AcDbEntity
  8
LAYERGROUP-1
  6
CONTINUOUS
 62
     7
100
AcDbLine
 10
129.747899
 20
99.5
 30
0.0
 11
129.747899
 21
75.0
 31
0.0
  0
ENDBLK
  5
197
330
195
100
AcDbEntity
  8
0
100
AcDbBlockEnd
  0
BLOCK
  5
26F
330
26E
100
AcDbEntity
  8
0
100
AcDbBlockBegin
  2
*D22
 70
     1
 71
     0
 10
0.0
 20
0.0
 30
0.0
  3
*D22
  1

  0
TEXT
  5
271
330
26E
100
AcDbEntity
  8
LAYERGROUP-1
  6
CONTINUOUS
 62
     7
100
AcDbText
 10
155.656219
 20
140.803558
 30
0.0
 40
4.0
  1
φ12.3
 50
90.0
 41
0.926471
  7
FX_VECTOR
 72
     5
 11
155.656219
 21
155.803558
 31
0.0
100
AcDbText
  0
LINE
  5
272
330
26E
100
AcDbEntity
  8
LAYERGROUP-1
  6
CONTINUOUS
 62
     7
100
AcDbLine
 10
148.977083
 20
142.35
 30
0.0
 11
148.977083
 21
154.65
 31
0.0
  0
INSERT
  5
273
330
26E
100
AcDbEntity
  8
LAYERGROUP-1
  6
CONTINUOUS
 62
     7
100
AcDbBlockReference
  2
FXTIP_ARROW_S
 10
148.977083
 20
142.35
 30
0.0
 41
4.0
 42
4.0
 50
270.0
  0
INSERT
  5
274
330
26E
100
AcDbEntity
  8
LAYERGROUP-1
  6
CONTINUOUS
 62
     7
100
AcDbBlockReference
  2
FXTIP_ARROW_E
 10
148.977083
 20
154.65
 30
0.0
 41
4.0
 42
4.0
 50
90.0
  0
LINE
  5
275
330
26E
100
AcDbEntity
  8
LAYERGROUP-1
  6
CONTINUOUS
 62
     7
100
AcDbLine
 10
136.147899
 20
142.35
 30
0.0
 11
149.977083
 21
142.35
 31
0.0
  0
LINE
  5
276
330
26E
100
AcDbEntity
  8
LAYERGROUP-1
  6
CONTINUOUS
 62
     7
100
AcDbLine
 10
136.147899
 20
154.65
 30
0.0
 11
149.977083
 21
154.65
 31
0.0
  0
ENDBLK
  5
270
330
26E
100
AcDbEntity
  8
0
100
AcDbBlockEnd
  0
BLOCK
  5
279
330
278
100
AcDbEntity
  8
0
100
AcDbBlockBegin
  2
*D23
 70
     1
 71
     0
 10
0.0
 20
0.0
 30
0.0
  3
*D23
  1

  0
TEXT
  5
27B
330
278
100
AcDbEntity
  8
LAYERGROUP-1
  6
CONTINUOUS
 62
     7
100
AcDbText
 10
173.514969
 20
142.5
 30
0.0
 40
4.0
  1
φ125
 50
90.0
 41
0.84
  7
FX_VECTOR
 72
     5
 11
173.514969
 21
154.5
 31
0.0
100
AcDbText
  0
LINE
  5
27C
330
278
100
AcDbEntity
  8
LAYERGROUP-1
  6
CONTINUOUS
 62
     7
100
AcDbLine
 10
174.514969
 20
86.0
 30
0.0
 11
174.514969
 21
211.0
 31
0.0
  0
INSERT
  5
27D
330
278
100
AcDbEntity
  8
LAYERGROUP-1
  6
CONTINUOUS
 62
     7
100
AcDbBlockReference
  2
FXTIP_ARROW_S
 10
174.514969
 20
86.0
 30
0.0
 41
4.0
 42
4.0
 50
270.0
  0
INSERT
  5
27E
330
278
100
AcDbEntity
  8
LAYERGROUP-1
  6
CONTINUOUS
 62
     7
100
AcDbBlockReference
  2
FXTIP_ARROW_E
 10
174.514969
 20
211.0
 30
0.0
 41
4.0
 42
4.0
 50
90.0
  0
LINE
  5
27F
330
278
100
AcDbEntity
  8
LAYERGROUP-1
  6
CONTINUOUS
 62
     7
100
AcDbLine
 10
111.647899
 20
86.0
 30
0.0
 11
175.514969
 21
86.0
 31
0.0
  0
LINE
  5
280
330
278
100
AcDbEntity
  8
LAYERGROUP-1
  6
CONTINUOUS
 62
     7
100
AcDbLine
 10
111.647899
 20
211.0
 30
0.0
 11
175.514969
 21
211.0
 31
0.0
  0
ENDBLK
  5
27A
330
278
100
AcDbEntity
  8
0
100
AcDbBlockEnd
  0
BLOCK
  5
288
330
287
100
AcDbEntity
  8
0
100
AcDbBlockBegin
  2
BLKF026
 70
     0
 71
     0
 10
0.0
 20
0.0
 30
0.0
  3
BLKF026
  1

  0
LINE
  5
28B
330
287
100
AcDbEntity
  8
}}ﾊﾊGG血CCТ
  6
CONTINUOUS
 62
     7
100
AcDbLine
 10
10.0
 20
10.0
 30
0.0
 11
410.0
 21
10.0
 31
0.0
  0
LINE
  5
28C
330
287
100
AcDbEntity
  8
}}ﾊﾊGG血CCТ
  6
CONTINUOUS
 62
     7
100
AcDbLine
 10
10.0
 20
10.0
 30
0.0
 11
10.0
 21
287.0
 31
0.0
  0
LINE
  5
28D
330
287
100
AcDbEntity
  8
}}ﾊﾊGG血CCТ
  6
CONTINUOUS
 62
     7
100
AcDbLine
 10
10.0
 20
287.0
 30
0.0
 11
410.0
 21
287.0
 31
0.0
  0
LINE
  5
28E
330
287
100
AcDbEntity
  8
}}ﾊﾊGG血CCТ
  6
CONTINUOUS
 62
     7
100
AcDbLine
 10
410.0
 20
287.0
 30
0.0
 11
410.0
 21
10.0
 31
0.0
  0
LINE
  5
28F
330
287
100
AcDbEntity
  8
}}ﾊﾊGG血CCТ
  6
CONTINUOUS
 62
     7
100
AcDbLine
 10
153.0
 20
10.0
 30
0.0
 11
153.0
 21
20.0
 31
0.0
  0
TEXT
  5
290
330
287
100
AcDbEntity
  8
}}ﾊﾊGG血CCТ
  6
CONTINUOUS
 62
     7
100
AcDbText
 10
137.738815
 20
11.596879
 30
0.0
 40
6.648749
  1
品名
 41
1.083413
  7
FX_VECTOR
 72
     5
 11
149.058355
 21
11.596879
 31
0.0
100
AcDbText
  0
LINE
  5
291
330
287
100
AcDbEntity
  8
}}ﾊﾊGG血CCТ
  6
CONTINUOUS
 62
     7
100
AcDbLine
 10
233.0
 20
20.0
 30
0.0
 11
233.0
 21
10.0
 31
0.0
  0
LINE
  5
292
330
287
100
AcDbEntity
  8
}}ﾊﾊGG血CCТ
  6
CONTINUOUS
 62
     7
100
AcDbLine
 10
133.0
 20
20.0
 30
0.0
 11
410.0
 21
20.0
 31
0.0
  0
INSERT
  5
296
330
287
100
AcDbEntity
  8
0
100
AcDbBlockReference
  2
BLKF027
 10
0.0
 20
0.0
 30
0.0
  0
INSERT
  5
29E
330
287
100
AcDbEntity
  8
0
100
AcDbBlockReference
  2
BLKF028
 10
0.0
 20
0.0
 30
0.0
  0
HATCH
  5
2AE
330
287
100
AcDbEntity
  8
GR1-1
  6
CONTINUOUS
 62
     7
100
AcDbHatch
 10
0.0
 20
0.0
 30
0.0
210
0.0
220
0.0
230
1.0
  2

 70
     0
 71
     1
 91
        2
 92
        0
 93
        4
 72
     1
 10
338.8018997861325
 20
17.91346152
 11
344.8018997861325
 21
17.91346152
 72
     1
 10
344.8018997861325
 20
17.91346152
 11
344.8018997861325
 21
11.91346152
 72
     1
 10
344.8018997861325
 20
11.91346152
 11
338.8018997861325
 21
11.91346152
 72
     1
 10
338.8018997861325
 20
11.91346152
 11
338.8018997861325
 21
17.91346152
 97
        0
 92
        0
 93
       15
 72
     1
 10
341.8018997861325
 20
17.76923076000002
 11
338.9461305461325
 21
14.91346152
 72
     1
 10
338.9461305461325
 20
14.91346152
 11
341.8018997861325
 21
12.05769228000001
 72
     1
 10
341.8018997861325
 20
12.05769228000001
 11
343.3595920661325
 21
13.61538462
 72
     1
 10
343.3595920661325
 20
13.61538462
 11
343.3595920661325
 21
12.98076924
 72
     1
 10
343.3595920661325
 20
12.98076924
 11
344.2249766861325
 21
12.98076924
 72
     1
 10
344.2249766861325
 20
12.98076924
 11
344.2249766861325
 21
15.00000000000001
 72
     1
 10
344.2249766861325
 20
15.00000000000001
 11
341.8018997861325
 21
15.00000000000001
 72
     1
 10
341.8018997861325
 20
15.00000000000001
 11
341.8018997861325
 21
14.13461538000001
 72
     1
 10
341.8018997861325
 20
14.13461538000001
 11
342.2461305461325
 21
14.13461538000001
 72
     1
 10
342.2461305461325
 20
14.13461538000001
 11
341.8018997861325
 21
13.69038462
 72
     1
 10
341.8018997861325
 20
13.69038462
 11
340.5788228861325
 21
14.91346152
 72
     1
 10
340.5788228861325
 20
14.91346152
 11
341.8018997861325
 21
16.13653842000003
 72
     1
 10
341.8018997861325
 20
16.13653842000003
 11
342.5922844061325
 21
15.3461538
 72
     1
 10
342.5922844061325
 20
15.3461538
 11
344.2249766861325
 21
15.3461538
 72
     1
 10
344.2249766861325
 20
15.3461538
 11
341.8018997861325
 21
17.76923076000002
 97
        0
 75
     0
 76
     0
 52
45.0
 41
0.05
 77
     0
 78
     1
 53
45.0
 43
0.0
 44
0.0
 45
-0.0353553390593274
 46
0.0353553390593274
 79
     0
 98
        0
  0
TEXT
  5
2AF
330
287
100
AcDbEntity
  8
}}ﾊﾊGG血CCТ
  6
CONTINUOUS
 62
     7
100
AcDbText
 10
349.225769
 20
11.461285
 30
0.0
 40
6.0
  1
GOLD CASTER
 41
0.719626
  7
FX_VECTOR
 72
     5
 11
393.225769
 21
11.461285
 31
0.0
100
AcDbText
  0
LINE
  5
2B0
330
287
100
AcDbEntity
  8
}}ﾊﾊGG血CCТ
  6
CONTINUOUS
 62
     7
100
AcDbLine
 10
253.0
 20
10.0
 30
0.0
 11
253.0
 21
20.0
 31
0.0
  0
TEXT
  5
2B1
330
287
100
AcDbEntity
  8
}}ﾊﾊGG血CCТ
  6
CONTINUOUS
 62
     7
100
AcDbText
 10
237.738815
 20
11.596879
 30
0.0
 40
6.648749
  1
図番
 41
1.083413
  7
FX_VECTOR
 72
     5
 11
249.058355
 21
11.596879
 31
0.0
100
AcDbText
  0
LINE
  5
2B2
330
287
100
AcDbEntity
  8
}}ﾊﾊGG血CCТ
  6
CONTINUOUS
 62
     7
100
AcDbLine
 10
333.0
 20
20.0
 30
0.0
 11
333.0
 21
10.0
 31
0.0
  0
LINE
  5
2B3
330
287
100
AcDbEntity
  8
}}ﾊﾊGG血CCТ
  6
CONTINUOUS
 62
     7
100
AcDbLine
 10
133.0
 20
20.0
 30
0.0
 11
133.0
 21
10.0
 31
0.0
  0
ENDBLK
  5
289
330
287
100
AcDbEntity
  8
0
100
AcDbBlockEnd
  0
BLOCK
  5
294
330
293
100
AcDbEntity
  8
0
100
AcDbBlockBegin
  2
BLKF027
 70
     0
 71
     0
 10
0.0
 20
0.0
 30
0.0
  3
BLKF027
  1

  0
LINE
  5
297
330
293
100
AcDbEntity
  8
0-1
  6
CONTINUOUS
 62
     7
100
AcDbLine
 10
344.8019
 20
17.913462
 30
0.0
 11
338.8019
 21
17.913462
 31
0.0
  0
LINE
  5
298
330
293
100
AcDbEntity
  8
0-1
  6
CONTINUOUS
 62
     7
100
AcDbLine
 10
338.8019
 20
17.913462
 30
0.0
 11
338.8019
 21
11.913462
 31
0.0
  0
LINE
  5
299
330
293
100
AcDbEntity
  8
0-1
  6
CONTINUOUS
 62
     7
100
AcDbLine
 10
338.8019
 20
11.913462
 30
0.0
 11
344.8019
 21
11.913462
 31
0.0
  0
LINE
  5
29A
330
293
100
AcDbEntity
  8
0-1
  6
CONTINUOUS
 62
     7
100
AcDbLine
 10
344.8019
 20
11.913462
 30
0.0
 11
344.8019
 21
17.913462
 31
0.0
  0
ENDBLK
  5
295
330
293
100
AcDbEntity
  8
0
100
AcDbBlockEnd
  0
BLOCK
  5
29C
330
29B
100
AcDbEntity
  8
0
100
AcDbBlockBegin
  2
BLKF028
 70
     0
 71
     0
 10
0.0
 20
0.0
 30
0.0
  3
BLKF028
  1

  0
LINE
  5
29F
330
29B
100
AcDbEntity
  8
0-1
  6
CONTINUOUS
 62
     7
100
AcDbLine
 10
344.224977
 20
15.346154
 30
0.0
 11
341.8019
 21
17.769231
 31
0.0
  0
LINE
  5
2A0
330
29B
100
AcDbEntity
  8
0-1
  6
CONTINUOUS
 62
     7
100
AcDbLine
 10
341.8019
 20
17.769231
 30
0.0
 11
338.946131
 21
14.913462
 31
0.0
  0
LINE
  5
2A1
330
29B
100
AcDbEntity
  8
0-1
  6
CONTINUOUS
 62
     7
100
AcDbLine
 10
338.946131
 20
14.913462
 30
0.0
 11
341.8019
 21
12.057692
 31
0.0
  0
LINE
  5
2A2
330
29B
100
AcDbEntity
  8
0-1
  6
CONTINUOUS
 62
     7
100
AcDbLine
 10
341.8019
 20
12.057692
 30
0.0
 11
343.359592
 21
13.615385
 31
0.0
  0
LINE
  5
2A3
330
29B
100
AcDbEntity
  8
0-1
  6
CONTINUOUS
 62
     7
100
AcDbLine
 10
343.359592
 20
13.615385
 30
0.0
 11
343.359592
 21
12.980769
 31
0.0
  0
LINE
  5
2A4
330
29B
100
AcDbEntity
  8
0-1
  6
CONTINUOUS
 62
     7
100
AcDbLine
 10
343.359592
 20
12.980769
 30
0.0
 11
344.224977
 21
12.980769
 31
0.0
  0
LINE
  5
2A5
330
29B
100
AcDbEntity
  8
0-1
  6
CONTINUOUS
 62
     7
100
AcDbLine
 10
344.224977
 20
12.980769
 30
0.0
 11
344.224977
 21
15.0
 31
0.0
  0
LINE
  5
2A6
330
29B
100
AcDbEntity
  8
0-1
  6
CONTINUOUS
 62
     7
100
AcDbLine
 10
344.224977
 20
15.0
 30
0.0
 11
341.8019
 21
15.0
 31
0.0
  0
LINE
  5
2A7
330
29B
100
AcDbEntity
  8
0-1
  6
CONTINUOUS
 62
     7
100
AcDbLine
 10
341.8019
 20
15.0
 30
0.0
 11
341.8019
 21
14.134615
 31
0.0
  0
LINE
  5
2A8
330
29B
100
AcDbEntity
  8
0-1
  6
CONTINUOUS
 62
     7
100
AcDbLine
 10
341.8019
 20
14.134615
 30
0.0
 11
342.246131
 21
14.134615
 31
0.0
  0
LINE
  5
2A9
330
29B
100
AcDbEntity
  8
0-1
  6
CONTINUOUS
 62
     7
100
AcDbLine
 10
342.246131
 20
14.134615
 30
0.0
 11
341.8019
 21
13.690385
 31
0.0
  0
LINE
  5
2AA
330
29B
100
AcDbEntity
  8
0-1
  6
CONTINUOUS
 62
     7
100
AcDbLine
 10
341.8019
 20
13.690385
 30
0.0
 11
340.578823
 21
14.913462
 31
0.0
  0
LINE
  5
2AB
330
29B
100
AcDbEntity
  8
0-1
  6
CONTINUOUS
 62
     7
100
AcDbLine
 10
340.578823
 20
14.913462
 30
0.0
 11
341.8019
 21
16.136538
 31
0.0
  0
LINE
  5
2AC
330
29B
100
AcDbEntity
  8
0-1
  6
CONTINUOUS
 62
     7
100
AcDbLine
 10
341.8019
 20
16.136538
 30
0.0
 11
342.592284
 21
15.346154
 31
0.0
  0
LINE
  5
2AD
330
29B
100
AcDbEntity
  8
0-1
  6
CONTINUOUS
 62
     7
100
AcDbLine
 10
342.592284
 20
15.346154
 30
0.0
 11
344.224977
 21
15.346154
 31
0.0
  0
ENDBLK
  5
29D
330
29B
100
AcDbEntity
  8
0
100
AcDbBlockEnd
  0
ENDSEC
  0
SECTION
  2
ENTITIES
  0
TEXT
  5
A8
330
1F
100
AcDbEntity
  8
}}ﾊﾊGG血CCТ
  6
CONTINUOUS
 62
     7
100
AcDbText
 10
155.581894
 20
12.0
 30
0.0
 40
6.0
  1
Ｓ－１２５　Ｒ
 41
0.796748
  7
FX_VECTOR
 72
     5
 11
183.581894
 21
12.0
 31
0.0
100
AcDbText
  0
TEXT
  5
A9
330
1F
100
AcDbEntity
  8
}}ﾊﾊGG血CCТ
  6
CONTINUOUS
 62
     7
100
AcDbText
 10
255.593536
 20
12.0
 30
0.0
 40
6.0
  1
1S35FGCA-C02
 41
0.694215
  7
FX_VECTOR
 72
     5
 11
303.593536
 21
12.0
 31
0.0
100
AcDbText
  0
LINE
  5
AB
330
1F
100
AcDbEntity
  8
0-1
  6
CONTINUOUS
 62
     3
100
AcDbLine
 10
110.647899
 20
106.0
 30
0.0
 11
110.647899
 21
108.0
 31
0.0
  0
LINE
  5
AC
330
1F
100
AcDbEntity
  8
0-1
  6
CONTINUOUS
 62
     3
100
AcDbLine
 10
114.247899
 20
104.0
 30
0.0
 11
126.647899
 21
104.0
 31
0.0
  0
LINE
  5
AD
330
1F
100
AcDbEntity
  8
0-1
  6
CONTINUOUS
 62
     3
100
AcDbLine
 10
114.247899
 20
102.4
 30
0.0
 11
126.647899
 21
102.4
 31
0.0
  0
LINE
  5
AE
330
1F
100
AcDbEntity
  8
0-1
  6
CONTINUOUS
 62
     3
100
AcDbLine
 10
112.247899
 20
106.0
 30
0.0
 11
112.247899
 21
108.5
 31
0.0
  0
ARC
  5
AF
330
1F
100
AcDbEntity
  8
0-1
  6
CONTINUOUS
 62
     3
100
AcDbCircle
 10
114.247899
 20
106.0
 30
0.0
 40
2.0
100
AcDbArc
 50
180.0
 51
270.0
  0
ARC
  5
B0
330
1F
100
AcDbEntity
  8
0-1
  6
CONTINUOUS
 62
     3
100
AcDbCircle
 10
114.247899
 20
106.0
 30
0.0
 40
3.600000000000001
100
AcDbArc
 50
180.0
 51
270.0
  0
LINE
  5
B1
330
1F
100
AcDbEntity
  8
0-1
  6
CONTINUOUS
 62
     3
100
AcDbLine
 10
129.747899
 20
100.5
 30
0.0
 11
129.747899
 21
100.9
 31
0.0
  0
LINE
  5
B2
330
1F
100
AcDbEntity
  8
0-1
  6
CONTINUOUS
 62
     3
100
AcDbLine
 10
128.147899
 20
100.5
 30
0.0
 11
128.147899
 21
100.9
 31
0.0
  0
ARC
  5
B3
330
1F
100
AcDbEntity
  8
0-1
  6
CONTINUOUS
 62
     3
100
AcDbCircle
 10
126.647899
 20
100.9
 30
0.0
 40
1.5
100
AcDbArc
 50
0.0
 51
90.0
  0
ARC
  5
B4
330
1F
100
AcDbEntity
  8
0-1
  6
CONTINUOUS
 62
     3
100
AcDbCircle
 10
126.647899
 20
100.9
 30
0.0
 40
3.100000000000001
100
AcDbArc
 50
0.0
 51
90.0
  0
LINE
  5
B5
330
1F
100
AcDbEntity
  8
0-1
  6
CONTINUOUS
 62
     3
100
AcDbLine
 10
128.147899
 20
100.5
 30
0.0
 11
129.747899
 21
100.5
 31
0.0
  0
LINE
  5
B6
330
1F
100
AcDbEntity
  8
0-1
  6
CONTINUOUS
 62
     3
100
AcDbLine
 10
108.136102
 20
123.433057
 30
0.0
 11
88.82112
 21
127.744438
 31
0.0
  0
LINE
  5
B7
330
1F
100
AcDbEntity
  8
0-1
  6
CONTINUOUS
 62
     3
100
AcDbLine
 10
109.247899
 20
108.0
 30
0.0
 11
110.647899
 21
108.0
 31
0.0
  0
ARC
  5
B8
330
1F
100
AcDbEntity
  8
0-1
  6
CONTINUOUS
 62
     3
100
AcDbCircle
 10
107.547899
 20
120.797907
 30
0.0
 40
1.5
100
AcDbArc
 50
0.0
 51
77.417034
  0
LINE
  5
B9
330
1F
100
AcDbEntity
  8
0-1
  6
CONTINUOUS
 62
     3
100
AcDbLine
 10
109.847899
 20
109.0
 30
0.0
 11
111.747899
 21
109.0
 31
0.0
  0
ARC
  5
BA
330
1F
100
AcDbEntity
  8
0-1
  6
CONTINUOUS
 62
     3
100
AcDbCircle
 10
107.436486
 20
120.298778
 30
0.0
 40
3.21141275050012
100
AcDbArc
 50
0.0
 51
77.417036
  0
LINE
  5
BB
330
1F
100
AcDbEntity
  8
0-1
  6
CONTINUOUS
 62
     3
100
AcDbLine
 10
93.147899
 20
100.5
 30
0.0
 11
91.547899
 21
100.5
 31
0.0
  0
ARC
  5
BC
330
1F
100
AcDbEntity
  8
0-1
  6
CONTINUOUS
 62
     3
100
AcDbCircle
 10
94.647899
 20
100.9
 30
0.0
 40
3.100000000000001
100
AcDbArc
 50
90.0
 51
180.0
  0
ARC
  5
BD
330
1F
100
AcDbEntity
  8
0-1
  6
CONTINUOUS
 62
     3
100
AcDbCircle
 10
94.647899
 20
100.9
 30
0.0
 40
1.5
100
AcDbArc
 50
90.0
 51
180.0
  0
LINE
  5
BE
330
1F
100
AcDbEntity
  8
0-1
  6
CONTINUOUS
 62
     3
100
AcDbLine
 10
93.147899
 20
100.5
 30
0.0
 11
93.147899
 21
100.9
 31
0.0
  0
LINE
  5
BF
330
1F
100
AcDbEntity
  8
0-1
  6
CONTINUOUS
 62
     3
100
AcDbLine
 10
91.547899
 20
100.5
 30
0.0
 11
91.547899
 21
100.9
 31
0.0
  0
ARC
  5
C0
330
1F
100
AcDbEntity
  8
0-1
  6
CONTINUOUS
 62
     3
100
AcDbCircle
 10
107.047899
 20
106.0
 30
0.0
 40
3.600000000000001
100
AcDbArc
 50
270.0
 51
360.0
  0
ARC
  5
C1
330
1F
100
AcDbEntity
  8
0-1
  6
CONTINUOUS
 62
     3
100
AcDbCircle
 10
107.047899
 20
106.0
 30
0.0
 40
2.0
100
AcDbArc
 50
270.0
 51
360.0
  0
LINE
  5
C2
330
1F
100
AcDbEntity
  8
0-1
  6
CONTINUOUS
 62
     3
100
AcDbLine
 10
109.047899
 20
106.0
 30
0.0
 11
109.047899
 21
107.8
 31
0.0
  0
LINE
  5
C3
330
1F
100
AcDbEntity
  8
0-1
  6
CONTINUOUS
 62
     3
100
AcDbLine
 10
107.047899
 20
102.4
 30
0.0
 11
94.647899
 21
102.4
 31
0.0
  0
LINE
  5
C4
330
1F
100
AcDbEntity
  8
0-1
  6
CONTINUOUS
 62
     3
100
AcDbLine
 10
107.047899
 20
104.0
 30
0.0
 11
94.647899
 21
104.0
 31
0.0
  0
LINE
  5
C5
330
1F
100
AcDbEntity
  8
0-1
  6
CONTINUOUS
 62
     3
100
AcDbLine
 10
108.347899
 20
106.7
 30
0.0
 11
108.347899
 21
107.5
 31
0.0
  0
LINE
  5
C6
330
1F
100
AcDbEntity
  8
0-1
  6
CONTINUOUS
 62
     3
100
AcDbLine
 10
108.547899
 20
106.5
 30
0.0
 11
108.847899
 21
106.5
 31
0.0
  0
ARC
  5
C7
330
1F
100
AcDbEntity
  8
0-1
  6
CONTINUOUS
 62
     3
100
AcDbCircle
 10
108.547899
 20
106.7
 30
0.0
 40
0.2000000000000028
100
AcDbArc
 50
180.000005
 51
270.0
  0
ARC
  5
C8
330
1F
100
AcDbEntity
  8
0-1
  6
CONTINUOUS
 62
     3
100
AcDbCircle
 10
108.847899
 20
106.7
 30
0.0
 40
0.2000000000000028
100
AcDbArc
 50
270.0
 51
360.0
  0
ARC
  5
C9
330
1F
100
AcDbEntity
  8
0-1
  6
CONTINUOUS
 62
     3
100
AcDbCircle
 10
109.847899
 20
107.5
 30
0.0
 40
1.5
100
AcDbArc
 50
90.0
 51
180.0
  0
ARC
  5
CA
330
1F
100
AcDbEntity
  8
0-1
  6
CONTINUOUS
 62
     3
100
AcDbCircle
 10
111.747899
 20
108.5
 30
0.0
 40
0.5
100
AcDbArc
 50
0.0
 51
90.0
  0
ARC
  5
CB
330
1F
100
AcDbEntity
  8
0-1
  6
CONTINUOUS
 62
     3
100
AcDbCircle
 10
109.247899
 20
107.8
 30
0.0
 40
0.2000000000000028
100
AcDbArc
 50
90.0
 51
180.0
  0
LINE
  5
CC
330
1F
100
AcDbEntity
  8
0-1
  6
CONTINUOUS
 62
     3
100
AcDbLine
 10
107.874679
 20
122.26188
 30
0.0
 11
88.559696
 21
126.57326
 31
0.0
  0
LINE
  5
CD
330
1F
100
AcDbEntity
  8
0-1
  6
CONTINUOUS
 62
     3
100
AcDbLine
 10
113.421119
 20
122.26188
 30
0.0
 11
132.736102
 21
126.57326
 31
0.0
  0
ARC
  5
CE
330
1F
100
AcDbEntity
  8
0-1
  6
CONTINUOUS
 62
     3
100
AcDbCircle
 10
132.203605
 20
128.958845
 30
0.0
 40
2.444293581215881
100
AcDbArc
 50
282.582959
 51
360.0
  0
ARC
  5
CF
330
1F
100
AcDbEntity
  8
0-1
  6
CONTINUOUS
 62
     3
100
AcDbCircle
 10
132.147899
 20
129.20841
 30
0.0
 40
1.5
100
AcDbArc
 50
282.582959
 51
360.0
  0
ARC
  5
D0
330
1F
100
AcDbEntity
  8
0-1
  6
CONTINUOUS
 62
     3
100
AcDbCircle
 10
113.859312
 20
120.298778
 30
0.0
 40
3.21141275050012
100
AcDbArc
 50
102.582964
 51
180.0
  0
ARC
  5
D1
330
1F
100
AcDbEntity
  8
0-1
  6
CONTINUOUS
 62
     3
100
AcDbCircle
 10
113.747899
 20
120.797907
 30
0.0
 40
1.5
100
AcDbArc
 50
102.582966
 51
180.0
  0
LINE
  5
D2
330
1F
100
AcDbEntity
  8
0-1
  6
CONTINUOUS
 62
     3
100
AcDbLine
 10
134.647899
 20
128.958845
 30
0.0
 11
134.647899
 21
131.05
 31
0.0
  0
LINE
  5
D3
330
1F
100
AcDbEntity
  8
0-1
  6
CONTINUOUS
 62
     3
100
AcDbLine
 10
125.147899
 20
132.55
 30
0.0
 11
133.147899
 21
132.55
 31
0.0
  0
LINE
  5
D4
330
1F
100
AcDbEntity
  8
0-1
  6
CONTINUOUS
 62
     3
100
AcDbLine
 10
123.647899
 20
135.0
 30
0.0
 11
124.647899
 21
135.0
 31
0.0
  0
LINE
  5
D5
330
1F
100
AcDbEntity
  8
0-1
  6
CONTINUOUS
 62
     3
100
AcDbLine
 10
125.147899
 20
131.55
 30
0.0
 11
133.147899
 21
131.55
 31
0.0
  0
LINE
  5
D6
330
1F
100
AcDbEntity
  8
0-1
  6
CONTINUOUS
 62
     3
100
AcDbLine
 10
133.647899
 20
129.20841
 30
0.0
 11
133.647899
 21
131.05
 31
0.0
  0
LINE
  5
D7
330
1F
100
AcDbEntity
  8
0-1
  6
CONTINUOUS
 62
     3
100
AcDbLine
 10
124.647899
 20
133.05
 30
0.0
 11
124.647899
 21
135.0
 31
0.0
  0
LINE
  5
D8
330
1F
100
AcDbEntity
  8
0-1
  6
CONTINUOUS
 62
     3
100
AcDbLine
 10
123.647899
 20
133.05
 30
0.0
 11
123.647899
 21
135.0
 31
0.0
  0
ARC
  5
D9
330
1F
100
AcDbEntity
  8
0-1
  6
CONTINUOUS
 62
     3
100
AcDbCircle
 10
125.147899
 20
133.05
 30
0.0
 40
0.5
100
AcDbArc
 50
180.0
 51
270.0
  0
ARC
  5
DA
330
1F
100
AcDbEntity
  8
0-1
  6
CONTINUOUS
 62
     3
100
AcDbCircle
 10
125.147899
 20
133.05
 30
0.0
 40
1.5
100
AcDbArc
 50
180.0
 51
270.0
  0
ARC
  5
DB
330
1F
100
AcDbEntity
  8
0-1
  6
CONTINUOUS
 62
     3
100
AcDbCircle
 10
133.147899
 20
131.05
 30
0.0
 40
0.5
100
AcDbArc
 50
0.0
 51
90.0
  0
ARC
  5
DC
330
1F
100
AcDbEntity
  8
0-1
  6
CONTINUOUS
 62
     3
100
AcDbCircle
 10
133.147899
 20
131.05
 30
0.0
 40
1.5
100
AcDbArc
 50
0.0
 51
90.0
  0
LINE
  5
DD
330
1F
100
AcDbEntity
  8
0-1
  6
CONTINUOUS
 62
     3
100
AcDbLine
 10
113.159696
 20
123.433057
 30
0.0
 11
132.474678
 21
127.744438
 31
0.0
  0
LINE
  5
DE
330
1F
100
AcDbEntity
  8
0-1
  6
CONTINUOUS
 62
     3
100
AcDbLine
 10
110.647899
 20
119.0
 30
0.0
 11
110.647899
 21
120.298778
 31
0.0
  0
ARC
  5
DF
330
1F
100
AcDbEntity
  8
0-1
  6
CONTINUOUS
 62
     3
100
AcDbCircle
 10
109.247899
 20
119.2
 30
0.0
 40
0.2000000000000028
100
AcDbArc
 50
180.0
 51
270.0
  0
ARC
  5
E0
330
1F
100
AcDbEntity
  8
0-1
  6
CONTINUOUS
 62
     3
100
AcDbCircle
 10
111.747899
 20
118.5
 30
0.0
 40
0.5
100
AcDbArc
 50
270.0
 51
360.0
  0
ARC
  5
E1
330
1F
100
AcDbEntity
  8
0-1
  6
CONTINUOUS
 62
     3
100
AcDbCircle
 10
109.847899
 20
119.5
 30
0.0
 40
1.5
100
AcDbArc
 50
180.0
 51
270.0
  0
ARC
  5
E2
330
1F
100
AcDbEntity
  8
0-1
  6
CONTINUOUS
 62
     3
100
AcDbCircle
 10
108.847899
 20
120.3
 30
0.0
 40
0.2000000000000028
100
AcDbArc
 50
0.0
 51
90.0
  0
ARC
  5
E3
330
1F
100
AcDbEntity
  8
0-1
  6
CONTINUOUS
 62
     3
100
AcDbCircle
 10
108.547899
 20
120.3
 30
0.0
 40
0.2000000000000028
100
AcDbArc
 50
90.0
 51
179.999995
  0
LINE
  5
E4
330
1F
100
AcDbEntity
  8
0-1
  6
CONTINUOUS
 62
     3
100
AcDbLine
 10
108.547899
 20
120.5
 30
0.0
 11
108.847899
 21
120.5
 31
0.0
  0
LINE
  5
E5
330
1F
100
AcDbEntity
  8
0-1
  6
CONTINUOUS
 62
     3
100
AcDbLine
 10
109.247899
 20
119.0
 30
0.0
 11
110.647899
 21
119.0
 31
0.0
  0
LINE
  5
E6
330
1F
100
AcDbEntity
  8
0-1
  6
CONTINUOUS
 62
     3
100
AcDbLine
 10
109.047899
 20
119.2
 30
0.0
 11
109.047899
 21
120.797907
 31
0.0
  0
LINE
  5
E7
330
1F
100
AcDbEntity
  8
0-1
  6
CENTER
 62
     6
100
AcDbLine
 10
104.502536
 20
113.5
 30
0.0
 11
114.77337
 21
113.5
 31
0.0
  0
LINE
  5
E8
330
1F
100
AcDbEntity
  8
0-1
  6
CONTINUOUS
 62
     3
100
AcDbLine
 10
109.847899
 20
118.0
 30
0.0
 11
111.747899
 21
118.0
 31
0.0
  0
LINE
  5
E9
330
1F
100
AcDbEntity
  8
LAYERGROUP-1
  6
CENTER
 62
     6
100
AcDbLine
 10
81.665156
 20
148.5
 30
0.0
 11
139.811283
 21
148.5
 31
0.0
  0
LINE
  5
EA
330
1F
100
AcDbEntity
  8
LAYERGROUP-1
  6
CENTER
 62
     6
100
AcDbLine
 10
110.647899
 20
213.512056
 30
0.0
 11
110.647899
 21
83.105963
 31
0.0
  0
LINE
  5
EB
330
1F
100
AcDbEntity
  8
0-1
  6
CONTINUOUS
 62
     3
100
AcDbLine
 10
112.247899
 20
118.5
 30
0.0
 11
112.247899
 21
120.797907
 31
0.0
  0
LINE
  5
EC
330
1F
100
AcDbEntity
  8
0-1
  6
CONTINUOUS
 62
     3
100
AcDbLine
 10
108.347899
 20
119.5
 30
0.0
 11
108.347899
 21
120.3
 31
0.0
  0
LINE
  5
ED
330
1F
100
AcDbEntity
  8
LAYERGROUP-1
  6
CONTINUOUS
 62
     6
100
AcDbLine
 10
112.247899
 20
118.5
 30
0.0
 11
112.247899
 21
108.5
 31
0.0
  0
LINE
  5
EE
330
1F
100
AcDbEntity
  8
LAYERGROUP-1
  6
CONTINUOUS
 62
     6
100
AcDbLine
 10
108.347899
 20
107.5
 30
0.0
 11
108.347899
 21
119.5
 31
0.0
  0
LINE
  5
EF
330
1F
100
AcDbEntity
  8
LAYERGROUP-1
  6
CONTINUOUS
 62
     3
100
AcDbLine
 10
91.547899
 20
125.90625
 30
0.0
 11
91.547899
 21
100.9
 31
0.0
  0
LINE
  5
F0
330
1F
100
AcDbEntity
  8
LAYERGROUP-1
  6
CONTINUOUS
 62
     3
100
AcDbLine
 10
129.747899
 20
125.90625
 30
0.0
 11
129.747899
 21
100.9
 31
0.0
  0
CIRCLE
  5
F2
330
1F
100
AcDbEntity
  8
GR1-1
  6
CONTINUOUS
 62
     3
100
AcDbCircle
 10
294.0
 20
148.5
 30
0.0
 40
48.0
  0
LINE
  5
F3
330
1F
100
AcDbEntity
  8
GR1-1
  6
CENTER
 62
     6
100
AcDbLine
 10
224.662452
 20
148.5
 30
0.0
 11
361.226161
 21
148.5
 31
0.0
  0
CIRCLE
  5
F4
330
1F
100
AcDbEntity
  8
GR1-1
  6
CONTINUOUS
 62
     6
100
AcDbCircle
 10
294.0
 20
148.5
 30
0.0
 40
44.50000000000003
  0
LINE
  5
F5
330
1F
100
AcDbEntity
  8
GR1-1
  6
CENTER
 62
     6
100
AcDbLine
 10
294.0
 20
217.394052
 30
0.0
 11
294.0
 21
81.811111
 31
0.0
  0
CIRCLE
  5
F6
330
1F
100
AcDbEntity
  8
LAYERGROUP-1
  6
CONTINUOUS
 62
     3
100
AcDbCircle
 10
294.0
 20
183.5
 30
0.0
 40
4.500000000000028
  0
CIRCLE
  5
F7
330
1F
100
AcDbEntity
  8
LAYERGROUP-1
  6
CONTINUOUS
 62
     3
100
AcDbCircle
 10
269.251263
 20
173.248737
 30
0.0
 40
4.5
  0
CIRCLE
  5
F8
330
1F
100
AcDbEntity
  8
LAYERGROUP-1
  6
CONTINUOUS
 62
     6
100
AcDbCircle
 10
269.251263
 20
173.248737
 30
0.0
 40
7.0
  0
CIRCLE
  5
F9
330
1F
100
AcDbEntity
  8
LAYERGROUP-1
  6
CONTINUOUS
 62
     3
100
AcDbCircle
 10
259.0
 20
148.5
 30
0.0
 40
4.5
  0
CIRCLE
  5
FA
330
1F
100
AcDbEntity
  8
LAYERGROUP-1
  6
CONTINUOUS
 62
     3
100
AcDbCircle
 10
318.748737
 20
173.248737
 30
0.0
 40
4.5
  0
CIRCLE
  5
FB
330
1F
100
AcDbEntity
  8
LAYERGROUP-1
  6
CONTINUOUS
 62
     6
100
AcDbCircle
 10
318.748737
 20
173.248737
 30
0.0
 40
7.0
  0
CIRCLE
  5
FC
330
1F
100
AcDbEntity
  8
LAYERGROUP-1
  6
CONTINUOUS
 62
     3
100
AcDbCircle
 10
329.0
 20
148.5
 30
0.0
 40
4.5
  0
CIRCLE
  5
FD
330
1F
100
AcDbEntity
  8
LAYERGROUP-1
  6
CONTINUOUS
 62
     3
100
AcDbCircle
 10
294.0
 20
113.5
 30
0.0
 40
4.500000000000028
  0
CIRCLE
  5
FE
330
1F
100
AcDbEntity
  8
LAYERGROUP-1
  6
CONTINUOUS
 62
     3
100
AcDbCircle
 10
269.251263
 20
123.751263
 30
0.0
 40
4.5
  0
CIRCLE
  5
FF
330
1F
100
AcDbEntity
  8
LAYERGROUP-1
  6
CONTINUOUS
 62
     6
100
AcDbCircle
 10
269.251263
 20
123.751263
 30
0.0
 40
7.0
  0
CIRCLE
  5
100
330
1F
100
AcDbEntity
  8
LAYERGROUP-1
  6
CONTINUOUS
 62
     3
100
AcDbCircle
 10
318.748737
 20
123.751263
 30
0.0
 40
4.5
  0
CIRCLE
  5
101
330
1F
100
AcDbEntity
  8
LAYERGROUP-1
  6
CONTINUOUS
 62
     6
100
AcDbCircle
 10
318.748737
 20
123.751263
 30
0.0
 40
7.0
  0
INSERT
  5
105
330
1F
100
AcDbEntity
  8
0
100
AcDbBlockReference
  2
BLKF021
 10
0.0
 20
0.0
 30
0.0
  0
TEXT
  5
15D
330
1F
100
AcDbEntity
  8
GR1-1
  6
CONTINUOUS
 62
     7
100
AcDbText
 10
264.853638
 20
189.344391
 30
0.0
 40
7.27538
  1
G
 50
32.0
 41
1.053374
  7
FX_VECTOR
 72
     5
 11
270.424366
 21
192.825368
 31
0.0
100
AcDbText
  0
TEXT
  5
15E
330
1F
100
AcDbEntity
  8
GR1-1
  6
CONTINUOUS
 62
     7
100
AcDbText
 10
270.821716
 20
193.003281
 30
0.0
 40
7.27538
  1
O
 50
24.0
 41
0.997933
  7
FX_VECTOR
 72
     5
 11
276.822689
 21
195.675086
 31
0.0
100
AcDbText
  0
TEXT
  5
15F
330
1F
100
AcDbEntity
  8
GR1-1
  6
CONTINUOUS
 62
     7
100
AcDbText
 10
277.240967
 20
195.795975
 30
0.0
 40
7.27538
  1
L
 50
16.0
 41
1.185046
  7
FX_VECTOR
 72
     5
 11
283.555382
 21
197.606604
 31
0.0
100
AcDbText
  0
TEXT
  5
160
330
1F
100
AcDbEntity
  8
GR1-1
  6
CONTINUOUS
 62
     7
100
AcDbText
 10
283.986389
 20
197.668106
 30
0.0
 40
7.27538
  1
D
 50
8.0
 41
1.053374
  7
FX_VECTOR
 72
     5
 11
290.491344
 21
198.582318
 31
0.0
100
AcDbText
  0
TEXT
  5
161
330
1F
100
AcDbEntity
  8
GR1-1
  6
CONTINUOUS
 62
     7
100
AcDbText
 10
297.926849
 20
198.523544
 30
0.0
 40
7.27538
  1
C
 50
352.0
 41
1.053374
  7
FX_VECTOR
 72
     5
 11
304.431804
 21
197.609333
 31
0.0
100
AcDbText
  0
TEXT
  5
162
330
1F
100
AcDbEntity
  8
GR1-1
  6
CONTINUOUS
 62
     7
100
AcDbText
 10
304.850586
 20
197.490204
 30
0.0
 40
7.27538
  1
A
 50
344.0
 41
1.115337
  7
FX_VECTOR
 72
     5
 11
311.165001
 21
195.679574
 31
0.0
100
AcDbText
  0
TEXT
  5
163
330
1F
100
AcDbEntity
  8
GR1-1
  6
CONTINUOUS
 62
     7
100
AcDbText
 10
311.56311
 20
195.503326
 30
0.0
 40
7.27538
  1
S
 50
336.0
 41
1.115337
  7
FX_VECTOR
 72
     5
 11
317.564084
 21
192.831521
 31
0.0
100
AcDbText
  0
TEXT
  5
164
330
1F
100
AcDbEntity
  8
GR1-1
  6
CONTINUOUS
 62
     7
100
AcDbText
 10
317.933777
 20
192.601578
 30
0.0
 40
7.27538
  1
T
 50
328.0
 41
1.264049
  7
FX_VECTOR
 72
     5
 11
323.504506
 21
189.1206
 31
0.0
100
AcDbText
  0
TEXT
  5
165
330
1F
100
AcDbEntity
  8
GR1-1
  6
CONTINUOUS
 62
     7
100
AcDbText
 10
323.838593
 20
188.841461
 30
0.0
 40
7.27538
  1
E
 50
320.0
 41
1.115337
  7
FX_VECTOR
 72
     5
 11
328.870649
 21
184.619065
 31
0.0
100
AcDbText
  0
TEXT
  5
166
330
1F
100
AcDbEntity
  8
GR1-1
  6
CONTINUOUS
 62
     7
100
AcDbText
 10
329.162659
 20
184.296127
 30
0.0
 40
7.27538
  1
R
 50
312.0
 41
1.053374
  7
FX_VECTOR
 72
     5
 11
333.558099
 21
179.414496
 31
0.0
100
AcDbText
  0
TEXT
  5
167
330
1F
100
AcDbEntity
  8
GR1-1
  6
CONTINUOUS
 62
     7
100
AcDbText
 10
315.894653
 20
103.257263
 30
0.0
 40
7.241241
  1
1
 50
201.25
 41
2.106545
  7
FX_VECTOR
 72
     5
 11
308.447735
 21
100.361315
 31
0.0
100
AcDbText
  0
TEXT
  5
168
330
1F
100
AcDbEntity
  8
GR1-1
  6
CONTINUOUS
 62
     7
100
AcDbText
 10
308.966858
 20
100.517975
 30
0.0
 40
7.241241
  1
2
 50
192.75
 41
1.363058
  7
FX_VECTOR
 72
     5
 11
301.173689
 21
98.754561
 31
0.0
100
AcDbText
  0
TEXT
  5
169
330
1F
100
AcDbEntity
  8
GR1-1
  6
CONTINUOUS
 62
     7
100
AcDbText
 10
301.710266
 20
98.832779
 30
0.0
 40
7.241241
  1
5
 50
184.25
 41
1.363058
  7
FX_VECTOR
 72
     5
 11
293.742049
 21
98.240638
 31
0.0
100
AcDbText
  0
TEXT
  5
16A
330
1F
100
AcDbEntity
  8
GR1-1
  6
CONTINUOUS
 62
     7
100
AcDbText
 10
294.284302
 20
98.238678
 30
0.0
 40
7.241241
  1
X
 50
175.75
 41
1.363058
  7
FX_VECTOR
 72
     5
 11
286.316085
 21
98.830819
 31
0.0
100
AcDbText
  0
TEXT
  5
16B
330
1F
100
AcDbEntity
  8
GR1-1
  6
CONTINUOUS
 62
     7
100
AcDbText
 10
286.852081
 20
98.748734
 30
0.0
 40
7.241241
  1
3
 50
167.25
 41
1.363058
  7
FX_VECTOR
 72
     5
 11
279.058912
 21
100.512148
 31
0.0
100
AcDbText
  0
TEXT
  5
16C
330
1F
100
AcDbEntity
  8
GR1-1
  6
CONTINUOUS
 62
     7
100
AcDbText
 10
279.576874
 20
100.351746
 30
0.0
 40
7.241241
  1
8
 50
158.75
 41
1.363058
  7
FX_VECTOR
 72
     5
 11
272.129955
 21
103.247694
 31
0.0
100
AcDbText
  0
LINE
  5
16D
330
1F
100
AcDbEntity
  8
GR1-1
  6
CONTINUOUS
 62
     7
100
AcDbLine
 10
254.019709
 20
188.535314
 30
0.0
 11
258.478578
 21
184.52053
 31
0.0
  0
LINE
  5
16E
330
1F
100
AcDbEntity
  8
GR1-1
  6
CONTINUOUS
 62
     7
100
AcDbLine
 10
258.478578
 20
184.52053
 30
0.0
 11
254.463794
 21
180.061661
 31
0.0
  0
LINE
  5
16F
330
1F
100
AcDbEntity
  8
GR1-1
  6
CONTINUOUS
 62
     7
100
AcDbLine
 10
254.463794
 20
180.061661
 30
0.0
 11
250.004926
 21
184.076445
 31
0.0
  0
LINE
  5
170
330
1F
100
AcDbEntity
  8
GR1-1
  6
CONTINUOUS
 62
     7
100
AcDbLine
 10
250.004926
 20
184.076445
 30
0.0
 11
254.019709
 21
188.535314
 31
0.0
  0
LINE
  5
171
330
1F
100
AcDbEntity
  8
GR1-1
  6
CONTINUOUS
 62
     7
100
AcDbLine
 10
255.710656
 20
186.378214
 30
0.0
 11
252.139821
 21
186.191075
 31
0.0
  0
LINE
  5
172
330
1F
100
AcDbEntity
  8
GR1-1
  6
CONTINUOUS
 62
     7
100
AcDbLine
 10
252.139821
 20
186.191075
 30
0.0
 11
252.349165
 21
182.196556
 31
0.0
  0
LINE
  5
173
330
1F
100
AcDbEntity
  8
GR1-1
  6
CONTINUOUS
 62
     7
100
AcDbLine
 10
252.349165
 20
182.196556
 30
0.0
 11
256.343683
 21
182.4059
 31
0.0
  0
LINE
  5
174
330
1F
100
AcDbEntity
  8
GR1-1
  6
CONTINUOUS
 62
     7
100
AcDbLine
 10
256.343683
 20
182.4059
 30
0.0
 11
256.220988
 21
184.747052
 31
0.0
  0
LINE
  5
175
330
1F
100
AcDbEntity
  8
GR1-1
  6
CONTINUOUS
 62
     7
100
AcDbLine
 10
256.387764
 20
184.826601
 30
0.0
 11
256.969572
 21
184.302739
 31
0.0
  0
LINE
  5
176
330
1F
100
AcDbEntity
  8
GR1-1
  6
CONTINUOUS
 62
     7
100
AcDbLine
 10
256.969572
 20
184.302739
 30
0.0
 11
257.638702
 21
185.045884
 31
0.0
  0
LINE
  5
177
330
1F
100
AcDbEntity
  8
GR1-1
  6
CONTINUOUS
 62
     7
100
AcDbLine
 10
257.638702
 20
185.045884
 30
0.0
 11
256.134339
 21
186.400418
 31
0.0
  0
LINE
  5
178
330
1F
100
AcDbEntity
  8
GR1-1
  6
CONTINUOUS
 62
     7
100
AcDbLine
 10
256.134339
 20
186.400418
 30
0.0
 11
254.241752
 21
184.298487
 31
0.0
  0
LINE
  5
179
330
1F
100
AcDbEntity
  8
GR1-1
  6
CONTINUOUS
 62
     7
100
AcDbLine
 10
254.241752
 20
184.298487
 30
0.0
 11
254.613324
 21
183.963922
 31
0.0
  0
LINE
  5
17A
330
1F
100
AcDbEntity
  8
GR1-1
  6
CONTINUOUS
 62
     7
100
AcDbLine
 10
254.613324
 20
183.963922
 30
0.0
 11
255.06351
 21
184.463904
 31
0.0
  0
LINE
  5
17B
330
1F
100
AcDbEntity
  8
GR1-1
  6
CONTINUOUS
 62
     7
100
AcDbLine
 10
255.237688
 20
184.402225
 30
0.0
 11
255.292717
 21
183.352194
 31
0.0
  0
LINE
  5
17C
330
1F
100
AcDbEntity
  8
GR1-1
  6
CONTINUOUS
 62
     7
100
AcDbLine
 10
255.292717
 20
183.352194
 30
0.0
 11
253.295458
 21
183.247522
 31
0.0
  0
LINE
  5
17D
330
1F
100
AcDbEntity
  8
GR1-1
  6
CONTINUOUS
 62
     7
100
AcDbLine
 10
253.295458
 20
183.247522
 30
0.0
 11
253.190786
 21
185.244781
 31
0.0
  0
LINE
  5
17E
330
1F
100
AcDbEntity
  8
GR1-1
  6
CONTINUOUS
 62
     7
100
AcDbLine
 10
253.190786
 20
185.244781
 30
0.0
 11
254.764363
 21
185.327249
 31
0.0
  0
LINE
  5
17F
330
1F
100
AcDbEntity
  8
GR1-1
  6
CONTINUOUS
 62
     7
100
AcDbLine
 10
254.764363
 20
185.327249
 30
0.0
 11
255.710656
 21
186.378214
 31
0.0
  0
ARC
  5
180
330
1F
100
AcDbEntity
  8
GR1-1
  6
CONTINUOUS
 62
     7
100
AcDbCircle
 10
256.320851
 20
184.752286
 30
0.0
 40
0.1
100
AcDbArc
 50
48.0
 51
183.0
  0
ARC
  5
181
330
1F
100
AcDbEntity
  8
GR1-1
  6
CONTINUOUS
 62
     7
100
AcDbCircle
 10
255.137825
 20
184.396991
 30
0.0
 40
0.1
100
AcDbArc
 50
3.0
 51
138.0
  0
CIRCLE
  5
182
330
1F
100
AcDbEntity
  8
GR1-1
  6
CONTINUOUS
 62
     3
100
AcDbCircle
 10
294.0
 20
148.5
 30
0.0
 40
62.5
  0
ARC
  5
183
330
1F
100
AcDbEntity
  8
GR1-1
  6
CONTINUOUS
 62
     3
100
AcDbCircle
 10
110.647899
 20
126.0
 30
0.0
 40
40.0
100
AcDbArc
 50
255.753732
 51
284.246268
  0
ARC
  5
184
330
1F
100
AcDbEntity
  8
GR1-1
  6
CONTINUOUS
 62
     3
100
AcDbCircle
 10
119.261055
 20
92.076357
 30
0.0
 40
5.0
100
AcDbArc
 50
284.246268
 51
340.0
  0
LINE
  5
185
330
1F
100
AcDbEntity
  8
GR1-1
  6
CONTINUOUS
 62
     3
100
AcDbLine
 10
123.959518
 20
90.366256
 30
0.0
 11
127.168929
 21
99.18404
 31
0.0
  0
ARC
  5
186
330
1F
100
AcDbEntity
  8
GR1-1
  6
CONTINUOUS
 62
     3
100
AcDbCircle
 10
129.048314
 20
98.5
 30
0.0
 40
2.0
100
AcDbArc
 50
90.0
 51
160.0
  0
LINE
  5
187
330
1F
100
AcDbEntity
  8
GR1-1
  6
CONTINUOUS
 62
     3
100
AcDbLine
 10
94.126869
 20
99.18404
 30
0.0
 11
97.33628
 21
90.366256
 31
0.0
  0
ARC
  5
188
330
1F
100
AcDbEntity
  8
GR1-1
  6
CONTINUOUS
 62
     3
100
AcDbCircle
 10
102.034743
 20
92.076357
 30
0.0
 40
5.0
100
AcDbArc
 50
200.0
 51
255.753732
  0
ARC
  5
189
330
1F
100
AcDbEntity
  8
GR1-1
  6
CONTINUOUS
 62
     3
100
AcDbCircle
 10
92.247484
 20
98.5
 30
0.0
 40
2.0
100
AcDbArc
 50
20.0
 51
90.0
  0
DIMENSION
  5
18A
330
1F
100
AcDbEntity
  8
LAYERGROUP-1
100
AcDbDimension
  2
*D20
 10
137.647899
 20
66.0
 30
0.0
 11
110.647903
 21
67.0
 31
0.0
 70
    33
  3
FXDIMINFO
100
AcDbAlignedDimension
 13
83.647899
 23
140.5
 33
0.0
 14
137.647899
 24
140.5
 34
0.0
1001
ACAD
1000
DSTYLE
1002
{
1070
     7
1000
FXTIP_ARROW_E
1070
     6
1000
FXTIP_ARROW_S
1070
   173
1070
     1
1002
}
  0
DIMENSION
  5
194
330
1F
100
AcDbEntity
  8
LAYERGROUP-1
100
AcDbDimension
  2
*D21
 10
129.747899
 20
76.0
 30
0.0
 11
110.647903
 21
77.0
 31
0.0
 70
    33
  3
FXDIMINFO
100
AcDbAlignedDimension
 13
91.547899
 23
100.5
 33
0.0
 14
129.747899
 24
100.5
 34
0.0
1001
ACAD
1000
DSTYLE
1002
{
1070
     7
1000
FXTIP_ARROW_E
1070
     6
1000
FXTIP_ARROW_S
1070
   173
1070
     1
1002
}
  0
LINE
  5
19F
330
1F
100
AcDbEntity
  8
001-1
  6
CONTINUOUS
 62
     3
100
AcDbLine
 10
137.647899
 20
155.6
 30
0.0
 11
137.647899
 21
158.0
 31
0.0
  0
LINE
  5
1A0
330
1F
100
AcDbEntity
  8
LAYERGROUP-1
  6
CONTINUOUS
 62
     3
100
AcDbLine
 10
137.647899
 20
155.6
 30
0.0
 11
137.647899
 21
141.4
 31
0.0
  0
LINE
  5
1A1
330
1F
100
AcDbEntity
  8
LAYERGROUP-1
  6
CONTINUOUS
 62
     3
100
AcDbLine
 10
134.647899
 20
158.5
 30
0.0
 11
134.647899
 21
164.45
 31
0.0
  0
LINE
  5
1A2
330
1F
100
AcDbEntity
  8
LAYERGROUP-1
  6
CONTINUOUS
 62
     3
100
AcDbLine
 10
124.647899
 20
158.0
 30
0.0
 11
124.647899
 21
163.45
 31
0.0
  0
LINE
  5
1A3
330
1F
100
AcDbEntity
  8
LAYERGROUP-1
  6
CONTINUOUS
 62
     3
100
AcDbLine
 10
137.647899
 20
155.6
 30
0.0
 11
135.647899
 21
155.6
 31
0.0
  0
LINE
  5
1A4
330
1F
100
AcDbEntity
  8
LAYERGROUP-1
  6
CONTINUOUS
 62
     3
100
AcDbLine
 10
135.647899
 20
155.6
 30
0.0
 11
135.647899
 21
155.15
 31
0.0
  0
LINE
  5
1A5
330
1F
100
AcDbEntity
  8
LAYERGROUP-1
  6
CONTINUOUS
 62
     3
100
AcDbLine
 10
137.647899
 20
158.0
 30
0.0
 11
135.147899
 21
158.0
 31
0.0
  0
LINE
  5
1A6
330
1F
100
AcDbEntity
  8
LAYERGROUP-1
  6
CONTINUOUS
 62
     3
100
AcDbLine
 10
123.147899
 20
155.6
 30
0.0
 11
124.647899
 21
155.6
 31
0.0
  0
LINE
  5
1A7
330
1F
100
AcDbEntity
  8
LAYERGROUP-1
  6
CONTINUOUS
 62
     3
100
AcDbLine
 10
124.647899
 20
155.6
 30
0.0
 11
124.647899
 21
155.15
 31
0.0
  0
LINE
  5
1A8
330
1F
100
AcDbEntity
  8
LAYERGROUP-1
  6
CONTINUOUS
 62
     3
100
AcDbLine
 10
123.447899
 20
158.0
 30
0.0
 11
124.647899
 21
158.0
 31
0.0
  0
ARC
  5
1A9
330
1F
100
AcDbEntity
  8
LAYERGROUP-1
  6
CONTINUOUS
 62
     3
100
AcDbCircle
 10
135.147899
 20
158.5
 30
0.0
 40
0.5
100
AcDbArc
 50
180.0
 51
270.0
  0
LINE
  5
1AA
330
1F
100
AcDbEntity
  8
LAYERGROUP-1
  6
CONTINUOUS
 62
     6
100
AcDbLine
 10
135.647899
 20
155.15
 30
0.0
 11
135.647899
 21
141.85
 31
0.0
  0
LINE
  5
1AB
330
1F
100
AcDbEntity
  8
LAYERGROUP-1
  6
CONTINUOUS
 62
     6
100
AcDbLine
 10
124.647899
 20
155.15
 30
0.0
 11
124.647899
 21
141.85
 31
0.0
  0
LINE
  5
1AC
330
1F
100
AcDbEntity
  8
001-1
  6
CONTINUOUS
 62
     3
100
AcDbLine
 10
137.647899
 20
141.4
 30
0.0
 11
137.647899
 21
139.0
 31
0.0
  0
LINE
  5
1AD
330
1F
100
AcDbEntity
  8
LAYERGROUP-1
  6
CONTINUOUS
 62
     3
100
AcDbLine
 10
134.647899
 20
138.5
 30
0.0
 11
134.647899
 21
132.55
 31
0.0
  0
LINE
  5
1AE
330
1F
100
AcDbEntity
  8
LAYERGROUP-1
  6
CONTINUOUS
 62
     3
100
AcDbLine
 10
124.647899
 20
133.55
 30
0.0
 11
124.647899
 21
136.0
 31
0.0
  0
LINE
  5
1AF
330
1F
100
AcDbEntity
  8
LAYERGROUP-1
  6
CONTINUOUS
 62
     3
100
AcDbLine
 10
137.647899
 20
141.4
 30
0.0
 11
135.647899
 21
141.4
 31
0.0
  0
LINE
  5
1B0
330
1F
100
AcDbEntity
  8
LAYERGROUP-1
  6
CONTINUOUS
 62
     3
100
AcDbLine
 10
135.647899
 20
141.4
 30
0.0
 11
135.647899
 21
141.85
 31
0.0
  0
LINE
  5
1B1
330
1F
100
AcDbEntity
  8
LAYERGROUP-1
  6
CONTINUOUS
 62
     3
100
AcDbLine
 10
137.647899
 20
139.0
 30
0.0
 11
135.147899
 21
139.0
 31
0.0
  0
LINE
  5
1B2
330
1F
100
AcDbEntity
  8
LAYERGROUP-1
  6
CONTINUOUS
 62
     3
100
AcDbLine
 10
129.647899
 20
136.0
 30
0.0
 11
124.647899
 21
136.0
 31
0.0
  0
LINE
  5
1B3
330
1F
100
AcDbEntity
  8
LAYERGROUP-1
  6
CONTINUOUS
 62
     3
100
AcDbLine
 10
123.147899
 20
141.4
 30
0.0
 11
124.647899
 21
141.4
 31
0.0
  0
LINE
  5
1B4
330
1F
100
AcDbEntity
  8
LAYERGROUP-1
  6
CONTINUOUS
 62
     3
100
AcDbLine
 10
124.647899
 20
141.4
 30
0.0
 11
124.647899
 21
141.85
 31
0.0
  0
LINE
  5
1B5
330
1F
100
AcDbEntity
  8
LAYERGROUP-1
  6
CONTINUOUS
 62
     3
100
AcDbLine
 10
130.647899
 20
138.0
 30
0.0
 11
130.647899
 21
137.0
 31
0.0
  0
ARC
  5
1B6
330
1F
100
AcDbEntity
  8
LAYERGROUP-1
  6
CONTINUOUS
 62
     3
100
AcDbCircle
 10
129.647899
 20
137.0
 30
0.0
 40
1.0
100
AcDbArc
 50
270.0
 51
360.0
  0
ARC
  5
1B7
330
1F
100
AcDbEntity
  8
LAYERGROUP-1
  6
CONTINUOUS
 62
     3
100
AcDbCircle
 10
129.647899
 20
138.0
 30
0.0
 40
1.0
100
AcDbArc
 50
0.0
 51
90.0
  0
LINE
  5
1B8
330
1F
100
AcDbEntity
  8
LAYERGROUP-1
  6
CONTINUOUS
 62
     3
100
AcDbLine
 10
123.447899
 20
139.0
 30
0.0
 11
129.647899
 21
139.0
 31
0.0
  0
LINE
  5
1B9
330
1F
100
AcDbEntity
  8
LAYERGROUP-1
  6
CONTINUOUS
 62
     6
100
AcDbLine
 10
124.647899
 20
139.0
 30
0.0
 11
124.647899
 21
136.0
 31
0.0
  0
ARC
  5
1BA
330
1F
100
AcDbEntity
  8
LAYERGROUP-1
  6
CONTINUOUS
 62
     3
100
AcDbCircle
 10
135.147899
 20
138.5
 30
0.0
 40
0.5
100
AcDbArc
 50
90.0
 51
180.0
  0
CIRCLE
  5
1BB
330
1F
100
AcDbEntity
  8
LAYERGROUP-1
  6
CONTINUOUS
 62
     3
100
AcDbCircle
 10
294.0
 20
148.5
 30
0.0
 40
7.099999999999994
  0
CIRCLE
  5
1BC
330
1F
100
AcDbEntity
  8
LAYERGROUP-1
  6
CONTINUOUS
 62
     3
100
AcDbCircle
 10
294.0
 20
148.5
 30
0.0
 40
9.5
  0
LINE
  5
1BD
330
1F
100
AcDbEntity
  8
0-1
  6
CONTINUOUS
 62
     3
100
AcDbLine
 10
110.647899
 20
191.0
 30
0.0
 11
110.647899
 21
189.0
 31
0.0
  0
LINE
  5
1BE
330
1F
100
AcDbEntity
  8
0-1
  6
CONTINUOUS
 62
     3
100
AcDbLine
 10
114.247899
 20
193.0
 30
0.0
 11
126.647899
 21
193.0
 31
0.0
  0
LINE
  5
1BF
330
1F
100
AcDbEntity
  8
0-1
  6
CONTINUOUS
 62
     3
100
AcDbLine
 10
114.247899
 20
194.6
 30
0.0
 11
126.647899
 21
194.6
 31
0.0
  0
LINE
  5
1C0
330
1F
100
AcDbEntity
  8
0-1
  6
CONTINUOUS
 62
     3
100
AcDbLine
 10
112.247899
 20
191.0
 30
0.0
 11
112.247899
 21
188.5
 31
0.0
  0
ARC
  5
1C1
330
1F
100
AcDbEntity
  8
0-1
  6
CONTINUOUS
 62
     3
100
AcDbCircle
 10
114.247899
 20
191.0
 30
0.0
 40
2.0
100
AcDbArc
 50
90.0
 51
180.0
  0
ARC
  5
1C2
330
1F
100
AcDbEntity
  8
0-1
  6
CONTINUOUS
 62
     3
100
AcDbCircle
 10
114.247899
 20
191.0
 30
0.0
 40
3.600000000000001
100
AcDbArc
 50
90.0
 51
180.0
  0
LINE
  5
1C3
330
1F
100
AcDbEntity
  8
0-1
  6
CONTINUOUS
 62
     3
100
AcDbLine
 10
129.747899
 20
196.5
 30
0.0
 11
129.747899
 21
196.1
 31
0.0
  0
LINE
  5
1C4
330
1F
100
AcDbEntity
  8
0-1
  6
CONTINUOUS
 62
     3
100
AcDbLine
 10
128.147899
 20
196.5
 30
0.0
 11
128.147899
 21
196.1
 31
0.0
  0
ARC
  5
1C5
330
1F
100
AcDbEntity
  8
0-1
  6
CONTINUOUS
 62
     3
100
AcDbCircle
 10
126.647899
 20
196.1
 30
0.0
 40
1.5
100
AcDbArc
 50
270.0
 51
360.0
  0
ARC
  5
1C6
330
1F
100
AcDbEntity
  8
0-1
  6
CONTINUOUS
 62
     3
100
AcDbCircle
 10
126.647899
 20
196.1
 30
0.0
 40
3.100000000000001
100
AcDbArc
 50
270.0
 51
360.0
  0
LINE
  5
1C7
330
1F
100
AcDbEntity
  8
0-1
  6
CONTINUOUS
 62
     3
100
AcDbLine
 10
128.147899
 20
196.5
 30
0.0
 11
129.747899
 21
196.5
 31
0.0
  0
LINE
  5
1C8
330
1F
100
AcDbEntity
  8
0-1
  6
CONTINUOUS
 62
     3
100
AcDbLine
 10
108.136102
 20
173.566943
 30
0.0
 11
88.82112
 21
169.255562
 31
0.0
  0
LINE
  5
1C9
330
1F
100
AcDbEntity
  8
0-1
  6
CONTINUOUS
 62
     3
100
AcDbLine
 10
109.247899
 20
189.0
 30
0.0
 11
110.647899
 21
189.0
 31
0.0
  0
ARC
  5
1CA
330
1F
100
AcDbEntity
  8
0-1
  6
CONTINUOUS
 62
     3
100
AcDbCircle
 10
107.547899
 20
176.202093
 30
0.0
 40
1.5
100
AcDbArc
 50
282.582966
 51
360.0
  0
LINE
  5
1CB
330
1F
100
AcDbEntity
  8
0-1
  6
CONTINUOUS
 62
     3
100
AcDbLine
 10
109.847899
 20
188.0
 30
0.0
 11
111.747899
 21
188.0
 31
0.0
  0
ARC
  5
1CC
330
1F
100
AcDbEntity
  8
0-1
  6
CONTINUOUS
 62
     3
100
AcDbCircle
 10
107.436486
 20
176.701222
 30
0.0
 40
3.21141275050012
100
AcDbArc
 50
282.582964
 51
360.0
  0
LINE
  5
1CD
330
1F
100
AcDbEntity
  8
0-1
  6
CONTINUOUS
 62
     3
100
AcDbLine
 10
93.147899
 20
196.5
 30
0.0
 11
91.547899
 21
196.5
 31
0.0
  0
ARC
  5
1CE
330
1F
100
AcDbEntity
  8
0-1
  6
CONTINUOUS
 62
     3
100
AcDbCircle
 10
94.647899
 20
196.1
 30
0.0
 40
3.100000000000001
100
AcDbArc
 50
180.0
 51
270.0
  0
ARC
  5
1CF
330
1F
100
AcDbEntity
  8
0-1
  6
CONTINUOUS
 62
     3
100
AcDbCircle
 10
94.647899
 20
196.1
 30
0.0
 40
1.5
100
AcDbArc
 50
180.0
 51
270.0
  0
LINE
  5
1D0
330
1F
100
AcDbEntity
  8
0-1
  6
CONTINUOUS
 62
     3
100
AcDbLine
 10
93.147899
 20
196.5
 30
0.0
 11
93.147899
 21
196.1
 31
0.0
  0
LINE
  5
1D1
330
1F
100
AcDbEntity
  8
0-1
  6
CONTINUOUS
 62
     3
100
AcDbLine
 10
91.547899
 20
196.5
 30
0.0
 11
91.547899
 21
196.1
 31
0.0
  0
ARC
  5
1D2
330
1F
100
AcDbEntity
  8
0-1
  6
CONTINUOUS
 62
     3
100
AcDbCircle
 10
107.047899
 20
191.0
 30
0.0
 40
3.600000000000001
100
AcDbArc
 50
0.0
 51
90.0
  0
ARC
  5
1D3
330
1F
100
AcDbEntity
  8
0-1
  6
CONTINUOUS
 62
     3
100
AcDbCircle
 10
107.047899
 20
191.0
 30
0.0
 40
2.0
100
AcDbArc
 50
0.0
 51
90.0
  0
LINE
  5
1D4
330
1F
100
AcDbEntity
  8
0-1
  6
CONTINUOUS
 62
     3
100
AcDbLine
 10
109.047899
 20
191.0
 30
0.0
 11
109.047899
 21
189.2
 31
0.0
  0
LINE
  5
1D5
330
1F
100
AcDbEntity
  8
0-1
  6
CONTINUOUS
 62
     3
100
AcDbLine
 10
107.047899
 20
194.6
 30
0.0
 11
94.647899
 21
194.6
 31
0.0
  0
LINE
  5
1D6
330
1F
100
AcDbEntity
  8
0-1
  6
CONTINUOUS
 62
     3
100
AcDbLine
 10
107.047899
 20
193.0
 30
0.0
 11
94.647899
 21
193.0
 31
0.0
  0
LINE
  5
1D7
330
1F
100
AcDbEntity
  8
0-1
  6
CONTINUOUS
 62
     3
100
AcDbLine
 10
108.347899
 20
190.3
 30
0.0
 11
108.347899
 21
189.5
 31
0.0
  0
LINE
  5
1D8
330
1F
100
AcDbEntity
  8
0-1
  6
CONTINUOUS
 62
     3
100
AcDbLine
 10
108.547899
 20
190.5
 30
0.0
 11
108.847899
 21
190.5
 31
0.0
  0
ARC
  5
1D9
330
1F
100
AcDbEntity
  8
0-1
  6
CONTINUOUS
 62
     3
100
AcDbCircle
 10
108.547899
 20
190.3
 30
0.0
 40
0.2000000000000028
100
AcDbArc
 50
90.0
 51
179.999995
  0
ARC
  5
1DA
330
1F
100
AcDbEntity
  8
0-1
  6
CONTINUOUS
 62
     3
100
AcDbCircle
 10
108.847899
 20
190.3
 30
0.0
 40
0.2000000000000028
100
AcDbArc
 50
0.0
 51
90.0
  0
ARC
  5
1DB
330
1F
100
AcDbEntity
  8
0-1
  6
CONTINUOUS
 62
     3
100
AcDbCircle
 10
109.847899
 20
189.5
 30
0.0
 40
1.5
100
AcDbArc
 50
180.0
 51
270.0
  0
ARC
  5
1DC
330
1F
100
AcDbEntity
  8
0-1
  6
CONTINUOUS
 62
     3
100
AcDbCircle
 10
111.747899
 20
188.5
 30
0.0
 40
0.5
100
AcDbArc
 50
270.0
 51
360.0
  0
ARC
  5
1DD
330
1F
100
AcDbEntity
  8
0-1
  6
CONTINUOUS
 62
     3
100
AcDbCircle
 10
109.247899
 20
189.2
 30
0.0
 40
0.2000000000000028
100
AcDbArc
 50
180.0
 51
270.0
  0
LINE
  5
1DE
330
1F
100
AcDbEntity
  8
0-1
  6
CONTINUOUS
 62
     3
100
AcDbLine
 10
107.874679
 20
174.73812
 30
0.0
 11
88.559696
 21
170.42674
 31
0.0
  0
LINE
  5
1DF
330
1F
100
AcDbEntity
  8
0-1
  6
CONTINUOUS
 62
     3
100
AcDbLine
 10
113.421119
 20
174.73812
 30
0.0
 11
132.736102
 21
170.42674
 31
0.0
  0
ARC
  5
1E0
330
1F
100
AcDbEntity
  8
0-1
  6
CONTINUOUS
 62
     3
100
AcDbCircle
 10
132.203605
 20
168.041155
 30
0.0
 40
2.444293581215881
100
AcDbArc
 50
0.0
 51
77.417041
  0
ARC
  5
1E1
330
1F
100
AcDbEntity
  8
0-1
  6
CONTINUOUS
 62
     3
100
AcDbCircle
 10
132.147899
 20
167.79159
 30
0.0
 40
1.5
100
AcDbArc
 50
0.0
 51
77.417041
  0
ARC
  5
1E2
330
1F
100
AcDbEntity
  8
0-1
  6
CONTINUOUS
 62
     3
100
AcDbCircle
 10
113.859312
 20
176.701222
 30
0.0
 40
3.21141275050012
100
AcDbArc
 50
180.0
 51
257.417036
  0
ARC
  5
1E3
330
1F
100
AcDbEntity
  8
0-1
  6
CONTINUOUS
 62
     3
100
AcDbCircle
 10
113.747899
 20
176.202093
 30
0.0
 40
1.5
100
AcDbArc
 50
180.0
 51
257.417034
  0
LINE
  5
1E4
330
1F
100
AcDbEntity
  8
0-1
  6
CONTINUOUS
 62
     3
100
AcDbLine
 10
134.647899
 20
168.041155
 30
0.0
 11
134.647899
 21
165.95
 31
0.0
  0
LINE
  5
1E5
330
1F
100
AcDbEntity
  8
0-1
  6
CONTINUOUS
 62
     3
100
AcDbLine
 10
125.147899
 20
164.45
 30
0.0
 11
133.147899
 21
164.45
 31
0.0
  0
LINE
  5
1E6
330
1F
100
AcDbEntity
  8
0-1
  6
CONTINUOUS
 62
     3
100
AcDbLine
 10
123.647899
 20
162.0
 30
0.0
 11
124.647899
 21
162.0
 31
0.0
  0
LINE
  5
1E7
330
1F
100
AcDbEntity
  8
0-1
  6
CONTINUOUS
 62
     3
100
AcDbLine
 10
125.147899
 20
165.45
 30
0.0
 11
133.147899
 21
165.45
 31
0.0
  0
LINE
  5
1E8
330
1F
100
AcDbEntity
  8
0-1
  6
CONTINUOUS
 62
     3
100
AcDbLine
 10
133.647899
 20
167.79159
 30
0.0
 11
133.647899
 21
165.95
 31
0.0
  0
LINE
  5
1E9
330
1F
100
AcDbEntity
  8
0-1
  6
CONTINUOUS
 62
     3
100
AcDbLine
 10
124.647899
 20
163.95
 30
0.0
 11
124.647899
 21
162.0
 31
0.0
  0
LINE
  5
1EA
330
1F
100
AcDbEntity
  8
0-1
  6
CONTINUOUS
 62
     3
100
AcDbLine
 10
123.647899
 20
163.95
 30
0.0
 11
123.647899
 21
162.0
 31
0.0
  0
ARC
  5
1EB
330
1F
100
AcDbEntity
  8
0-1
  6
CONTINUOUS
 62
     3
100
AcDbCircle
 10
125.147899
 20
163.95
 30
0.0
 40
0.5
100
AcDbArc
 50
90.0
 51
180.0
  0
ARC
  5
1EC
330
1F
100
AcDbEntity
  8
0-1
  6
CONTINUOUS
 62
     3
100
AcDbCircle
 10
125.147899
 20
163.95
 30
0.0
 40
1.5
100
AcDbArc
 50
90.0
 51
180.0
  0
ARC
  5
1ED
330
1F
100
AcDbEntity
  8
0-1
  6
CONTINUOUS
 62
     3
100
AcDbCircle
 10
133.147899
 20
165.95
 30
0.0
 40
0.5
100
AcDbArc
 50
270.0
 51
360.0
  0
ARC
  5
1EE
330
1F
100
AcDbEntity
  8
0-1
  6
CONTINUOUS
 62
     3
100
AcDbCircle
 10
133.147899
 20
165.95
 30
0.0
 40
1.5
100
AcDbArc
 50
270.0
 51
360.0
  0
LINE
  5
1EF
330
1F
100
AcDbEntity
  8
0-1
  6
CONTINUOUS
 62
     3
100
AcDbLine
 10
113.159696
 20
173.566943
 30
0.0
 11
132.474678
 21
169.255562
 31
0.0
  0
LINE
  5
1F0
330
1F
100
AcDbEntity
  8
0-1
  6
CONTINUOUS
 62
     3
100
AcDbLine
 10
110.647899
 20
178.0
 30
0.0
 11
110.647899
 21
176.701222
 31
0.0
  0
ARC
  5
1F1
330
1F
100
AcDbEntity
  8
0-1
  6
CONTINUOUS
 62
     3
100
AcDbCircle
 10
109.247899
 20
177.8
 30
0.0
 40
0.2000000000000028
100
AcDbArc
 50
90.0
 51
180.0
  0
ARC
  5
1F2
330
1F
100
AcDbEntity
  8
0-1
  6
CONTINUOUS
 62
     3
100
AcDbCircle
 10
111.747899
 20
178.5
 30
0.0
 40
0.5
100
AcDbArc
 50
0.0
 51
90.0
  0
ARC
  5
1F3
330
1F
100
AcDbEntity
  8
0-1
  6
CONTINUOUS
 62
     3
100
AcDbCircle
 10
109.847899
 20
177.5
 30
0.0
 40
1.5
100
AcDbArc
 50
90.0
 51
180.0
  0
ARC
  5
1F4
330
1F
100
AcDbEntity
  8
0-1
  6
CONTINUOUS
 62
     3
100
AcDbCircle
 10
108.847899
 20
176.7
 30
0.0
 40
0.2000000000000028
100
AcDbArc
 50
270.0
 51
360.0
  0
ARC
  5
1F5
330
1F
100
AcDbEntity
  8
0-1
  6
CONTINUOUS
 62
     3
100
AcDbCircle
 10
108.547899
 20
176.7
 30
0.0
 40
0.2000000000000028
100
AcDbArc
 50
180.000005
 51
270.0
  0
LINE
  5
1F6
330
1F
100
AcDbEntity
  8
0-1
  6
CONTINUOUS
 62
     3
100
AcDbLine
 10
108.547899
 20
176.5
 30
0.0
 11
108.847899
 21
176.5
 31
0.0
  0
LINE
  5
1F7
330
1F
100
AcDbEntity
  8
0-1
  6
CONTINUOUS
 62
     3
100
AcDbLine
 10
109.247899
 20
178.0
 30
0.0
 11
110.647899
 21
178.0
 31
0.0
  0
LINE
  5
1F8
330
1F
100
AcDbEntity
  8
0-1
  6
CONTINUOUS
 62
     3
100
AcDbLine
 10
109.047899
 20
177.8
 30
0.0
 11
109.047899
 21
176.202093
 31
0.0
  0
LINE
  5
1F9
330
1F
100
AcDbEntity
  8
0-1
  6
CENTER
 62
     6
100
AcDbLine
 10
104.502536
 20
183.5
 30
0.0
 11
114.77337
 21
183.5
 31
0.0
  0
LINE
  5
1FA
330
1F
100
AcDbEntity
  8
0-1
  6
CONTINUOUS
 62
     3
100
AcDbLine
 10
109.847899
 20
179.0
 30
0.0
 11
111.747899
 21
179.0
 31
0.0
  0
LINE
  5
1FB
330
1F
100
AcDbEntity
  8
0-1
  6
CONTINUOUS
 62
     3
100
AcDbLine
 10
112.247899
 20
178.5
 30
0.0
 11
112.247899
 21
176.202093
 31
0.0
  0
LINE
  5
1FC
330
1F
100
AcDbEntity
  8
0-1
  6
CONTINUOUS
 62
     3
100
AcDbLine
 10
108.347899
 20
177.5
 30
0.0
 11
108.347899
 21
176.7
 31
0.0
  0
LINE
  5
1FD
330
1F
100
AcDbEntity
  8
LAYERGROUP-1
  6
CONTINUOUS
 62
     6
100
AcDbLine
 10
112.247899
 20
178.5
 30
0.0
 11
112.247899
 21
188.5
 31
0.0
  0
LINE
  5
1FE
330
1F
100
AcDbEntity
  8
LAYERGROUP-1
  6
CONTINUOUS
 62
     6
100
AcDbLine
 10
108.347899
 20
189.5
 30
0.0
 11
108.347899
 21
177.5
 31
0.0
  0
LINE
  5
1FF
330
1F
100
AcDbEntity
  8
LAYERGROUP-1
  6
CONTINUOUS
 62
     3
100
AcDbLine
 10
91.547899
 20
171.09375
 30
0.0
 11
91.547899
 21
196.1
 31
0.0
  0
LINE
  5
200
330
1F
100
AcDbEntity
  8
LAYERGROUP-1
  6
CONTINUOUS
 62
     3
100
AcDbLine
 10
129.747899
 20
171.09375
 30
0.0
 11
129.747899
 21
196.1
 31
0.0
  0
ARC
  5
201
330
1F
100
AcDbEntity
  8
GR1-1
  6
CONTINUOUS
 62
     3
100
AcDbCircle
 10
110.647899
 20
171.0
 30
0.0
 40
40.0
100
AcDbArc
 50
75.753732
 51
104.246268
  0
ARC
  5
202
330
1F
100
AcDbEntity
  8
GR1-1
  6
CONTINUOUS
 62
     3
100
AcDbCircle
 10
119.261055
 20
204.923643
 30
0.0
 40
5.0
100
AcDbArc
 50
20.0
 51
75.753732
  0
LINE
  5
203
330
1F
100
AcDbEntity
  8
GR1-1
  6
CONTINUOUS
 62
     3
100
AcDbLine
 10
123.959518
 20
206.633744
 30
0.0
 11
127.168929
 21
197.81596
 31
0.0
  0
ARC
  5
204
330
1F
100
AcDbEntity
  8
GR1-1
  6
CONTINUOUS
 62
     3
100
AcDbCircle
 10
129.048314
 20
198.5
 30
0.0
 40
2.0
100
AcDbArc
 50
200.0
 51
270.0
  0
LINE
  5
205
330
1F
100
AcDbEntity
  8
GR1-1
  6
CONTINUOUS
 62
     3
100
AcDbLine
 10
94.126869
 20
197.81596
 30
0.0
 11
97.33628
 21
206.633744
 31
0.0
  0
ARC
  5
206
330
1F
100
AcDbEntity
  8
GR1-1
  6
CONTINUOUS
 62
     3
100
AcDbCircle
 10
102.034743
 20
204.923643
 30
0.0
 40
5.0
100
AcDbArc
 50
104.246268
 51
160.0
  0
ARC
  5
207
330
1F
100
AcDbEntity
  8
GR1-1
  6
CONTINUOUS
 62
     3
100
AcDbCircle
 10
92.247484
 20
198.5
 30
0.0
 40
2.0
100
AcDbArc
 50
270.0
 51
340.0
  0
ARC
  5
208
330
1F
100
AcDbEntity
  8
0-1
  6
CONTINUOUS
 62
     3
100
AcDbCircle
 10
89.092193
 20
128.958845
 30
0.0
 40
2.444293581215881
100
AcDbArc
 50
180.0
 51
257.417041
  0
ARC
  5
209
330
1F
100
AcDbEntity
  8
0-1
  6
CONTINUOUS
 62
     3
100
AcDbCircle
 10
89.147899
 20
129.20841
 30
0.0
 40
1.5
100
AcDbArc
 50
180.0
 51
257.417041
  0
LINE
  5
20A
330
1F
100
AcDbEntity
  8
0-1
  6
CONTINUOUS
 62
     3
100
AcDbLine
 10
86.647899
 20
128.958845
 30
0.0
 11
86.647899
 21
131.05
 31
0.0
  0
LINE
  5
20B
330
1F
100
AcDbEntity
  8
0-1
  6
CONTINUOUS
 62
     3
100
AcDbLine
 10
96.147899
 20
132.55
 30
0.0
 11
88.147899
 21
132.55
 31
0.0
  0
LINE
  5
20C
330
1F
100
AcDbEntity
  8
0-1
  6
CONTINUOUS
 62
     3
100
AcDbLine
 10
97.647899
 20
135.0
 30
0.0
 11
96.647899
 21
135.0
 31
0.0
  0
LINE
  5
20D
330
1F
100
AcDbEntity
  8
0-1
  6
CONTINUOUS
 62
     3
100
AcDbLine
 10
96.147899
 20
131.55
 30
0.0
 11
88.147899
 21
131.55
 31
0.0
  0
LINE
  5
20E
330
1F
100
AcDbEntity
  8
0-1
  6
CONTINUOUS
 62
     3
100
AcDbLine
 10
87.647899
 20
129.20841
 30
0.0
 11
87.647899
 21
131.05
 31
0.0
  0
LINE
  5
20F
330
1F
100
AcDbEntity
  8
0-1
  6
CONTINUOUS
 62
     3
100
AcDbLine
 10
96.647899
 20
133.05
 30
0.0
 11
96.647899
 21
135.0
 31
0.0
  0
LINE
  5
210
330
1F
100
AcDbEntity
  8
0-1
  6
CONTINUOUS
 62
     3
100
AcDbLine
 10
97.647899
 20
133.05
 30
0.0
 11
97.647899
 21
135.0
 31
0.0
  0
ARC
  5
211
330
1F
100
AcDbEntity
  8
0-1
  6
CONTINUOUS
 62
     3
100
AcDbCircle
 10
96.147899
 20
133.05
 30
0.0
 40
0.5
100
AcDbArc
 50
270.0
 51
360.0
  0
ARC
  5
212
330
1F
100
AcDbEntity
  8
0-1
  6
CONTINUOUS
 62
     3
100
AcDbCircle
 10
96.147899
 20
133.05
 30
0.0
 40
1.5
100
AcDbArc
 50
270.0
 51
360.0
  0
ARC
  5
213
330
1F
100
AcDbEntity
  8
0-1
  6
CONTINUOUS
 62
     3
100
AcDbCircle
 10
88.147899
 20
131.05
 30
0.0
 40
0.5
100
AcDbArc
 50
90.0
 51
180.0
  0
ARC
  5
214
330
1F
100
AcDbEntity
  8
0-1
  6
CONTINUOUS
 62
     3
100
AcDbCircle
 10
88.147899
 20
131.05
 30
0.0
 40
1.5
100
AcDbArc
 50
90.0
 51
180.0
  0
LINE
  5
215
330
1F
100
AcDbEntity
  8
001-1
  6
CONTINUOUS
 62
     3
100
AcDbLine
 10
83.647899
 20
155.6
 30
0.0
 11
83.647899
 21
158.0
 31
0.0
  0
LINE
  5
216
330
1F
100
AcDbEntity
  8
LAYERGROUP-1
  6
CONTINUOUS
 62
     3
100
AcDbLine
 10
83.647899
 20
155.6
 30
0.0
 11
83.647899
 21
141.4
 31
0.0
  0
LINE
  5
217
330
1F
100
AcDbEntity
  8
LAYERGROUP-1
  6
CONTINUOUS
 62
     3
100
AcDbLine
 10
86.647899
 20
158.5
 30
0.0
 11
86.647899
 21
164.45
 31
0.0
  0
LINE
  5
218
330
1F
100
AcDbEntity
  8
LAYERGROUP-1
  6
CONTINUOUS
 62
     3
100
AcDbLine
 10
96.647899
 20
161.0
 30
0.0
 11
96.647899
 21
163.45
 31
0.0
  0
LINE
  5
219
330
1F
100
AcDbEntity
  8
LAYERGROUP-1
  6
CONTINUOUS
 62
     3
100
AcDbLine
 10
83.647899
 20
155.6
 30
0.0
 11
85.647899
 21
155.6
 31
0.0
  0
LINE
  5
21A
330
1F
100
AcDbEntity
  8
LAYERGROUP-1
  6
CONTINUOUS
 62
     3
100
AcDbLine
 10
85.647899
 20
155.6
 30
0.0
 11
85.647899
 21
155.15
 31
0.0
  0
LINE
  5
21B
330
1F
100
AcDbEntity
  8
LAYERGROUP-1
  6
CONTINUOUS
 62
     3
100
AcDbLine
 10
83.647899
 20
158.0
 30
0.0
 11
86.147899
 21
158.0
 31
0.0
  0
LINE
  5
21C
330
1F
100
AcDbEntity
  8
LAYERGROUP-1
  6
CONTINUOUS
 62
     3
100
AcDbLine
 10
91.647899
 20
161.0
 30
0.0
 11
96.647899
 21
161.0
 31
0.0
  0
LINE
  5
21D
330
1F
100
AcDbEntity
  8
LAYERGROUP-1
  6
CONTINUOUS
 62
     3
100
AcDbLine
 10
98.147899
 20
155.6
 30
0.0
 11
96.647899
 21
155.6
 31
0.0
  0
LINE
  5
21E
330
1F
100
AcDbEntity
  8
LAYERGROUP-1
  6
CONTINUOUS
 62
     3
100
AcDbLine
 10
96.647899
 20
155.6
 30
0.0
 11
96.647899
 21
155.15
 31
0.0
  0
LINE
  5
21F
330
1F
100
AcDbEntity
  8
LAYERGROUP-1
  6
CONTINUOUS
 62
     3
100
AcDbLine
 10
90.647899
 20
159.0
 30
0.0
 11
90.647899
 21
160.0
 31
0.0
  0
ARC
  5
220
330
1F
100
AcDbEntity
  8
LAYERGROUP-1
  6
CONTINUOUS
 62
     3
100
AcDbCircle
 10
91.647899
 20
160.0
 30
0.0
 40
1.0
100
AcDbArc
 50
90.0
 51
180.0
  0
ARC
  5
221
330
1F
100
AcDbEntity
  8
LAYERGROUP-1
  6
CONTINUOUS
 62
     3
100
AcDbCircle
 10
91.647899
 20
159.0
 30
0.0
 40
1.0
100
AcDbArc
 50
180.0
 51
270.0
  0
LINE
  5
222
330
1F
100
AcDbEntity
  8
LAYERGROUP-1
  6
CONTINUOUS
 62
     3
100
AcDbLine
 10
97.847899
 20
158.0
 30
0.0
 11
91.647899
 21
158.0
 31
0.0
  0
LINE
  5
223
330
1F
100
AcDbEntity
  8
LAYERGROUP-1
  6
CONTINUOUS
 62
     6
100
AcDbLine
 10
96.647899
 20
158.0
 30
0.0
 11
96.647899
 21
161.0
 31
0.0
  0
ARC
  5
224
330
1F
100
AcDbEntity
  8
LAYERGROUP-1
  6
CONTINUOUS
 62
     3
100
AcDbCircle
 10
86.147899
 20
158.5
 30
0.0
 40
0.5
100
AcDbArc
 50
270.0
 51
360.0
  0
LINE
  5
225
330
1F
100
AcDbEntity
  8
LAYERGROUP-1
  6
CONTINUOUS
 62
     6
100
AcDbLine
 10
85.647899
 20
155.15
 30
0.0
 11
85.647899
 21
141.85
 31
0.0
  0
LINE
  5
226
330
1F
100
AcDbEntity
  8
LAYERGROUP-1
  6
CONTINUOUS
 62
     6
100
AcDbLine
 10
96.647899
 20
155.15
 30
0.0
 11
96.647899
 21
141.85
 31
0.0
  0
LINE
  5
227
330
1F
100
AcDbEntity
  8
001-1
  6
CONTINUOUS
 62
     3
100
AcDbLine
 10
83.647899
 20
141.4
 30
0.0
 11
83.647899
 21
139.0
 31
0.0
  0
LINE
  5
228
330
1F
100
AcDbEntity
  8
LAYERGROUP-1
  6
CONTINUOUS
 62
     3
100
AcDbLine
 10
86.647899
 20
138.5
 30
0.0
 11
86.647899
 21
132.55
 31
0.0
  0
LINE
  5
229
330
1F
100
AcDbEntity
  8
LAYERGROUP-1
  6
CONTINUOUS
 62
     3
100
AcDbLine
 10
96.647899
 20
133.55
 30
0.0
 11
96.647899
 21
139.0
 31
0.0
  0
LINE
  5
22A
330
1F
100
AcDbEntity
  8
LAYERGROUP-1
  6
CONTINUOUS
 62
     3
100
AcDbLine
 10
83.647899
 20
141.4
 30
0.0
 11
85.647899
 21
141.4
 31
0.0
  0
LINE
  5
22B
330
1F
100
AcDbEntity
  8
LAYERGROUP-1
  6
CONTINUOUS
 62
     3
100
AcDbLine
 10
85.647899
 20
141.4
 30
0.0
 11
85.647899
 21
141.85
 31
0.0
  0
LINE
  5
22C
330
1F
100
AcDbEntity
  8
LAYERGROUP-1
  6
CONTINUOUS
 62
     3
100
AcDbLine
 10
83.647899
 20
139.0
 30
0.0
 11
86.147899
 21
139.0
 31
0.0
  0
LINE
  5
22D
330
1F
100
AcDbEntity
  8
LAYERGROUP-1
  6
CONTINUOUS
 62
     3
100
AcDbLine
 10
98.147899
 20
141.4
 30
0.0
 11
96.647899
 21
141.4
 31
0.0
  0
LINE
  5
22E
330
1F
100
AcDbEntity
  8
LAYERGROUP-1
  6
CONTINUOUS
 62
     3
100
AcDbLine
 10
96.647899
 20
141.4
 30
0.0
 11
96.647899
 21
141.85
 31
0.0
  0
LINE
  5
22F
330
1F
100
AcDbEntity
  8
LAYERGROUP-1
  6
CONTINUOUS
 62
     3
100
AcDbLine
 10
97.847899
 20
139.0
 30
0.0
 11
96.647899
 21
139.0
 31
0.0
  0
ARC
  5
230
330
1F
100
AcDbEntity
  8
LAYERGROUP-1
  6
CONTINUOUS
 62
     3
100
AcDbCircle
 10
86.147899
 20
138.5
 30
0.0
 40
0.5
100
AcDbArc
 50
0.0
 51
90.0
  0
ARC
  5
231
330
1F
100
AcDbEntity
  8
0-1
  6
CONTINUOUS
 62
     3
100
AcDbCircle
 10
89.092193
 20
168.041155
 30
0.0
 40
2.444293581215881
100
AcDbArc
 50
102.582959
 51
180.0
  0
ARC
  5
232
330
1F
100
AcDbEntity
  8
0-1
  6
CONTINUOUS
 62
     3
100
AcDbCircle
 10
89.147899
 20
167.79159
 30
0.0
 40
1.5
100
AcDbArc
 50
102.582959
 51
180.0
  0
LINE
  5
233
330
1F
100
AcDbEntity
  8
0-1
  6
CONTINUOUS
 62
     3
100
AcDbLine
 10
86.647899
 20
168.041155
 30
0.0
 11
86.647899
 21
165.95
 31
0.0
  0
LINE
  5
234
330
1F
100
AcDbEntity
  8
0-1
  6
CONTINUOUS
 62
     3
100
AcDbLine
 10
96.147899
 20
164.45
 30
0.0
 11
88.147899
 21
164.45
 31
0.0
  0
LINE
  5
235
330
1F
100
AcDbEntity
  8
0-1
  6
CONTINUOUS
 62
     3
100
AcDbLine
 10
97.647899
 20
162.0
 30
0.0
 11
96.647899
 21
162.0
 31
0.0
  0
LINE
  5
236
330
1F
100
AcDbEntity
  8
0-1
  6
CONTINUOUS
 62
     3
100
AcDbLine
 10
96.147899
 20
165.45
 30
0.0
 11
88.147899
 21
165.45
 31
0.0
  0
LINE
  5
237
330
1F
100
AcDbEntity
  8
0-1
  6
CONTINUOUS
 62
     3
100
AcDbLine
 10
87.647899
 20
167.79159
 30
0.0
 11
87.647899
 21
165.95
 31
0.0
  0
LINE
  5
238
330
1F
100
AcDbEntity
  8
0-1
  6
CONTINUOUS
 62
     3
100
AcDbLine
 10
96.647899
 20
163.95
 30
0.0
 11
96.647899
 21
162.0
 31
0.0
  0
LINE
  5
239
330
1F
100
AcDbEntity
  8
0-1
  6
CONTINUOUS
 62
     3
100
AcDbLine
 10
97.647899
 20
163.95
 30
0.0
 11
97.647899
 21
162.0
 31
0.0
  0
ARC
  5
23A
330
1F
100
AcDbEntity
  8
0-1
  6
CONTINUOUS
 62
     3
100
AcDbCircle
 10
96.147899
 20
163.95
 30
0.0
 40
0.5
100
AcDbArc
 50
0.0
 51
90.0
  0
ARC
  5
23B
330
1F
100
AcDbEntity
  8
0-1
  6
CONTINUOUS
 62
     3
100
AcDbCircle
 10
96.147899
 20
163.95
 30
0.0
 40
1.5
100
AcDbArc
 50
0.0
 51
90.0
  0
ARC
  5
23C
330
1F
100
AcDbEntity
  8
0-1
  6
CONTINUOUS
 62
     3
100
AcDbCircle
 10
88.147899
 20
165.95
 30
0.0
 40
0.5
100
AcDbArc
 50
180.0
 51
270.0
  0
ARC
  5
23D
330
1F
100
AcDbEntity
  8
0-1
  6
CONTINUOUS
 62
     3
100
AcDbCircle
 10
88.147899
 20
165.95
 30
0.0
 40
1.5
100
AcDbArc
 50
180.0
 51
270.0
  0
LINE
  5
23E
330
1F
100
AcDbEntity
  8
LAYERGROUP-1
  6
CONTINUOUS
 62
     3
100
AcDbLine
 10
86.147899
 20
154.65
 30
0.0
 11
96.147899
 21
154.65
 31
0.0
  0
LINE
  5
23F
330
1F
100
AcDbEntity
  8
LAYERGROUP-1
  6
CONTINUOUS
 62
     3
100
AcDbLine
 10
86.147899
 20
142.35
 30
0.0
 11
96.147899
 21
142.35
 31
0.0
  0
LINE
  5
240
330
1F
100
AcDbEntity
  8
LAYERGROUP-1
  6
CONTINUOUS
 62
     3
100
AcDbLine
 10
125.147899
 20
142.35
 30
0.0
 11
135.147899
 21
142.35
 31
0.0
  0
LINE
  5
241
330
1F
100
AcDbEntity
  8
LAYERGROUP-1
  6
CONTINUOUS
 62
     3
100
AcDbLine
 10
125.147899
 20
154.65
 30
0.0
 11
135.147899
 21
154.65
 31
0.0
  0
ARC
  5
242
330
1F
100
AcDbEntity
  8
LAYERGROUP-1
  6
CONTINUOUS
 62
     3
100
AcDbCircle
 10
125.147899
 20
155.15
 30
0.0
 40
0.5
100
AcDbArc
 50
180.0
 51
270.0
  0
ARC
  5
243
330
1F
100
AcDbEntity
  8
LAYERGROUP-1
  6
CONTINUOUS
 62
     3
100
AcDbCircle
 10
135.147899
 20
155.15
 30
0.0
 40
0.5
100
AcDbArc
 50
270.0
 51
360.0
  0
ARC
  5
244
330
1F
100
AcDbEntity
  8
LAYERGROUP-1
  6
CONTINUOUS
 62
     3
100
AcDbCircle
 10
135.147899
 20
141.85
 30
0.0
 40
0.5
100
AcDbArc
 50
0.0
 51
90.0
  0
ARC
  5
245
330
1F
100
AcDbEntity
  8
LAYERGROUP-1
  6
CONTINUOUS
 62
     3
100
AcDbCircle
 10
125.147899
 20
141.85
 30
0.0
 40
0.5
100
AcDbArc
 50
90.0
 51
180.0
  0
ARC
  5
246
330
1F
100
AcDbEntity
  8
LAYERGROUP-1
  6
CONTINUOUS
 62
     3
100
AcDbCircle
 10
96.147899
 20
141.85
 30
0.0
 40
0.5
100
AcDbArc
 50
0.0
 51
90.0
  0
ARC
  5
247
330
1F
100
AcDbEntity
  8
LAYERGROUP-1
  6
CONTINUOUS
 62
     3
100
AcDbCircle
 10
86.147899
 20
141.85
 30
0.0
 40
0.5
100
AcDbArc
 50
90.0
 51
180.0
  0
ARC
  5
248
330
1F
100
AcDbEntity
  8
LAYERGROUP-1
  6
CONTINUOUS
 62
     3
100
AcDbCircle
 10
86.147899
 20
155.15
 30
0.0
 40
0.5
100
AcDbArc
 50
180.0
 51
270.0
  0
ARC
  5
249
330
1F
100
AcDbEntity
  8
LAYERGROUP-1
  6
CONTINUOUS
 62
     3
100
AcDbCircle
 10
96.147899
 20
155.15
 30
0.0
 40
0.5
100
AcDbArc
 50
270.0
 51
360.0
  0
LINE
  5
24A
330
1F
100
AcDbEntity
  8
LAYERGROUP-1
  6
CONTINUOUS
 62
     3
100
AcDbLine
 10
125.647899
 20
132.55
 30
0.0
 11
134.647899
 21
132.55
 31
0.0
  0
ARC
  5
24B
330
1F
100
AcDbEntity
  8
LAYERGROUP-1
  6
CONTINUOUS
 62
     3
100
AcDbCircle
 10
125.647899
 20
133.55
 30
0.0
 40
1.0
100
AcDbArc
 50
180.0
 51
270.0
  0
LINE
  5
24C
330
1F
100
AcDbEntity
  8
LAYERGROUP-1
  6
CONTINUOUS
 62
     3
100
AcDbLine
 10
134.647899
 20
164.45
 30
0.0
 11
125.647899
 21
164.45
 31
0.0
  0
ARC
  5
24D
330
1F
100
AcDbEntity
  8
LAYERGROUP-1
  6
CONTINUOUS
 62
     3
100
AcDbCircle
 10
125.647899
 20
163.45
 30
0.0
 40
1.0
100
AcDbArc
 50
90.0
 51
180.0
  0
LINE
  5
24E
330
1F
100
AcDbEntity
  8
LAYERGROUP-1
  6
CONTINUOUS
 62
     3
100
AcDbLine
 10
86.647899
 20
164.45
 30
0.0
 11
95.647899
 21
164.45
 31
0.0
  0
ARC
  5
24F
330
1F
100
AcDbEntity
  8
LAYERGROUP-1
  6
CONTINUOUS
 62
     3
100
AcDbCircle
 10
95.647899
 20
163.45
 30
0.0
 40
1.0
100
AcDbArc
 50
0.0
 51
90.0
  0
LINE
  5
250
330
1F
100
AcDbEntity
  8
LAYERGROUP-1
  6
CONTINUOUS
 62
     3
100
AcDbLine
 10
86.647899
 20
132.55
 30
0.0
 11
95.647899
 21
132.55
 31
0.0
  0
ARC
  5
251
330
1F
100
AcDbEntity
  8
LAYERGROUP-1
  6
CONTINUOUS
 62
     3
100
AcDbCircle
 10
95.647899
 20
133.55
 30
0.0
 40
1.0
100
AcDbArc
 50
270.0
 51
360.0
  0
LINE
  5
252
330
1F
100
AcDbEntity
  8
LAYERGROUP-1
  6
CONTINUOUS
 62
     3
100
AcDbLine
 10
98.347899
 20
157.5
 30
0.0
 11
98.347899
 21
157.35
 31
0.0
  0
LINE
  5
253
330
1F
100
AcDbEntity
  8
LAYERGROUP-1
  6
CONTINUOUS
 62
     3
100
AcDbLine
 10
122.947899
 20
157.5
 30
0.0
 11
122.947899
 21
157.35
 31
0.0
  0
LINE
  5
254
330
1F
100
AcDbEntity
  8
LAYERGROUP-1
  6
CONTINUOUS
 62
     3
100
AcDbLine
 10
98.347899
 20
157.35
 30
0.0
 11
122.947899
 21
157.35
 31
0.0
  0
LINE
  5
255
330
1F
100
AcDbEntity
  8
LAYERGROUP-1
  6
CONTINUOUS
 62
     3
100
AcDbLine
 10
98.347899
 20
139.65
 30
0.0
 11
122.947899
 21
139.65
 31
0.0
  0
LINE
  5
256
330
1F
100
AcDbEntity
  8
LAYERGROUP-1
  6
CONTINUOUS
 62
     3
100
AcDbLine
 10
98.347899
 20
155.85
 30
0.0
 11
122.947899
 21
155.85
 31
0.0
  0
LINE
  5
257
330
1F
100
AcDbEntity
  8
LAYERGROUP-1
  6
CONTINUOUS
 62
     3
100
AcDbLine
 10
98.347899
 20
141.15
 30
0.0
 11
122.947899
 21
141.15
 31
0.0
  0
LINE
  5
258
330
1F
100
AcDbEntity
  8
LAYERGROUP-1
  6
CONTINUOUS
 62
     3
100
AcDbLine
 10
98.347899
 20
141.2
 30
0.0
 11
98.347899
 21
141.15
 31
0.0
  0
LINE
  5
259
330
1F
100
AcDbEntity
  8
LAYERGROUP-1
  6
CONTINUOUS
 62
     3
100
AcDbLine
 10
122.947899
 20
141.2
 30
0.0
 11
122.947899
 21
141.15
 31
0.0
  0
LINE
  5
25A
330
1F
100
AcDbEntity
  8
LAYERGROUP-1
  6
CENTER
 62
     6
100
AcDbLine
 10
98.347899
 20
139.65
 30
0.0
 11
98.347899
 21
139.5
 31
0.0
  0
LINE
  5
25B
330
1F
100
AcDbEntity
  8
LAYERGROUP-1
  6
CONTINUOUS
 62
     3
100
AcDbLine
 10
122.947899
 20
139.65
 30
0.0
 11
122.947899
 21
139.5
 31
0.0
  0
LINE
  5
25C
330
1F
100
AcDbEntity
  8
LAYERGROUP-1
  6
CONTINUOUS
 62
     3
100
AcDbLine
 10
98.347899
 20
155.85
 30
0.0
 11
98.347899
 21
155.8
 31
0.0
  0
LINE
  5
25D
330
1F
100
AcDbEntity
  8
LAYERGROUP-1
  6
CONTINUOUS
 62
     3
100
AcDbLine
 10
122.947899
 20
155.85
 30
0.0
 11
122.947899
 21
155.8
 31
0.0
  0
ARC
  5
25E
330
1F
100
AcDbEntity
  8
LAYERGROUP-1
  6
CONTINUOUS
 62
     3
100
AcDbCircle
 10
98.147899
 20
141.2
 30
0.0
 40
0.2
100
AcDbArc
 50
0.0
 51
90.0
  0
ARC
  5
25F
330
1F
100
AcDbEntity
  8
LAYERGROUP-1
  6
CONTINUOUS
 62
     3
100
AcDbCircle
 10
98.147899
 20
155.8
 30
0.0
 40
0.2
100
AcDbArc
 50
270.0
 51
360.0
  0
ARC
  5
260
330
1F
100
AcDbEntity
  8
LAYERGROUP-1
  6
CONTINUOUS
 62
     3
100
AcDbCircle
 10
123.147899
 20
155.8
 30
0.0
 40
0.2
100
AcDbArc
 50
180.0
 51
270.0
  0
ARC
  5
261
330
1F
100
AcDbEntity
  8
LAYERGROUP-1
  6
CONTINUOUS
 62
     3
100
AcDbCircle
 10
123.147899
 20
141.2
 30
0.0
 40
0.2
100
AcDbArc
 50
90.0
 51
180.0
  0
ARC
  5
262
330
1F
100
AcDbEntity
  8
LAYERGROUP-1
  6
CONTINUOUS
 62
     3
100
AcDbCircle
 10
97.847899
 20
139.5
 30
0.0
 40
0.5
100
AcDbArc
 50
270.0
 51
360.0
  0
ARC
  5
263
330
1F
100
AcDbEntity
  8
LAYERGROUP-1
  6
CONTINUOUS
 62
     3
100
AcDbCircle
 10
97.847899
 20
157.5
 30
0.0
 40
0.5
100
AcDbArc
 50
0.0
 51
90.0
  0
ARC
  5
264
330
1F
100
AcDbEntity
  8
LAYERGROUP-1
  6
CONTINUOUS
 62
     3
100
AcDbCircle
 10
123.447899
 20
157.5
 30
0.0
 40
0.5
100
AcDbArc
 50
90.0
 51
180.0
  0
ARC
  5
265
330
1F
100
AcDbEntity
  8
LAYERGROUP-1
  6
CONTINUOUS
 62
     3
100
AcDbCircle
 10
123.447899
 20
139.5
 30
0.0
 40
0.5
100
AcDbArc
 50
180.0
 51
270.0
  0
LINE
  5
266
330
1F
100
AcDbEntity
  8
LAYERGROUP-1
  6
CONTINUOUS
 62
     3
100
AcDbLine
 10
110.647899
 20
139.65
 30
0.0
 11
110.647899
 21
141.15
 31
0.0
  0
LINE
  5
267
330
1F
100
AcDbEntity
  8
LAYERGROUP-1
  6
CONTINUOUS
 62
     3
100
AcDbLine
 10
110.647899
 20
155.85
 30
0.0
 11
110.647899
 21
157.35
 31
0.0
  0
CIRCLE
  5
268
330
1F
100
AcDbEntity
  8
LAYERGROUP-1
  6
CONTINUOUS
 62
     3
100
AcDbCircle
 10
294.0
 20
148.5
 30
0.0
 40
15.95
  0
CIRCLE
  5
269
330
1F
100
AcDbEntity
  8
LAYERGROUP-1
  6
CONTINUOUS
 62
     3
100
AcDbCircle
 10
294.0
 20
148.5
 30
0.0
 40
6.15
  0
CIRCLE
  5
26A
330
1F
100
AcDbEntity
  8
LAYERGROUP-1
  6
CONTINUOUS
 62
     6
100
AcDbCircle
 10
294.0
 20
148.5
 30
0.0
 40
21.92674035982475
  0
CIRCLE
  5
26B
330
1F
100
AcDbEntity
  8
LAYERGROUP-1
  6
CONTINUOUS
 62
     6
100
AcDbCircle
 10
294.0
 20
148.5
 30
0.0
 40
26.23812045679465
  0
HATCH
  5
26C
330
1F
100
AcDbEntity
  8
LAYERGROUP-1
  6
CONTINUOUS
 62
     6
100
AcDbHatch
 10
0.0
 20
0.0
 30
0.0
210
0.0
220
0.0
230
1.0
  2

 70
     0
 71
     1
 91
        4
 92
        0
 93
       25
 72
     1
 10
126.6478989952467
 20
194.6
 11
114.2478989952467
 21
194.6
 72
     2
 10
114.2478989952467
 20
191.0
 40
3.600000000000001
 50
90.0
 51
180.0
 73
     1
 72
     2
 10
107.0478989952467
 20
191.0
 40
3.600000000000001
 50
0.0
 51
90.0
 73
     1
 72
     1
 10
107.0478989952467
 20
194.6
 11
94.64789899524668
 21
194.6
 72
     2
 10
94.64789899524668
 20
196.1
 40
1.5
 50
180.0
 51
270.0
 73
     0
 72
     1
 10
93.14789899524668
 20
196.1
 11
93.14789899524668
 21
196.5
 72
     1
 10
93.14789899524668
 20
196.5
 11
91.54789899524666
 21
196.5
 72
     1
 10
91.54789899524666
 20
196.5
 11
91.54789899524666
 21
196.1
 72
     2
 10
94.64789899524668
 20
196.1
 40
3.100000000000001
 50
180.0
 51
270.0
 73
     1
 72
     1
 10
94.64789899524668
 20
193.0
 11
107.0478989952467
 21
193.0
 72
     2
 10
107.0478989952467
 20
191.0
 40
2.0
 50
0.0
 51
90.0
 73
     0
 72
     1
 10
109.0478989952467
 20
191.0
 11
109.0478989952467
 21
190.5
 72
     1
 10
109.0478989952467
 20
190.5
 11
108.3478989952467
 21
190.5
 72
     1
 10
108.3478989952467
 20
190.5
 11
108.3478989952467
 21
189.5
 72
     2
 10
109.8478989952467
 20
189.5
 40
1.5
 50
180.0
 51
270.0
 73
     1
 72
     1
 10
109.8478989952467
 20
188.0
 11
111.7478989952467
 21
188.0
 72
     2
 10
111.7478989952467
 20
188.5
 40
0.5
 50
270.0
 51
360.0
 73
     1
 72
     1
 10
112.2478989952467
 20
188.5
 11
112.2478989952467
 21
191.0
 72
     2
 10
114.2478989952467
 20
191.0
 40
2.0
 50
90.0
 51
180.0
 73
     0
 72
     1
 10
114.2478989952467
 20
193.0
 11
126.6478989952467
 21
193.0
 72
     2
 10
126.6478989952467
 20
196.1
 40
3.100000000000001
 50
270.0
 51
360.0
 73
     1
 72
     1
 10
129.7478989952467
 20
196.1
 11
129.7478989952467
 21
196.5
 72
     1
 10
129.7478989952467
 20
196.5
 11
128.1478989952467
 21
196.5
 72
     1
 10
128.1478989952467
 20
196.5
 11
128.1478989952467
 21
196.1
 72
     2
 10
126.6478989952467
 20
196.1
 40
1.5
 50
270.0
 51
360.0
 73
     0
 97
        0
 92
        0
 93
       45
 72
     2
 10
113.7478989952467
 20
176.2020928140038
 40
1.5
 50
180.0
 51
257.4170336877295
 73
     1
 72
     1
 10
113.4211193488068
 20
174.7381204567946
 11
132.736102183232
 21
170.4267403598247
 72
     2
 10
132.2036054140308
 20
168.0411548338032
 40
2.444293581215881
 50
0.0
 51
77.41703750592323
 73
     0
 72
     1
 10
134.6478989952467
 20
168.0411548338032
 11
134.6478989952467
 21
165.9500000000001
 72
     2
 10
133.1478989952467
 20
165.9500000000001
 40
1.5
 50
270.0
 51
360.0
 73
     0
 72
     1
 10
133.1478989952467
 20
164.4500000000001
 11
125.6478989952467
 21
164.4500000000001
 72
     1
 10
125.6478989952467
 20
164.4500000000001
 11
125.1478989952467
 21
164.4500000000001
 72
     2
 10
125.1478989952467
 20
163.9500000000001
 40
0.5
 50
90.0
 51
180.0
 73
     1
 72
     1
 10
124.6478989952467
 20
163.9500000000001
 11
124.6478989952467
 21
162.0
 72
     1
 10
124.6478989952467
 20
162.0
 11
123.6478989952467
 21
162.0
 72
     1
 10
123.6478989952467
 20
162.0
 11
123.6478989952467
 21
163.9500000000001
 72
     2
 10
125.1478989952467
 20
163.9500000000001
 40
1.5
 50
90.0
 51
180.0
 73
     0
 72
     1
 10
125.1478989952467
 20
165.4500000000001
 11
133.1478989952467
 21
165.4500000000001
 72
     2
 10
133.1478989952467
 20
165.9500000000001
 40
0.5
 50
270.0
 51
360.0
 73
     1
 72
     1
 10
133.6478989952467
 20
165.9500000000001
 11
133.6478989952467
 21
167.7915900776503
 72
     2
 10
132.1478989952467
 20
167.7915900776503
 40
1.5
 50
0.0
 51
77.41703750592269
 73
     1
 72
     1
 10
132.4746785441274
 20
169.255562456636
 11
113.1596958128762
 21
173.5669425305761
 72
     2
 10
113.8593117457468
 20
176.7012222565336
 40
3.21141275050012
 50
180.0
 51
257.4170388534587
 73
     0
 72
     2
 10
107.4364862447466
 20
176.7012222565336
 40
3.21141275050012
 50
282.5829638416136
 51
360.0
 73
     0
 72
     1
 10
108.1361023250471
 20
173.5669425634845
 11
103.9338779465337
 21
172.6289460504235
 72
     1
 10
103.9338779465337
 20
172.6289460504235
 11
88.82111944636593
 21
169.255562456636
 72
     2
 10
89.14789899524666
 20
167.7915900776503
 40
1.5
 50
102.5829624940768
 51
180.0
 73
     1
 72
     1
 10
87.64789899524666
 20
167.7915900776503
 11
87.64789899524666
 21
165.9500000000001
 72
     2
 10
88.14789899524666
 20
165.9500000000001
 40
0.5
 50
180.0
 51
270.0
 73
     1
 72
     1
 10
88.14789899524666
 20
165.4500000000001
 11
96.14789899524666
 21
165.4500000000001
 72
     2
 10
96.14789899524666
 20
163.9500000000001
 40
1.5
 50
0.0
 51
90.0
 73
     0
 72
     1
 10
97.64789899524666
 20
163.9500000000001
 11
97.64789899524666
 21
162.0
 72
     1
 10
97.64789899524666
 20
162.0
 11
96.64789899524666
 21
162.0
 72
     1
 10
96.64789899524666
 20
162.0
 11
96.64789899524666
 21
163.9500000000001
 72
     2
 10
96.14789899524666
 20
163.9500000000001
 40
0.5
 50
0.0
 51
90.0
 73
     1
 72
     1
 10
96.14789899524666
 20
164.4500000000001
 11
88.14789899524666
 21
164.4500000000001
 72
     2
 10
88.14789899524666
 20
165.9500000000001
 40
1.5
 50
180.0
 51
270.0
 73
     0
 72
     1
 10
86.64789899524666
 20
165.9500000000001
 11
86.64789899524666
 21
168.0411548338032
 72
     2
 10
89.09219257646257
 20
168.0411548338032
 40
2.444293581215881
 50
102.5829624940768
 51
180.0
 73
     0
 72
     1
 10
88.55969580726134
 20
170.4267403598247
 11
107.8746786416866
 21
174.7381204567946
 72
     2
 10
107.5478989952467
 20
176.2020928140038
 40
1.5
 50
282.5829663122705
 51
360.0
 73
     1
 72
     1
 10
109.0478989952467
 20
176.2020928140038
 11
109.0478989952467
 21
176.7000000000001
 72
     2
 10
108.8478989952467
 20
176.7000000000001
 40
0.2000000000000028
 50
270.0
 51
360.0
 73
     0
 72
     1
 10
108.8478989952467
 20
176.5
 11
108.5478989952467
 21
176.5
 72
     2
 10
108.5478989952467
 20
176.7000000000001
 40
0.2000000000000028
 50
180.0000048672888
 51
270.0
 73
     0
 72
     1
 10
108.3478989952467
 20
176.69999998301
 11
108.3478989952467
 21
177.5
 72
     2
 10
109.8478989952467
 20
177.5
 40
1.5
 50
90.0
 51
179.9999999999989
 73
     0
 72
     1
 10
109.8478989952467
 20
179.0
 11
111.7478989952467
 21
179.0
 72
     2
 10
111.7478989952467
 20
178.5
 40
0.5
 50
0.0
 51
90.0
 73
     0
 72
     1
 10
112.2478989952467
 20
178.5
 11
112.2478989952467
 21
176.2020928140038
 97
        0
 92
        0
 93
       45
 72
     1
 10
113.1596956654463
 20
123.4330574365155
 11
132.4746785441274
 21
127.744437543364
 72
     2
 10
132.1478989952467
 20
129.2084099223497
 40
1.5
 50
282.5829624940773
 51
360.0
 73
     1
 72
     1
 10
133.6478989952467
 20
129.2084099223497
 11
133.6478989952467
 21
131.05
 72
     2
 10
133.1478989952467
 20
131.05
 40
0.5
 50
0.0
 51
90.0
 73
     1
 72
     1
 10
133.1478989952467
 20
131.55
 11
125.1478989952467
 21
131.55
 72
     2
 10
125.1478989952467
 20
133.05
 40
1.5
 50
180.0
 51
270.0
 73
     0
 72
     1
 10
123.6478989952467
 20
133.05
 11
123.6478989952467
 21
135.0
 72
     1
 10
123.6478989952467
 20
135.0
 11
124.6478989952467
 21
135.0
 72
     1
 10
124.6478989952467
 20
135.0
 11
124.6478989952467
 21
133.05
 72
     2
 10
125.1478989952467
 20
133.05
 40
0.5
 50
180.0
 51
270.0
 73
     1
 72
     1
 10
125.1478989952467
 20
132.55
 11
133.1478989952467
 21
132.55
 72
     2
 10
133.1478989952467
 20
131.05
 40
1.5
 50
0.0
 51
90.0
 73
     0
 72
     1
 10
134.6478989952467
 20
131.05
 11
134.6478989952467
 21
128.9588451661969
 72
     2
 10
132.2036054140308
 20
128.9588451661969
 40
2.444293581215881
 50
282.5829624940766
 51
360.0
 73
     0
 72
     1
 10
132.736102183232
 20
126.5732596401753
 11
113.4211193488068
 21
122.2618795432054
 72
     2
 10
113.7478989952467
 20
120.7979071859962
 40
1.5
 50
102.5829663122716
 51
180.0
 73
     1
 72
     1
 10
112.2478989952467
 20
120.7979071859962
 11
112.2478989952467
 21
118.5
 72
     2
 10
111.7478989952467
 20
118.5
 40
0.5
 50
270.0
 51
360.0
 73
     0
 72
     1
 10
111.7478989952467
 20
118.0
 11
109.8478989952467
 21
118.0
 72
     2
 10
109.8478989952467
 20
119.5
 40
1.5
 50
180.0
 51
270.0
 73
     0
 72
     1
 10
108.3478989952467
 20
119.5
 11
108.3478989952467
 21
120.30000001699
 72
     2
 10
108.5478989952467
 20
120.2999999999999
 40
0.2000000000000028
 50
90.0
 51
179.9999951327112
 73
     0
 72
     1
 10
108.5478989952467
 20
120.5
 11
108.8478989952467
 21
120.4999999999999
 72
     2
 10
108.8478989952467
 20
120.2999999999999
 40
0.2000000000000028
 50
0.0
 51
90.0
 73
     0
 72
     1
 10
109.0478989952467
 20
120.2999999999999
 11
109.0478989952467
 21
120.7979071859962
 72
     2
 10
107.5478989952467
 20
120.7979071859962
 40
1.5
 50
0.0
 51
77.41703368772953
 73
     1
 72
     1
 10
107.8746786416866
 20
122.2618795432054
 11
102.5998510569955
 21
123.4392964147882
 72
     1
 10
102.5998510569955
 20
123.4392964147882
 11
88.55969580726132
 21
126.5732596401753
 72
     2
 10
89.09219257646257
 20
128.9588451661969
 40
2.444293581215881
 50
180.0
 51
257.4170375059231
 73
     0
 72
     1
 10
86.64789899524666
 20
128.9588451661969
 11
86.64789899524666
 21
131.05
 72
     2
 10
88.14789899524666
 20
131.05
 40
1.5
 50
90.0
 51
180.0
 73
     0
 72
     1
 10
88.14789899524666
 20
132.55
 11
95.64789899524665
 21
132.55
 72
     1
 10
95.64789899524665
 20
132.55
 11
96.14789899524666
 21
132.55
 72
     2
 10
96.14789899524666
 20
133.05
 40
0.5
 50
270.0
 51
360.0
 73
     1
 72
     1
 10
96.64789899524666
 20
133.05
 11
96.64789899524666
 21
135.0
 72
     1
 10
96.64789899524666
 20
135.0
 11
97.64789899524666
 21
135.0
 72
     1
 10
97.64789899524666
 20
135.0
 11
97.64789899524666
 21
133.05
 72
     2
 10
96.14789899524666
 20
133.05
 40
1.5
 50
270.0
 51
360.0
 73
     0
 72
     1
 10
96.14789899524666
 20
131.55
 11
88.14789899524666
 21
131.55
 72
     2
 10
88.14789899524666
 20
131.05
 40
0.5
 50
90.0
 51
180.0
 73
     1
 72
     1
 10
87.64789899524666
 20
131.05
 11
87.64789899524666
 21
129.2084099223497
 72
     2
 10
89.14789899524666
 20
129.2084099223497
 40
1.5
 50
180.0
 51
257.4170375059233
 73
     1
 72
     1
 10
88.82111944636593
 20
127.744437543364
 11
108.1361021776172
 21
123.4330574694239
 72
     2
 10
107.4364862447466
 20
120.2987777434664
 40
3.21141275050012
 50
0.0
 51
77.41703885345871
 73
     0
 72
     2
 10
113.8593117457468
 20
120.2987777434664
 40
3.21141275050012
 50
102.5829638416136
 51
180.0
 73
     0
 97
        0
 92
        0
 93
       27
 72
     1
 10
114.2478989952467
 20
104.0
 11
126.6478989952467
 21
104.0
 72
     2
 10
126.6478989952467
 20
100.9
 40
3.100000000000001
 50
0.0
 51
90.0
 73
     0
 72
     1
 10
129.7478989952467
 20
100.9
 11
129.7478989952467
 21
100.5
 72
     1
 10
129.7478989952467
 20
100.5
 11
128.1478989952467
 21
100.5
 72
     1
 10
128.1478989952467
 20
100.5
 11
128.1478989952467
 21
100.9
 72
     2
 10
126.6478989952467
 20
100.9
 40
1.5
 50
0.0
 51
90.0
 73
     1
 72
     1
 10
126.6478989952467
 20
102.4
 11
114.2478989952467
 21
102.4
 72
     2
 10
114.2478989952467
 20
106.0
 40
3.600000000000001
 50
180.0
 51
270.0
 73
     0
 72
     2
 10
107.0478989952467
 20
106.0
 40
3.600000000000001
 50
270.0
 51
360.0
 73
     0
 72
     1
 10
107.0478989952467
 20
102.4
 11
94.64789899524668
 21
102.4
 72
     2
 10
94.64789899524668
 20
100.9
 40
1.5
 50
90.0
 51
180.0
 73
     1
 72
     1
 10
93.14789899524668
 20
100.9
 11
93.14789899524668
 21
100.5
 72
     1
 10
93.14789899524668
 20
100.5
 11
91.54789899524666
 21
100.5
 72
     1
 10
91.54789899524666
 20
100.5
 11
91.54789899524666
 21
100.9
 72
     2
 10
94.64789899524668
 20
100.9
 40
3.100000000000001
 50
90.0
 51
180.0
 73
     0
 72
     1
 10
94.64789899524668
 20
104.0
 11
107.0478989952467
 21
104.0
 72
     2
 10
107.0478989952467
 20
106.0
 40
2.0
 50
270.0
 51
360.0
 73
     1
 72
     1
 10
109.0478989952467
 20
106.0
 11
109.0478989952467
 21
106.7
 72
     2
 10
108.8478989952467
 20
106.7
 40
0.2000000000000028
 50
270.0
 51
360.0
 73
     0
 72
     1
 10
108.8478989952467
 20
106.5
 11
108.5478989952467
 21
106.5
 72
     2
 10
108.5478989952467
 20
106.7
 40
0.2000000000000028
 50
180.0000048672888
 51
270.0
 73
     0
 72
     1
 10
108.3478989952467
 20
106.69999998301
 11
108.3478989952467
 21
107.5
 72
     2
 10
109.8478989952467
 20
107.5
 40
1.5
 50
90.0
 51
179.9999999999989
 73
     0
 72
     1
 10
109.8478989952467
 20
109.0
 11
111.7478989952467
 21
109.0
 72
     2
 10
111.7478989952467
 20
108.5
 40
0.5
 50
0.0
 51
90.0
 73
     0
 72
     1
 10
112.2478989952467
 20
108.5
 11
112.2478989952467
 21
106.0
 72
     2
 10
114.2478989952467
 20
106.0
 40
2.0
 50
180.0
 51
270.0
 73
     1
 97
        0
 75
     0
 76
     0
 52
45.0
 41
2.0
 77
     0
 78
     1
 53
45.0
 43
0.0
 44
0.0
 45
-1.414213562373095
 46
1.414213562373095
 79
     0
 98
        0
  0
DIMENSION
  5
26D
330
1F
100
AcDbEntity
  8
LAYERGROUP-1
100
AcDbDimension
  2
*D22
 10
148.977083
 20
154.65
 30
0.0
 11
155.656219
 21
148.303558
 31
0.0
 70
    33
  3
FXDIMINFO
100
AcDbAlignedDimension
 13
135.147899
 23
142.35
 33
0.0
 14
135.147899
 24
154.65
 34
0.0
1001
ACAD
1000
DSTYLE
1002
{
1070
     7
1000
FXTIP_ARROW_E
1070
     6
1000
FXTIP_ARROW_S
1070
   173
1070
     1
1002
}
  0
DIMENSION
  5
277
330
1F
100
AcDbEntity
  8
LAYERGROUP-1
100
AcDbDimension
  2
*D23
 10
174.514969
 20
211.0
 30
0.0
 11
173.514969
 21
148.5
 31
0.0
 70
    33
  3
FXDIMINFO
100
AcDbAlignedDimension
 13
110.647899
 23
86.0
 33
0.0
 14
110.647899
 24
211.0
 34
0.0
1001
ACAD
1000
DSTYLE
1002
{
1070
     7
1000
FXTIP_ARROW_E
1070
     6
1000
FXTIP_ARROW_S
1070
   173
1070
     1
1002
}
  0
CIRCLE
  5
281
330
1F
100
AcDbEntity
  8
LAYERGROUP-1
  6
CONTINUOUS
 62
     6
100
AcDbCircle
 10
294.0
 20
148.5
 30
0.0
 40
16.64692259275699
  0
LINE
  5
282
330
1F
100
AcDbEntity
  8
GR1-1
  6
CENTER
 62
     6
100
AcDbLine
 10
263.279832
 20
179.220168
 30
0.0
 11
275.682996
 21
166.817004
 31
0.0
  0
CIRCLE
  5
283
330
1F
100
AcDbEntity
  8
LAYERGROUP-1
  6
CENTER
 62
     6
100
AcDbCircle
 10
294.0
 20
148.5
 30
0.0
 40
35.0
  0
LINE
  5
284
330
1F
100
AcDbEntity
  8
GR1-1
  6
CENTER
 62
     6
100
AcDbLine
 10
324.720168
 20
179.220168
 30
0.0
 11
312.317004
 21
166.817004
 31
0.0
  0
LINE
  5
285
330
1F
100
AcDbEntity
  8
GR1-1
  6
CENTER
 62
     6
100
AcDbLine
 10
263.279832
 20
117.779832
 30
0.0
 11
275.682996
 21
130.182996
 31
0.0
  0
LINE
  5
286
330
1F
100
AcDbEntity
  8
GR1-1
  6
CENTER
 62
     6
100
AcDbLine
 10
324.720168
 20
117.779832
 30
0.0
 11
312.317004
 21
130.182996
 31
0.0
  0
INSERT
  5
28A
330
1F
100
AcDbEntity
  8
0
100
AcDbBlockReference
  2
BLKF026
 10
0.0
 20
0.0
 30
0.0
  0
ENDSEC
  0
SECTION
  2
OBJECTS
  0
DICTIONARY
  5
C
330
0
100
AcDbDictionary
  3
ACAD_GROUP
350
D
  3
ACAD_LAYOUT
350
1A
  3
ACAD_MLINESTYLE
350
17
  3
ACAD_PLOTSETTINGS
350
19
  3
ACDBHEADERROUNDTRIPXREC
350
2B4
  0
DICTIONARY
  5
D
102
{ACAD_REACTORS
330
C
102
}
330
C
100
AcDbDictionary
  0
DICTIONARY
  5
1A
102
{ACAD_REACTORS
330
C
102
}
330
C
100
AcDbDictionary
  0
DICTIONARY
  5
17
102
{ACAD_REACTORS
330
C
102
}
330
C
100
AcDbDictionary
  3
STANDARD
350
18
  0
DICTIONARY
  5
19
102
{ACAD_REACTORS
330
C
102
}
330
C
100
AcDbDictionary
  0
DICTIONARY
  5
2B4
102
{ACAD_REACTORS
330
C
102
}
330
C
100
AcDbDictionary
  3
CEPSNTYPE
350
2BD
  3
DIMSTYLEDATA
350
2D3
  3
FINGERPRINTGUID
350
2BE
  3
HYPERLINKBASE
350
2B7
  3
INSUNITS
350
2BC
  3
LAYOUTDICT
350
2B9
  3
LWETCUNION
350
2BB
  3
PLOTSETDICT
350
2BA
  3
PSVPSCALE
350
2C0
  3
PUCSBASE
350
2C3
  3
PUCSORGBACK
350
2C9
  3
PUCSORGBOTTOM
350
2C5
  3
PUCSORGFRONT
350
2C8
  3
PUCSORGLEFT
350
2C6
  3
PUCSORGRIGHT
350
2C7
  3
PUCSORGTOP
350
2C4
  3
PUCSORTHOREF
350
2C1
  3
PUCSORTHOVIEW
350
2C2
  3
STYLESHEET
350
2B8
  3
TSTACKALIGN
350
2B5
  3
TSTACKSIZE
350
2B6
  3
UCSBASE
350
2CC
  3
UCSORGBACK
350
2D2
  3
UCSORGBOTTOM
350
2CE
  3
UCSORGFRONT
350
2D1
  3
UCSORGLEFT
350
2CF
  3
UCSORGRIGHT
350
2D0
  3
UCSORGTOP
350
2CD
  3
UCSORTHOREF
350
2CA
  3
UCSORTHOVIEW
350
2CB
  3
VERSIONGUID
350
2BF
  0
MLINESTYLE
  5
18
102
{ACAD_REACTORS
330
17
102
}
330
17
100
AcDbMlineStyle
  2
Standard
 70
     0
  3

 62
   256
 51
90.0
 52
90.0
 71
     2
 49
0.5
 62
   256
  6
BYLAYER
 49
-0.5
 62
   256
  6
BYLAYER
  0
XRECORD
  5
2BD
102
{ACAD_REACTORS
330
2B4
102
}
330
2B4
100
AcDbXrecord
 90
        0
  0
XRECORD
  5
2D3
102
{ACAD_REACTORS
330
2B4
102
}
330
2B4
100
AcDbXrecord
1000
DSTYLE
1002
{
1070
   179
 70
     2
1070
   171
 70
     3
1070
   143
 40
0.03937
1070
   274
 70
     3
1070
    41
 40
4.0
1070
   343
340
41
1070
   344
340
47
1070
   141
 40
2.5
1070
   176
 70
     7
1070
   177
 70
     7
1070
   178
 70
     7
1070
   271
 70
     2
1070
    46
 40
6.0
1070
    43
 40
10.0
1070
    44
 40
1.0
1070
    42
 40
1.0
1070
   147
 40
1.0
1070
   341
340
41
1070
   173
 70
     1
1070
    77
 70
     1
1070
   272
 70
     2
1070
    73
 70
     0
1070
   172
 70
     1
1070
    74
 70
     0
1070
   283
 70
     0
1070
   340
340
3F
1070
   140
 40
4.0
1070
   284
 70
     8
1070
    78
 70
     8
1002
}
  0
XRECORD
  5
2BE
102
{ACAD_REACTORS
330
2B4
102
}
330
2B4
100
AcDbXrecord
  1
{6D494285-650E-42BB-8455-60CEFB13AAEA}
  0
XRECORD
  5
2B7
102
{ACAD_REACTORS
330
2B4
102
}
330
2B4
100
AcDbXrecord
  1

  0
XRECORD
  5
2BC
102
{ACAD_REACTORS
330
2B4
102
}
330
2B4
100
AcDbXrecord
 90
        1
  0
XRECORD
  5
2B9
102
{ACAD_REACTORS
330
2B4
102
}
330
2B4
100
AcDbXrecord
340
1A
  0
XRECORD
  5
2BB
102
{ACAD_REACTORS
330
2B4
102
}
330
2B4
100
AcDbXrecord
 90
    10781
  0
XRECORD
  5
2BA
102
{ACAD_REACTORS
330
2B4
102
}
330
2B4
100
AcDbXrecord
340
19
  0
XRECORD
  5
2C0
102
{ACAD_REACTORS
330
2B4
102
}
330
2B4
100
AcDbXrecord
 40
0.0
  0
XRECORD
  5
2C3
102
{ACAD_REACTORS
330
2B4
102
}
330
2B4
100
AcDbXrecord
340
0
  0
XRECORD
  5
2C9
102
{ACAD_REACTORS
330
2B4
102
}
330
2B4
100
AcDbXrecord
 10
0.0
 20
0.0
 30
0.0
  0
XRECORD
  5
2C5
102
{ACAD_REACTORS
330
2B4
102
}
330
2B4
100
AcDbXrecord
 10
0.0
 20
0.0
 30
0.0
  0
XRECORD
  5
2C8
102
{ACAD_REACTORS
330
2B4
102
}
330
2B4
100
AcDbXrecord
 10
0.0
 20
0.0
 30
0.0
  0
XRECORD
  5
2C6
102
{ACAD_REACTORS
330
2B4
102
}
330
2B4
100
AcDbXrecord
 10
0.0
 20
0.0
 30
0.0
  0
XRECORD
  5
2C7
102
{ACAD_REACTORS
330
2B4
102
}
330
2B4
100
AcDbXrecord
 10
0.0
 20
0.0
 30
0.0
  0
XRECORD
  5
2C4
102
{ACAD_REACTORS
330
2B4
102
}
330
2B4
100
AcDbXrecord
 10
0.0
 20
0.0
 30
0.0
  0
XRECORD
  5
2C1
102
{ACAD_REACTORS
330
2B4
102
}
330
2B4
100
AcDbXrecord
340
0
  0
XRECORD
  5
2C2
102
{ACAD_REACTORS
330
2B4
102
}
330
2B4
100
AcDbXrecord
 70
     0
  0
XRECORD
  5
2B8
102
{ACAD_REACTORS
330
2B4
102
}
330
2B4
100
AcDbXrecord
  1

  0
XRECORD
  5
2B5
102
{ACAD_REACTORS
330
2B4
102
}
330
2B4
100
AcDbXrecord
 90
        1
  0
XRECORD
  5
2B6
102
{ACAD_REACTORS
330
2B4
102
}
330
2B4
100
AcDbXrecord
 90
       70
  0
XRECORD
  5
2CC
102
{ACAD_REACTORS
330
2B4
102
}
330
2B4
100
AcDbXrecord
340
0
  0
XRECORD
  5
2D2
102
{ACAD_REACTORS
330
2B4
102
}
330
2B4
100
AcDbXrecord
 10
0.0
 20
0.0
 30
0.0
  0
XRECORD
  5
2CE
102
{ACAD_REACTORS
330
2B4
102
}
330
2B4
100
AcDbXrecord
 10
0.0
 20
0.0
 30
0.0
  0
XRECORD
  5
2D1
102
{ACAD_REACTORS
330
2B4
102
}
330
2B4
100
AcDbXrecord
 10
0.0
 20
0.0
 30
0.0
  0
XRECORD
  5
2CF
102
{ACAD_REACTORS
330
2B4
102
}
330
2B4
100
AcDbXrecord
 10
0.0
 20
0.0
 30
0.0
  0
XRECORD
  5
2D0
102
{ACAD_REACTORS
330
2B4
102
}
330
2B4
100
AcDbXrecord
 10
0.0
 20
0.0
 30
0.0
  0
XRECORD
  5
2CD
102
{ACAD_REACTORS
330
2B4
102
}
330
2B4
100
AcDbXrecord
 10
0.0
 20
0.0
 30
0.0
  0
XRECORD
  5
2CA
102
{ACAD_REACTORS
330
2B4
102
}
330
2B4
100
AcDbXrecord
340
0
  0
XRECORD
  5
2CB
102
{ACAD_REACTORS
330
2B4
102
}
330
2B4
100
AcDbXrecord
 70
     0
  0
XRECORD
  5
2BF
102
{ACAD_REACTORS
330
2B4
102
}
330
2B4
100
AcDbXrecord
  1
{FAEB1C32-E019-11D5-929B-00C0DF256EC4}
  0
ENDSEC
  0
EOF
