  0
SECTION
  2
HEADER
  9
$ACADVER
  1
AC1014
  9
$ACADMAINTVER
 70
     9
  9
$DWGCODEPAGE
  3
ANSI_932
  9
$INSBASE
 10
0.0
 20
0.0
 30
0.0
  9
$EXTMIN
 10
0.0
 20
0.0
 30
0.0
  9
$EXTMAX
 10
297.0
 20
210.0
 30
0.0
  9
$LIMMIN
 10
0.0
 20
0.0
  9
$LIMMAX
 10
297.0
 20
210.0
  9
$ORTHOMODE
 70
     0
  9
$REGENMODE
 70
     1
  9
$FILLMODE
 70
     1
  9
$QTEXTMODE
 70
     0
  9
$MIRRTEXT
 70
     1
  9
$DRAGMODE
 70
     2
  9
$LTSCALE
 40
1.0
  9
$OSMODE
 70
    37
  9
$ATTMODE
 70
     1
  9
$TEXTSIZE
 40
0.2
  9
$TRACEWID
 40
0.05
  9
$TEXTSTYLE
  7
STYLE1
  9
$CLAYER
  8
0
  9
$CELTYPE
  6
BYLAYER
  9
$CECOLOR
 62
   256
  9
$CELTSCALE
 40
1.0
  9
$DELOBJ
 70
     1
  9
$DISPSILH
 70
     0
  9
$DIMSCALE
 40
1.0
  9
$DIMASZ
 40
3.0
  9
$DIMEXO
 40
1.0
  9
$DIMDLI
 40
8.0
  9
$DIMRND
 40
0.0
  9
$DIMDLE
 40
6.0
  9
$DIMEXE
 40
1.0
  9
$DIMTP
 40
0.0
  9
$DIMTM
 40
0.0
  9
$DIMTXT
 40
4.0
  9
$DIMCEN
 40
2.5
  9
$DIMTSZ
 40
0.0
  9
$DIMTOL
 70
     0
  9
$DIMLIM
 70
     0
  9
$DIMTIH
 70
     0
  9
$DIMTOH
 70
     0
  9
$DIMSE1
 70
     0
  9
$DIMSE2
 70
     0
  9
$DIMTAD
 70
     1
  9
$DIMZIN
 70
     8
  9
$DIMBLK
  1

  9
$DIMASO
 70
     1
  9
$DIMSHO
 70
     1
  9
$DIMPOST
  1

  9
$DIMAPOST
  1

  9
$DIMALT
 70
     0
  9
$DIMALTD
 70
     3
  9
$DIMALTF
 40
0.03937
  9
$DIMLFAC
 40
1.0
  9
$DIMTOFL
 70
     1
  9
$DIMTVP
 40
0.0
  9
$DIMTIX
 70
     0
  9
$DIMSOXD
 70
     0
  9
$DIMSAH
 70
     1
  9
$DIMBLK1
  1
FXTIP_ARROW_S
  9
$DIMBLK2
  1
FXTIP_ARROW_E
  9
$DIMSTYLE
  2
FXDIMINFO
  9
$DIMCLRD
 70
     7
  9
$DIMCLRE
 70
     7
  9
$DIMCLRT
 70
     7
  9
$DIMTFAC
 40
1.0
  9
$DIMGAP
 40
1.0
  9
$DIMJUST
 70
     0
  9
$DIMSD1
 70
     0
  9
$DIMSD2
 70
     0
  9
$DIMTOLJ
 70
     0
  9
$DIMTZIN
 70
     8
  9
$DIMALTZ
 70
     0
  9
$DIMALTTZ
 70
     0
  9
$DIMFIT
 70
     3
  9
$DIMUPT
 70
     0
  9
$DIMUNIT
 70
     2
  9
$DIMDEC
 70
     2
  9
$DIMTDEC
 70
     2
  9
$DIMALTU
 70
     2
  9
$DIMALTTD
 70
     3
  9
$DIMTXSTY
  7
STYLE1
  9
$DIMAUNIT
 70
     0
  9
$LUNITS
 70
     2
  9
$LUPREC
 70
     4
  9
$SKETCHINC
 40
0.1
  9
$FILLETRAD
 40
0.5
  9
$AUNITS
 70
     0
  9
$AUPREC
 70
     0
  9
$MENU
  1
.
  9
$ELEVATION
 40
0.0
  9
$PELEVATION
 40
0.0
  9
$THICKNESS
 40
0.0
  9
$LIMCHECK
 70
     0
  9
$CHAMFERA
 40
0.5
  9
$CHAMFERB
 40
0.5
  9
$CHAMFERC
 40
1.0
  9
$CHAMFERD
 40
0.0
  9
$SKPOLY
 70
     0
  9
$TDCREATE
 40
2455300.668984745
  9
$TDUPDATE
 40
2455300.668984757
  9
$TDINDWG
 40
0.0000000116
  9
$TDUSRTIMER
 40
0.0000000116
  9
$USRTIMER
 70
     1
  9
$ANGBASE
 50
0.0
  9
$ANGDIR
 70
     0
  9
$PDMODE
 70
     0
  9
$PDSIZE
 40
0.0
  9
$PLINEWID
 40
0.0
  9
$COORDS
 70
     1
  9
$SPLFRAME
 70
     0
  9
$SPLINETYPE
 70
     6
  9
$SPLINESEGS
 70
     8
  9
$ATTDIA
 70
     0
  9
$ATTREQ
 70
     1
  9
$HANDLING
 70
     1
  9
$HANDSEED
  5
29B
  9
$SURFTAB1
 70
     6
  9
$SURFTAB2
 70
     6
  9
$SURFTYPE
 70
     6
  9
$SURFU
 70
     6
  9
$SURFV
 70
     6
  9
$UCSNAME
  2

  9
$UCSORG
 10
0.0
 20
0.0
 30
0.0
  9
$UCSXDIR
 10
1.0
 20
0.0
 30
0.0
  9
$UCSYDIR
 10
0.0
 20
1.0
 30
0.0
  9
$PUCSNAME
  2

  9
$PUCSORG
 10
0.0
 20
0.0
 30
0.0
  9
$PUCSXDIR
 10
1.0
 20
0.0
 30
0.0
  9
$PUCSYDIR
 10
0.0
 20
1.0
 30
0.0
  9
$USERI1
 70
     0
  9
$USERI2
 70
     0
  9
$USERI3
 70
     0
  9
$USERI4
 70
     0
  9
$USERI5
 70
     0
  9
$USERR1
 40
0.0
  9
$USERR2
 40
0.0
  9
$USERR3
 40
0.0
  9
$USERR4
 40
0.0
  9
$USERR5
 40
0.0
  9
$WORLDVIEW
 70
     1
  9
$SHADEDGE
 70
     3
  9
$SHADEDIF
 70
    70
  9
$TILEMODE
 70
     1
  9
$MAXACTVP
 70
    64
  9
$PINSBASE
 10
0.0
 20
0.0
 30
0.0
  9
$PLIMCHECK
 70
     0
  9
$PEXTMIN
 10
1.000000E+20
 20
1.000000E+20
 30
1.000000E+20
  9
$PEXTMAX
 10
-1.000000E+20
 20
-1.000000E+20
 30
-1.000000E+20
  9
$PLIMMIN
 10
0.0
 20
0.0
  9
$PLIMMAX
 10
12.0
 20
9.0
  9
$UNITMODE
 70
     0
  9
$VISRETAIN
 70
     1
  9
$PLINEGEN
 70
     0
  9
$PSLTSCALE
 70
     1
  9
$TREEDEPTH
 70
  3020
  9
$PICKSTYLE
 70
     1
  9
$CMLSTYLE
  2
STANDARD
  9
$CMLJUST
 70
     0
  9
$CMLSCALE
 40
1.0
  9
$PROXYGRAPHICS
 70
     1
  9
$MEASUREMENT
 70
     0
  0
ENDSEC
  0
SECTION
  2
CLASSES
  0
CLASS
  1
ACDBDICTIONARYWDFLT
  2
AcDbDictionaryWithDefault
  3
ObjectDBX Classes
 90
        0
280
     0
281
     0
  0
CLASS
  1
XRECORD
  2
AcDbXrecord
  3
AutoCAD 2000
 90
        0
280
     0
281
     0
  0
CLASS
  1
LWPOLYLINE
  2
AcDbPolyline
  3
AutoCAD 2000
 90
        0
280
     0
281
     1
  0
CLASS
  1
HATCH
  2
AcDbHatch
  3
AutoCAD 2000
 90
        0
280
     0
281
     1
  0
CLASS
  1
ACDBPLACEHOLDER
  2
AcDbPlaceHolder
  3
ObjectDBX Classes
 90
        0
280
     0
281
     0
  0
CLASS
  1
LAYOUT
  2
AcDbLayout
  3
ObjectDBX Classes
 90
        0
280
     0
281
     0
  0
ENDSEC
  0
SECTION
  2
TABLES
  0
TABLE
  2
VPORT
  5
8
330
0
100
AcDbSymbolTable
 70
     1
  0
VPORT
  5
29
330
8
100
AcDbSymbolTableRecord
100
AcDbViewportTableRecord
  2
*ACTIVE
 70
     0
 10
0.0
 20
0.0
 11
1.0
 21
1.0
 12
148.5
 22
105.0
 13
0.0
 23
0.0
 14
0.5
 24
0.5
 15
0.5
 25
0.5
 16
0.0
 26
0.0
 36
1.0
 17
0.0
 27
0.0
 37
0.0
 40
210.0
 41
1.414286
 42
50.0
 43
0.0
 44
0.0
 50
0.0
 51
0.0
 71
     0
 72
   100
 73
     1
 74
     3
 75
     0
 76
     0
 77
     0
 78
     0
  0
ENDTAB
  0
TABLE
  2
LTYPE
  5
5
330
0
100
AcDbSymbolTable
 70
     4
  0
LTYPE
  5
14
330
5
100
AcDbSymbolTableRecord
100
AcDbLinetypeTableRecord
  2
BYBLOCK
 70
     0
  3

 72
    65
 73
     0
 40
0.0
  0
LTYPE
  5
15
330
5
100
AcDbSymbolTableRecord
100
AcDbLinetypeTableRecord
  2
BYLAYER
 70
     0
  3

 72
    65
 73
     0
 40
0.0
  0
LTYPE
  5
16
330
5
100
AcDbSymbolTableRecord
100
AcDbLinetypeTableRecord
  2
CONTINUOUS
 70
     0
  3
--------------------
 72
    65
 73
     0
 40
0.0
  0
LTYPE
  5
2A
330
5
100
AcDbSymbolTableRecord
100
AcDbLinetypeTableRecord
  2
CENTER
 70
     0
  3
Center ____ _ ____ _ ____ _ ____ _ ____ _ ____
 72
    65
 73
     4
 40
13.0
 49
10.0
 74
     0
 49
-1.0
 74
     0
 49
1.0
 74
     0
 49
-1.0
 74
     0
  0
ENDTAB
  0
TABLE
  2
LAYER
  5
2
330
0
100
AcDbSymbolTable
 70
    20
  0
LAYER
  5
10
330
2
100
AcDbSymbolTableRecord
100
AcDbLayerTableRecord
  2
0
 70
     0
 62
     7
  6
CONTINUOUS
  0
LAYER
  5
2D
330
2
100
AcDbSymbolTableRecord
100
AcDbLayerTableRecord
  2
LAYERGROUP-1
 70
     0
 62
     3
  6
CONTINUOUS
  0
LAYER
  5
3D
330
2
100
AcDbSymbolTableRecord
100
AcDbLayerTableRecord
  2
}}ﾊﾊGG血CCТ
 70
     0
 62
     3
  6
CONTINUOUS
  0
LAYER
  5
AA
330
2
100
AcDbSymbolTableRecord
100
AcDbLayerTableRecord
  2
GR1-1
 70
     0
 62
     7
  6
CONTINUOUS
  0
LAYER
  5
25E
330
2
100
AcDbSymbolTableRecord
100
AcDbLayerTableRecord
  2
0-1
 70
     0
 62
     7
  6
CONTINUOUS
  0
ENDTAB
  0
TABLE
  2
STYLE
  5
3
330
0
100
AcDbSymbolTable
 70
     4
  0
STYLE
  5
11
330
3
100
AcDbSymbolTableRecord
100
AcDbTextStyleTableRecord
  2
STANDARD
 70
     0
 40
0.0
 41
1.0
 50
0.0
 71
     0
 42
0.2
  3
txt
  4

  0
STYLE
  5
3F
330
3
100
AcDbSymbolTableRecord
100
AcDbTextStyleTableRecord
  2
STYLE1
 70
     0
 40
0.0
 41
1.0
 50
0.0
 71
     0
 42
0.2
  3
MONOTXT.SHX
  4
extfont.shx
  0
STYLE
  5
40
330
3
100
AcDbSymbolTableRecord
100
AcDbTextStyleTableRecord
  2
FX_VECTOR
 70
     0
 40
0.0
 41
1.0
 50
0.0
 71
     0
 42
0.2
  3
MONOTXT.SHX
  4
BIGFONT.SHX
  0
ENDTAB
  0
TABLE
  2
VIEW
  5
6
330
0
100
AcDbSymbolTable
 70
     0
  0
ENDTAB
  0
TABLE
  2
UCS
  5
7
330
0
100
AcDbSymbolTable
 70
     0
  0
ENDTAB
  0
TABLE
  2
APPID
  5
9
330
0
100
AcDbSymbolTable
 70
     1
  0
APPID
  5
12
330
9
100
AcDbSymbolTableRecord
100
AcDbRegAppTableRecord
  2
ACAD
 70
     0
  0
ENDTAB
  0
TABLE
  2
DIMSTYLE
  5
A
330
0
100
AcDbSymbolTable
 70
     2
  0
DIMSTYLE
105
27
330
A
100
AcDbSymbolTableRecord
100
AcDbDimStyleTableRecord
  2
STANDARD
 70
     0
  3

  4

  5

  6

  7

 40
1.0
 41
0.18
 42
0.0625
 43
0.38
 44
0.18
 45
0.0
 46
0.0
 47
0.0
 48
0.0
140
0.18
141
0.09
142
0.0
143
25.4
144
1.0
145
0.0
146
1.0
147
0.09
 71
     0
 72
     0
 73
     1
 74
     1
 75
     0
 76
     0
 77
     0
 78
     0
170
     0
171
     2
172
     0
173
     0
174
     0
175
     0
176
     0
177
     0
178
     0
270
     2
271
     4
272
     4
273
     2
274
     2
340
11
275
     0
280
     0
281
     0
282
     0
283
     1
284
     0
285
     0
286
     0
287
     3
288
     0
  0
DIMSTYLE
105
A7
102
{ACAD_REACTORS
330
226
330
230
330
23A
330
244
102
}
330
A
100
AcDbSymbolTableRecord
100
AcDbDimStyleTableRecord
  2
FXDIMINFO
 70
     0
  3

  4

  5

  6
FXTIP_ARROW_S
  7
FXTIP_ARROW_E
 40
1.0
 41
3.0
 42
1.0
 43
8.0
 44
1.0
 45
0.0
 46
6.0
 47
0.0
 48
0.0
140
4.0
141
2.5
142
0.0
143
0.03937
144
1.0
145
0.0
146
1.0
147
1.0
 71
     0
 72
     0
 73
     0
 74
     0
 75
     0
 76
     0
 77
     1
 78
     8
170
     0
171
     3
172
     1
173
     1
174
     0
175
     0
176
     7
177
     7
178
     7
179
     2
270
     2
271
     2
272
     2
273
     2
274
     3
340
3F
275
     0
280
     0
281
     0
282
     0
283
     0
284
     8
285
     0
286
     0
287
     3
288
     0
  0
ENDTAB
  0
TABLE
  2
BLOCK_RECORD
  5
1
330
0
100
AcDbSymbolTable
 70
    30
  0
BLOCK_RECORD
  5
1F
330
1
100
AcDbSymbolTableRecord
100
AcDbBlockTableRecord
  2
*MODEL_SPACE
  0
BLOCK_RECORD
  5
1B
330
1
100
AcDbSymbolTableRecord
100
AcDbBlockTableRecord
  2
*PAPER_SPACE
  0
BLOCK_RECORD
  5
41
330
1
100
AcDbSymbolTableRecord
100
AcDbBlockTableRecord
  2
FXTIP_ARROW_S
  0
BLOCK_RECORD
  5
47
330
1
100
AcDbSymbolTableRecord
100
AcDbBlockTableRecord
  2
FXTIP_ARROW_E
  0
BLOCK_RECORD
  5
4D
330
1
100
AcDbSymbolTableRecord
100
AcDbBlockTableRecord
  2
FXTIP_BLACKDOT_S
  0
BLOCK_RECORD
  5
53
330
1
100
AcDbSymbolTableRecord
100
AcDbBlockTableRecord
  2
FXTIP_BLACKDOT_E
  0
BLOCK_RECORD
  5
59
330
1
100
AcDbSymbolTableRecord
100
AcDbBlockTableRecord
  2
FXTIP_TRIANGLE_S
  0
BLOCK_RECORD
  5
60
330
1
100
AcDbSymbolTableRecord
100
AcDbBlockTableRecord
  2
FXTIP_TRIANGLE_E
  0
BLOCK_RECORD
  5
67
330
1
100
AcDbSymbolTableRecord
100
AcDbBlockTableRecord
  2
FXTIP_ARCHITECT_S
  0
BLOCK_RECORD
  5
6D
330
1
100
AcDbSymbolTableRecord
100
AcDbBlockTableRecord
  2
FXTIP_ARCHITECT_E
  0
BLOCK_RECORD
  5
73
330
1
100
AcDbSymbolTableRecord
100
AcDbBlockTableRecord
  2
FXTIP_CIVIL_S
  0
BLOCK_RECORD
  5
79
330
1
100
AcDbSymbolTableRecord
100
AcDbBlockTableRecord
  2
FXTIP_CIVIL_E
  0
BLOCK_RECORD
  5
7F
330
1
100
AcDbSymbolTableRecord
100
AcDbBlockTableRecord
  2
FXTIP_WHITEDOT_S
  0
BLOCK_RECORD
  5
84
330
1
100
AcDbSymbolTableRecord
100
AcDbBlockTableRecord
  2
FXTIP_WHITEDOT_E
  0
BLOCK_RECORD
  5
89
330
1
100
AcDbSymbolTableRecord
100
AcDbBlockTableRecord
  2
FXTIP_UPARROW_S
  0
BLOCK_RECORD
  5
8E
330
1
100
AcDbSymbolTableRecord
100
AcDbBlockTableRecord
  2
FXTIP_UPARROW_E
  0
BLOCK_RECORD
  5
93
330
1
100
AcDbSymbolTableRecord
100
AcDbBlockTableRecord
  2
FXTIP_DOWNARROW_S
  0
BLOCK_RECORD
  5
98
330
1
100
AcDbSymbolTableRecord
100
AcDbBlockTableRecord
  2
FXTIP_DOWNARROW_E
  0
BLOCK_RECORD
  5
9D
330
1
100
AcDbSymbolTableRecord
100
AcDbBlockTableRecord
  2
FXTIP_BLACKTRIANGLE_S
  0
BLOCK_RECORD
  5
A2
330
1
100
AcDbSymbolTableRecord
100
AcDbBlockTableRecord
  2
FXTIP_BLACKTRIANGLE_E
  0
BLOCK_RECORD
  5
119
330
1
100
AcDbSymbolTableRecord
100
AcDbBlockTableRecord
  2
BLKF021
  0
BLOCK_RECORD
  5
198
330
1
100
AcDbSymbolTableRecord
100
AcDbBlockTableRecord
  2
BLKF022
  0
BLOCK_RECORD
  5
1D8
330
1
100
AcDbSymbolTableRecord
100
AcDbBlockTableRecord
  2
BLKF023
  0
BLOCK_RECORD
  5
215
330
1
100
AcDbSymbolTableRecord
100
AcDbBlockTableRecord
  2
BLKF024
  0
BLOCK_RECORD
  5
227
330
1
100
AcDbSymbolTableRecord
100
AcDbBlockTableRecord
  2
*D23
  0
BLOCK_RECORD
  5
231
330
1
100
AcDbSymbolTableRecord
100
AcDbBlockTableRecord
  2
*D24
  0
BLOCK_RECORD
  5
23B
330
1
100
AcDbSymbolTableRecord
100
AcDbBlockTableRecord
  2
*D25
  0
BLOCK_RECORD
  5
245
330
1
100
AcDbSymbolTableRecord
100
AcDbBlockTableRecord
  2
*D26
  0
BLOCK_RECORD
  5
24E
330
1
100
AcDbSymbolTableRecord
100
AcDbBlockTableRecord
  2
BLKF029
  0
BLOCK_RECORD
  5
25A
330
1
100
AcDbSymbolTableRecord
100
AcDbBlockTableRecord
  2
BLKF030
  0
BLOCK_RECORD
  5
263
330
1
100
AcDbSymbolTableRecord
100
AcDbBlockTableRecord
  2
BLKF031
  0
ENDTAB
  0
ENDSEC
  0
SECTION
  2
BLOCKS
  0
BLOCK
  5
20
330
1F
100
AcDbEntity
  8
0
100
AcDbBlockBegin
  2
*MODEL_SPACE
 70
     0
 71
     0
 10
0.0
 20
0.0
 30
0.0
  3
*MODEL_SPACE
  1

  0
ENDBLK
  5
21
330
1F
100
AcDbEntity
  8
0
100
AcDbBlockEnd
  0
BLOCK
  5
1C
330
1B
100
AcDbEntity
 67
     1
  8
0
100
AcDbBlockBegin
  2
*PAPER_SPACE
 70
     0
 71
     0
 10
0.0
 20
0.0
 30
0.0
  3
*PAPER_SPACE
  1

  0
ENDBLK
  5
1D
330
1B
100
AcDbEntity
 67
     1
  8
0
100
AcDbBlockEnd
  0
BLOCK
  5
42
330
41
100
AcDbEntity
  8
0
100
AcDbBlockBegin
  2
FXTIP_ARROW_S
 70
     0
 71
     0
 10
0.0
 20
0.0
 30
0.0
  3
FXTIP_ARROW_S
  1

  0
LINE
  5
44
330
41
100
AcDbEntity
  8
0
  6
CONTINUOUS
 62
     0
100
AcDbLine
 10
0.0
 20
0.0
 30
0.0
 11
-1.0
 21
0.0
 31
0.0
  0
LINE
  5
45
330
41
100
AcDbEntity
  8
0
  6
CONTINUOUS
 62
     0
100
AcDbLine
 10
0.0
 20
0.0
 30
0.0
 11
-0.965926
 21
-0.258819
 31
0.0
  0
LINE
  5
46
330
41
100
AcDbEntity
  8
0
  6
CONTINUOUS
 62
     0
100
AcDbLine
 10
0.0
 20
0.0
 30
0.0
 11
-0.965926
 21
0.258819
 31
0.0
  0
ENDBLK
  5
43
330
41
100
AcDbEntity
  8
0
100
AcDbBlockEnd
  0
BLOCK
  5
48
330
47
100
AcDbEntity
  8
0
100
AcDbBlockBegin
  2
FXTIP_ARROW_E
 70
     0
 71
     0
 10
0.0
 20
0.0
 30
0.0
  3
FXTIP_ARROW_E
  1

  0
LINE
  5
4A
330
47
100
AcDbEntity
  8
0
  6
CONTINUOUS
 62
     0
100
AcDbLine
 10
0.0
 20
0.0
 30
0.0
 11
-1.0
 21
0.0
 31
0.0
  0
LINE
  5
4B
330
47
100
AcDbEntity
  8
0
  6
CONTINUOUS
 62
     0
100
AcDbLine
 10
0.0
 20
0.0
 30
0.0
 11
-0.965926
 21
0.258819
 31
0.0
  0
LINE
  5
4C
330
47
100
AcDbEntity
  8
0
  6
CONTINUOUS
 62
     0
100
AcDbLine
 10
0.0
 20
0.0
 30
0.0
 11
-0.965926
 21
-0.258819
 31
0.0
  0
ENDBLK
  5
49
330
47
100
AcDbEntity
  8
0
100
AcDbBlockEnd
  0
BLOCK
  5
4E
330
4D
100
AcDbEntity
  8
0
100
AcDbBlockBegin
  2
FXTIP_BLACKDOT_S
 70
     0
 71
     0
 10
0.0
 20
0.0
 30
0.0
  3
FXTIP_BLACKDOT_S
  1

  0
LINE
  5
50
330
4D
100
AcDbEntity
  8
0
  6
CONTINUOUS
 62
     0
100
AcDbLine
 10
0.0
 20
0.0
 30
0.0
 11
-1.0
 21
0.0
 31
0.0
  0
LWPOLYLINE
  5
51
330
4D
100
AcDbEntity
  8
0
  6
CONTINUOUS
 62
     0
100
AcDbPolyline
 90
        2
 70
     1
 10
-0.25
 20
0.0
 40
0.5
 41
0.5
 42
1.0
 10
0.25
 20
0.0
 40
0.5
 41
0.5
 42
1.0
  0
CIRCLE
  5
52
330
4D
100
AcDbEntity
  8
0
  6
CONTINUOUS
 62
     0
100
AcDbCircle
 10
0.0
 20
0.0
 30
0.0
 40
0.5
  0
ENDBLK
  5
4F
330
4D
100
AcDbEntity
  8
0
100
AcDbBlockEnd
  0
BLOCK
  5
54
330
53
100
AcDbEntity
  8
0
100
AcDbBlockBegin
  2
FXTIP_BLACKDOT_E
 70
     0
 71
     0
 10
0.0
 20
0.0
 30
0.0
  3
FXTIP_BLACKDOT_E
  1

  0
LINE
  5
56
330
53
100
AcDbEntity
  8
0
  6
CONTINUOUS
 62
     0
100
AcDbLine
 10
0.0
 20
0.0
 30
0.0
 11
-1.0
 21
0.0
 31
0.0
  0
LWPOLYLINE
  5
57
330
53
100
AcDbEntity
  8
0
  6
CONTINUOUS
 62
     0
100
AcDbPolyline
 90
        2
 70
     1
 10
-0.25
 20
0.0
 40
0.5
 41
0.5
 42
1.0
 10
0.25
 20
0.0
 40
0.5
 41
0.5
 42
1.0
  0
CIRCLE
  5
58
330
53
100
AcDbEntity
  8
0
  6
CONTINUOUS
 62
     0
100
AcDbCircle
 10
0.0
 20
0.0
 30
0.0
 40
0.5
  0
ENDBLK
  5
55
330
53
100
AcDbEntity
  8
0
100
AcDbBlockEnd
  0
BLOCK
  5
5A
330
59
100
AcDbEntity
  8
0
100
AcDbBlockBegin
  2
FXTIP_TRIANGLE_S
 70
     0
 71
     0
 10
0.0
 20
0.0
 30
0.0
  3
FXTIP_TRIANGLE_S
  1

  0
LINE
  5
5C
330
59
100
AcDbEntity
  8
0
  6
CONTINUOUS
 62
     0
100
AcDbLine
 10
0.0
 20
0.0
 30
0.0
 11
-1.0
 21
0.0
 31
0.0
  0
LINE
  5
5D
330
59
100
AcDbEntity
  8
0
  6
CONTINUOUS
 62
     0
100
AcDbLine
 10
0.0
 20
0.0
 30
0.0
 11
-0.965926
 21
-0.258819
 31
0.0
  0
LINE
  5
5E
330
59
100
AcDbEntity
  8
0
  6
CONTINUOUS
 62
     0
100
AcDbLine
 10
0.0
 20
0.0
 30
0.0
 11
-0.965926
 21
0.258819
 31
0.0
  0
LINE
  5
5F
330
59
100
AcDbEntity
  8
0
  6
CONTINUOUS
 62
     0
100
AcDbLine
 10
-0.965926
 20
-0.258819
 30
0.0
 11
-0.965926
 21
0.258819
 31
0.0
  0
ENDBLK
  5
5B
330
59
100
AcDbEntity
  8
0
100
AcDbBlockEnd
  0
BLOCK
  5
61
330
60
100
AcDbEntity
  8
0
100
AcDbBlockBegin
  2
FXTIP_TRIANGLE_E
 70
     0
 71
     0
 10
0.0
 20
0.0
 30
0.0
  3
FXTIP_TRIANGLE_E
  1

  0
LINE
  5
63
330
60
100
AcDbEntity
  8
0
  6
CONTINUOUS
 62
     0
100
AcDbLine
 10
0.0
 20
0.0
 30
0.0
 11
-1.0
 21
0.0
 31
0.0
  0
LINE
  5
64
330
60
100
AcDbEntity
  8
0
  6
CONTINUOUS
 62
     0
100
AcDbLine
 10
0.0
 20
0.0
 30
0.0
 11
-0.965926
 21
0.258819
 31
0.0
  0
LINE
  5
65
330
60
100
AcDbEntity
  8
0
  6
CONTINUOUS
 62
     0
100
AcDbLine
 10
0.0
 20
0.0
 30
0.0
 11
-0.965926
 21
-0.258819
 31
0.0
  0
LINE
  5
66
330
60
100
AcDbEntity
  8
0
  6
CONTINUOUS
 62
     0
100
AcDbLine
 10
-0.965926
 20
0.258819
 30
0.0
 11
-0.965926
 21
-0.258819
 31
0.0
  0
ENDBLK
  5
62
330
60
100
AcDbEntity
  8
0
100
AcDbBlockEnd
  0
BLOCK
  5
68
330
67
100
AcDbEntity
  8
0
100
AcDbBlockBegin
  2
FXTIP_ARCHITECT_S
 70
     0
 71
     0
 10
0.0
 20
0.0
 30
0.0
  3
FXTIP_ARCHITECT_S
  1

  0
LINE
  5
6A
330
67
100
AcDbEntity
  8
0
  6
CONTINUOUS
 62
     0
100
AcDbLine
 10
0.0
 20
0.0
 30
0.0
 11
-1.0
 21
0.0
 31
0.0
  0
LINE
  5
6B
330
67
100
AcDbEntity
  8
0
  6
CONTINUOUS
 62
     0
100
AcDbLine
 10
0.0
 20
0.0
 30
0.0
 11
-0.707107
 21
-0.707107
 31
0.0
  0
LINE
  5
6C
330
67
100
AcDbEntity
  8
0
  6
CONTINUOUS
 62
     0
100
AcDbLine
 10
0.0
 20
0.0
 30
0.0
 11
0.707107
 21
0.707107
 31
0.0
  0
ENDBLK
  5
69
330
67
100
AcDbEntity
  8
0
100
AcDbBlockEnd
  0
BLOCK
  5
6E
330
6D
100
AcDbEntity
  8
0
100
AcDbBlockBegin
  2
FXTIP_ARCHITECT_E
 70
     0
 71
     0
 10
0.0
 20
0.0
 30
0.0
  3
FXTIP_ARCHITECT_E
  1

  0
LINE
  5
70
330
6D
100
AcDbEntity
  8
0
  6
CONTINUOUS
 62
     0
100
AcDbLine
 10
0.0
 20
0.0
 30
0.0
 11
-1.0
 21
0.0
 31
0.0
  0
LINE
  5
71
330
6D
100
AcDbEntity
  8
0
  6
CONTINUOUS
 62
     0
100
AcDbLine
 10
0.0
 20
0.0
 30
0.0
 11
0.707107
 21
0.707107
 31
0.0
  0
LINE
  5
72
330
6D
100
AcDbEntity
  8
0
  6
CONTINUOUS
 62
     0
100
AcDbLine
 10
0.0
 20
0.0
 30
0.0
 11
-0.707107
 21
-0.707107
 31
0.0
  0
ENDBLK
  5
6F
330
6D
100
AcDbEntity
  8
0
100
AcDbBlockEnd
  0
BLOCK
  5
74
330
73
100
AcDbEntity
  8
0
100
AcDbBlockBegin
  2
FXTIP_CIVIL_S
 70
     0
 71
     0
 10
0.0
 20
0.0
 30
0.0
  3
FXTIP_CIVIL_S
  1

  0
LINE
  5
76
330
73
100
AcDbEntity
  8
0
  6
CONTINUOUS
 62
     0
100
AcDbLine
 10
0.0
 20
0.0
 30
0.0
 11
-1.0
 21
0.0
 31
0.0
  0
LINE
  5
77
330
73
100
AcDbEntity
  8
0
  6
CONTINUOUS
 62
     0
100
AcDbLine
 10
0.0
 20
-0.083333
 30
0.0
 11
-1.0
 21
-0.083333
 31
0.0
  0
LINE
  5
78
330
73
100
AcDbEntity
  8
0
  6
CONTINUOUS
 62
     0
100
AcDbLine
 10
0.0
 20
-0.166667
 30
0.0
 11
-1.0
 21
-0.166667
 31
0.0
  0
ENDBLK
  5
75
330
73
100
AcDbEntity
  8
0
100
AcDbBlockEnd
  0
BLOCK
  5
7A
330
79
100
AcDbEntity
  8
0
100
AcDbBlockBegin
  2
FXTIP_CIVIL_E
 70
     0
 71
     0
 10
0.0
 20
0.0
 30
0.0
  3
FXTIP_CIVIL_E
  1

  0
LINE
  5
7C
330
79
100
AcDbEntity
  8
0
  6
CONTINUOUS
 62
     0
100
AcDbLine
 10
0.0
 20
0.0
 30
0.0
 11
-1.0
 21
0.0
 31
0.0
  0
LINE
  5
7D
330
79
100
AcDbEntity
  8
0
  6
CONTINUOUS
 62
     0
100
AcDbLine
 10
0.0
 20
0.083333
 30
0.0
 11
-1.0
 21
0.083333
 31
0.0
  0
LINE
  5
7E
330
79
100
AcDbEntity
  8
0
  6
CONTINUOUS
 62
     0
100
AcDbLine
 10
0.0
 20
0.166667
 30
0.0
 11
-1.0
 21
0.166667
 31
0.0
  0
ENDBLK
  5
7B
330
79
100
AcDbEntity
  8
0
100
AcDbBlockEnd
  0
BLOCK
  5
80
330
7F
100
AcDbEntity
  8
0
100
AcDbBlockBegin
  2
FXTIP_WHITEDOT_S
 70
     0
 71
     0
 10
0.0
 20
0.0
 30
0.0
  3
FXTIP_WHITEDOT_S
  1

  0
LINE
  5
82
330
7F
100
AcDbEntity
  8
0
  6
CONTINUOUS
 62
     0
100
AcDbLine
 10
0.0
 20
0.0
 30
0.0
 11
-1.0
 21
0.0
 31
0.0
  0
CIRCLE
  5
83
330
7F
100
AcDbEntity
  8
0
  6
CONTINUOUS
 62
     0
100
AcDbCircle
 10
0.0
 20
0.0
 30
0.0
 40
0.5
  0
ENDBLK
  5
81
330
7F
100
AcDbEntity
  8
0
100
AcDbBlockEnd
  0
BLOCK
  5
85
330
84
100
AcDbEntity
  8
0
100
AcDbBlockBegin
  2
FXTIP_WHITEDOT_E
 70
     0
 71
     0
 10
0.0
 20
0.0
 30
0.0
  3
FXTIP_WHITEDOT_E
  1

  0
LINE
  5
87
330
84
100
AcDbEntity
  8
0
  6
CONTINUOUS
 62
     0
100
AcDbLine
 10
0.0
 20
0.0
 30
0.0
 11
-1.0
 21
0.0
 31
0.0
  0
CIRCLE
  5
88
330
84
100
AcDbEntity
  8
0
  6
CONTINUOUS
 62
     0
100
AcDbCircle
 10
0.0
 20
0.0
 30
0.0
 40
0.5
  0
ENDBLK
  5
86
330
84
100
AcDbEntity
  8
0
100
AcDbBlockEnd
  0
BLOCK
  5
8A
330
89
100
AcDbEntity
  8
0
100
AcDbBlockBegin
  2
FXTIP_UPARROW_S
 70
     0
 71
     0
 10
0.0
 20
0.0
 30
0.0
  3
FXTIP_UPARROW_S
  1

  0
LINE
  5
8C
330
89
100
AcDbEntity
  8
0
  6
CONTINUOUS
 62
     0
100
AcDbLine
 10
0.0
 20
0.0
 30
0.0
 11
-1.0
 21
0.0
 31
0.0
  0
LINE
  5
8D
330
89
100
AcDbEntity
  8
0
  6
CONTINUOUS
 62
     0
100
AcDbLine
 10
0.0
 20
0.0
 30
0.0
 11
-0.965926
 21
-0.258819
 31
0.0
  0
ENDBLK
  5
8B
330
89
100
AcDbEntity
  8
0
100
AcDbBlockEnd
  0
BLOCK
  5
8F
330
8E
100
AcDbEntity
  8
0
100
AcDbBlockBegin
  2
FXTIP_UPARROW_E
 70
     0
 71
     0
 10
0.0
 20
0.0
 30
0.0
  3
FXTIP_UPARROW_E
  1

  0
LINE
  5
91
330
8E
100
AcDbEntity
  8
0
  6
CONTINUOUS
 62
     0
100
AcDbLine
 10
0.0
 20
0.0
 30
0.0
 11
-1.0
 21
0.0
 31
0.0
  0
LINE
  5
92
330
8E
100
AcDbEntity
  8
0
  6
CONTINUOUS
 62
     0
100
AcDbLine
 10
0.0
 20
0.0
 30
0.0
 11
-0.965926
 21
0.258819
 31
0.0
  0
ENDBLK
  5
90
330
8E
100
AcDbEntity
  8
0
100
AcDbBlockEnd
  0
BLOCK
  5
94
330
93
100
AcDbEntity
  8
0
100
AcDbBlockBegin
  2
FXTIP_DOWNARROW_S
 70
     0
 71
     0
 10
0.0
 20
0.0
 30
0.0
  3
FXTIP_DOWNARROW_S
  1

  0
LINE
  5
96
330
93
100
AcDbEntity
  8
0
  6
CONTINUOUS
 62
     0
100
AcDbLine
 10
0.0
 20
0.0
 30
0.0
 11
-1.0
 21
0.0
 31
0.0
  0
LINE
  5
97
330
93
100
AcDbEntity
  8
0
  6
CONTINUOUS
 62
     0
100
AcDbLine
 10
0.0
 20
0.0
 30
0.0
 11
-0.965926
 21
0.258819
 31
0.0
  0
ENDBLK
  5
95
330
93
100
AcDbEntity
  8
0
100
AcDbBlockEnd
  0
BLOCK
  5
99
330
98
100
AcDbEntity
  8
0
100
AcDbBlockBegin
  2
FXTIP_DOWNARROW_E
 70
     0
 71
     0
 10
0.0
 20
0.0
 30
0.0
  3
FXTIP_DOWNARROW_E
  1

  0
LINE
  5
9B
330
98
100
AcDbEntity
  8
0
  6
CONTINUOUS
 62
     0
100
AcDbLine
 10
0.0
 20
0.0
 30
0.0
 11
-1.0
 21
0.0
 31
0.0
  0
LINE
  5
9C
330
98
100
AcDbEntity
  8
0
  6
CONTINUOUS
 62
     0
100
AcDbLine
 10
0.0
 20
0.0
 30
0.0
 11
-0.965926
 21
-0.258819
 31
0.0
  0
ENDBLK
  5
9A
330
98
100
AcDbEntity
  8
0
100
AcDbBlockEnd
  0
BLOCK
  5
9E
330
9D
100
AcDbEntity
  8
0
100
AcDbBlockBegin
  2
FXTIP_BLACKTRIANGLE_S
 70
     0
 71
     0
 10
0.0
 20
0.0
 30
0.0
  3
FXTIP_BLACKTRIANGLE_S
  1

  0
LINE
  5
A0
330
9D
100
AcDbEntity
  8
0
  6
CONTINUOUS
 62
     0
100
AcDbLine
 10
0.0
 20
0.0
 30
0.0
 11
-1.0
 21
0.0
 31
0.0
  0
SOLID
  5
A1
330
9D
100
AcDbEntity
  8
0
  6
CONTINUOUS
 62
     0
100
AcDbTrace
 10
0.0
 20
0.0
 30
0.0
 11
-0.965926
 21
-0.258819
 31
0.0
 12
-0.965926
 22
0.258819
 32
0.0
 13
-0.965926
 23
0.258819
 33
0.0
  0
ENDBLK
  5
9F
330
9D
100
AcDbEntity
  8
0
100
AcDbBlockEnd
  0
BLOCK
  5
A3
330
A2
100
AcDbEntity
  8
0
100
AcDbBlockBegin
  2
FXTIP_BLACKTRIANGLE_E
 70
     0
 71
     0
 10
0.0
 20
0.0
 30
0.0
  3
FXTIP_BLACKTRIANGLE_E
  1

  0
LINE
  5
A5
330
A2
100
AcDbEntity
  8
0
  6
CONTINUOUS
 62
     0
100
AcDbLine
 10
0.0
 20
0.0
 30
0.0
 11
-1.0
 21
0.0
 31
0.0
  0
SOLID
  5
A6
330
A2
100
AcDbEntity
  8
0
  6
CONTINUOUS
 62
     0
100
AcDbTrace
 10
0.0
 20
0.0
 30
0.0
 11
-0.965926
 21
0.258819
 31
0.0
 12
-0.965926
 22
-0.258819
 32
0.0
 13
-0.965926
 23
-0.258819
 33
0.0
  0
ENDBLK
  5
A4
330
A2
100
AcDbEntity
  8
0
100
AcDbBlockEnd
  0
BLOCK
  5
11A
330
119
100
AcDbEntity
  8
0
100
AcDbBlockBegin
  2
BLKF021
 70
     0
 71
     0
 10
0.0
 20
0.0
 30
0.0
  3
BLKF021
  1

  0
LINE
  5
11D
330
119
100
AcDbEntity
  8
GR1-1
  6
CONTINUOUS
 62
     7
100
AcDbLine
 10
189.402931
 20
122.478329
 30
0.0
 11
189.336997
 21
122.733275
 31
0.0
  0
LINE
  5
11E
330
119
100
AcDbEntity
  8
GR1-1
  6
CONTINUOUS
 62
     7
100
AcDbLine
 10
189.308425
 20
122.31789
 30
0.0
 11
189.176558
 21
122.827781
 31
0.0
  0
LINE
  5
11F
330
119
100
AcDbEntity
  8
GR1-1
  6
CONTINUOUS
 62
     7
100
AcDbLine
 10
189.213918
 20
122.15745
 30
0.0
 11
189.016118
 21
122.922287
 31
0.0
  0
LINE
  5
120
330
119
100
AcDbEntity
  8
GR1-1
  6
CONTINUOUS
 62
     7
100
AcDbLine
 10
189.119412
 20
121.997011
 30
0.0
 11
188.855679
 21
123.016793
 31
0.0
  0
LINE
  5
121
330
119
100
AcDbEntity
  8
GR1-1
  6
CONTINUOUS
 62
     7
100
AcDbLine
 10
189.024906
 20
121.836571
 30
0.0
 11
188.797466
 21
122.716018
 31
0.0
  0
LINE
  5
122
330
119
100
AcDbEntity
  8
GR1-1
  6
CONTINUOUS
 62
     7
100
AcDbLine
 10
188.735235
 20
122.956649
 30
0.0
 11
188.695239
 21
123.111299
 31
0.0
  0
LINE
  5
123
330
119
100
AcDbEntity
  8
GR1-1
  6
CONTINUOUS
 62
     7
100
AcDbLine
 10
188.9304
 20
121.676132
 30
0.0
 11
188.70296
 21
122.555579
 31
0.0
  0
LINE
  5
124
330
119
100
AcDbEntity
  8
GR1-1
  6
CONTINUOUS
 62
     7
100
AcDbLine
 10
188.574795
 20
123.051155
 30
0.0
 11
188.5348
 21
123.205805
 31
0.0
  0
LINE
  5
125
330
119
100
AcDbEntity
  8
GR1-1
  6
CONTINUOUS
 62
     7
100
AcDbLine
 10
188.835894
 20
121.515692
 30
0.0
 11
188.608454
 21
122.395139
 31
0.0
  0
LINE
  5
126
330
119
100
AcDbEntity
  8
GR1-1
  6
CONTINUOUS
 62
     7
100
AcDbLine
 10
188.414356
 20
123.145661
 30
0.0
 11
188.37436
 21
123.300311
 31
0.0
  0
LINE
  5
127
330
119
100
AcDbEntity
  8
GR1-1
  6
CONTINUOUS
 62
     7
100
AcDbLine
 10
188.741388
 20
121.355253
 30
0.0
 11
188.487026
 21
122.338798
 31
0.0
  0
LINE
  5
128
330
119
100
AcDbEntity
  8
GR1-1
  6
CONTINUOUS
 62
     7
100
AcDbLine
 10
188.253916
 20
123.240167
 30
0.0
 11
188.213921
 21
123.394817
 31
0.0
  0
LINE
  5
129
330
119
100
AcDbEntity
  8
GR1-1
  6
CONTINUOUS
 62
     7
100
AcDbLine
 10
188.646882
 20
121.194813
 30
0.0
 11
188.326587
 21
122.433304
 31
0.0
  0
LINE
  5
12A
330
119
100
AcDbEntity
  8
GR1-1
  6
CONTINUOUS
 62
     7
100
AcDbLine
 10
188.093477
 20
123.334673
 30
0.0
 11
188.053481
 21
123.489323
 31
0.0
  0
LINE
  5
12B
330
119
100
AcDbEntity
  8
GR1-1
  6
CONTINUOUS
 62
     7
100
AcDbLine
 10
188.552376
 20
121.034374
 30
0.0
 11
188.166147
 21
122.52781
 31
0.0
  0
LINE
  5
12C
330
119
100
AcDbEntity
  8
GR1-1
  6
CONTINUOUS
 62
     7
100
AcDbLine
 10
187.933037
 20
123.429179
 30
0.0
 11
187.893042
 21
123.583829
 31
0.0
  0
LINE
  5
12D
330
119
100
AcDbEntity
  8
GR1-1
  6
CONTINUOUS
 62
     7
100
AcDbLine
 10
188.45787
 20
120.873934
 30
0.0
 11
188.024971
 21
122.54783
 31
0.0
  0
LINE
  5
12E
330
119
100
AcDbEntity
  8
GR1-1
  6
CONTINUOUS
 62
     7
100
AcDbLine
 10
187.772598
 20
123.523685
 30
0.0
 11
187.732602
 21
123.678335
 31
0.0
  0
LINE
  5
12F
330
119
100
AcDbEntity
  8
GR1-1
  6
CONTINUOUS
 62
     7
100
AcDbLine
 10
188.363364
 20
120.713495
 30
0.0
 11
188.29743
 21
120.96844
 31
0.0
  0
LINE
  5
130
330
119
100
AcDbEntity
  8
GR1-1
  6
CONTINUOUS
 62
     7
100
AcDbLine
 10
187.664035
 20
123.417601
 30
0.0
 11
187.572163
 21
123.772841
 31
0.0
  0
LINE
  5
131
330
119
100
AcDbEntity
  8
GR1-1
  6
CONTINUOUS
 62
     7
100
AcDbLine
 10
188.268858
 20
120.553055
 30
0.0
 11
188.169958
 21
120.935474
 31
0.0
  0
LINE
  5
132
330
119
100
AcDbEntity
  8
GR1-1
  6
CONTINUOUS
 62
     7
100
AcDbLine
 10
187.569528
 20
123.257161
 30
0.0
 11
187.411724
 21
123.867348
 31
0.0
  0
LINE
  5
133
330
119
100
AcDbEntity
  8
GR1-1
  6
CONTINUOUS
 62
     7
100
AcDbLine
 10
188.174352
 20
120.392616
 30
0.0
 11
188.042485
 21
120.902507
 31
0.0
  0
LINE
  5
134
330
119
100
AcDbEntity
  8
GR1-1
  6
CONTINUOUS
 62
     7
100
AcDbLine
 10
187.475022
 20
123.096722
 30
0.0
 11
187.405089
 21
123.367132
 31
0.0
  0
LINE
  5
135
330
119
100
AcDbEntity
  8
GR1-1
  6
CONTINUOUS
 62
     7
100
AcDbLine
 10
187.383151
 20
123.451963
 30
0.0
 11
187.251284
 21
123.961854
 31
0.0
  0
LINE
  5
136
330
119
100
AcDbEntity
  8
GR1-1
  6
CONTINUOUS
 62
     7
100
AcDbLine
 10
188.079846
 20
120.232176
 30
0.0
 11
187.915012
 21
120.86954
 31
0.0
  0
LINE
  5
137
330
119
100
AcDbEntity
  8
GR1-1
  6
CONTINUOUS
 62
     7
100
AcDbLine
 10
187.380516
 20
122.936282
 30
0.0
 11
187.310583
 21
123.206693
 31
0.0
  0
LINE
  5
138
330
119
100
AcDbEntity
  8
GR1-1
  6
CONTINUOUS
 62
     7
100
AcDbLine
 10
187.255678
 20
123.418996
 30
0.0
 11
187.090845
 21
124.05636
 31
0.0
  0
LINE
  5
139
330
119
100
AcDbEntity
  8
GR1-1
  6
CONTINUOUS
 62
     7
100
AcDbLine
 10
187.98534
 20
120.071737
 30
0.0
 11
187.787539
 21
120.836574
 31
0.0
  0
LINE
  5
13A
330
119
100
AcDbEntity
  8
GR1-1
  6
CONTINUOUS
 62
     7
100
AcDbLine
 10
187.28601
 20
122.775843
 30
0.0
 11
187.216077
 21
123.046253
 31
0.0
  0
LINE
  5
13B
330
119
100
AcDbEntity
  8
GR1-1
  6
CONTINUOUS
 62
     7
100
AcDbLine
 10
187.128205
 20
123.386029
 30
0.0
 11
186.930405
 21
124.150866
 31
0.0
  0
LINE
  5
13C
330
119
100
AcDbEntity
  8
GR1-1
  6
CONTINUOUS
 62
     7
100
AcDbLine
 10
187.890833
 20
119.911298
 30
0.0
 11
187.660067
 21
120.803607
 31
0.0
  0
LINE
  5
13D
330
119
100
AcDbEntity
  8
GR1-1
  6
CONTINUOUS
 62
     7
100
AcDbLine
 10
187.495233
 20
121.440971
 30
0.0
 11
187.308413
 21
122.16335
 31
0.0
  0
LINE
  5
13E
330
119
100
AcDbEntity
  8
GR1-1
  6
CONTINUOUS
 62
     7
100
AcDbLine
 10
187.191504
 20
122.615403
 30
0.0
 11
187.121571
 21
122.885814
 31
0.0
  0
LINE
  5
13F
330
119
100
AcDbEntity
  8
GR1-1
  6
CONTINUOUS
 62
     7
100
AcDbLine
 10
187.000733
 20
123.353062
 30
0.0
 11
186.769966
 21
124.245372
 31
0.0
  0
LINE
  5
140
330
119
100
AcDbEntity
  8
GR1-1
  6
CONTINUOUS
 62
     7
100
AcDbLine
 10
187.796327
 20
119.750858
 30
0.0
 11
187.532594
 21
120.77064
 31
0.0
  0
LINE
  5
141
330
119
100
AcDbEntity
  8
GR1-1
  6
CONTINUOUS
 62
     7
100
AcDbLine
 10
187.36776
 20
121.408004
 30
0.0
 11
187.213553
 21
122.00428
 31
0.0
  0
LINE
  5
142
330
119
100
AcDbEntity
  8
GR1-1
  6
CONTINUOUS
 62
     7
100
AcDbLine
 10
187.096998
 20
122.454964
 30
0.0
 11
187.027065
 21
122.725375
 31
0.0
  0
LINE
  5
143
330
119
100
AcDbEntity
  8
GR1-1
  6
CONTINUOUS
 62
     7
100
AcDbLine
 10
186.87326
 20
123.320096
 30
0.0
 11
186.609526
 21
124.339878
 31
0.0
  0
LINE
  5
144
330
119
100
AcDbEntity
  8
GR1-1
  6
CONTINUOUS
 62
     7
100
AcDbLine
 10
187.701821
 20
119.590419
 30
0.0
 11
187.405121
 21
120.737674
 31
0.0
  0
LINE
  5
145
330
119
100
AcDbEntity
  8
GR1-1
  6
CONTINUOUS
 62
     7
100
AcDbLine
 10
187.240288
 20
121.375037
 30
0.0
 11
187.119047
 21
121.84384
 31
0.0
  0
LINE
  5
146
330
119
100
AcDbEntity
  8
GR1-1
  6
CONTINUOUS
 62
     7
100
AcDbLine
 10
187.002492
 20
122.294524
 30
0.0
 11
186.910621
 21
122.649765
 31
0.0
  0
LINE
  5
147
330
119
100
AcDbEntity
  8
GR1-1
  6
CONTINUOUS
 62
     7
100
AcDbLine
 10
186.745787
 20
123.287129
 30
0.0
 11
186.449087
 21
124.434384
 31
0.0
  0
LINE
  5
148
330
119
100
AcDbEntity
  8
GR1-1
  6
CONTINUOUS
 62
     7
100
AcDbLine
 10
187.607315
 20
119.429979
 30
0.0
 11
187.277648
 21
120.704707
 31
0.0
  0
LINE
  5
149
330
119
100
AcDbEntity
  8
GR1-1
  6
CONTINUOUS
 62
     7
100
AcDbLine
 10
187.112815
 20
121.342071
 30
0.0
 11
186.987977
 21
121.824784
 31
0.0
  0
LINE
  5
14A
330
119
100
AcDbEntity
  8
GR1-1
  6
CONTINUOUS
 62
     7
100
AcDbLine
 10
186.907986
 20
122.134085
 30
0.0
 11
186.783148
 21
122.616798
 31
0.0
  0
LINE
  5
14B
330
119
100
AcDbEntity
  8
GR1-1
  6
CONTINUOUS
 62
     7
100
AcDbLine
 10
186.618314
 20
123.254162
 30
0.0
 11
186.288647
 21
124.52889
 31
0.0
  0
LINE
  5
14C
330
119
100
AcDbEntity
  8
GR1-1
  6
CONTINUOUS
 62
     7
100
AcDbLine
 10
187.512809
 20
119.26954
 30
0.0
 11
187.150175
 21
120.67174
 31
0.0
  0
LINE
  5
14D
330
119
100
AcDbEntity
  8
GR1-1
  6
CONTINUOUS
 62
     7
100
AcDbLine
 10
186.985342
 20
121.309104
 30
0.0
 11
186.827537
 21
121.91929
 31
0.0
  0
LINE
  5
14E
330
119
100
AcDbEntity
  8
GR1-1
  6
CONTINUOUS
 62
     7
100
AcDbLine
 10
186.81348
 20
121.973645
 30
0.0
 11
186.655675
 21
122.583832
 31
0.0
  0
LINE
  5
14F
330
119
100
AcDbEntity
  8
GR1-1
  6
CONTINUOUS
 62
     7
100
AcDbLine
 10
186.490841
 20
123.221196
 30
0.0
 11
186.128208
 21
124.623396
 31
0.0
  0
LINE
  5
150
330
119
100
AcDbEntity
  8
GR1-1
  6
CONTINUOUS
 62
     7
100
AcDbLine
 10
187.366427
 20
119.30969
 30
0.0
 11
187.022703
 21
120.638773
 31
0.0
  0
LINE
  5
151
330
119
100
AcDbEntity
  8
GR1-1
  6
CONTINUOUS
 62
     7
100
AcDbLine
 10
186.857869
 20
121.276137
 30
0.0
 11
186.528202
 21
122.550865
 31
0.0
  0
LINE
  5
152
330
119
100
AcDbEntity
  8
GR1-1
  6
CONTINUOUS
 62
     7
100
AcDbLine
 10
186.363369
 20
123.188229
 30
0.0
 11
186.019644
 21
124.517312
 31
0.0
  0
LINE
  5
153
330
119
100
AcDbEntity
  8
GR1-1
  6
CONTINUOUS
 62
     7
100
AcDbLine
 10
187.205987
 20
119.404196
 30
0.0
 11
186.89523
 21
120.605807
 31
0.0
  0
LINE
  5
154
330
119
100
AcDbEntity
  8
GR1-1
  6
CONTINUOUS
 62
     7
100
AcDbLine
 10
186.730396
 20
121.243171
 30
0.0
 11
186.400729
 21
122.517898
 31
0.0
  0
LINE
  5
155
330
119
100
AcDbEntity
  8
GR1-1
  6
CONTINUOUS
 62
     7
100
AcDbLine
 10
186.235896
 20
123.155262
 30
0.0
 11
185.925138
 21
124.356872
 31
0.0
  0
LINE
  5
156
330
119
100
AcDbEntity
  8
GR1-1
  6
CONTINUOUS
 62
     7
100
AcDbLine
 10
187.045548
 20
119.498703
 30
0.0
 11
186.767757
 21
120.57284
 31
0.0
  0
LINE
  5
157
330
119
100
AcDbEntity
  8
GR1-1
  6
CONTINUOUS
 62
     7
100
AcDbLine
 10
186.602924
 20
121.210204
 30
0.0
 11
186.273257
 21
122.484932
 31
0.0
  0
LINE
  5
158
330
119
100
AcDbEntity
  8
GR1-1
  6
CONTINUOUS
 62
     7
100
AcDbLine
 10
186.108423
 20
123.122296
 30
0.0
 11
185.830632
 21
124.196433
 31
0.0
  0
LINE
  5
159
330
119
100
AcDbEntity
  8
GR1-1
  6
CONTINUOUS
 62
     7
100
AcDbLine
 10
186.885109
 20
119.593209
 30
0.0
 11
186.640284
 21
120.539873
 31
0.0
  0
LINE
  5
15A
330
119
100
AcDbEntity
  8
GR1-1
  6
CONTINUOUS
 62
     7
100
AcDbLine
 10
186.475451
 20
121.177237
 30
0.0
 11
186.145784
 21
122.451965
 31
0.0
  0
LINE
  5
15B
330
119
100
AcDbEntity
  8
GR1-1
  6
CONTINUOUS
 62
     7
100
AcDbLine
 10
185.98095
 20
123.089329
 30
0.0
 11
185.736126
 21
124.035993
 31
0.0
  0
LINE
  5
15C
330
119
100
AcDbEntity
  8
GR1-1
  6
CONTINUOUS
 62
     7
100
AcDbLine
 10
186.724669
 20
119.687715
 30
0.0
 11
186.512812
 21
120.506907
 31
0.0
  0
LINE
  5
15D
330
119
100
AcDbEntity
  8
GR1-1
  6
CONTINUOUS
 62
     7
100
AcDbLine
 10
186.347978
 20
121.14427
 30
0.0
 11
186.018311
 21
122.418998
 31
0.0
  0
LINE
  5
15E
330
119
100
AcDbEntity
  8
GR1-1
  6
CONTINUOUS
 62
     7
100
AcDbLine
 10
185.853478
 20
123.056362
 30
0.0
 11
185.64162
 21
123.875554
 31
0.0
  0
LINE
  5
15F
330
119
100
AcDbEntity
  8
GR1-1
  6
CONTINUOUS
 62
     7
100
AcDbLine
 10
186.56423
 20
119.782221
 30
0.0
 11
186.385339
 21
120.47394
 31
0.0
  0
LINE
  5
160
330
119
100
AcDbEntity
  8
GR1-1
  6
CONTINUOUS
 62
     7
100
AcDbLine
 10
185.726005
 20
123.023395
 30
0.0
 11
185.547114
 21
123.715115
 31
0.0
  0
LINE
  5
161
330
119
100
AcDbEntity
  8
GR1-1
  6
CONTINUOUS
 62
     7
100
AcDbLine
 10
186.40379
 20
119.876727
 30
0.0
 11
186.257866
 21
120.440973
 31
0.0
  0
LINE
  5
162
330
119
100
AcDbEntity
  8
GR1-1
  6
CONTINUOUS
 62
     7
100
AcDbLine
 10
185.598532
 20
122.990429
 30
0.0
 11
185.452608
 21
123.554675
 31
0.0
  0
LINE
  5
163
330
119
100
AcDbEntity
  8
GR1-1
  6
CONTINUOUS
 62
     7
100
AcDbLine
 10
186.243351
 20
119.971233
 30
0.0
 11
186.130393
 21
120.408007
 31
0.0
  0
LINE
  5
164
330
119
100
AcDbEntity
  8
GR1-1
  6
CONTINUOUS
 62
     7
100
AcDbLine
 10
185.471059
 20
122.957462
 30
0.0
 11
185.358102
 21
123.394236
 31
0.0
  0
LINE
  5
165
330
119
100
AcDbEntity
  8
GR1-1
  6
CONTINUOUS
 62
     7
100
AcDbLine
 10
186.082911
 20
120.065739
 30
0.0
 11
186.002921
 21
120.37504
 31
0.0
  0
LINE
  5
166
330
119
100
AcDbEntity
  8
GR1-1
  6
CONTINUOUS
 62
     7
100
AcDbLine
 10
185.343586
 20
122.924495
 30
0.0
 11
185.263596
 21
123.233796
 31
0.0
  0
LINE
  5
167
330
119
100
AcDbEntity
  8
GR1-1
  6
CONTINUOUS
 62
     7
100
AcDbLine
 10
185.922472
 20
120.160245
 30
0.0
 11
185.875448
 21
120.342073
 31
0.0
  0
LINE
  5
168
330
119
100
AcDbEntity
  8
GR1-1
  6
CONTINUOUS
 62
     7
100
AcDbLine
 10
185.216114
 20
122.891529
 30
0.0
 11
185.16909
 21
123.073357
 31
0.0
  0
LINE
  5
169
330
119
100
AcDbEntity
  8
GR1-1
  6
CONTINUOUS
 62
     7
100
AcDbLine
 10
185.762032
 20
120.254751
 30
0.0
 11
185.074584
 21
122.912917
 31
0.0
  0
LINE
  5
16A
330
119
100
AcDbEntity
  8
GR1-1
  6
CONTINUOUS
 62
     7
100
AcDbLine
 10
185.601593
 20
120.349257
 30
0.0
 11
184.980078
 21
122.752478
 31
0.0
  0
LINE
  5
16B
330
119
100
AcDbEntity
  8
GR1-1
  6
CONTINUOUS
 62
     7
100
AcDbLine
 10
185.441153
 20
120.443763
 30
0.0
 11
184.885572
 21
122.592038
 31
0.0
  0
LINE
  5
16C
330
119
100
AcDbEntity
  8
GR1-1
  6
CONTINUOUS
 62
     7
100
AcDbLine
 10
185.280714
 20
120.538269
 30
0.0
 11
184.791065
 21
122.431599
 31
0.0
  0
LINE
  5
16D
330
119
100
AcDbEntity
  8
GR1-1
  6
CONTINUOUS
 62
     7
100
AcDbLine
 10
185.120274
 20
120.632775
 30
0.0
 11
184.696559
 21
122.271159
 31
0.0
  0
LINE
  5
16E
330
119
100
AcDbEntity
  8
GR1-1
  6
CONTINUOUS
 62
     7
100
AcDbLine
 10
184.959835
 20
120.727282
 30
0.0
 11
184.602053
 21
122.11072
 31
0.0
  0
LINE
  5
16F
330
119
100
AcDbEntity
  8
GR1-1
  6
CONTINUOUS
 62
     7
100
AcDbLine
 10
184.799395
 20
120.821788
 30
0.0
 11
184.507547
 21
121.95028
 31
0.0
  0
LINE
  5
170
330
119
100
AcDbEntity
  8
GR1-1
  6
CONTINUOUS
 62
     7
100
AcDbLine
 10
184.638956
 20
120.916294
 30
0.0
 11
184.413041
 21
121.789841
 31
0.0
  0
LINE
  5
171
330
119
100
AcDbEntity
  8
GR1-1
  6
CONTINUOUS
 62
     7
100
AcDbLine
 10
184.478516
 20
121.0108
 30
0.0
 11
184.318535
 21
121.629401
 31
0.0
  0
LINE
  5
172
330
119
100
AcDbEntity
  8
GR1-1
  6
CONTINUOUS
 62
     7
100
AcDbLine
 10
184.318077
 20
121.105306
 30
0.0
 11
184.224029
 21
121.468962
 31
0.0
  0
LINE
  5
173
330
119
100
AcDbEntity
  8
GR1-1
  6
CONTINUOUS
 62
     7
100
AcDbLine
 10
184.157637
 20
121.199812
 30
0.0
 11
184.129523
 21
121.308522
 31
0.0
  0
ENDBLK
  5
11B
330
119
100
AcDbEntity
  8
0
100
AcDbBlockEnd
  0
BLOCK
  5
199
330
198
100
AcDbEntity
  8
0
100
AcDbBlockBegin
  2
BLKF022
 70
     0
 71
     0
 10
0.0
 20
0.0
 30
0.0
  3
BLKF022
  1

  0
LINE
  5
19C
330
198
100
AcDbEntity
  8
LAYERGROUP-1
  6
CONTINUOUS
 62
     3
100
AcDbLine
 10
91.542593
 20
122.142308
 30
0.0
 11
100.342593
 21
122.142308
 31
0.0
  0
LINE
  5
19D
330
198
100
AcDbEntity
  8
LAYERGROUP-1
  6
CONTINUOUS
 62
     3
100
AcDbLine
 10
90.942593
 20
121.542308
 30
0.0
 11
90.942593
 21
115.475641
 31
0.0
  0
LINE
  5
19E
330
198
100
AcDbEntity
  8
LAYERGROUP-1
  6
CONTINUOUS
 62
     3
100
AcDbLine
 10
100.942593
 20
121.542308
 30
0.0
 11
100.942593
 21
115.475641
 31
0.0
  0
LINE
  5
19F
330
198
100
AcDbEntity
  8
LAYERGROUP-1
  6
CONTINUOUS
 62
     3
100
AcDbLine
 10
83.942593
 20
115.475641
 30
0.0
 11
93.055842
 21
115.475641
 31
0.0
  0
LINE
  5
1A0
330
198
100
AcDbEntity
  8
LAYERGROUP-1
  6
CONTINUOUS
 62
     3
100
AcDbLine
 10
98.829345
 20
115.475641
 30
0.0
 11
103.942593
 21
115.475641
 31
0.0
  0
CIRCLE
  5
1A1
330
198
100
AcDbEntity
  8
LAYERGROUP-1
  6
CONTINUOUS
 62
     3
100
AcDbCircle
 10
95.942593
 20
117.142308
 30
0.0
 40
3.333333333333334
  0
LINE
  5
1A2
330
198
100
AcDbEntity
  8
LAYERGROUP-1
  6
CONTINUOUS
 62
     3
100
AcDbLine
 10
84.542593
 20
112.142308
 30
0.0
 11
103.342593
 21
112.142308
 31
0.0
  0
ARC
  5
1A3
330
198
100
AcDbEntity
  8
LAYERGROUP-1
  6
CONTINUOUS
 62
     3
100
AcDbCircle
 10
91.542593
 20
121.542308
 30
0.0
 40
0.6
100
AcDbArc
 50
90.0
 51
180.0
  0
ARC
  5
1A4
330
198
100
AcDbEntity
  8
LAYERGROUP-1
  6
CONTINUOUS
 62
     3
100
AcDbCircle
 10
100.342593
 20
121.542308
 30
0.0
 40
0.6
100
AcDbArc
 50
0.0
 51
90.0
  0
LINE
  5
1A5
330
198
100
AcDbEntity
  8
LAYERGROUP-1
  6
CONTINUOUS
 62
     3
100
AcDbLine
 10
84.542593
 20
100.142308
 30
0.0
 11
103.342593
 21
100.142308
 31
0.0
  0
LINE
  5
1A6
330
198
100
AcDbEntity
  8
LAYERGROUP-1
  6
CONTINUOUS
 62
     3
100
AcDbLine
 10
90.942593
 20
96.808974
 30
0.0
 11
90.942593
 21
90.742308
 31
0.0
  0
LINE
  5
1A7
330
198
100
AcDbEntity
  8
LAYERGROUP-1
  6
CONTINUOUS
 62
     3
100
AcDbLine
 10
100.942593
 20
96.808974
 30
0.0
 11
100.942593
 21
90.742308
 31
0.0
  0
LINE
  5
1A8
330
198
100
AcDbEntity
  8
LAYERGROUP-1
  6
CONTINUOUS
 62
     3
100
AcDbLine
 10
83.942593
 20
96.808974
 30
0.0
 11
93.055842
 21
96.808974
 31
0.0
  0
LINE
  5
1A9
330
198
100
AcDbEntity
  8
LAYERGROUP-1
  6
CONTINUOUS
 62
     3
100
AcDbLine
 10
98.829345
 20
96.808974
 30
0.0
 11
103.942593
 21
96.808974
 31
0.0
  0
CIRCLE
  5
1AA
330
198
100
AcDbEntity
  8
LAYERGROUP-1
  6
CONTINUOUS
 62
     3
100
AcDbCircle
 10
95.942593
 20
95.142308
 30
0.0
 40
3.333333333333334
  0
LINE
  5
1AB
330
198
100
AcDbEntity
  8
LAYERGROUP-1
  6
CONTINUOUS
 62
     3
100
AcDbLine
 10
91.542593
 20
90.142308
 30
0.0
 11
100.342593
 21
90.142308
 31
0.0
  0
ARC
  5
1AC
330
198
100
AcDbEntity
  8
LAYERGROUP-1
  6
CONTINUOUS
 62
     3
100
AcDbCircle
 10
91.542593
 20
90.742308
 30
0.0
 40
0.6
100
AcDbArc
 50
180.0
 51
270.0
  0
ARC
  5
1AD
330
198
100
AcDbEntity
  8
LAYERGROUP-1
  6
CONTINUOUS
 62
     3
100
AcDbCircle
 10
100.342593
 20
90.742308
 30
0.0
 40
0.6
100
AcDbArc
 50
270.0
 51
360.0
  0
LINE
  5
1AE
330
198
100
AcDbEntity
  8
LAYERGROUP-1
  6
CONTINUOUS
 62
     3
100
AcDbLine
 10
92.192593
 20
115.753419
 30
0.0
 11
91.775927
 21
115.753419
 31
0.0
  0
LINE
  5
1AF
330
198
100
AcDbEntity
  8
LAYERGROUP-1
  6
CONTINUOUS
 62
     3
100
AcDbLine
 10
91.775927
 20
115.753419
 30
0.0
 11
91.775927
 21
118.392308
 31
0.0
  0
LINE
  5
1B0
330
198
100
AcDbEntity
  8
LAYERGROUP-1
  6
CONTINUOUS
 62
     3
100
AcDbLine
 10
91.775927
 20
118.392308
 30
0.0
 11
92.192593
 21
118.808974
 31
0.0
  0
LINE
  5
1B1
330
198
100
AcDbEntity
  8
LAYERGROUP-1
  6
CONTINUOUS
 62
     3
100
AcDbLine
 10
92.192593
 20
118.808974
 30
0.0
 11
92.192593
 21
119.392308
 31
0.0
  0
LINE
  5
1B2
330
198
100
AcDbEntity
  8
LAYERGROUP-1
  6
CONTINUOUS
 62
     3
100
AcDbLine
 10
91.35926
 20
119.392308
 30
0.0
 11
91.35926
 21
119.100641
 31
0.0
  0
LINE
  5
1B3
330
198
100
AcDbEntity
  8
LAYERGROUP-1
  6
CONTINUOUS
 62
     3
100
AcDbLine
 10
91.35926
 20
119.392308
 30
0.0
 11
90.942593
 21
119.392308
 31
0.0
  0
LINE
  5
1B4
330
198
100
AcDbEntity
  8
LAYERGROUP-1
  6
CONTINUOUS
 62
     3
100
AcDbLine
 10
93.055842
 20
118.808974
 30
0.0
 11
92.192593
 21
118.808974
 31
0.0
  0
ARC
  5
1B5
330
198
100
AcDbEntity
  8
LAYERGROUP-1
  6
CONTINUOUS
 62
     3
100
AcDbCircle
 10
91.775927
 20
119.392308
 30
0.0
 40
0.4166666666666714
100
AcDbArc
 50
0.0
 51
180.0
  0
LINE
  5
1B6
330
198
100
AcDbEntity
  8
LAYERGROUP-1
  6
CONTINUOUS
 62
     3
100
AcDbLine
 10
99.692593
 20
115.753419
 30
0.0
 11
100.10926
 21
115.753419
 31
0.0
  0
LINE
  5
1B7
330
198
100
AcDbEntity
  8
LAYERGROUP-1
  6
CONTINUOUS
 62
     3
100
AcDbLine
 10
100.10926
 20
115.753419
 30
0.0
 11
100.10926
 21
118.392308
 31
0.0
  0
LINE
  5
1B8
330
198
100
AcDbEntity
  8
LAYERGROUP-1
  6
CONTINUOUS
 62
     3
100
AcDbLine
 10
100.10926
 20
118.392308
 30
0.0
 11
99.692593
 21
118.808974
 31
0.0
  0
LINE
  5
1B9
330
198
100
AcDbEntity
  8
LAYERGROUP-1
  6
CONTINUOUS
 62
     3
100
AcDbLine
 10
99.692593
 20
118.808974
 30
0.0
 11
99.692593
 21
119.392308
 31
0.0
  0
LINE
  5
1BA
330
198
100
AcDbEntity
  8
LAYERGROUP-1
  6
CONTINUOUS
 62
     3
100
AcDbLine
 10
100.525927
 20
119.392308
 30
0.0
 11
100.525927
 21
119.100641
 31
0.0
  0
LINE
  5
1BB
330
198
100
AcDbEntity
  8
LAYERGROUP-1
  6
CONTINUOUS
 62
     3
100
AcDbLine
 10
100.525927
 20
119.392308
 30
0.0
 11
100.942593
 21
119.392308
 31
0.0
  0
LINE
  5
1BC
330
198
100
AcDbEntity
  8
LAYERGROUP-1
  6
CONTINUOUS
 62
     3
100
AcDbLine
 10
98.829345
 20
118.808974
 30
0.0
 11
99.692593
 21
118.808974
 31
0.0
  0
ARC
  5
1BD
330
198
100
AcDbEntity
  8
LAYERGROUP-1
  6
CONTINUOUS
 62
     3
100
AcDbCircle
 10
100.10926
 20
119.392308
 30
0.0
 40
0.4166666666666714
100
AcDbArc
 50
0.0
 51
180.0
  0
LINE
  5
1BE
330
198
100
AcDbEntity
  8
LAYERGROUP-1
  6
CONTINUOUS
 62
     3
100
AcDbLine
 10
92.192593
 20
96.531197
 30
0.0
 11
91.775927
 21
96.531197
 31
0.0
  0
LINE
  5
1BF
330
198
100
AcDbEntity
  8
LAYERGROUP-1
  6
CONTINUOUS
 62
     3
100
AcDbLine
 10
91.775927
 20
96.531197
 30
0.0
 11
91.775927
 21
93.892308
 31
0.0
  0
LINE
  5
1C0
330
198
100
AcDbEntity
  8
LAYERGROUP-1
  6
CONTINUOUS
 62
     3
100
AcDbLine
 10
91.775927
 20
93.892308
 30
0.0
 11
92.192593
 21
93.475641
 31
0.0
  0
LINE
  5
1C1
330
198
100
AcDbEntity
  8
LAYERGROUP-1
  6
CONTINUOUS
 62
     3
100
AcDbLine
 10
92.192593
 20
93.475641
 30
0.0
 11
92.192593
 21
92.892308
 31
0.0
  0
LINE
  5
1C2
330
198
100
AcDbEntity
  8
LAYERGROUP-1
  6
CONTINUOUS
 62
     3
100
AcDbLine
 10
91.35926
 20
92.892308
 30
0.0
 11
91.35926
 21
93.183974
 31
0.0
  0
LINE
  5
1C3
330
198
100
AcDbEntity
  8
LAYERGROUP-1
  6
CONTINUOUS
 62
     3
100
AcDbLine
 10
91.35926
 20
92.892308
 30
0.0
 11
90.942593
 21
92.892308
 31
0.0
  0
LINE
  5
1C4
330
198
100
AcDbEntity
  8
LAYERGROUP-1
  6
CONTINUOUS
 62
     3
100
AcDbLine
 10
93.055842
 20
93.475641
 30
0.0
 11
92.192593
 21
93.475641
 31
0.0
  0
ARC
  5
1C5
330
198
100
AcDbEntity
  8
LAYERGROUP-1
  6
CONTINUOUS
 62
     3
100
AcDbCircle
 10
91.775927
 20
92.892308
 30
0.0
 40
0.4166666666666714
100
AcDbArc
 50
180.0
 51
360.0
  0
LINE
  5
1C6
330
198
100
AcDbEntity
  8
LAYERGROUP-1
  6
CONTINUOUS
 62
     3
100
AcDbLine
 10
99.692593
 20
96.531197
 30
0.0
 11
100.10926
 21
96.531197
 31
0.0
  0
LINE
  5
1C7
330
198
100
AcDbEntity
  8
LAYERGROUP-1
  6
CONTINUOUS
 62
     3
100
AcDbLine
 10
100.10926
 20
96.531197
 30
0.0
 11
100.10926
 21
93.892308
 31
0.0
  0
LINE
  5
1C8
330
198
100
AcDbEntity
  8
LAYERGROUP-1
  6
CONTINUOUS
 62
     3
100
AcDbLine
 10
100.10926
 20
93.892308
 30
0.0
 11
99.692593
 21
93.475641
 31
0.0
  0
LINE
  5
1C9
330
198
100
AcDbEntity
  8
LAYERGROUP-1
  6
CONTINUOUS
 62
     3
100
AcDbLine
 10
99.692593
 20
93.475641
 30
0.0
 11
99.692593
 21
92.892308
 31
0.0
  0
LINE
  5
1CA
330
198
100
AcDbEntity
  8
LAYERGROUP-1
  6
CONTINUOUS
 62
     3
100
AcDbLine
 10
100.525927
 20
92.892308
 30
0.0
 11
100.525927
 21
93.183974
 31
0.0
  0
LINE
  5
1CB
330
198
100
AcDbEntity
  8
LAYERGROUP-1
  6
CONTINUOUS
 62
     3
100
AcDbLine
 10
100.525927
 20
92.892308
 30
0.0
 11
100.942593
 21
92.892308
 31
0.0
  0
LINE
  5
1CC
330
198
100
AcDbEntity
  8
LAYERGROUP-1
  6
CONTINUOUS
 62
     3
100
AcDbLine
 10
98.829345
 20
93.475641
 30
0.0
 11
99.692593
 21
93.475641
 31
0.0
  0
ARC
  5
1CD
330
198
100
AcDbEntity
  8
LAYERGROUP-1
  6
CONTINUOUS
 62
     3
100
AcDbCircle
 10
100.10926
 20
92.892308
 30
0.0
 40
0.4166666666666714
100
AcDbArc
 50
180.0
 51
360.0
  0
ENDBLK
  5
19A
330
198
100
AcDbEntity
  8
0
100
AcDbBlockEnd
  0
BLOCK
  5
1D9
330
1D8
100
AcDbEntity
  8
0
100
AcDbBlockBegin
  2
BLKF023
 70
     0
 71
     0
 10
0.0
 20
0.0
 30
0.0
  3
BLKF023
  1

  0
LINE
  5
1DC
330
1D8
100
AcDbEntity
  8
LAYERGROUP-1
  6
CONTINUOUS
 62
     3
100
AcDbLine
 10
76.342593
 20
122.142308
 30
0.0
 11
67.542593
 21
122.142308
 31
0.0
  0
LINE
  5
1DD
330
1D8
100
AcDbEntity
  8
LAYERGROUP-1
  6
CONTINUOUS
 62
     3
100
AcDbLine
 10
76.942593
 20
121.542308
 30
0.0
 11
76.942593
 21
115.475641
 31
0.0
  0
LINE
  5
1DE
330
1D8
100
AcDbEntity
  8
LAYERGROUP-1
  6
CONTINUOUS
 62
     3
100
AcDbLine
 10
66.942593
 20
121.542308
 30
0.0
 11
66.942593
 21
115.475641
 31
0.0
  0
LINE
  5
1DF
330
1D8
100
AcDbEntity
  8
LAYERGROUP-1
  6
CONTINUOUS
 62
     3
100
AcDbLine
 10
83.942593
 20
115.475641
 30
0.0
 11
74.829345
 21
115.475641
 31
0.0
  0
LINE
  5
1E0
330
1D8
100
AcDbEntity
  8
LAYERGROUP-1
  6
CONTINUOUS
 62
     3
100
AcDbLine
 10
69.055842
 20
115.475641
 30
0.0
 11
63.942593
 21
115.475641
 31
0.0
  0
CIRCLE
  5
1E1
330
1D8
100
AcDbEntity
  8
LAYERGROUP-1
  6
CONTINUOUS
 62
     3
100
AcDbCircle
 10
71.942593
 20
117.142308
 30
0.0
 40
3.333333333333334
  0
LINE
  5
1E2
330
1D8
100
AcDbEntity
  8
LAYERGROUP-1
  6
CONTINUOUS
 62
     3
100
AcDbLine
 10
83.342593
 20
112.142308
 30
0.0
 11
64.542593
 21
112.142308
 31
0.0
  0
ARC
  5
1E3
330
1D8
100
AcDbEntity
  8
LAYERGROUP-1
  6
CONTINUOUS
 62
     3
100
AcDbCircle
 10
76.342593
 20
121.542308
 30
0.0
 40
0.6
100
AcDbArc
 50
0.0
 51
90.0
  0
ARC
  5
1E4
330
1D8
100
AcDbEntity
  8
LAYERGROUP-1
  6
CONTINUOUS
 62
     3
100
AcDbCircle
 10
67.542593
 20
121.542308
 30
0.0
 40
0.6
100
AcDbArc
 50
90.0
 51
180.0
  0
LINE
  5
1E5
330
1D8
100
AcDbEntity
  8
LAYERGROUP-1
  6
CONTINUOUS
 62
     3
100
AcDbLine
 10
83.342593
 20
100.142308
 30
0.0
 11
64.542593
 21
100.142308
 31
0.0
  0
LINE
  5
1E6
330
1D8
100
AcDbEntity
  8
LAYERGROUP-1
  6
CONTINUOUS
 62
     3
100
AcDbLine
 10
76.942593
 20
96.808974
 30
0.0
 11
76.942593
 21
90.742308
 31
0.0
  0
LINE
  5
1E7
330
1D8
100
AcDbEntity
  8
LAYERGROUP-1
  6
CONTINUOUS
 62
     3
100
AcDbLine
 10
66.942593
 20
96.808974
 30
0.0
 11
66.942593
 21
90.742308
 31
0.0
  0
LINE
  5
1E8
330
1D8
100
AcDbEntity
  8
LAYERGROUP-1
  6
CONTINUOUS
 62
     3
100
AcDbLine
 10
83.942593
 20
96.808974
 30
0.0
 11
74.829345
 21
96.808974
 31
0.0
  0
LINE
  5
1E9
330
1D8
100
AcDbEntity
  8
LAYERGROUP-1
  6
CONTINUOUS
 62
     3
100
AcDbLine
 10
69.055842
 20
96.808974
 30
0.0
 11
63.942593
 21
96.808974
 31
0.0
  0
CIRCLE
  5
1EA
330
1D8
100
AcDbEntity
  8
LAYERGROUP-1
  6
CONTINUOUS
 62
     3
100
AcDbCircle
 10
71.942593
 20
95.142308
 30
0.0
 40
3.333333333333334
  0
LINE
  5
1EB
330
1D8
100
AcDbEntity
  8
LAYERGROUP-1
  6
CONTINUOUS
 62
     3
100
AcDbLine
 10
76.342593
 20
90.142308
 30
0.0
 11
67.542593
 21
90.142308
 31
0.0
  0
ARC
  5
1EC
330
1D8
100
AcDbEntity
  8
LAYERGROUP-1
  6
CONTINUOUS
 62
     3
100
AcDbCircle
 10
76.342593
 20
90.742308
 30
0.0
 40
0.6
100
AcDbArc
 50
270.0
 51
360.0
  0
ARC
  5
1ED
330
1D8
100
AcDbEntity
  8
LAYERGROUP-1
  6
CONTINUOUS
 62
     3
100
AcDbCircle
 10
67.542593
 20
90.742308
 30
0.0
 40
0.6
100
AcDbArc
 50
180.0
 51
270.0
  0
LINE
  5
1EE
330
1D8
100
AcDbEntity
  8
LAYERGROUP-1
  6
CONTINUOUS
 62
     3
100
AcDbLine
 10
75.692593
 20
115.753419
 30
0.0
 11
76.10926
 21
115.753419
 31
0.0
  0
LINE
  5
1EF
330
1D8
100
AcDbEntity
  8
LAYERGROUP-1
  6
CONTINUOUS
 62
     3
100
AcDbLine
 10
76.10926
 20
115.753419
 30
0.0
 11
76.10926
 21
118.392308
 31
0.0
  0
LINE
  5
1F0
330
1D8
100
AcDbEntity
  8
LAYERGROUP-1
  6
CONTINUOUS
 62
     3
100
AcDbLine
 10
76.10926
 20
118.392308
 30
0.0
 11
75.692593
 21
118.808974
 31
0.0
  0
LINE
  5
1F1
330
1D8
100
AcDbEntity
  8
LAYERGROUP-1
  6
CONTINUOUS
 62
     3
100
AcDbLine
 10
75.692593
 20
118.808974
 30
0.0
 11
75.692593
 21
119.392308
 31
0.0
  0
LINE
  5
1F2
330
1D8
100
AcDbEntity
  8
LAYERGROUP-1
  6
CONTINUOUS
 62
     3
100
AcDbLine
 10
76.525927
 20
119.392308
 30
0.0
 11
76.525927
 21
119.100641
 31
0.0
  0
LINE
  5
1F3
330
1D8
100
AcDbEntity
  8
LAYERGROUP-1
  6
CONTINUOUS
 62
     3
100
AcDbLine
 10
76.525927
 20
119.392308
 30
0.0
 11
76.942593
 21
119.392308
 31
0.0
  0
LINE
  5
1F4
330
1D8
100
AcDbEntity
  8
LAYERGROUP-1
  6
CONTINUOUS
 62
     3
100
AcDbLine
 10
74.829345
 20
118.808974
 30
0.0
 11
75.692593
 21
118.808974
 31
0.0
  0
ARC
  5
1F5
330
1D8
100
AcDbEntity
  8
LAYERGROUP-1
  6
CONTINUOUS
 62
     3
100
AcDbCircle
 10
76.10926
 20
119.392308
 30
0.0
 40
0.4166666666666714
100
AcDbArc
 50
0.0
 51
180.0
  0
LINE
  5
1F6
330
1D8
100
AcDbEntity
  8
LAYERGROUP-1
  6
CONTINUOUS
 62
     3
100
AcDbLine
 10
68.192593
 20
115.753419
 30
0.0
 11
67.775927
 21
115.753419
 31
0.0
  0
LINE
  5
1F7
330
1D8
100
AcDbEntity
  8
LAYERGROUP-1
  6
CONTINUOUS
 62
     3
100
AcDbLine
 10
67.775927
 20
115.753419
 30
0.0
 11
67.775927
 21
118.392308
 31
0.0
  0
LINE
  5
1F8
330
1D8
100
AcDbEntity
  8
LAYERGROUP-1
  6
CONTINUOUS
 62
     3
100
AcDbLine
 10
67.775927
 20
118.392308
 30
0.0
 11
68.192593
 21
118.808974
 31
0.0
  0
LINE
  5
1F9
330
1D8
100
AcDbEntity
  8
LAYERGROUP-1
  6
CONTINUOUS
 62
     3
100
AcDbLine
 10
68.192593
 20
118.808974
 30
0.0
 11
68.192593
 21
119.392308
 31
0.0
  0
LINE
  5
1FA
330
1D8
100
AcDbEntity
  8
LAYERGROUP-1
  6
CONTINUOUS
 62
     3
100
AcDbLine
 10
67.35926
 20
119.392308
 30
0.0
 11
67.35926
 21
119.100641
 31
0.0
  0
LINE
  5
1FB
330
1D8
100
AcDbEntity
  8
LAYERGROUP-1
  6
CONTINUOUS
 62
     3
100
AcDbLine
 10
67.35926
 20
119.392308
 30
0.0
 11
66.942593
 21
119.392308
 31
0.0
  0
LINE
  5
1FC
330
1D8
100
AcDbEntity
  8
LAYERGROUP-1
  6
CONTINUOUS
 62
     3
100
AcDbLine
 10
69.055842
 20
118.808974
 30
0.0
 11
68.192593
 21
118.808974
 31
0.0
  0
ARC
  5
1FD
330
1D8
100
AcDbEntity
  8
LAYERGROUP-1
  6
CONTINUOUS
 62
     3
100
AcDbCircle
 10
67.775927
 20
119.392308
 30
0.0
 40
0.4166666666666714
100
AcDbArc
 50
0.0
 51
180.0
  0
LINE
  5
1FE
330
1D8
100
AcDbEntity
  8
LAYERGROUP-1
  6
CONTINUOUS
 62
     3
100
AcDbLine
 10
75.692593
 20
96.531197
 30
0.0
 11
76.10926
 21
96.531197
 31
0.0
  0
LINE
  5
1FF
330
1D8
100
AcDbEntity
  8
LAYERGROUP-1
  6
CONTINUOUS
 62
     3
100
AcDbLine
 10
76.10926
 20
96.531197
 30
0.0
 11
76.10926
 21
93.892308
 31
0.0
  0
LINE
  5
200
330
1D8
100
AcDbEntity
  8
LAYERGROUP-1
  6
CONTINUOUS
 62
     3
100
AcDbLine
 10
76.10926
 20
93.892308
 30
0.0
 11
75.692593
 21
93.475641
 31
0.0
  0
LINE
  5
201
330
1D8
100
AcDbEntity
  8
LAYERGROUP-1
  6
CONTINUOUS
 62
     3
100
AcDbLine
 10
75.692593
 20
93.475641
 30
0.0
 11
75.692593
 21
92.892308
 31
0.0
  0
LINE
  5
202
330
1D8
100
AcDbEntity
  8
LAYERGROUP-1
  6
CONTINUOUS
 62
     3
100
AcDbLine
 10
76.525927
 20
92.892308
 30
0.0
 11
76.525927
 21
93.183974
 31
0.0
  0
LINE
  5
203
330
1D8
100
AcDbEntity
  8
LAYERGROUP-1
  6
CONTINUOUS
 62
     3
100
AcDbLine
 10
76.525927
 20
92.892308
 30
0.0
 11
76.942593
 21
92.892308
 31
0.0
  0
LINE
  5
204
330
1D8
100
AcDbEntity
  8
LAYERGROUP-1
  6
CONTINUOUS
 62
     3
100
AcDbLine
 10
74.829345
 20
93.475641
 30
0.0
 11
75.692593
 21
93.475641
 31
0.0
  0
ARC
  5
205
330
1D8
100
AcDbEntity
  8
LAYERGROUP-1
  6
CONTINUOUS
 62
     3
100
AcDbCircle
 10
76.10926
 20
92.892308
 30
0.0
 40
0.4166666666666714
100
AcDbArc
 50
180.0
 51
360.0
  0
LINE
  5
206
330
1D8
100
AcDbEntity
  8
LAYERGROUP-1
  6
CONTINUOUS
 62
     3
100
AcDbLine
 10
68.192593
 20
96.531197
 30
0.0
 11
67.775927
 21
96.531197
 31
0.0
  0
LINE
  5
207
330
1D8
100
AcDbEntity
  8
LAYERGROUP-1
  6
CONTINUOUS
 62
     3
100
AcDbLine
 10
67.775927
 20
96.531197
 30
0.0
 11
67.775927
 21
93.892308
 31
0.0
  0
LINE
  5
208
330
1D8
100
AcDbEntity
  8
LAYERGROUP-1
  6
CONTINUOUS
 62
     3
100
AcDbLine
 10
67.775927
 20
93.892308
 30
0.0
 11
68.192593
 21
93.475641
 31
0.0
  0
LINE
  5
209
330
1D8
100
AcDbEntity
  8
LAYERGROUP-1
  6
CONTINUOUS
 62
     3
100
AcDbLine
 10
68.192593
 20
93.475641
 30
0.0
 11
68.192593
 21
92.892308
 31
0.0
  0
LINE
  5
20A
330
1D8
100
AcDbEntity
  8
LAYERGROUP-1
  6
CONTINUOUS
 62
     3
100
AcDbLine
 10
67.35926
 20
92.892308
 30
0.0
 11
67.35926
 21
93.183974
 31
0.0
  0
LINE
  5
20B
330
1D8
100
AcDbEntity
  8
LAYERGROUP-1
  6
CONTINUOUS
 62
     3
100
AcDbLine
 10
67.35926
 20
92.892308
 30
0.0
 11
66.942593
 21
92.892308
 31
0.0
  0
LINE
  5
20C
330
1D8
100
AcDbEntity
  8
LAYERGROUP-1
  6
CONTINUOUS
 62
     3
100
AcDbLine
 10
69.055842
 20
93.475641
 30
0.0
 11
68.192593
 21
93.475641
 31
0.0
  0
ARC
  5
20D
330
1D8
100
AcDbEntity
  8
LAYERGROUP-1
  6
CONTINUOUS
 62
     3
100
AcDbCircle
 10
67.775927
 20
92.892308
 30
0.0
 40
0.4166666666666714
100
AcDbArc
 50
180.0
 51
360.0
  0
ENDBLK
  5
1DA
330
1D8
100
AcDbEntity
  8
0
100
AcDbBlockEnd
  0
BLOCK
  5
216
330
215
100
AcDbEntity
  8
0
100
AcDbBlockBegin
  2
BLKF024
 70
     0
 71
     0
 10
0.0
 20
0.0
 30
0.0
  3
BLKF024
  1

  0
CIRCLE
  5
219
330
215
100
AcDbEntity
  8
LAYERGROUP-1
  6
CONTINUOUS
 62
     3
100
AcDbCircle
 10
213.611538
 20
106.142308
 30
0.0
 40
16.0
  0
CIRCLE
  5
21A
330
215
100
AcDbEntity
  8
LAYERGROUP-1
  6
CONTINUOUS
 62
     3
100
AcDbCircle
 10
213.611538
 20
106.142308
 30
0.0
 40
12.66666666666666
  0
CIRCLE
  5
21B
330
215
100
AcDbEntity
  8
LAYERGROUP-1
  6
CONTINUOUS
 62
     3
100
AcDbCircle
 10
213.611538
 20
106.142308
 30
0.0
 40
9.333333333333343
  0
CIRCLE
  5
21C
330
215
100
AcDbEntity
  8
LAYERGROUP-1
  6
CONTINUOUS
 62
     3
100
AcDbCircle
 10
213.611538
 20
106.142308
 30
0.0
 40
6.0
  0
ENDBLK
  5
217
330
215
100
AcDbEntity
  8
0
100
AcDbBlockEnd
  0
BLOCK
  5
228
330
227
100
AcDbEntity
  8
0
100
AcDbBlockBegin
  2
*D23
 70
     1
 71
     0
 10
0.0
 20
0.0
 30
0.0
  3
*D23
  1

  0
TEXT
  5
22A
330
227
100
AcDbEntity
  8
GR1-1
  6
CONTINUOUS
 62
     7
100
AcDbText
 10
116.461151
 20
101.642311
 30
0.0
 40
4.0
  1
%%c12
 50
90.0
 41
0.84375
  7
FX_VECTOR
 72
     5
 11
116.461151
 21
110.642311
 31
0.0
100
AcDbText
  0
LINE
  5
22B
330
227
100
AcDbEntity
  8
GR1-1
  6
CONTINUOUS
 62
     7
100
AcDbLine
 10
117.46115
 20
100.142308
 30
0.0
 11
117.46115
 21
112.142308
 31
0.0
  0
INSERT
  5
22C
330
227
100
AcDbEntity
  8
GR1-1
  6
CONTINUOUS
 62
     7
100
AcDbBlockReference
  2
FXTIP_ARROW_S
 10
117.46115
 20
100.142308
 30
0.0
 41
3.0
 42
3.0
 50
270.0
  0
INSERT
  5
22D
330
227
100
AcDbEntity
  8
GR1-1
  6
CONTINUOUS
 62
     7
100
AcDbBlockReference
  2
FXTIP_ARROW_E
 10
117.46115
 20
112.142308
 30
0.0
 41
3.0
 42
3.0
 50
90.0
  0
LINE
  5
22E
330
227
100
AcDbEntity
  8
GR1-1
  6
CONTINUOUS
 62
     7
100
AcDbLine
 10
104.342593
 20
100.142308
 30
0.0
 11
118.46115
 21
100.142308
 31
0.0
  0
LINE
  5
22F
330
227
100
AcDbEntity
  8
GR1-1
  6
CONTINUOUS
 62
     7
100
AcDbLine
 10
104.342593
 20
112.142308
 30
0.0
 11
118.46115
 21
112.142308
 31
0.0
  0
ENDBLK
  5
229
330
227
100
AcDbEntity
  8
0
100
AcDbBlockEnd
  0
BLOCK
  5
232
330
231
100
AcDbEntity
  8
0
100
AcDbBlockBegin
  2
*D24
 70
     1
 71
     0
 10
0.0
 20
0.0
 30
0.0
  3
*D24
  1

  0
TEXT
  5
234
330
231
100
AcDbEntity
  8
GR1-1
  6
CONTINUOUS
 62
     7
100
AcDbText
 10
135.714264
 20
101.642311
 30
0.0
 40
4.0
  1
%%c75
 50
90.0
 41
0.84375
  7
FX_VECTOR
 72
     5
 11
135.714264
 21
110.642311
 31
0.0
100
AcDbText
  0
LINE
  5
235
330
231
100
AcDbEntity
  8
GR1-1
  6
CONTINUOUS
 62
     7
100
AcDbLine
 10
136.714261
 20
68.642308
 30
0.0
 11
136.714261
 21
143.642308
 31
0.0
  0
INSERT
  5
236
330
231
100
AcDbEntity
  8
GR1-1
  6
CONTINUOUS
 62
     7
100
AcDbBlockReference
  2
FXTIP_ARROW_S
 10
136.714261
 20
68.642308
 30
0.0
 41
3.0
 42
3.0
 50
270.0
  0
INSERT
  5
237
330
231
100
AcDbEntity
  8
GR1-1
  6
CONTINUOUS
 62
     7
100
AcDbBlockReference
  2
FXTIP_ARROW_E
 10
136.714261
 20
143.642308
 30
0.0
 41
3.0
 42
3.0
 50
90.0
  0
LINE
  5
238
330
231
100
AcDbEntity
  8
GR1-1
  6
CONTINUOUS
 62
     7
100
AcDbLine
 10
84.942593
 20
68.642308
 30
0.0
 11
137.714261
 21
68.642308
 31
0.0
  0
LINE
  5
239
330
231
100
AcDbEntity
  8
GR1-1
  6
CONTINUOUS
 62
     7
100
AcDbLine
 10
84.942593
 20
143.642308
 30
0.0
 11
137.714261
 21
143.642308
 31
0.0
  0
ENDBLK
  5
233
330
231
100
AcDbEntity
  8
0
100
AcDbBlockEnd
  0
BLOCK
  5
23C
330
23B
100
AcDbEntity
  8
0
100
AcDbBlockBegin
  2
*D25
 70
     1
 71
     0
 10
0.0
 20
0.0
 30
0.0
  3
*D25
  1

  0
TEXT
  5
23E
330
23B
100
AcDbEntity
  8
GR1-1
  6
CONTINUOUS
 62
     7
100
AcDbText
 10
80.942596
 20
56.202152
 30
0.0
 40
4.0
  1
38
 41
0.851351
  7
FX_VECTOR
 72
     5
 11
86.942596
 21
56.202152
 31
0.0
100
AcDbText
  0
LINE
  5
23F
330
23B
100
AcDbEntity
  8
GR1-1
  6
CONTINUOUS
 62
     7
100
AcDbLine
 10
64.942593
 20
55.202151
 30
0.0
 11
102.942593
 21
55.202151
 31
0.0
  0
INSERT
  5
240
330
23B
100
AcDbEntity
  8
GR1-1
  6
CONTINUOUS
 62
     7
100
AcDbBlockReference
  2
FXTIP_ARROW_S
 10
64.942593
 20
55.202151
 30
0.0
 41
3.0
 42
3.0
 50
180.0
  0
INSERT
  5
241
330
23B
100
AcDbEntity
  8
GR1-1
  6
CONTINUOUS
 62
     7
100
AcDbBlockReference
  2
FXTIP_ARROW_E
 10
102.942593
 20
55.202151
 30
0.0
 41
3.0
 42
3.0
 50
360.0
  0
LINE
  5
242
330
23B
100
AcDbEntity
  8
GR1-1
  6
CONTINUOUS
 62
     7
100
AcDbLine
 10
64.942593
 20
80.142308
 30
0.0
 11
64.942593
 21
54.202151
 31
0.0
  0
LINE
  5
243
330
23B
100
AcDbEntity
  8
GR1-1
  6
CONTINUOUS
 62
     7
100
AcDbLine
 10
102.942593
 20
80.142308
 30
0.0
 11
102.942593
 21
54.202151
 31
0.0
  0
ENDBLK
  5
23D
330
23B
100
AcDbEntity
  8
0
100
AcDbBlockEnd
  0
BLOCK
  5
246
330
245
100
AcDbEntity
  8
0
100
AcDbBlockBegin
  2
*D26
 70
     1
 71
     0
 10
0.0
 20
0.0
 30
0.0
  3
*D26
  1

  0
TEXT
  5
248
330
245
100
AcDbEntity
  8
GR1-1
  6
CONTINUOUS
 62
     7
100
AcDbText
 10
80.942596
 20
39.871227
 30
0.0
 40
4.0
  1
40
 41
0.851351
  7
FX_VECTOR
 72
     5
 11
86.942596
 21
39.871227
 31
0.0
100
AcDbText
  0
LINE
  5
249
330
245
100
AcDbEntity
  8
GR1-1
  6
CONTINUOUS
 62
     7
100
AcDbLine
 10
63.942593
 20
38.871226
 30
0.0
 11
103.942593
 21
38.871226
 31
0.0
  0
INSERT
  5
24A
330
245
100
AcDbEntity
  8
GR1-1
  6
CONTINUOUS
 62
     7
100
AcDbBlockReference
  2
FXTIP_ARROW_S
 10
63.942593
 20
38.871226
 30
0.0
 41
3.0
 42
3.0
 50
180.0
  0
INSERT
  5
24B
330
245
100
AcDbEntity
  8
GR1-1
  6
CONTINUOUS
 62
     7
100
AcDbBlockReference
  2
FXTIP_ARROW_E
 10
103.942593
 20
38.871226
 30
0.0
 41
3.0
 42
3.0
 50
360.0
  0
LINE
  5
24C
330
245
100
AcDbEntity
  8
GR1-1
  6
CONTINUOUS
 62
     7
100
AcDbLine
 10
63.942593
 20
95.808974
 30
0.0
 11
63.942593
 21
37.871226
 31
0.0
  0
LINE
  5
24D
330
245
100
AcDbEntity
  8
GR1-1
  6
CONTINUOUS
 62
     7
100
AcDbLine
 10
103.942593
 20
95.808974
 30
0.0
 11
103.942593
 21
37.871226
 31
0.0
  0
ENDBLK
  5
247
330
245
100
AcDbEntity
  8
0
100
AcDbBlockEnd
  0
BLOCK
  5
24F
330
24E
100
AcDbEntity
  8
0
100
AcDbBlockBegin
  2
BLKF029
 70
     0
 71
     0
 10
0.0
 20
0.0
 30
0.0
  3
BLKF029
  1

  0
LINE
  5
252
330
24E
100
AcDbEntity
  8
}}ﾊﾊGG血CCТ
  6
CONTINUOUS
 62
     7
100
AcDbLine
 10
10.0
 20
10.0
 30
0.0
 11
287.0
 21
10.0
 31
0.0
  0
LINE
  5
253
330
24E
100
AcDbEntity
  8
}}ﾊﾊGG血CCТ
  6
CONTINUOUS
 62
     7
100
AcDbLine
 10
10.0
 20
10.0
 30
0.0
 11
10.0
 21
200.0
 31
0.0
  0
LINE
  5
254
330
24E
100
AcDbEntity
  8
}}ﾊﾊGG血CCТ
  6
CONTINUOUS
 62
     7
100
AcDbLine
 10
10.0
 20
200.0
 30
0.0
 11
287.0
 21
200.0
 31
0.0
  0
LINE
  5
255
330
24E
100
AcDbEntity
  8
}}ﾊﾊGG血CCТ
  6
CONTINUOUS
 62
     7
100
AcDbLine
 10
287.0
 20
200.0
 30
0.0
 11
287.0
 21
10.0
 31
0.0
  0
LINE
  5
256
330
24E
100
AcDbEntity
  8
}}ﾊﾊGG血CCТ
  6
CONTINUOUS
 62
     7
100
AcDbLine
 10
30.0
 20
10.0
 30
0.0
 11
30.0
 21
20.0
 31
0.0
  0
TEXT
  5
257
330
24E
100
AcDbEntity
  8
}}ﾊﾊGG血CCТ
  6
CONTINUOUS
 62
     7
100
AcDbText
 10
14.738815
 20
11.596879
 30
0.0
 40
6.648749
  1
品名
 41
1.083413
  7
FX_VECTOR
 72
     5
 11
26.058355
 21
11.596879
 31
0.0
100
AcDbText
  0
LINE
  5
258
330
24E
100
AcDbEntity
  8
}}ﾊﾊGG血CCТ
  6
CONTINUOUS
 62
     7
100
AcDbLine
 10
110.0
 20
20.0
 30
0.0
 11
110.0
 21
10.0
 31
0.0
  0
LINE
  5
259
330
24E
100
AcDbEntity
  8
}}ﾊﾊGG血CCТ
  6
CONTINUOUS
 62
     7
100
AcDbLine
 10
10.0
 20
20.0
 30
0.0
 11
287.0
 21
20.0
 31
0.0
  0
INSERT
  5
25D
330
24E
100
AcDbEntity
  8
0
100
AcDbBlockReference
  2
BLKF030
 10
0.0
 20
0.0
 30
0.0
  0
INSERT
  5
266
330
24E
100
AcDbEntity
  8
0
100
AcDbBlockReference
  2
BLKF031
 10
0.0
 20
0.0
 30
0.0
  0
HATCH
  5
276
330
24E
100
AcDbEntity
  8
GR1-1
  6
CONTINUOUS
 62
     7
100
AcDbHatch
 10
0.0
 20
0.0
 30
0.0
210
0.0
220
0.0
230
1.0
  2

 70
     0
 71
     1
 91
        2
 92
        0
 93
        4
 72
     1
 10
215.8018997861325
 20
17.91346152
 11
221.8018997861325
 21
17.91346152
 72
     1
 10
221.8018997861325
 20
17.91346152
 11
221.8018997861325
 21
11.91346152
 72
     1
 10
221.8018997861325
 20
11.91346152
 11
215.8018997861325
 21
11.91346152
 72
     1
 10
215.8018997861325
 20
11.91346152
 11
215.8018997861325
 21
17.91346152
 97
        0
 92
        0
 93
       15
 72
     1
 10
218.8018997861325
 20
17.76923076000002
 11
215.9461305461325
 21
14.91346152
 72
     1
 10
215.9461305461325
 20
14.91346152
 11
218.8018997861325
 21
12.05769228000001
 72
     1
 10
218.8018997861325
 20
12.05769228000001
 11
220.3595920661325
 21
13.61538462
 72
     1
 10
220.3595920661325
 20
13.61538462
 11
220.3595920661325
 21
12.98076924
 72
     1
 10
220.3595920661325
 20
12.98076924
 11
221.2249766861325
 21
12.98076924
 72
     1
 10
221.2249766861325
 20
12.98076924
 11
221.2249766861325
 21
15.00000000000001
 72
     1
 10
221.2249766861325
 20
15.00000000000001
 11
218.8018997861325
 21
15.00000000000001
 72
     1
 10
218.8018997861325
 20
15.00000000000001
 11
218.8018997861325
 21
14.13461538000001
 72
     1
 10
218.8018997861325
 20
14.13461538000001
 11
219.2461305461325
 21
14.13461538000001
 72
     1
 10
219.2461305461325
 20
14.13461538000001
 11
218.8018997861325
 21
13.69038462
 72
     1
 10
218.8018997861325
 20
13.69038462
 11
217.5788228861325
 21
14.91346152
 72
     1
 10
217.5788228861325
 20
14.91346152
 11
218.8018997861325
 21
16.13653842000003
 72
     1
 10
218.8018997861325
 20
16.13653842000003
 11
219.5922844061325
 21
15.3461538
 72
     1
 10
219.5922844061325
 20
15.3461538
 11
221.2249766861325
 21
15.3461538
 72
     1
 10
221.2249766861325
 20
15.3461538
 11
218.8018997861325
 21
17.76923076000002
 97
        0
 75
     0
 76
     0
 52
45.0
 41
0.05
 77
     0
 78
     1
 53
45.0
 43
0.0
 44
0.0
 45
-0.0353553390593274
 46
0.0353553390593274
 79
     0
 98
        0
  0
TEXT
  5
277
330
24E
100
AcDbEntity
  8
}}ﾊﾊGG血CCТ
  6
CONTINUOUS
 62
     7
100
AcDbText
 10
226.225754
 20
11.461285
 30
0.0
 40
6.0
  1
GOLD CASTER
 41
0.719626
  7
FX_VECTOR
 72
     5
 11
270.225754
 21
11.461285
 31
0.0
100
AcDbText
  0
LINE
  5
278
330
24E
100
AcDbEntity
  8
}}ﾊﾊGG血CCТ
  6
CONTINUOUS
 62
     7
100
AcDbLine
 10
130.0
 20
10.0
 30
0.0
 11
130.0
 21
20.0
 31
0.0
  0
TEXT
  5
279
330
24E
100
AcDbEntity
  8
}}ﾊﾊGG血CCТ
  6
CONTINUOUS
 62
     7
100
AcDbText
 10
114.738815
 20
11.596879
 30
0.0
 40
6.648749
  1
図番
 41
1.083413
  7
FX_VECTOR
 72
     5
 11
126.058355
 21
11.596879
 31
0.0
100
AcDbText
  0
LINE
  5
27A
330
24E
100
AcDbEntity
  8
}}ﾊﾊGG血CCТ
  6
CONTINUOUS
 62
     7
100
AcDbLine
 10
210.0
 20
20.0
 30
0.0
 11
210.0
 21
10.0
 31
0.0
  0
ENDBLK
  5
250
330
24E
100
AcDbEntity
  8
0
100
AcDbBlockEnd
  0
BLOCK
  5
25B
330
25A
100
AcDbEntity
  8
0
100
AcDbBlockBegin
  2
BLKF030
 70
     0
 71
     0
 10
0.0
 20
0.0
 30
0.0
  3
BLKF030
  1

  0
LINE
  5
25F
330
25A
100
AcDbEntity
  8
0-1
  6
CONTINUOUS
 62
     7
100
AcDbLine
 10
221.8019
 20
17.913462
 30
0.0
 11
215.8019
 21
17.913462
 31
0.0
  0
LINE
  5
260
330
25A
100
AcDbEntity
  8
0-1
  6
CONTINUOUS
 62
     7
100
AcDbLine
 10
215.8019
 20
17.913462
 30
0.0
 11
215.8019
 21
11.913462
 31
0.0
  0
LINE
  5
261
330
25A
100
AcDbEntity
  8
0-1
  6
CONTINUOUS
 62
     7
100
AcDbLine
 10
215.8019
 20
11.913462
 30
0.0
 11
221.8019
 21
11.913462
 31
0.0
  0
LINE
  5
262
330
25A
100
AcDbEntity
  8
0-1
  6
CONTINUOUS
 62
     7
100
AcDbLine
 10
221.8019
 20
11.913462
 30
0.0
 11
221.8019
 21
17.913462
 31
0.0
  0
ENDBLK
  5
25C
330
25A
100
AcDbEntity
  8
0
100
AcDbBlockEnd
  0
BLOCK
  5
264
330
263
100
AcDbEntity
  8
0
100
AcDbBlockBegin
  2
BLKF031
 70
     0
 71
     0
 10
0.0
 20
0.0
 30
0.0
  3
BLKF031
  1

  0
LINE
  5
267
330
263
100
AcDbEntity
  8
0-1
  6
CONTINUOUS
 62
     7
100
AcDbLine
 10
221.224977
 20
15.346154
 30
0.0
 11
218.8019
 21
17.769231
 31
0.0
  0
LINE
  5
268
330
263
100
AcDbEntity
  8
0-1
  6
CONTINUOUS
 62
     7
100
AcDbLine
 10
218.8019
 20
17.769231
 30
0.0
 11
215.946131
 21
14.913462
 31
0.0
  0
LINE
  5
269
330
263
100
AcDbEntity
  8
0-1
  6
CONTINUOUS
 62
     7
100
AcDbLine
 10
215.946131
 20
14.913462
 30
0.0
 11
218.8019
 21
12.057692
 31
0.0
  0
LINE
  5
26A
330
263
100
AcDbEntity
  8
0-1
  6
CONTINUOUS
 62
     7
100
AcDbLine
 10
218.8019
 20
12.057692
 30
0.0
 11
220.359592
 21
13.615385
 31
0.0
  0
LINE
  5
26B
330
263
100
AcDbEntity
  8
0-1
  6
CONTINUOUS
 62
     7
100
AcDbLine
 10
220.359592
 20
13.615385
 30
0.0
 11
220.359592
 21
12.980769
 31
0.0
  0
LINE
  5
26C
330
263
100
AcDbEntity
  8
0-1
  6
CONTINUOUS
 62
     7
100
AcDbLine
 10
220.359592
 20
12.980769
 30
0.0
 11
221.224977
 21
12.980769
 31
0.0
  0
LINE
  5
26D
330
263
100
AcDbEntity
  8
0-1
  6
CONTINUOUS
 62
     7
100
AcDbLine
 10
221.224977
 20
12.980769
 30
0.0
 11
221.224977
 21
15.0
 31
0.0
  0
LINE
  5
26E
330
263
100
AcDbEntity
  8
0-1
  6
CONTINUOUS
 62
     7
100
AcDbLine
 10
221.224977
 20
15.0
 30
0.0
 11
218.8019
 21
15.0
 31
0.0
  0
LINE
  5
26F
330
263
100
AcDbEntity
  8
0-1
  6
CONTINUOUS
 62
     7
100
AcDbLine
 10
218.8019
 20
15.0
 30
0.0
 11
218.8019
 21
14.134615
 31
0.0
  0
LINE
  5
270
330
263
100
AcDbEntity
  8
0-1
  6
CONTINUOUS
 62
     7
100
AcDbLine
 10
218.8019
 20
14.134615
 30
0.0
 11
219.246131
 21
14.134615
 31
0.0
  0
LINE
  5
271
330
263
100
AcDbEntity
  8
0-1
  6
CONTINUOUS
 62
     7
100
AcDbLine
 10
219.246131
 20
14.134615
 30
0.0
 11
218.8019
 21
13.690385
 31
0.0
  0
LINE
  5
272
330
263
100
AcDbEntity
  8
0-1
  6
CONTINUOUS
 62
     7
100
AcDbLine
 10
218.8019
 20
13.690385
 30
0.0
 11
217.578823
 21
14.913462
 31
0.0
  0
LINE
  5
273
330
263
100
AcDbEntity
  8
0-1
  6
CONTINUOUS
 62
     7
100
AcDbLine
 10
217.578823
 20
14.913462
 30
0.0
 11
218.8019
 21
16.136538
 31
0.0
  0
LINE
  5
274
330
263
100
AcDbEntity
  8
0-1
  6
CONTINUOUS
 62
     7
100
AcDbLine
 10
218.8019
 20
16.136538
 30
0.0
 11
219.592284
 21
15.346154
 31
0.0
  0
LINE
  5
275
330
263
100
AcDbEntity
  8
0-1
  6
CONTINUOUS
 62
     7
100
AcDbLine
 10
219.592284
 20
15.346154
 30
0.0
 11
221.224977
 21
15.346154
 31
0.0
  0
ENDBLK
  5
265
330
263
100
AcDbEntity
  8
0
100
AcDbBlockEnd
  0
ENDSEC
  0
SECTION
  2
ENTITIES
  0
TEXT
  5
A8
330
1F
100
AcDbEntity
  8
}}ﾊﾊGG血CCТ
  6
CONTINUOUS
 62
     7
100
AcDbText
 10
32.365334
 20
12.0
 30
0.0
 40
6.0
  1
Ｈ－　７５　ＲＢ
 41
0.794326
  7
FX_VECTOR
 72
     5
 11
64.365334
 21
12.0
 31
0.0
100
AcDbText
  0
TEXT
  5
A9
330
1F
100
AcDbEntity
  8
}}ﾊﾊGG血CCТ
  6
CONTINUOUS
 62
     7
100
AcDbText
 10
132.494263
 20
12.0
 30
0.0
 40
6.0
  1
1H25FAAA-C02
 41
0.705882
  7
FX_VECTOR
 72
     5
 11
180.494263
 21
12.0
 31
0.0
100
AcDbText
  0
LINE
  5
AB
330
1F
100
AcDbEntity
  8
GR1-1
  6
CONTINUOUS
 62
     3
100
AcDbLine
 10
67.442593
 20
133.642308
 30
0.0
 11
81.842593
 21
133.642308
 31
0.0
  0
ARC
  5
AC
330
1F
100
AcDbEntity
  8
GR1-1
  6
CONTINUOUS
 62
     3
100
AcDbCircle
 10
81.842593
 20
131.542308
 30
0.0
 40
2.1
100
AcDbArc
 50
0.0
 51
90.0
  0
LINE
  5
AD
330
1F
100
AcDbEntity
  8
GR1-1
  6
CONTINUOUS
 62
     3
100
AcDbLine
 10
83.942593
 20
131.542308
 30
0.0
 11
83.942593
 21
130.042308
 31
0.0
  0
ARC
  5
AE
330
1F
100
AcDbEntity
  8
GR1-1
  6
CONTINUOUS
 62
     3
100
AcDbCircle
 10
86.042593
 20
131.542308
 30
0.0
 40
2.1
100
AcDbArc
 50
90.0
 51
180.0
  0
LINE
  5
AF
330
1F
100
AcDbEntity
  8
GR1-1
  6
CONTINUOUS
 62
     3
100
AcDbLine
 10
85.542593
 20
131.342308
 30
0.0
 11
85.542593
 21
129.342308
 31
0.0
  0
LINE
  5
B0
330
1F
100
AcDbEntity
  8
GR1-1
  6
CONTINUOUS
 62
     3
100
AcDbLine
 10
82.342593
 20
129.342308
 30
0.0
 11
82.342593
 21
131.342308
 31
0.0
  0
LINE
  5
B1
330
1F
100
AcDbEntity
  8
GR1-1
  6
CONTINUOUS
 62
     3
100
AcDbLine
 10
81.842593
 20
131.842308
 30
0.0
 11
67.242593
 21
131.842308
 31
0.0
  0
ARC
  5
B2
330
1F
100
AcDbEntity
  8
GR1-1
  6
CONTINUOUS
 62
     3
100
AcDbCircle
 10
81.842593
 20
131.342308
 30
0.0
 40
0.5
100
AcDbArc
 50
0.0
 51
90.0
  0
ARC
  5
B3
330
1F
100
AcDbEntity
  8
GR1-1
  6
CONTINUOUS
 62
     3
100
AcDbCircle
 10
86.042593
 20
131.342308
 30
0.0
 40
0.5
100
AcDbArc
 50
90.0
 51
180.0
  0
LINE
  5
B4
330
1F
100
AcDbEntity
  8
GR1-1
  6
CENTER
 62
     6
100
AcDbLine
 10
83.942593
 20
65.972661
 30
0.0
 11
83.942593
 21
148.003837
 31
0.0
  0
LINE
  5
B5
330
1F
100
AcDbEntity
  8
GR1-1
  6
CENTER
 62
     6
100
AcDbLine
 10
62.609967
 20
106.142308
 30
0.0
 11
105.417615
 21
106.142308
 31
0.0
  0
LINE
  5
B6
330
1F
100
AcDbEntity
  8
LAYERGROUP-1
  6
CONTINUOUS
 62
     3
100
AcDbLine
 10
76.942593
 20
118.142308
 30
0.0
 11
78.742593
 21
118.142308
 31
0.0
  0
LINE
  5
B7
330
1F
100
AcDbEntity
  8
LAYERGROUP-1
  6
CONTINUOUS
 62
     3
100
AcDbLine
 10
78.742593
 20
118.142308
 30
0.0
 11
78.742593
 21
121.892308
 31
0.0
  0
LINE
  5
B8
330
1F
100
AcDbEntity
  8
GR1-1
  6
CONTINUOUS
 62
     3
100
AcDbLine
 10
85.542593
 20
129.342308
 30
0.0
 11
82.342593
 21
129.342308
 31
0.0
  0
LINE
  5
B9
330
1F
100
AcDbEntity
  8
LAYERGROUP-1
  6
CONTINUOUS
 62
     3
100
AcDbLine
 10
67.242593
 20
123.892308
 30
0.0
 11
76.742593
 21
123.892308
 31
0.0
  0
LINE
  5
BA
330
1F
100
AcDbEntity
  8
LAYERGROUP-1
  6
CONTINUOUS
 62
     3
100
AcDbLine
 10
76.942593
 20
118.142308
 30
0.0
 11
76.942593
 21
122.092308
 31
0.0
  0
LINE
  5
BB
330
1F
100
AcDbEntity
  8
LAYERGROUP-1
  6
CONTINUOUS
 62
     3
100
AcDbLine
 10
76.942593
 20
122.092308
 30
0.0
 11
67.442593
 21
122.092308
 31
0.0
  0
ARC
  5
BC
330
1F
100
AcDbEntity
  8
LAYERGROUP-1
  6
CONTINUOUS
 62
     3
100
AcDbCircle
 10
67.442593
 20
124.592308
 30
0.0
 40
2.5
100
AcDbArc
 50
115.497403
 51
270.0
  0
ARC
  5
BD
330
1F
100
AcDbEntity
  8
LAYERGROUP-1
  6
CONTINUOUS
 62
     3
100
AcDbCircle
 10
67.442593
 20
131.142308
 30
0.0
 40
2.5
100
AcDbArc
 50
90.0
 51
242.081666
  0
ARC
  5
BE
330
1F
100
AcDbEntity
  8
LAYERGROUP-1
  6
CONTINUOUS
 62
     3
100
AcDbCircle
 10
65.242593
 20
127.842308
 30
0.0
 40
1.5
100
AcDbArc
 50
-41.477459
 51
46.661095
  0
ARC
  5
BF
330
1F
100
AcDbEntity
  8
LAYERGROUP-1
  6
CONTINUOUS
 62
     3
100
AcDbCircle
 10
67.442593
 20
124.592308
 30
0.0
 40
0.7
100
AcDbArc
 50
99.664726
 51
180.0
  0
ARC
  5
C0
330
1F
100
AcDbEntity
  8
LAYERGROUP-1
  6
CONTINUOUS
 62
     3
100
AcDbCircle
 10
65.242593
 20
127.842308
 30
0.0
 40
3.3
100
AcDbArc
 50
-50.871982
 51
52.901548
  0
ARC
  5
C1
330
1F
100
AcDbEntity
  8
LAYERGROUP-1
  6
CONTINUOUS
 62
     3
100
AcDbCircle
 10
67.442593
 20
131.142308
 30
0.0
 40
0.7
100
AcDbArc
 50
180.0
 51
252.586603
  0
LINE
  5
C2
330
1F
100
AcDbEntity
  8
LAYERGROUP-1
  6
CONTINUOUS
 62
     3
100
AcDbLine
 10
66.742593
 20
131.342308
 30
0.0
 11
66.742593
 21
131.142308
 31
0.0
  0
LINE
  5
C3
330
1F
100
AcDbEntity
  8
LAYERGROUP-1
  6
CONTINUOUS
 62
     3
100
AcDbLine
 10
66.742593
 20
124.392308
 30
0.0
 11
66.742593
 21
124.592308
 31
0.0
  0
ARC
  5
C4
330
1F
100
AcDbEntity
  8
LAYERGROUP-1
  6
CONTINUOUS
 62
     3
100
AcDbCircle
 10
67.242593
 20
131.342308
 30
0.0
 40
0.5
100
AcDbArc
 50
90.0
 51
180.0
  0
ARC
  5
C5
330
1F
100
AcDbEntity
  8
LAYERGROUP-1
  6
CONTINUOUS
 62
     3
100
AcDbCircle
 10
67.242593
 20
124.392308
 30
0.0
 40
0.5
100
AcDbArc
 50
180.0
 51
270.0
  0
ARC
  5
C6
330
1F
100
AcDbEntity
  8
LAYERGROUP-1
  6
CONTINUOUS
 62
     3
100
AcDbCircle
 10
76.742593
 20
121.892308
 30
0.0
 40
2.0
100
AcDbArc
 50
0.0
 51
90.0
  0
LINE
  5
C7
330
1F
100
AcDbEntity
  8
LAYERGROUP-1
  6
CONTINUOUS
 62
     3
100
AcDbLine
 10
64.942593
 20
133.642308
 30
0.0
 11
64.942593
 21
131.142308
 31
0.0
  0
LINE
  5
C8
330
1F
100
AcDbEntity
  8
GR1-1
  6
CONTINUOUS
 62
     3
100
AcDbLine
 10
100.442593
 20
133.642308
 30
0.0
 11
86.042593
 21
133.642308
 31
0.0
  0
LINE
  5
C9
330
1F
100
AcDbEntity
  8
GR1-1
  6
CONTINUOUS
 62
     3
100
AcDbLine
 10
86.042593
 20
131.842308
 30
0.0
 11
100.642593
 21
131.842308
 31
0.0
  0
LINE
  5
CA
330
1F
100
AcDbEntity
  8
LAYERGROUP-1
  6
CONTINUOUS
 62
     3
100
AcDbLine
 10
90.942593
 20
118.142308
 30
0.0
 11
89.142593
 21
118.142308
 31
0.0
  0
LINE
  5
CB
330
1F
100
AcDbEntity
  8
LAYERGROUP-1
  6
CONTINUOUS
 62
     3
100
AcDbLine
 10
89.142593
 20
118.142308
 30
0.0
 11
89.142593
 21
121.892308
 31
0.0
  0
LINE
  5
CC
330
1F
100
AcDbEntity
  8
LAYERGROUP-1
  6
CONTINUOUS
 62
     3
100
AcDbLine
 10
100.642593
 20
123.892308
 30
0.0
 11
91.142593
 21
123.892308
 31
0.0
  0
LINE
  5
CD
330
1F
100
AcDbEntity
  8
LAYERGROUP-1
  6
CONTINUOUS
 62
     3
100
AcDbLine
 10
90.942593
 20
118.142308
 30
0.0
 11
90.942593
 21
122.092308
 31
0.0
  0
LINE
  5
CE
330
1F
100
AcDbEntity
  8
LAYERGROUP-1
  6
CONTINUOUS
 62
     3
100
AcDbLine
 10
90.942593
 20
122.092308
 30
0.0
 11
100.442593
 21
122.092308
 31
0.0
  0
ARC
  5
CF
330
1F
100
AcDbEntity
  8
LAYERGROUP-1
  6
CONTINUOUS
 62
     3
100
AcDbCircle
 10
100.442593
 20
124.592308
 30
0.0
 40
2.5
100
AcDbArc
 50
-90.0
 51
64.502597
  0
ARC
  5
D0
330
1F
100
AcDbEntity
  8
LAYERGROUP-1
  6
CONTINUOUS
 62
     3
100
AcDbCircle
 10
100.442593
 20
131.142308
 30
0.0
 40
2.5
100
AcDbArc
 50
-62.081666
 51
90.0
  0
ARC
  5
D1
330
1F
100
AcDbEntity
  8
LAYERGROUP-1
  6
CONTINUOUS
 62
     3
100
AcDbCircle
 10
102.642593
 20
127.842308
 30
0.0
 40
1.5
100
AcDbArc
 50
133.338905
 51
221.477459
  0
ARC
  5
D2
330
1F
100
AcDbEntity
  8
LAYERGROUP-1
  6
CONTINUOUS
 62
     3
100
AcDbCircle
 10
100.442593
 20
124.592308
 30
0.0
 40
0.7
100
AcDbArc
 50
0.0
 51
80.335274
  0
ARC
  5
D3
330
1F
100
AcDbEntity
  8
LAYERGROUP-1
  6
CONTINUOUS
 62
     3
100
AcDbCircle
 10
102.642593
 20
127.842308
 30
0.0
 40
3.3
100
AcDbArc
 50
127.098452
 51
230.871982
  0
ARC
  5
D4
330
1F
100
AcDbEntity
  8
LAYERGROUP-1
  6
CONTINUOUS
 62
     3
100
AcDbCircle
 10
100.442593
 20
131.142308
 30
0.0
 40
0.7
100
AcDbArc
 50
287.413397
 51
360.0
  0
LINE
  5
D5
330
1F
100
AcDbEntity
  8
LAYERGROUP-1
  6
CONTINUOUS
 62
     3
100
AcDbLine
 10
101.142593
 20
131.342308
 30
0.0
 11
101.142593
 21
131.142308
 31
0.0
  0
LINE
  5
D6
330
1F
100
AcDbEntity
  8
LAYERGROUP-1
  6
CONTINUOUS
 62
     3
100
AcDbLine
 10
101.142593
 20
124.392308
 30
0.0
 11
101.142593
 21
124.592308
 31
0.0
  0
ARC
  5
D7
330
1F
100
AcDbEntity
  8
LAYERGROUP-1
  6
CONTINUOUS
 62
     3
100
AcDbCircle
 10
100.642593
 20
131.342308
 30
0.0
 40
0.5
100
AcDbArc
 50
0.0
 51
90.0
  0
ARC
  5
D8
330
1F
100
AcDbEntity
  8
LAYERGROUP-1
  6
CONTINUOUS
 62
     3
100
AcDbCircle
 10
100.642593
 20
124.392308
 30
0.0
 40
0.5
100
AcDbArc
 50
-90.0
 51
0.0
  0
ARC
  5
D9
330
1F
100
AcDbEntity
  8
LAYERGROUP-1
  6
CONTINUOUS
 62
     3
100
AcDbCircle
 10
91.142593
 20
121.892308
 30
0.0
 40
2.0
100
AcDbArc
 50
90.0
 51
180.0
  0
LINE
  5
DA
330
1F
100
AcDbEntity
  8
LAYERGROUP-1
  6
CONTINUOUS
 62
     3
100
AcDbLine
 10
102.942593
 20
133.642308
 30
0.0
 11
102.942593
 21
131.142308
 31
0.0
  0
LINE
  5
DB
330
1F
100
AcDbEntity
  8
GR1-1
  6
CONTINUOUS
 62
     3
100
AcDbLine
 10
67.442593
 20
78.642308
 30
0.0
 11
81.842593
 21
78.642308
 31
0.0
  0
ARC
  5
DC
330
1F
100
AcDbEntity
  8
GR1-1
  6
CONTINUOUS
 62
     3
100
AcDbCircle
 10
81.842593
 20
80.742308
 30
0.0
 40
2.1
100
AcDbArc
 50
270.0
 51
360.0
  0
LINE
  5
DD
330
1F
100
AcDbEntity
  8
GR1-1
  6
CONTINUOUS
 62
     3
100
AcDbLine
 10
83.942593
 20
80.742308
 30
0.0
 11
83.942593
 21
82.242308
 31
0.0
  0
ARC
  5
DE
330
1F
100
AcDbEntity
  8
GR1-1
  6
CONTINUOUS
 62
     3
100
AcDbCircle
 10
86.042593
 20
80.742308
 30
0.0
 40
2.1
100
AcDbArc
 50
180.0
 51
270.0
  0
LINE
  5
DF
330
1F
100
AcDbEntity
  8
GR1-1
  6
CONTINUOUS
 62
     3
100
AcDbLine
 10
85.542593
 20
80.942308
 30
0.0
 11
85.542593
 21
82.942308
 31
0.0
  0
LINE
  5
E0
330
1F
100
AcDbEntity
  8
GR1-1
  6
CONTINUOUS
 62
     3
100
AcDbLine
 10
82.342593
 20
82.942308
 30
0.0
 11
82.342593
 21
80.942308
 31
0.0
  0
LINE
  5
E1
330
1F
100
AcDbEntity
  8
GR1-1
  6
CONTINUOUS
 62
     3
100
AcDbLine
 10
81.842593
 20
80.442308
 30
0.0
 11
67.242593
 21
80.442308
 31
0.0
  0
ARC
  5
E2
330
1F
100
AcDbEntity
  8
GR1-1
  6
CONTINUOUS
 62
     3
100
AcDbCircle
 10
81.842593
 20
80.942308
 30
0.0
 40
0.5
100
AcDbArc
 50
270.0
 51
360.0
  0
ARC
  5
E3
330
1F
100
AcDbEntity
  8
GR1-1
  6
CONTINUOUS
 62
     3
100
AcDbCircle
 10
86.042593
 20
80.942308
 30
0.0
 40
0.5
100
AcDbArc
 50
180.0
 51
270.0
  0
LINE
  5
E4
330
1F
100
AcDbEntity
  8
LAYERGROUP-1
  6
CONTINUOUS
 62
     3
100
AcDbLine
 10
76.942593
 20
94.142308
 30
0.0
 11
78.742593
 21
94.142308
 31
0.0
  0
LINE
  5
E5
330
1F
100
AcDbEntity
  8
LAYERGROUP-1
  6
CONTINUOUS
 62
     3
100
AcDbLine
 10
78.742593
 20
94.142308
 30
0.0
 11
78.742593
 21
90.392308
 31
0.0
  0
LINE
  5
E6
330
1F
100
AcDbEntity
  8
GR1-1
  6
CONTINUOUS
 62
     3
100
AcDbLine
 10
85.542593
 20
82.942308
 30
0.0
 11
82.342593
 21
82.942308
 31
0.0
  0
LINE
  5
E7
330
1F
100
AcDbEntity
  8
LAYERGROUP-1
  6
CONTINUOUS
 62
     3
100
AcDbLine
 10
67.242593
 20
88.392308
 30
0.0
 11
76.742593
 21
88.392308
 31
0.0
  0
LINE
  5
E8
330
1F
100
AcDbEntity
  8
LAYERGROUP-1
  6
CONTINUOUS
 62
     3
100
AcDbLine
 10
76.942593
 20
94.142308
 30
0.0
 11
76.942593
 21
90.192308
 31
0.0
  0
LINE
  5
E9
330
1F
100
AcDbEntity
  8
LAYERGROUP-1
  6
CONTINUOUS
 62
     3
100
AcDbLine
 10
76.942593
 20
90.192308
 30
0.0
 11
67.442593
 21
90.192308
 31
0.0
  0
ARC
  5
EA
330
1F
100
AcDbEntity
  8
LAYERGROUP-1
  6
CONTINUOUS
 62
     3
100
AcDbCircle
 10
67.442593
 20
87.692308
 30
0.0
 40
2.5
100
AcDbArc
 50
90.0
 51
244.502597
  0
ARC
  5
EB
330
1F
100
AcDbEntity
  8
LAYERGROUP-1
  6
CONTINUOUS
 62
     3
100
AcDbCircle
 10
67.442593
 20
81.142308
 30
0.0
 40
2.5
100
AcDbArc
 50
117.918334
 51
270.0
  0
ARC
  5
EC
330
1F
100
AcDbEntity
  8
LAYERGROUP-1
  6
CONTINUOUS
 62
     3
100
AcDbCircle
 10
65.242593
 20
84.442308
 30
0.0
 40
1.5
100
AcDbArc
 50
-46.661095
 51
41.477459
  0
ARC
  5
ED
330
1F
100
AcDbEntity
  8
LAYERGROUP-1
  6
CONTINUOUS
 62
     3
100
AcDbCircle
 10
67.442593
 20
87.692308
 30
0.0
 40
0.7
100
AcDbArc
 50
180.0
 51
260.335274
  0
ARC
  5
EE
330
1F
100
AcDbEntity
  8
LAYERGROUP-1
  6
CONTINUOUS
 62
     3
100
AcDbCircle
 10
65.242593
 20
84.442308
 30
0.0
 40
3.3
100
AcDbArc
 50
-52.901548
 51
50.871982
  0
ARC
  5
EF
330
1F
100
AcDbEntity
  8
LAYERGROUP-1
  6
CONTINUOUS
 62
     3
100
AcDbCircle
 10
67.442593
 20
81.142308
 30
0.0
 40
0.7
100
AcDbArc
 50
107.413397
 51
180.0
  0
LINE
  5
F0
330
1F
100
AcDbEntity
  8
LAYERGROUP-1
  6
CONTINUOUS
 62
     3
100
AcDbLine
 10
66.742593
 20
80.942308
 30
0.0
 11
66.742593
 21
81.142308
 31
0.0
  0
LINE
  5
F1
330
1F
100
AcDbEntity
  8
LAYERGROUP-1
  6
CONTINUOUS
 62
     3
100
AcDbLine
 10
66.742593
 20
87.892308
 30
0.0
 11
66.742593
 21
87.692308
 31
0.0
  0
ARC
  5
F2
330
1F
100
AcDbEntity
  8
LAYERGROUP-1
  6
CONTINUOUS
 62
     3
100
AcDbCircle
 10
67.242593
 20
80.942308
 30
0.0
 40
0.5
100
AcDbArc
 50
180.0
 51
270.0
  0
ARC
  5
F3
330
1F
100
AcDbEntity
  8
LAYERGROUP-1
  6
CONTINUOUS
 62
     3
100
AcDbCircle
 10
67.242593
 20
87.892308
 30
0.0
 40
0.5
100
AcDbArc
 50
90.0
 51
180.0
  0
ARC
  5
F4
330
1F
100
AcDbEntity
  8
LAYERGROUP-1
  6
CONTINUOUS
 62
     3
100
AcDbCircle
 10
76.742593
 20
90.392308
 30
0.0
 40
2.0
100
AcDbArc
 50
270.0
 51
360.0
  0
LINE
  5
F5
330
1F
100
AcDbEntity
  8
LAYERGROUP-1
  6
CONTINUOUS
 62
     3
100
AcDbLine
 10
64.942593
 20
78.642308
 30
0.0
 11
64.942593
 21
81.142308
 31
0.0
  0
LINE
  5
F6
330
1F
100
AcDbEntity
  8
GR1-1
  6
CONTINUOUS
 62
     3
100
AcDbLine
 10
100.442593
 20
78.642308
 30
0.0
 11
86.042593
 21
78.642308
 31
0.0
  0
LINE
  5
F7
330
1F
100
AcDbEntity
  8
GR1-1
  6
CONTINUOUS
 62
     3
100
AcDbLine
 10
86.042593
 20
80.442308
 30
0.0
 11
100.642593
 21
80.442308
 31
0.0
  0
LINE
  5
F8
330
1F
100
AcDbEntity
  8
LAYERGROUP-1
  6
CONTINUOUS
 62
     3
100
AcDbLine
 10
90.942593
 20
94.142308
 30
0.0
 11
89.142593
 21
94.142308
 31
0.0
  0
LINE
  5
F9
330
1F
100
AcDbEntity
  8
LAYERGROUP-1
  6
CONTINUOUS
 62
     3
100
AcDbLine
 10
89.142593
 20
94.142308
 30
0.0
 11
89.142593
 21
90.392308
 31
0.0
  0
LINE
  5
FA
330
1F
100
AcDbEntity
  8
LAYERGROUP-1
  6
CONTINUOUS
 62
     3
100
AcDbLine
 10
100.642593
 20
88.392308
 30
0.0
 11
91.142593
 21
88.392308
 31
0.0
  0
LINE
  5
FB
330
1F
100
AcDbEntity
  8
LAYERGROUP-1
  6
CONTINUOUS
 62
     3
100
AcDbLine
 10
90.942593
 20
94.142308
 30
0.0
 11
90.942593
 21
90.192308
 31
0.0
  0
LINE
  5
FC
330
1F
100
AcDbEntity
  8
LAYERGROUP-1
  6
CONTINUOUS
 62
     3
100
AcDbLine
 10
90.942593
 20
90.192308
 30
0.0
 11
100.442593
 21
90.192308
 31
0.0
  0
ARC
  5
FD
330
1F
100
AcDbEntity
  8
LAYERGROUP-1
  6
CONTINUOUS
 62
     3
100
AcDbCircle
 10
100.442593
 20
87.692308
 30
0.0
 40
2.5
100
AcDbArc
 50
-64.502597
 51
90.0
  0
ARC
  5
FE
330
1F
100
AcDbEntity
  8
LAYERGROUP-1
  6
CONTINUOUS
 62
     3
100
AcDbCircle
 10
100.442593
 20
81.142308
 30
0.0
 40
2.5
100
AcDbArc
 50
-90.0
 51
62.081666
  0
ARC
  5
FF
330
1F
100
AcDbEntity
  8
LAYERGROUP-1
  6
CONTINUOUS
 62
     3
100
AcDbCircle
 10
102.642593
 20
84.442308
 30
0.0
 40
1.5
100
AcDbArc
 50
138.522541
 51
226.661095
  0
ARC
  5
100
330
1F
100
AcDbEntity
  8
LAYERGROUP-1
  6
CONTINUOUS
 62
     3
100
AcDbCircle
 10
100.442593
 20
87.692308
 30
0.0
 40
0.7
100
AcDbArc
 50
279.664726
 51
360.0
  0
ARC
  5
101
330
1F
100
AcDbEntity
  8
LAYERGROUP-1
  6
CONTINUOUS
 62
     3
100
AcDbCircle
 10
102.642593
 20
84.442308
 30
0.0
 40
3.3
100
AcDbArc
 50
129.128018
 51
232.901548
  0
ARC
  5
102
330
1F
100
AcDbEntity
  8
LAYERGROUP-1
  6
CONTINUOUS
 62
     3
100
AcDbCircle
 10
100.442593
 20
81.142308
 30
0.0
 40
0.7
100
AcDbArc
 50
0.0
 51
72.586603
  0
LINE
  5
103
330
1F
100
AcDbEntity
  8
LAYERGROUP-1
  6
CONTINUOUS
 62
     3
100
AcDbLine
 10
101.142593
 20
80.942308
 30
0.0
 11
101.142593
 21
81.142308
 31
0.0
  0
LINE
  5
104
330
1F
100
AcDbEntity
  8
LAYERGROUP-1
  6
CONTINUOUS
 62
     3
100
AcDbLine
 10
101.142593
 20
87.892308
 30
0.0
 11
101.142593
 21
87.692308
 31
0.0
  0
ARC
  5
105
330
1F
100
AcDbEntity
  8
LAYERGROUP-1
  6
CONTINUOUS
 62
     3
100
AcDbCircle
 10
100.642593
 20
80.942308
 30
0.0
 40
0.5
100
AcDbArc
 50
270.0
 51
360.0
  0
ARC
  5
106
330
1F
100
AcDbEntity
  8
LAYERGROUP-1
  6
CONTINUOUS
 62
     3
100
AcDbCircle
 10
100.642593
 20
87.892308
 30
0.0
 40
0.5
100
AcDbArc
 50
0.0
 51
90.0
  0
ARC
  5
107
330
1F
100
AcDbEntity
  8
LAYERGROUP-1
  6
CONTINUOUS
 62
     3
100
AcDbCircle
 10
91.142593
 20
90.392308
 30
0.0
 40
2.0
100
AcDbArc
 50
180.0
 51
270.0
  0
LINE
  5
108
330
1F
100
AcDbEntity
  8
LAYERGROUP-1
  6
CONTINUOUS
 62
     3
100
AcDbLine
 10
102.942593
 20
78.642308
 30
0.0
 11
102.942593
 21
81.142308
 31
0.0
  0
ARC
  5
109
330
1F
100
AcDbEntity
  8
LAYERGROUP-1
  6
CONTINUOUS
 62
     3
100
AcDbCircle
 10
83.942593
 20
-6.357692
 30
0.0
 40
150.0
100
AcDbArc
 50
83.968003
 51
96.031997
  0
ARC
  5
10A
330
1F
100
AcDbEntity
  8
LAYERGROUP-1
  6
CONTINUOUS
 62
     3
100
AcDbCircle
 10
68.495268
 20
139.828422
 30
0.0
 40
3.0
100
AcDbArc
 50
96.031997
 51
175.0
  0
LINE
  5
10B
330
1F
100
AcDbEntity
  8
LAYERGROUP-1
  6
CONTINUOUS
 62
     3
100
AcDbLine
 10
65.506684
 20
140.08989
 30
0.0
 11
64.942593
 21
133.642308
 31
0.0
  0
ARC
  5
10C
330
1F
100
AcDbEntity
  8
LAYERGROUP-1
  6
CONTINUOUS
 62
     3
100
AcDbCircle
 10
99.389919
 20
139.828422
 30
0.0
 40
3.0
100
AcDbArc
 50
5.0
 51
83.968003
  0
LINE
  5
10D
330
1F
100
AcDbEntity
  8
LAYERGROUP-1
  6
CONTINUOUS
 62
     3
100
AcDbLine
 10
102.378503
 20
140.08989
 30
0.0
 11
102.942593
 21
133.642308
 31
0.0
  0
LINE
  5
10E
330
1F
100
AcDbEntity
  8
LAYERGROUP-1
  6
CENTER
 62
     6
100
AcDbLine
 10
172.093379
 20
106.142308
 30
0.0
 11
254.259189
 21
106.142308
 31
0.0
  0
LINE
  5
10F
330
1F
100
AcDbEntity
  8
LAYERGROUP-1
  6
CENTER
 62
     6
100
AcDbLine
 10
213.611538
 20
147.090689
 30
0.0
 11
213.611538
 21
64.924879
 31
0.0
  0
CIRCLE
  5
110
330
1F
100
AcDbEntity
  8
LAYERGROUP-1
  6
CONTINUOUS
 62
     3
100
AcDbCircle
 10
213.611538
 20
106.142308
 30
0.0
 40
37.50000000000003
  0
CIRCLE
  5
111
330
1F
100
AcDbEntity
  8
LAYERGROUP-1
  6
CONTINUOUS
 62
     3
100
AcDbCircle
 10
213.611538
 20
106.142308
 30
0.0
 40
27.50000000000006
  0
CIRCLE
  5
112
330
1F
100
AcDbEntity
  8
LAYERGROUP-1
  6
CONTINUOUS
 62
     6
100
AcDbCircle
 10
213.611538
 20
106.142308
 30
0.0
 40
20.70651198866815
  0
CIRCLE
  5
113
330
1F
100
AcDbEntity
  8
LAYERGROUP-1
  6
CONTINUOUS
 62
     6
100
AcDbCircle
 10
213.611538
 20
106.142308
 30
0.0
 40
22.7909603648564
  0
ARC
  5
114
330
1F
100
AcDbEntity
  8
LAYERGROUP-1
  6
CONTINUOUS
 62
     3
100
AcDbCircle
 10
83.942593
 20
218.642308
 30
0.0
 40
150.0
100
AcDbArc
 50
263.968003
 51
276.031997
  0
ARC
  5
115
330
1F
100
AcDbEntity
  8
LAYERGROUP-1
  6
CONTINUOUS
 62
     3
100
AcDbCircle
 10
68.495268
 20
72.456193
 30
0.0
 40
3.0
100
AcDbArc
 50
185.0
 51
263.968003
  0
LINE
  5
116
330
1F
100
AcDbEntity
  8
LAYERGROUP-1
  6
CONTINUOUS
 62
     3
100
AcDbLine
 10
65.506684
 20
72.194726
 30
0.0
 11
64.942593
 21
78.642308
 31
0.0
  0
ARC
  5
117
330
1F
100
AcDbEntity
  8
LAYERGROUP-1
  6
CONTINUOUS
 62
     3
100
AcDbCircle
 10
99.389919
 20
72.456193
 30
0.0
 40
3.0
100
AcDbArc
 50
276.031997
 51
355.0
  0
LINE
  5
118
330
1F
100
AcDbEntity
  8
LAYERGROUP-1
  6
CONTINUOUS
 62
     3
100
AcDbLine
 10
102.378503
 20
72.194726
 30
0.0
 11
102.942593
 21
78.642308
 31
0.0
  0
INSERT
  5
11C
330
1F
100
AcDbEntity
  8
0
100
AcDbBlockReference
  2
BLKF021
 10
0.0
 20
0.0
 30
0.0
  0
LINE
  5
174
330
1F
100
AcDbEntity
  8
GR1-1
  6
CONTINUOUS
 62
     7
100
AcDbLine
 10
187.49266
 20
119.235333
 30
0.0
 11
189.497437
 21
122.638769
 31
0.0
  0
LINE
  5
175
330
1F
100
AcDbEntity
  8
GR1-1
  6
CONTINUOUS
 62
     7
100
AcDbLine
 10
189.497437
 20
122.638769
 30
0.0
 11
186.094001
 21
124.643545
 31
0.0
  0
LINE
  5
176
330
1F
100
AcDbEntity
  8
GR1-1
  6
CONTINUOUS
 62
     7
100
AcDbLine
 10
186.094001
 20
124.643545
 30
0.0
 11
184.089225
 21
121.24011
 31
0.0
  0
LINE
  5
177
330
1F
100
AcDbEntity
  8
GR1-1
  6
CONTINUOUS
 62
     7
100
AcDbLine
 10
184.089225
 20
121.24011
 30
0.0
 11
187.49266
 21
119.235333
 31
0.0
  0
LINE
  5
178
330
1F
100
AcDbEntity
  8
GR1-1
  6
CONTINUOUS
 62
     7
100
AcDbLine
 10
185.84827
 20
120.335045
 30
0.0
 11
185.188936
 21
122.8845
 31
0.0
  0
LINE
  5
179
330
1F
100
AcDbEntity
  8
GR1-1
  6
CONTINUOUS
 62
     7
100
AcDbLine
 10
185.188936
 20
122.8845
 30
0.0
 11
187.467981
 21
123.473901
 31
0.0
  0
LINE
  5
17A
330
1F
100
AcDbEntity
  8
GR1-1
  6
CONTINUOUS
 62
     7
100
AcDbLine
 10
187.467981
 20
123.473901
 30
0.0
 11
186.995451
 21
122.671704
 31
0.0
  0
LINE
  5
17B
330
1F
100
AcDbEntity
  8
GR1-1
  6
CONTINUOUS
 62
     7
100
AcDbLine
 10
186.995451
 20
122.671704
 30
0.0
 11
185.991133
 21
122.41197
 31
0.0
  0
LINE
  5
17C
330
1F
100
AcDbEntity
  8
GR1-1
  6
CONTINUOUS
 62
     7
100
AcDbLine
 10
185.991133
 20
122.41197
 30
0.0
 11
186.3208
 21
121.137242
 31
0.0
  0
LINE
  5
17D
330
1F
100
AcDbEntity
  8
GR1-1
  6
CONTINUOUS
 62
     7
100
AcDbLine
 10
186.3208
 20
121.137242
 30
0.0
 11
187.595528
 21
121.466909
 31
0.0
  0
LINE
  5
17E
330
1F
100
AcDbEntity
  8
GR1-1
  6
CONTINUOUS
 62
     7
100
AcDbLine
 10
187.595528
 20
121.466909
 30
0.0
 11
187.42221
 21
122.137079
 31
0.0
  0
ARC
  5
17F
330
1F
100
AcDbEntity
  8
GR1-1
  6
CONTINUOUS
 62
     7
100
AcDbCircle
 10
187.358474
 20
122.120596
 30
0.0
 40
0.065833334
100
AcDbArc
 50
14.5
 51
149.5
  0
LINE
  5
180
330
1F
100
AcDbEntity
  8
GR1-1
  6
CONTINUOUS
 62
     7
100
AcDbLine
 10
187.30175
 20
122.154009
 30
0.0
 11
187.07695
 21
121.772375
 31
0.0
  0
LINE
  5
181
330
1F
100
AcDbEntity
  8
GR1-1
  6
CONTINUOUS
 62
     7
100
AcDbLine
 10
187.07695
 20
121.772375
 30
0.0
 11
186.793331
 21
121.939439
 31
0.0
  0
LINE
  5
182
330
1F
100
AcDbEntity
  8
GR1-1
  6
CONTINUOUS
 62
     7
100
AcDbLine
 10
186.793331
 20
121.939439
 30
0.0
 11
187.738392
 21
123.543834
 31
0.0
  0
LINE
  5
183
330
1F
100
AcDbEntity
  8
GR1-1
  6
CONTINUOUS
 62
     7
100
AcDbLine
 10
187.738392
 20
123.543834
 30
0.0
 11
188.886666
 21
122.867449
 31
0.0
  0
LINE
  5
184
330
1F
100
AcDbEntity
  8
GR1-1
  6
CONTINUOUS
 62
     7
100
AcDbLine
 10
188.886666
 20
122.867449
 30
0.0
 11
188.552536
 21
122.30021
 31
0.0
  0
LINE
  5
185
330
1F
100
AcDbEntity
  8
GR1-1
  6
CONTINUOUS
 62
     7
100
AcDbLine
 10
188.552536
 20
122.30021
 30
0.0
 11
188.108445
 21
122.561799
 31
0.0
  0
ARC
  5
186
330
1F
100
AcDbEntity
  8
GR1-1
  6
CONTINUOUS
 62
     7
100
AcDbCircle
 10
188.075032
 20
122.505075
 30
0.0
 40
0.065833334
100
AcDbArc
 50
59.5
 51
194.5
  0
LINE
  5
187
330
1F
100
AcDbEntity
  8
GR1-1
  6
CONTINUOUS
 62
     7
100
AcDbLine
 10
188.011296
 20
122.488592
 30
0.0
 11
188.397726
 21
120.994379
 31
0.0
  0
LINE
  5
188
330
1F
100
AcDbEntity
  8
GR1-1
  6
CONTINUOUS
 62
     7
100
AcDbLine
 10
188.397726
 20
120.994379
 30
0.0
 11
185.84827
 21
120.335045
 31
0.0
  0
TEXT
  5
189
330
1F
100
AcDbEntity
  8
LAYERGROUP-1
  6
CONTINUOUS
 62
     7
100
AcDbText
 10
192.982254
 20
126.528114
 30
0.0
 40
4.720526
  1
G
 50
40.5
 41
1.211022
  7
FX_VECTOR
 72
     5
 11
196.70824
 21
129.710407
 31
0.0
100
AcDbText
  0
TEXT
  5
18A
330
1F
100
AcDbEntity
  8
LAYERGROUP-1
  6
CONTINUOUS
 62
     7
100
AcDbText
 10
196.835617
 20
129.800644
 30
0.0
 40
4.720526
  1
O
 50
30.5
 41
1.147284
  7
FX_VECTOR
 72
     5
 11
201.057596
 21
132.28758
 31
0.0
100
AcDbText
  0
TEXT
  5
18B
330
1F
100
AcDbEntity
  8
LAYERGROUP-1
  6
CONTINUOUS
 62
     7
100
AcDbText
 10
201.198715
 20
132.354324
 30
0.0
 40
4.720526
  1
L
 50
20.5
 41
1.3624
  7
FX_VECTOR
 72
     5
 11
205.788405
 21
134.070339
 31
0.0
100
AcDbText
  0
TEXT
  5
18C
330
1F
100
AcDbEntity
  8
LAYERGROUP-1
  6
CONTINUOUS
 62
     7
100
AcDbText
 10
205.93895
 20
134.111572
 30
0.0
 40
4.720526
  1
D
 50
10.5
 41
1.211022
  7
FX_VECTOR
 72
     5
 11
210.756894
 21
135.004525
 31
0.0
100
AcDbText
  0
TEXT
  5
18D
330
1F
100
AcDbEntity
  8
LAYERGROUP-1
  6
CONTINUOUS
 62
     7
100
AcDbText
 10
214.957443
 20
135.113617
 30
0.0
 40
4.720526
  1
C
 50
352.5
 41
1.211022
  7
FX_VECTOR
 72
     5
 11
219.815518
 21
134.474039
 31
0.0
100
AcDbText
  0
TEXT
  5
18E
330
1F
100
AcDbEntity
  8
LAYERGROUP-1
  6
CONTINUOUS
 62
     7
100
AcDbText
 10
219.967819
 20
134.439758
 30
0.0
 40
4.720526
  1
A
 50
342.5
 41
1.282259
  7
FX_VECTOR
 72
     5
 11
224.641028
 21
132.966301
 31
0.0
100
AcDbText
  0
TEXT
  5
18F
330
1F
100
AcDbEntity
  8
LAYERGROUP-1
  6
CONTINUOUS
 62
     7
100
AcDbText
 10
225.712296
 20
132.499832
 30
0.0
 40
4.720526
  1
S
 50
330.5
 41
1.282259
  7
FX_VECTOR
 72
     5
 11
229.977034
 21
130.086959
 31
0.0
100
AcDbText
  0
TEXT
  5
190
330
1F
100
AcDbEntity
  8
LAYERGROUP-1
  6
CONTINUOUS
 62
     7
100
AcDbText
 10
230.105392
 20
129.998138
 30
0.0
 40
4.720526
  1
T
 50
320.5
 41
1.453226
  7
FX_VECTOR
 72
     5
 11
233.886349
 21
126.881358
 31
0.0
100
AcDbText
  0
TEXT
  5
191
330
1F
100
AcDbEntity
  8
LAYERGROUP-1
  6
CONTINUOUS
 62
     7
100
AcDbText
 10
233.99733
 20
126.771584
 30
0.0
 40
4.720526
  1
E
 50
310.5
 41
1.282259
  7
FX_VECTOR
 72
     5
 11
237.179622
 21
123.045598
 31
0.0
100
AcDbText
  0
TEXT
  5
192
330
1F
100
AcDbEntity
  8
LAYERGROUP-1
  6
CONTINUOUS
 62
     7
100
AcDbText
 10
237.269852
 20
122.918221
 30
0.0
 40
4.720526
  1
R
 50
300.5
 41
1.211022
  7
FX_VECTOR
 72
     5
 11
239.756787
 21
118.696242
 31
0.0
100
AcDbText
  0
TEXT
  5
193
330
1F
100
AcDbEntity
  8
LAYERGROUP-1
  6
CONTINUOUS
 62
     7
100
AcDbText
 10
211.008865
 20
77.256279
 30
0.0
 40
4.720526
  1
3
 50
170.0
 41
1.282259
  7
FX_VECTOR
 72
     5
 11
206.183312
 21
78.107154
 31
0.0
100
AcDbText
  0
TEXT
  5
194
330
1F
100
AcDbEntity
  8
LAYERGROUP-1
  6
CONTINUOUS
 62
     7
100
AcDbText
 10
206.032394
 20
78.147072
 30
0.0
 40
4.720526
  1
8
 50
160.0
 41
1.282259
  7
FX_VECTOR
 72
     5
 11
201.427905
 21
79.822969
 31
0.0
100
AcDbText
  0
TEXT
  5
195
330
1F
100
AcDbEntity
  8
LAYERGROUP-1
  6
CONTINUOUS
 62
     7
100
AcDbText
 10
221.045425
 20
78.108154
 30
0.0
 40
4.720526
  1
5
 50
190.0
 41
1.282259
  7
FX_VECTOR
 72
     5
 11
216.219872
 21
77.257279
 31
0.0
100
AcDbText
  0
TEXT
  5
196
330
1F
100
AcDbEntity
  8
LAYERGROUP-1
  6
CONTINUOUS
 62
     7
100
AcDbText
 10
225.800583
 20
79.824944
 30
0.0
 40
4.720526
  1
7
 50
200.0
 41
1.282259
  7
FX_VECTOR
 72
     5
 11
221.196093
 21
78.149046
 31
0.0
100
AcDbText
  0
TEXT
  5
197
330
1F
100
AcDbEntity
  8
LAYERGROUP-1
  6
CONTINUOUS
 62
     7
100
AcDbText
 10
216.064407
 20
77.243172
 30
0.0
 40
4.720526
  1
×
 50
180.0
 41
1.453226
  7
FX_VECTOR
 72
     5
 11
211.164412
 21
77.243172
 31
0.0
100
AcDbText
  0
INSERT
  5
19B
330
1F
100
AcDbEntity
  8
0
100
AcDbBlockReference
  2
BLKF022
 10
0.0
 20
0.0
 30
0.0
  0
LINE
  5
1CE
330
1F
100
AcDbEntity
  8
LAYERGROUP-1
  6
CONTINUOUS
 62
     6
100
AcDbLine
 10
83.942593
 20
112.742308
 30
0.0
 11
83.942593
 21
99.542308
 31
0.0
  0
LINE
  5
1CF
330
1F
100
AcDbEntity
  8
LAYERGROUP-1
  6
CONTINUOUS
 62
     3
100
AcDbLine
 10
103.942593
 20
115.475641
 30
0.0
 11
103.942593
 21
112.742308
 31
0.0
  0
LINE
  5
1D0
330
1F
100
AcDbEntity
  8
LAYERGROUP-1
  6
CONTINUOUS
 62
     3
100
AcDbLine
 10
103.942593
 20
99.542308
 30
0.0
 11
103.942593
 21
96.808974
 31
0.0
  0
ARC
  5
1D1
330
1F
100
AcDbEntity
  8
LAYERGROUP-1
  6
CONTINUOUS
 62
     3
100
AcDbCircle
 10
103.342593
 20
99.542308
 30
0.0
 40
0.6
100
AcDbArc
 50
0.0
 51
90.0
  0
ARC
  5
1D2
330
1F
100
AcDbEntity
  8
LAYERGROUP-1
  6
CONTINUOUS
 62
     3
100
AcDbCircle
 10
103.342593
 20
112.742308
 30
0.0
 40
0.6
100
AcDbArc
 50
270.0
 51
360.0
  0
LINE
  5
1D3
330
1F
100
AcDbEntity
  8
LAYERGROUP-1
  6
CONTINUOUS
 62
     6
100
AcDbLine
 10
103.942593
 20
112.742308
 30
0.0
 11
103.942593
 21
99.542308
 31
0.0
  0
LINE
  5
1D4
330
1F
100
AcDbEntity
  8
LAYERGROUP-1
  6
CONTINUOUS
 62
     3
100
AcDbLine
 10
83.942593
 20
115.475641
 30
0.0
 11
83.942593
 21
112.742308
 31
0.0
  0
ARC
  5
1D5
330
1F
100
AcDbEntity
  8
LAYERGROUP-1
  6
CONTINUOUS
 62
     3
100
AcDbCircle
 10
84.542593
 20
99.542308
 30
0.0
 40
0.6
100
AcDbArc
 50
90.0
 51
180.0
  0
ARC
  5
1D6
330
1F
100
AcDbEntity
  8
LAYERGROUP-1
  6
CONTINUOUS
 62
     3
100
AcDbCircle
 10
84.542593
 20
112.742308
 30
0.0
 40
0.6
100
AcDbArc
 50
180.0
 51
270.0
  0
LINE
  5
1D7
330
1F
100
AcDbEntity
  8
LAYERGROUP-1
  6
CONTINUOUS
 62
     3
100
AcDbLine
 10
83.942593
 20
96.808974
 30
0.0
 11
83.942593
 21
99.542308
 31
0.0
  0
INSERT
  5
1DB
330
1F
100
AcDbEntity
  8
0
100
AcDbBlockReference
  2
BLKF023
 10
0.0
 20
0.0
 30
0.0
  0
LINE
  5
20E
330
1F
100
AcDbEntity
  8
LAYERGROUP-1
  6
CONTINUOUS
 62
     3
100
AcDbLine
 10
63.942593
 20
115.475641
 30
0.0
 11
63.942593
 21
112.742308
 31
0.0
  0
ARC
  5
20F
330
1F
100
AcDbEntity
  8
LAYERGROUP-1
  6
CONTINUOUS
 62
     3
100
AcDbCircle
 10
64.542593
 20
99.542308
 30
0.0
 40
0.6
100
AcDbArc
 50
90.0
 51
180.0
  0
ARC
  5
210
330
1F
100
AcDbEntity
  8
LAYERGROUP-1
  6
CONTINUOUS
 62
     3
100
AcDbCircle
 10
64.542593
 20
112.742308
 30
0.0
 40
0.6
100
AcDbArc
 50
180.0
 51
270.0
  0
LINE
  5
211
330
1F
100
AcDbEntity
  8
LAYERGROUP-1
  6
CONTINUOUS
 62
     6
100
AcDbLine
 10
63.942593
 20
112.742308
 30
0.0
 11
63.942593
 21
99.542308
 31
0.0
  0
ARC
  5
212
330
1F
100
AcDbEntity
  8
LAYERGROUP-1
  6
CONTINUOUS
 62
     3
100
AcDbCircle
 10
83.342593
 20
99.542308
 30
0.0
 40
0.6
100
AcDbArc
 50
0.0
 51
90.0
  0
ARC
  5
213
330
1F
100
AcDbEntity
  8
LAYERGROUP-1
  6
CONTINUOUS
 62
     3
100
AcDbCircle
 10
83.342593
 20
112.742308
 30
0.0
 40
0.6
100
AcDbArc
 50
270.0
 51
360.0
  0
LINE
  5
214
330
1F
100
AcDbEntity
  8
LAYERGROUP-1
  6
CONTINUOUS
 62
     3
100
AcDbLine
 10
63.942593
 20
99.542308
 30
0.0
 11
63.942593
 21
96.808974
 31
0.0
  0
INSERT
  5
218
330
1F
100
AcDbEntity
  8
0
100
AcDbBlockReference
  2
BLKF024
 10
0.0
 20
0.0
 30
0.0
  0
LINE
  5
21D
330
1F
100
AcDbEntity
  8
GR1-1
  6
CONTINUOUS
 62
     3
100
AcDbLine
 10
102.942593
 20
115.475641
 30
0.0
 11
102.942593
 21
131.142308
 31
0.0
  0
LINE
  5
21E
330
1F
100
AcDbEntity
  8
GR1-1
  6
CONTINUOUS
 62
     3
100
AcDbLine
 10
102.942593
 20
96.808974
 30
0.0
 11
102.942593
 21
81.142308
 31
0.0
  0
LINE
  5
21F
330
1F
100
AcDbEntity
  8
GR1-1
  6
CONTINUOUS
 62
     3
100
AcDbLine
 10
64.942593
 20
96.808974
 30
0.0
 11
64.942593
 21
81.142308
 31
0.0
  0
LINE
  5
220
330
1F
100
AcDbEntity
  8
GR1-1
  6
CONTINUOUS
 62
     3
100
AcDbLine
 10
64.942593
 20
115.475641
 30
0.0
 11
64.942593
 21
131.142308
 31
0.0
  0
LINE
  5
221
330
1F
100
AcDbEntity
  8
GR1-1
  6
CONTINUOUS
 62
     6
100
AcDbLine
 10
78.742593
 20
115.475641
 30
0.0
 11
78.742593
 21
118.142308
 31
0.0
  0
LINE
  5
222
330
1F
100
AcDbEntity
  8
GR1-1
  6
CONTINUOUS
 62
     6
100
AcDbLine
 10
89.142593
 20
115.475641
 30
0.0
 11
89.142593
 21
118.142308
 31
0.0
  0
LINE
  5
223
330
1F
100
AcDbEntity
  8
GR1-1
  6
CONTINUOUS
 62
     6
100
AcDbLine
 10
78.742593
 20
96.808974
 30
0.0
 11
78.742593
 21
94.142308
 31
0.0
  0
LINE
  5
224
330
1F
100
AcDbEntity
  8
GR1-1
  6
CONTINUOUS
 62
     6
100
AcDbLine
 10
89.142593
 20
96.808974
 30
0.0
 11
89.142593
 21
94.142308
 31
0.0
  0
HATCH
  5
225
330
1F
100
AcDbEntity
  8
GR1-1
  6
CONTINUOUS
 62
     6
100
AcDbHatch
 10
0.0
 20
0.0
 30
0.0
210
0.0
220
0.0
230
1.0
  2

 70
     0
 71
     1
 91
        2
 92
        0
 93
       46
 72
     1
 10
85.54259349691486
 20
129.3423076923077
 11
82.34259349691487
 21
129.3423076923077
 72
     1
 10
82.34259349691487
 20
129.3423076923077
 11
82.34259349691487
 21
131.3423076923077
 72
     2
 10
81.84259349691487
 20
131.3423076923077
 40
0.5
 50
0.0
 51
90.0
 73
     1
 72
     1
 10
81.84259349691487
 20
131.8423076923077
 11
67.24259349691491
 21
131.8423076923077
 72
     2
 10
67.24259349691491
 20
131.3423076923077
 40
0.5
 50
90.0
 51
180.0
 73
     1
 72
     1
 10
66.74259349691488
 20
131.3423076923077
 11
66.74259349691488
 21
131.1423076923077
 72
     2
 10
67.4425934969149
 20
131.1423076923077
 40
0.7
 50
180.0
 51
252.5866025456825
 73
     1
 72
     2
 10
65.24259349691488
 20
127.8423076923076
 40
3.3
 50
309.1280183203963
 51
412.9015477210429
 73
     0
 72
     2
 10
67.44259349691487
 20
124.5923076923077
 40
0.7
 50
99.66472570140162
 51
179.9999999999918
 73
     1
 72
     1
 10
66.74259349691488
 20
124.5923076923078
 11
66.74259349691485
 21
124.3923076923077
 72
     2
 10
67.24259349691485
 20
124.3923076923077
 40
0.5
 50
179.9999999999918
 51
270.0
 73
     1
 72
     1
 10
67.24259349691485
 20
123.8923076923077
 11
76.74259349691489
 21
123.8923076923077
 72
     2
 10
76.74259349691491
 20
121.8923076923077
 40
2.0
 50
359.9999999999996
 51
450.0000000000004
 73
     0
 72
     1
 10
78.74259349691491
 20
121.8923076923077
 11
78.74259349691488
 21
118.1423076923077
 72
     1
 10
78.74259349691488
 20
118.1423076923077
 11
76.94259349691484
 21
118.1423076923077
 72
     1
 10
76.94259349691484
 20
118.1423076923077
 11
76.94259349691484
 21
121.5423076923077
 72
     1
 10
76.94259349691484
 20
121.5423076923077
 11
76.9425934969149
 21
122.0923076923077
 72
     1
 10
76.9425934969149
 20
122.0923076923077
 11
67.44259349691485
 21
122.0923076923077
 72
     2
 10
67.44259349691487
 20
124.5923076923077
 40
2.5
 50
115.4974031847171
 51
269.9999999999997
 73
     0
 72
     2
 10
65.24259349691488
 20
127.8423076923076
 40
1.5
 50
318.5225414505592
 51
406.6610953842643
 73
     1
 72
     2
 10
67.4425934969149
 20
131.1423076923077
 40
2.5
 50
89.99999999999969
 51
242.0816661772398
 73
     0
 72
     1
 10
67.44259349691491
 20
133.6423076923078
 11
81.84259349691489
 21
133.6423076923077
 72
     2
 10
81.84259349691487
 20
131.5423076923077
 40
2.1
 50
0.0
 51
89.99999999999963
 73
     0
 72
     2
 10
86.04259349691483
 20
131.5423076923077
 40
2.1
 50
90.00000000000041
 51
180.0
 73
     0
 72
     1
 10
86.04259349691482
 20
133.6423076923077
 11
100.4425934969149
 21
133.6423076923078
 72
     2
 10
100.4425934969149
 20
131.1423076923077
 40
2.5
 50
297.9183338227588
 51
450.0000000000003
 73
     0
 72
     2
 10
102.6425934969149
 20
127.8423076923076
 40
1.5
 50
133.3389046157373
 51
221.4774585494408
 73
     1
 72
     2
 10
100.4425934969149
 20
124.5923076923077
 40
2.5
 50
270.0000000000003
 51
424.5025968152829
 73
     0
 72
     1
 10
100.4425934969149
 20
122.0923076923077
 11
90.9425934969149
 21
122.0923076923077
 72
     1
 10
90.9425934969149
 20
122.0923076923077
 11
90.9425934969149
 21
118.1423076923077
 72
     1
 10
90.9425934969149
 20
118.1423076923077
 11
89.14259349691488
 21
118.1423076923077
 72
     1
 10
89.14259349691488
 20
118.1423076923077
 11
89.14259349691488
 21
121.8923076923077
 72
     2
 10
91.14259349691486
 20
121.8923076923077
 40
2.0
 50
89.9999999999996
 51
180.0
 73
     0
 72
     1
 10
91.14259349691487
 20
123.8923076923077
 11
100.6425934969149
 21
123.8923076923077
 72
     2
 10
100.6425934969149
 20
124.3923076923077
 40
0.5
 50
270.0
 51
360.0
 73
     1
 72
     1
 10
101.1425934969149
 20
124.3923076923077
 11
101.1425934969149
 21
124.5923076923077
 72
     2
 10
100.4425934969149
 20
124.5923076923077
 40
0.7
 50
0.0
 51
80.33527429859724
 73
     1
 72
     2
 10
102.6425934969149
 20
127.8423076923076
 40
3.3
 50
127.0984522789575
 51
230.8719816796039
 73
     0
 72
     2
 10
100.4425934969149
 20
131.1423076923077
 40
0.7
 50
287.413397454313
 51
360.0
 73
     1
 72
     1
 10
101.1425934969149
 20
131.1423076923077
 11
101.1425934969149
 21
131.3423076923077
 72
     2
 10
100.6425934969149
 20
131.3423076923077
 40
0.5
 50
0.0
 51
90.0
 73
     1
 72
     1
 10
100.6425934969149
 20
131.8423076923077
 11
86.04259349691486
 21
131.8423076923077
 72
     2
 10
86.04259349691486
 20
131.3423076923077
 40
0.5
 50
90.0
 51
180.0
 73
     1
 72
     1
 10
85.54259349691486
 20
131.3423076923077
 11
85.54259349691486
 21
129.3423076923077
 72
     1
 10
85.54259349691486
 20
129.3423076923077
 11
82.34259349691487
 21
129.3423076923077
 72
     1
 10
82.34259349691487
 20
129.3423076923077
 11
85.54259349691486
 21
129.3423076923077
 97
        0
 92
        0
 93
       45
 72
     1
 10
85.54259349691486
 20
82.94230769230774
 11
82.34259349691487
 21
82.94230769230774
 72
     1
 10
82.34259349691487
 20
82.94230769230774
 11
82.34259349691487
 21
80.94230769230774
 72
     2
 10
81.84259349691487
 20
80.94230769230774
 40
0.5
 50
270.0
 51
360.0
 73
     0
 72
     1
 10
81.84259349691487
 20
80.44230769230774
 11
67.24259349691491
 21
80.44230769230774
 72
     2
 10
67.24259349691491
 20
80.94230769230774
 40
0.5
 50
180.0
 51
270.0
 73
     0
 72
     1
 10
66.74259349691488
 20
80.94230769230774
 11
66.74259349691488
 21
81.1423076923077
 72
     2
 10
67.4425934969149
 20
81.1423076923077
 40
0.7
 50
107.4133974543175
 51
180.0
 73
     0
 72
     2
 10
65.24259349691488
 20
84.44230769230776
 40
3.3
 50
307.0984522789571
 51
410.8719816796037
 73
     1
 72
     2
 10
67.44259349691487
 20
87.69230769230774
 40
0.7
 50
180.0000000000081
 51
260.3352742985985
 73
     0
 72
     1
 10
66.74259349691488
 20
87.69230769230764
 11
66.74259349691485
 21
87.89230769230765
 72
     2
 10
67.24259349691485
 20
87.89230769230773
 40
0.5
 50
90.0
 51
180.0000000000081
 73
     0
 72
     1
 10
67.24259349691485
 20
88.39230769230773
 11
76.74259349691489
 21
88.39230769230767
 72
     2
 10
76.74259349691491
 20
90.3923076923077
 40
2.0
 50
269.9999999999996
 51
360.0000000000004
 73
     1
 72
     1
 10
78.74259349691491
 20
90.39230769230771
 11
78.74259349691488
 21
94.1423076923077
 72
     1
 10
78.74259349691488
 20
94.1423076923077
 11
76.9425934969149
 21
94.1423076923077
 72
     1
 10
76.9425934969149
 20
94.1423076923077
 11
76.9425934969149
 21
90.19230769230774
 72
     1
 10
76.9425934969149
 20
90.19230769230774
 11
67.44259349691485
 21
90.19230769230771
 72
     2
 10
67.44259349691487
 20
87.69230769230774
 40
2.5
 50
90.00000000000033
 51
244.5025968152829
 73
     1
 72
     2
 10
65.24259349691488
 20
84.44230769230776
 40
1.5
 50
313.3389046157353
 51
401.4774585494408
 73
     0
 72
     2
 10
67.4425934969149
 20
81.1423076923077
 40
2.5
 50
117.9183338227604
 51
270.0000000000003
 73
     1
 72
     1
 10
67.44259349691491
 20
78.64230769230761
 11
81.84259349691489
 21
78.64230769230773
 72
     2
 10
81.84259349691487
 20
80.74230769230769
 40
2.1
 50
270.0000000000004
 51
360.0
 73
     1
 72
     2
 10
86.04259349691483
 20
80.74230769230769
 40
2.1
 50
180.0
 51
269.9999999999996
 73
     1
 72
     1
 10
86.04259349691482
 20
78.64230769230773
 11
100.4425934969149
 21
78.64230769230761
 72
     2
 10
100.4425934969149
 20
81.1423076923077
 40
2.5
 50
269.9999999999997
 51
422.0816661772412
 73
     1
 72
     2
 10
102.6425934969149
 20
84.44230769230776
 40
1.5
 50
138.5225414505593
 51
226.6610953842628
 73
     0
 72
     2
 10
100.4425934969149
 20
87.69230769230774
 40
2.5
 50
295.4974031847171
 51
449.9999999999997
 73
     1
 72
     1
 10
100.4425934969149
 20
90.19230769230771
 11
90.9425934969149
 21
90.19230769230774
 72
     1
 10
90.9425934969149
 20
90.19230769230774
 11
90.9425934969149
 21
94.1423076923077
 72
     1
 10
90.9425934969149
 20
94.1423076923077
 11
89.14259349691488
 21
94.1423076923077
 72
     1
 10
89.14259349691488
 20
94.1423076923077
 11
89.14259349691488
 21
90.3923076923077
 72
     2
 10
91.14259349691486
 20
90.3923076923077
 40
2.0
 50
180.0
 51
270.0000000000004
 73
     1
 72
     1
 10
91.14259349691487
 20
88.39230769230767
 11
100.6425934969149
 21
88.39230769230773
 72
     2
 10
100.6425934969149
 20
87.89230769230773
 40
0.5
 50
0.0
 51
90.0
 73
     0
 72
     1
 10
101.1425934969149
 20
87.89230769230773
 11
101.1425934969149
 21
87.69230769230774
 72
     2
 10
100.4425934969149
 20
87.69230769230774
 40
0.7
 50
279.6647257014028
 51
360.0
 73
     0
 72
     2
 10
102.6425934969149
 20
84.44230769230776
 40
3.3
 50
129.1280183203961
 51
232.9015477210424
 73
     1
 72
     2
 10
100.4425934969149
 20
81.1423076923077
 40
0.7
 50
0.0
 51
72.58660254568734
 73
     0
 72
     1
 10
101.1425934969149
 20
81.1423076923077
 11
101.1425934969149
 21
80.94230769230774
 72
     2
 10
100.6425934969149
 20
80.94230769230774
 40
0.5
 50
270.0
 51
360.0
 73
     0
 72
     1
 10
100.6425934969149
 20
80.44230769230774
 11
86.04259349691486
 21
80.44230769230774
 72
     2
 10
86.04259349691486
 20
80.94230769230774
 40
0.5
 50
180.0
 51
270.0
 73
     0
 72
     1
 10
85.54259349691486
 20
80.94230769230774
 11
85.54259349691486
 21
82.94230769230774
 72
     1
 10
85.54259349691486
 20
82.94230769230774
 11
82.34259349691487
 21
82.94230769230774
 72
     1
 10
82.34259349691487
 20
82.94230769230774
 11
85.54259349691486
 21
82.94230769230774
 97
        0
 75
     0
 76
     0
 52
45.0
 41
2.0
 77
     0
 78
     1
 53
45.0
 43
0.0
 44
0.0
 45
-1.414213562373095
 46
1.414213562373095
 79
     0
 98
        0
  0
DIMENSION
  5
226
330
1F
100
AcDbEntity
  8
GR1-1
100
AcDbDimension
  2
*D23
 10
117.46115
 20
112.142308
 30
0.0
 11
116.461151
 21
106.142311
 31
0.0
 70
    33
  3
FXDIMINFO
100
AcDbAlignedDimension
 13
103.342593
 23
100.142308
 33
0.0
 14
103.342593
 24
112.142308
 34
0.0
1001
ACAD
1000
DSTYLE
1002
{
1070
     7
1000
FXTIP_ARROW_E
1070
     6
1000
FXTIP_ARROW_S
1070
   173
1070
     1
1002
}
  0
DIMENSION
  5
230
330
1F
100
AcDbEntity
  8
GR1-1
100
AcDbDimension
  2
*D24
 10
136.714261
 20
143.642308
 30
0.0
 11
135.714264
 21
106.142311
 31
0.0
 70
    33
  3
FXDIMINFO
100
AcDbAlignedDimension
 13
83.942593
 23
68.642308
 33
0.0
 14
83.942593
 24
143.642308
 34
0.0
1001
ACAD
1000
DSTYLE
1002
{
1070
     7
1000
FXTIP_ARROW_E
1070
     6
1000
FXTIP_ARROW_S
1070
   173
1070
     1
1002
}
  0
DIMENSION
  5
23A
330
1F
100
AcDbEntity
  8
GR1-1
100
AcDbDimension
  2
*D25
 10
102.942593
 20
55.202151
 30
0.0
 11
83.942596
 21
56.202152
 31
0.0
 70
    33
  3
FXDIMINFO
100
AcDbAlignedDimension
 13
64.942593
 23
81.142308
 33
0.0
 14
102.942593
 24
81.142308
 34
0.0
1001
ACAD
1000
DSTYLE
1002
{
1070
     7
1000
FXTIP_ARROW_E
1070
     6
1000
FXTIP_ARROW_S
1070
   173
1070
     1
1002
}
  0
DIMENSION
  5
244
330
1F
100
AcDbEntity
  8
GR1-1
100
AcDbDimension
  2
*D26
 10
103.942593
 20
38.871226
 30
0.0
 11
83.942596
 21
39.871227
 31
0.0
 70
    33
  3
FXDIMINFO
100
AcDbAlignedDimension
 13
63.942593
 23
96.808974
 33
0.0
 14
103.942593
 24
96.808974
 34
0.0
1001
ACAD
1000
DSTYLE
1002
{
1070
     7
1000
FXTIP_ARROW_E
1070
     6
1000
FXTIP_ARROW_S
1070
   173
1070
     1
1002
}
  0
INSERT
  5
251
330
1F
100
AcDbEntity
  8
0
100
AcDbBlockReference
  2
BLKF029
 10
0.0
 20
0.0
 30
0.0
  0
ENDSEC
  0
SECTION
  2
OBJECTS
  0
DICTIONARY
  5
C
330
0
100
AcDbDictionary
  3
ACAD_GROUP
350
D
  3
ACAD_LAYOUT
350
1A
  3
ACAD_MLINESTYLE
350
17
  3
ACAD_PLOTSETTINGS
350
19
  3
ACDBHEADERROUNDTRIPXREC
350
27B
  0
DICTIONARY
  5
D
102
{ACAD_REACTORS
330
C
102
}
330
C
100
AcDbDictionary
  0
DICTIONARY
  5
1A
102
{ACAD_REACTORS
330
C
102
}
330
C
100
AcDbDictionary
  0
DICTIONARY
  5
17
102
{ACAD_REACTORS
330
C
102
}
330
C
100
AcDbDictionary
  3
STANDARD
350
18
  0
DICTIONARY
  5
19
102
{ACAD_REACTORS
330
C
102
}
330
C
100
AcDbDictionary
  0
DICTIONARY
  5
27B
102
{ACAD_REACTORS
330
C
102
}
330
C
100
AcDbDictionary
  3
CEPSNTYPE
350
284
  3
DIMSTYLEDATA
350
29A
  3
FINGERPRINTGUID
350
285
  3
HYPERLINKBASE
350
27E
  3
INSUNITS
350
283
  3
LAYOUTDICT
350
280
  3
LWETCUNION
350
282
  3
PLOTSETDICT
350
281
  3
PSVPSCALE
350
287
  3
PUCSBASE
350
28A
  3
PUCSORGBACK
350
290
  3
PUCSORGBOTTOM
350
28C
  3
PUCSORGFRONT
350
28F
  3
PUCSORGLEFT
350
28D
  3
PUCSORGRIGHT
350
28E
  3
PUCSORGTOP
350
28B
  3
PUCSORTHOREF
350
288
  3
PUCSORTHOVIEW
350
289
  3
STYLESHEET
350
27F
  3
TSTACKALIGN
350
27C
  3
TSTACKSIZE
350
27D
  3
UCSBASE
350
293
  3
UCSORGBACK
350
299
  3
UCSORGBOTTOM
350
295
  3
UCSORGFRONT
350
298
  3
UCSORGLEFT
350
296
  3
UCSORGRIGHT
350
297
  3
UCSORGTOP
350
294
  3
UCSORTHOREF
350
291
  3
UCSORTHOVIEW
350
292
  3
VERSIONGUID
350
286
  0
MLINESTYLE
  5
18
102
{ACAD_REACTORS
330
17
102
}
330
17
100
AcDbMlineStyle
  2
Standard
 70
     0
  3

 62
   256
 51
90.0
 52
90.0
 71
     2
 49
0.5
 62
   256
  6
BYLAYER
 49
-0.5
 62
   256
  6
BYLAYER
  0
XRECORD
  5
284
102
{ACAD_REACTORS
330
27B
102
}
330
27B
100
AcDbXrecord
 90
        0
  0
XRECORD
  5
29A
102
{ACAD_REACTORS
330
27B
102
}
330
27B
100
AcDbXrecord
1000
DSTYLE
1002
{
1070
   179
 70
     2
1070
   171
 70
     3
1070
   143
 40
0.03937
1070
   274
 70
     3
1070
    41
 40
3.0
1070
   343
340
41
1070
   344
340
47
1070
   141
 40
2.5
1070
   176
 70
     7
1070
   177
 70
     7
1070
   178
 70
     7
1070
   271
 70
     2
1070
    46
 40
6.0
1070
    43
 40
8.0
1070
    44
 40
1.0
1070
    42
 40
1.0
1070
   147
 40
1.0
1070
   341
340
41
1070
   173
 70
     1
1070
    77
 70
     1
1070
   272
 70
     2
1070
    73
 70
     0
1070
   172
 70
     1
1070
    74
 70
     0
1070
   283
 70
     0
1070
   340
340
3F
1070
   140
 40
4.0
1070
   284
 70
     8
1070
    78
 70
     8
1002
}
  0
XRECORD
  5
285
102
{ACAD_REACTORS
330
27B
102
}
330
27B
100
AcDbXrecord
  1
{B6FAC6E4-B942-463A-91BC-DB94942CE73C}
  0
XRECORD
  5
27E
102
{ACAD_REACTORS
330
27B
102
}
330
27B
100
AcDbXrecord
  1

  0
XRECORD
  5
283
102
{ACAD_REACTORS
330
27B
102
}
330
27B
100
AcDbXrecord
 90
        1
  0
XRECORD
  5
280
102
{ACAD_REACTORS
330
27B
102
}
330
27B
100
AcDbXrecord
340
1A
  0
XRECORD
  5
282
102
{ACAD_REACTORS
330
27B
102
}
330
27B
100
AcDbXrecord
 90
    10781
  0
XRECORD
  5
281
102
{ACAD_REACTORS
330
27B
102
}
330
27B
100
AcDbXrecord
340
19
  0
XRECORD
  5
287
102
{ACAD_REACTORS
330
27B
102
}
330
27B
100
AcDbXrecord
 40
0.0
  0
XRECORD
  5
28A
102
{ACAD_REACTORS
330
27B
102
}
330
27B
100
AcDbXrecord
340
0
  0
XRECORD
  5
290
102
{ACAD_REACTORS
330
27B
102
}
330
27B
100
AcDbXrecord
 10
0.0
 20
0.0
 30
0.0
  0
XRECORD
  5
28C
102
{ACAD_REACTORS
330
27B
102
}
330
27B
100
AcDbXrecord
 10
0.0
 20
0.0
 30
0.0
  0
XRECORD
  5
28F
102
{ACAD_REACTORS
330
27B
102
}
330
27B
100
AcDbXrecord
 10
0.0
 20
0.0
 30
0.0
  0
XRECORD
  5
28D
102
{ACAD_REACTORS
330
27B
102
}
330
27B
100
AcDbXrecord
 10
0.0
 20
0.0
 30
0.0
  0
XRECORD
  5
28E
102
{ACAD_REACTORS
330
27B
102
}
330
27B
100
AcDbXrecord
 10
0.0
 20
0.0
 30
0.0
  0
XRECORD
  5
28B
102
{ACAD_REACTORS
330
27B
102
}
330
27B
100
AcDbXrecord
 10
0.0
 20
0.0
 30
0.0
  0
XRECORD
  5
288
102
{ACAD_REACTORS
330
27B
102
}
330
27B
100
AcDbXrecord
340
0
  0
XRECORD
  5
289
102
{ACAD_REACTORS
330
27B
102
}
330
27B
100
AcDbXrecord
 70
     0
  0
XRECORD
  5
27F
102
{ACAD_REACTORS
330
27B
102
}
330
27B
100
AcDbXrecord
  1

  0
XRECORD
  5
27C
102
{ACAD_REACTORS
330
27B
102
}
330
27B
100
AcDbXrecord
 90
        1
  0
XRECORD
  5
27D
102
{ACAD_REACTORS
330
27B
102
}
330
27B
100
AcDbXrecord
 90
       70
  0
XRECORD
  5
293
102
{ACAD_REACTORS
330
27B
102
}
330
27B
100
AcDbXrecord
340
0
  0
XRECORD
  5
299
102
{ACAD_REACTORS
330
27B
102
}
330
27B
100
AcDbXrecord
 10
0.0
 20
0.0
 30
0.0
  0
XRECORD
  5
295
102
{ACAD_REACTORS
330
27B
102
}
330
27B
100
AcDbXrecord
 10
0.0
 20
0.0
 30
0.0
  0
XRECORD
  5
298
102
{ACAD_REACTORS
330
27B
102
}
330
27B
100
AcDbXrecord
 10
0.0
 20
0.0
 30
0.0
  0
XRECORD
  5
296
102
{ACAD_REACTORS
330
27B
102
}
330
27B
100
AcDbXrecord
 10
0.0
 20
0.0
 30
0.0
  0
XRECORD
  5
297
102
{ACAD_REACTORS
330
27B
102
}
330
27B
100
AcDbXrecord
 10
0.0
 20
0.0
 30
0.0
  0
XRECORD
  5
294
102
{ACAD_REACTORS
330
27B
102
}
330
27B
100
AcDbXrecord
 10
0.0
 20
0.0
 30
0.0
  0
XRECORD
  5
291
102
{ACAD_REACTORS
330
27B
102
}
330
27B
100
AcDbXrecord
340
0
  0
XRECORD
  5
292
102
{ACAD_REACTORS
330
27B
102
}
330
27B
100
AcDbXrecord
 70
     0
  0
XRECORD
  5
286
102
{ACAD_REACTORS
330
27B
102
}
330
27B
100
AcDbXrecord
  1
{FAEB1C32-E019-11D5-929B-00C0DF256EC4}
  0
ENDSEC
  0
EOF
