  0
SECTION
  2
HEADER
  9
$ACADVER
  1
AC1014
  9
$ACADMAINTVER
 70
     9
  9
$DWGCODEPAGE
  3
ANSI_932
  9
$INSBASE
 10
0.0
 20
0.0
 30
0.0
  9
$EXTMIN
 10
0.0
 20
0.0
 30
0.0
  9
$EXTMAX
 10
297.0
 20
210.0
 30
0.0
  9
$LIMMIN
 10
0.0
 20
0.0
  9
$LIMMAX
 10
297.0
 20
210.0
  9
$ORTHOMODE
 70
     0
  9
$REGENMODE
 70
     1
  9
$FILLMODE
 70
     1
  9
$QTEXTMODE
 70
     0
  9
$MIRRTEXT
 70
     1
  9
$DRAGMODE
 70
     2
  9
$LTSCALE
 40
1.0
  9
$OSMODE
 70
    37
  9
$ATTMODE
 70
     1
  9
$TEXTSIZE
 40
0.2
  9
$TRACEWID
 40
0.05
  9
$TEXTSTYLE
  7
STYLE1
  9
$CLAYER
  8
0
  9
$CELTYPE
  6
BYLAYER
  9
$CECOLOR
 62
   256
  9
$CELTSCALE
 40
1.0
  9
$DELOBJ
 70
     1
  9
$DISPSILH
 70
     0
  9
$DIMSCALE
 40
1.0
  9
$DIMASZ
 40
3.0
  9
$DIMEXO
 40
1.0
  9
$DIMDLI
 40
8.0
  9
$DIMRND
 40
0.0
  9
$DIMDLE
 40
6.0
  9
$DIMEXE
 40
1.0
  9
$DIMTP
 40
0.0
  9
$DIMTM
 40
0.0
  9
$DIMTXT
 40
4.0
  9
$DIMCEN
 40
2.5
  9
$DIMTSZ
 40
0.0
  9
$DIMTOL
 70
     0
  9
$DIMLIM
 70
     0
  9
$DIMTIH
 70
     0
  9
$DIMTOH
 70
     0
  9
$DIMSE1
 70
     0
  9
$DIMSE2
 70
     0
  9
$DIMTAD
 70
     1
  9
$DIMZIN
 70
     8
  9
$DIMBLK
  1

  9
$DIMASO
 70
     1
  9
$DIMSHO
 70
     1
  9
$DIMPOST
  1

  9
$DIMAPOST
  1

  9
$DIMALT
 70
     0
  9
$DIMALTD
 70
     3
  9
$DIMALTF
 40
0.03937
  9
$DIMLFAC
 40
1.0
  9
$DIMTOFL
 70
     1
  9
$DIMTVP
 40
0.0
  9
$DIMTIX
 70
     0
  9
$DIMSOXD
 70
     0
  9
$DIMSAH
 70
     1
  9
$DIMBLK1
  1
FXTIP_ARROW_S
  9
$DIMBLK2
  1
FXTIP_ARROW_E
  9
$DIMSTYLE
  2
FXDIMINFO
  9
$DIMCLRD
 70
     7
  9
$DIMCLRE
 70
     7
  9
$DIMCLRT
 70
     7
  9
$DIMTFAC
 40
1.0
  9
$DIMGAP
 40
1.0
  9
$DIMJUST
 70
     0
  9
$DIMSD1
 70
     0
  9
$DIMSD2
 70
     0
  9
$DIMTOLJ
 70
     0
  9
$DIMTZIN
 70
     8
  9
$DIMALTZ
 70
     0
  9
$DIMALTTZ
 70
     0
  9
$DIMFIT
 70
     3
  9
$DIMUPT
 70
     0
  9
$DIMUNIT
 70
     2
  9
$DIMDEC
 70
     2
  9
$DIMTDEC
 70
     2
  9
$DIMALTU
 70
     2
  9
$DIMALTTD
 70
     3
  9
$DIMTXSTY
  7
STYLE1
  9
$DIMAUNIT
 70
     0
  9
$LUNITS
 70
     2
  9
$LUPREC
 70
     4
  9
$SKETCHINC
 40
0.1
  9
$FILLETRAD
 40
0.5
  9
$AUNITS
 70
     0
  9
$AUPREC
 70
     0
  9
$MENU
  1
.
  9
$ELEVATION
 40
0.0
  9
$PELEVATION
 40
0.0
  9
$THICKNESS
 40
0.0
  9
$LIMCHECK
 70
     0
  9
$CHAMFERA
 40
0.5
  9
$CHAMFERB
 40
0.5
  9
$CHAMFERC
 40
1.0
  9
$CHAMFERD
 40
0.0
  9
$SKPOLY
 70
     0
  9
$TDCREATE
 40
2455300.668974977
  9
$TDUPDATE
 40
2455300.668974989
  9
$TDINDWG
 40
0.0000000116
  9
$TDUSRTIMER
 40
0.0000000116
  9
$USRTIMER
 70
     1
  9
$ANGBASE
 50
0.0
  9
$ANGDIR
 70
     0
  9
$PDMODE
 70
     0
  9
$PDSIZE
 40
0.0
  9
$PLINEWID
 40
0.0
  9
$COORDS
 70
     1
  9
$SPLFRAME
 70
     0
  9
$SPLINETYPE
 70
     6
  9
$SPLINESEGS
 70
     8
  9
$ATTDIA
 70
     0
  9
$ATTREQ
 70
     1
  9
$HANDLING
 70
     1
  9
$HANDSEED
  5
286
  9
$SURFTAB1
 70
     6
  9
$SURFTAB2
 70
     6
  9
$SURFTYPE
 70
     6
  9
$SURFU
 70
     6
  9
$SURFV
 70
     6
  9
$UCSNAME
  2

  9
$UCSORG
 10
0.0
 20
0.0
 30
0.0
  9
$UCSXDIR
 10
1.0
 20
0.0
 30
0.0
  9
$UCSYDIR
 10
0.0
 20
1.0
 30
0.0
  9
$PUCSNAME
  2

  9
$PUCSORG
 10
0.0
 20
0.0
 30
0.0
  9
$PUCSXDIR
 10
1.0
 20
0.0
 30
0.0
  9
$PUCSYDIR
 10
0.0
 20
1.0
 30
0.0
  9
$USERI1
 70
     0
  9
$USERI2
 70
     0
  9
$USERI3
 70
     0
  9
$USERI4
 70
     0
  9
$USERI5
 70
     0
  9
$USERR1
 40
0.0
  9
$USERR2
 40
0.0
  9
$USERR3
 40
0.0
  9
$USERR4
 40
0.0
  9
$USERR5
 40
0.0
  9
$WORLDVIEW
 70
     1
  9
$SHADEDGE
 70
     3
  9
$SHADEDIF
 70
    70
  9
$TILEMODE
 70
     1
  9
$MAXACTVP
 70
    64
  9
$PINSBASE
 10
0.0
 20
0.0
 30
0.0
  9
$PLIMCHECK
 70
     0
  9
$PEXTMIN
 10
1.000000E+20
 20
1.000000E+20
 30
1.000000E+20
  9
$PEXTMAX
 10
-1.000000E+20
 20
-1.000000E+20
 30
-1.000000E+20
  9
$PLIMMIN
 10
0.0
 20
0.0
  9
$PLIMMAX
 10
12.0
 20
9.0
  9
$UNITMODE
 70
     0
  9
$VISRETAIN
 70
     1
  9
$PLINEGEN
 70
     0
  9
$PSLTSCALE
 70
     1
  9
$TREEDEPTH
 70
  3020
  9
$PICKSTYLE
 70
     1
  9
$CMLSTYLE
  2
STANDARD
  9
$CMLJUST
 70
     0
  9
$CMLSCALE
 40
1.0
  9
$PROXYGRAPHICS
 70
     1
  9
$MEASUREMENT
 70
     0
  0
ENDSEC
  0
SECTION
  2
CLASSES
  0
CLASS
  1
ACDBDICTIONARYWDFLT
  2
AcDbDictionaryWithDefault
  3
ObjectDBX Classes
 90
        0
280
     0
281
     0
  0
CLASS
  1
XRECORD
  2
AcDbXrecord
  3
AutoCAD 2000
 90
        0
280
     0
281
     0
  0
CLASS
  1
LWPOLYLINE
  2
AcDbPolyline
  3
AutoCAD 2000
 90
        0
280
     0
281
     1
  0
CLASS
  1
HATCH
  2
AcDbHatch
  3
AutoCAD 2000
 90
        0
280
     0
281
     1
  0
CLASS
  1
ACDBPLACEHOLDER
  2
AcDbPlaceHolder
  3
ObjectDBX Classes
 90
        0
280
     0
281
     0
  0
CLASS
  1
LAYOUT
  2
AcDbLayout
  3
ObjectDBX Classes
 90
        0
280
     0
281
     0
  0
ENDSEC
  0
SECTION
  2
TABLES
  0
TABLE
  2
VPORT
  5
8
330
0
100
AcDbSymbolTable
 70
     1
  0
VPORT
  5
29
330
8
100
AcDbSymbolTableRecord
100
AcDbViewportTableRecord
  2
*ACTIVE
 70
     0
 10
0.0
 20
0.0
 11
1.0
 21
1.0
 12
148.5
 22
105.0
 13
0.0
 23
0.0
 14
0.5
 24
0.5
 15
0.5
 25
0.5
 16
0.0
 26
0.0
 36
1.0
 17
0.0
 27
0.0
 37
0.0
 40
210.0
 41
1.414286
 42
50.0
 43
0.0
 44
0.0
 50
0.0
 51
0.0
 71
     0
 72
   100
 73
     1
 74
     3
 75
     0
 76
     0
 77
     0
 78
     0
  0
ENDTAB
  0
TABLE
  2
LTYPE
  5
5
330
0
100
AcDbSymbolTable
 70
     4
  0
LTYPE
  5
14
330
5
100
AcDbSymbolTableRecord
100
AcDbLinetypeTableRecord
  2
BYBLOCK
 70
     0
  3

 72
    65
 73
     0
 40
0.0
  0
LTYPE
  5
15
330
5
100
AcDbSymbolTableRecord
100
AcDbLinetypeTableRecord
  2
BYLAYER
 70
     0
  3

 72
    65
 73
     0
 40
0.0
  0
LTYPE
  5
16
330
5
100
AcDbSymbolTableRecord
100
AcDbLinetypeTableRecord
  2
CONTINUOUS
 70
     0
  3
--------------------
 72
    65
 73
     0
 40
0.0
  0
LTYPE
  5
2A
330
5
100
AcDbSymbolTableRecord
100
AcDbLinetypeTableRecord
  2
CENTER
 70
     0
  3
Center ____ _ ____ _ ____ _ ____ _ ____ _ ____
 72
    65
 73
     4
 40
13.0
 49
10.0
 74
     0
 49
-1.0
 74
     0
 49
1.0
 74
     0
 49
-1.0
 74
     0
  0
ENDTAB
  0
TABLE
  2
LAYER
  5
2
330
0
100
AcDbSymbolTable
 70
    20
  0
LAYER
  5
10
330
2
100
AcDbSymbolTableRecord
100
AcDbLayerTableRecord
  2
0
 70
     0
 62
     7
  6
CONTINUOUS
  0
LAYER
  5
2D
330
2
100
AcDbSymbolTableRecord
100
AcDbLayerTableRecord
  2
LAYERGROUP-1
 70
     0
 62
     3
  6
CONTINUOUS
  0
LAYER
  5
3D
330
2
100
AcDbSymbolTableRecord
100
AcDbLayerTableRecord
  2
}}ﾊﾊGG血CCТ
 70
     0
 62
     3
  6
CONTINUOUS
  0
LAYER
  5
AA
330
2
100
AcDbSymbolTableRecord
100
AcDbLayerTableRecord
  2
GR1-1
 70
     0
 62
     7
  6
CONTINUOUS
  0
LAYER
  5
249
330
2
100
AcDbSymbolTableRecord
100
AcDbLayerTableRecord
  2
0-1
 70
     0
 62
     7
  6
CONTINUOUS
  0
ENDTAB
  0
TABLE
  2
STYLE
  5
3
330
0
100
AcDbSymbolTable
 70
     4
  0
STYLE
  5
11
330
3
100
AcDbSymbolTableRecord
100
AcDbTextStyleTableRecord
  2
STANDARD
 70
     0
 40
0.0
 41
1.0
 50
0.0
 71
     0
 42
0.2
  3
txt
  4

  0
STYLE
  5
3F
330
3
100
AcDbSymbolTableRecord
100
AcDbTextStyleTableRecord
  2
STYLE1
 70
     0
 40
0.0
 41
1.0
 50
0.0
 71
     0
 42
0.2
  3
MONOTXT.SHX
  4
extfont.shx
  0
STYLE
  5
40
330
3
100
AcDbSymbolTableRecord
100
AcDbTextStyleTableRecord
  2
FX_VECTOR
 70
     0
 40
0.0
 41
1.0
 50
0.0
 71
     0
 42
0.2
  3
MONOTXT.SHX
  4
BIGFONT.SHX
  0
ENDTAB
  0
TABLE
  2
VIEW
  5
6
330
0
100
AcDbSymbolTable
 70
     0
  0
ENDTAB
  0
TABLE
  2
UCS
  5
7
330
0
100
AcDbSymbolTable
 70
     0
  0
ENDTAB
  0
TABLE
  2
APPID
  5
9
330
0
100
AcDbSymbolTable
 70
     1
  0
APPID
  5
12
330
9
100
AcDbSymbolTableRecord
100
AcDbRegAppTableRecord
  2
ACAD
 70
     0
  0
ENDTAB
  0
TABLE
  2
DIMSTYLE
  5
A
330
0
100
AcDbSymbolTable
 70
     2
  0
DIMSTYLE
105
27
330
A
100
AcDbSymbolTableRecord
100
AcDbDimStyleTableRecord
  2
STANDARD
 70
     0
  3

  4

  5

  6

  7

 40
1.0
 41
0.18
 42
0.0625
 43
0.38
 44
0.18
 45
0.0
 46
0.0
 47
0.0
 48
0.0
140
0.18
141
0.09
142
0.0
143
25.4
144
1.0
145
0.0
146
1.0
147
0.09
 71
     0
 72
     0
 73
     1
 74
     1
 75
     0
 76
     0
 77
     0
 78
     0
170
     0
171
     2
172
     0
173
     0
174
     0
175
     0
176
     0
177
     0
178
     0
270
     2
271
     4
272
     4
273
     2
274
     2
340
11
275
     0
280
     0
281
     0
282
     0
283
     1
284
     0
285
     0
286
     0
287
     3
288
     0
  0
DIMSTYLE
105
A7
102
{ACAD_REACTORS
330
209
330
213
330
21D
330
227
102
}
330
A
100
AcDbSymbolTableRecord
100
AcDbDimStyleTableRecord
  2
FXDIMINFO
 70
     0
  3

  4

  5

  6
FXTIP_ARROW_S
  7
FXTIP_ARROW_E
 40
1.0
 41
3.0
 42
1.0
 43
8.0
 44
1.0
 45
0.0
 46
6.0
 47
0.0
 48
0.0
140
4.0
141
2.5
142
0.0
143
0.03937
144
1.0
145
0.0
146
1.0
147
1.0
 71
     0
 72
     0
 73
     0
 74
     0
 75
     0
 76
     0
 77
     1
 78
     8
170
     0
171
     3
172
     1
173
     1
174
     0
175
     0
176
     7
177
     7
178
     7
179
     2
270
     2
271
     2
272
     2
273
     2
274
     3
340
3F
275
     0
280
     0
281
     0
282
     0
283
     0
284
     8
285
     0
286
     0
287
     3
288
     0
  0
ENDTAB
  0
TABLE
  2
BLOCK_RECORD
  5
1
330
0
100
AcDbSymbolTable
 70
    30
  0
BLOCK_RECORD
  5
1F
330
1
100
AcDbSymbolTableRecord
100
AcDbBlockTableRecord
  2
*MODEL_SPACE
  0
BLOCK_RECORD
  5
1B
330
1
100
AcDbSymbolTableRecord
100
AcDbBlockTableRecord
  2
*PAPER_SPACE
  0
BLOCK_RECORD
  5
41
330
1
100
AcDbSymbolTableRecord
100
AcDbBlockTableRecord
  2
FXTIP_ARROW_S
  0
BLOCK_RECORD
  5
47
330
1
100
AcDbSymbolTableRecord
100
AcDbBlockTableRecord
  2
FXTIP_ARROW_E
  0
BLOCK_RECORD
  5
4D
330
1
100
AcDbSymbolTableRecord
100
AcDbBlockTableRecord
  2
FXTIP_BLACKDOT_S
  0
BLOCK_RECORD
  5
53
330
1
100
AcDbSymbolTableRecord
100
AcDbBlockTableRecord
  2
FXTIP_BLACKDOT_E
  0
BLOCK_RECORD
  5
59
330
1
100
AcDbSymbolTableRecord
100
AcDbBlockTableRecord
  2
FXTIP_TRIANGLE_S
  0
BLOCK_RECORD
  5
60
330
1
100
AcDbSymbolTableRecord
100
AcDbBlockTableRecord
  2
FXTIP_TRIANGLE_E
  0
BLOCK_RECORD
  5
67
330
1
100
AcDbSymbolTableRecord
100
AcDbBlockTableRecord
  2
FXTIP_ARCHITECT_S
  0
BLOCK_RECORD
  5
6D
330
1
100
AcDbSymbolTableRecord
100
AcDbBlockTableRecord
  2
FXTIP_ARCHITECT_E
  0
BLOCK_RECORD
  5
73
330
1
100
AcDbSymbolTableRecord
100
AcDbBlockTableRecord
  2
FXTIP_CIVIL_S
  0
BLOCK_RECORD
  5
79
330
1
100
AcDbSymbolTableRecord
100
AcDbBlockTableRecord
  2
FXTIP_CIVIL_E
  0
BLOCK_RECORD
  5
7F
330
1
100
AcDbSymbolTableRecord
100
AcDbBlockTableRecord
  2
FXTIP_WHITEDOT_S
  0
BLOCK_RECORD
  5
84
330
1
100
AcDbSymbolTableRecord
100
AcDbBlockTableRecord
  2
FXTIP_WHITEDOT_E
  0
BLOCK_RECORD
  5
89
330
1
100
AcDbSymbolTableRecord
100
AcDbBlockTableRecord
  2
FXTIP_UPARROW_S
  0
BLOCK_RECORD
  5
8E
330
1
100
AcDbSymbolTableRecord
100
AcDbBlockTableRecord
  2
FXTIP_UPARROW_E
  0
BLOCK_RECORD
  5
93
330
1
100
AcDbSymbolTableRecord
100
AcDbBlockTableRecord
  2
FXTIP_DOWNARROW_S
  0
BLOCK_RECORD
  5
98
330
1
100
AcDbSymbolTableRecord
100
AcDbBlockTableRecord
  2
FXTIP_DOWNARROW_E
  0
BLOCK_RECORD
  5
9D
330
1
100
AcDbSymbolTableRecord
100
AcDbBlockTableRecord
  2
FXTIP_BLACKTRIANGLE_S
  0
BLOCK_RECORD
  5
A2
330
1
100
AcDbSymbolTableRecord
100
AcDbBlockTableRecord
  2
FXTIP_BLACKTRIANGLE_E
  0
BLOCK_RECORD
  5
104
330
1
100
AcDbSymbolTableRecord
100
AcDbBlockTableRecord
  2
BLKF021
  0
BLOCK_RECORD
  5
183
330
1
100
AcDbSymbolTableRecord
100
AcDbBlockTableRecord
  2
BLKF022
  0
BLOCK_RECORD
  5
1C3
330
1
100
AcDbSymbolTableRecord
100
AcDbBlockTableRecord
  2
BLKF023
  0
BLOCK_RECORD
  5
200
330
1
100
AcDbSymbolTableRecord
100
AcDbBlockTableRecord
  2
BLKF024
  0
BLOCK_RECORD
  5
20A
330
1
100
AcDbSymbolTableRecord
100
AcDbBlockTableRecord
  2
*D23
  0
BLOCK_RECORD
  5
214
330
1
100
AcDbSymbolTableRecord
100
AcDbBlockTableRecord
  2
*D24
  0
BLOCK_RECORD
  5
21E
330
1
100
AcDbSymbolTableRecord
100
AcDbBlockTableRecord
  2
*D25
  0
BLOCK_RECORD
  5
228
330
1
100
AcDbSymbolTableRecord
100
AcDbBlockTableRecord
  2
*D26
  0
BLOCK_RECORD
  5
239
330
1
100
AcDbSymbolTableRecord
100
AcDbBlockTableRecord
  2
BLKF029
  0
BLOCK_RECORD
  5
245
330
1
100
AcDbSymbolTableRecord
100
AcDbBlockTableRecord
  2
BLKF030
  0
BLOCK_RECORD
  5
24E
330
1
100
AcDbSymbolTableRecord
100
AcDbBlockTableRecord
  2
BLKF031
  0
ENDTAB
  0
ENDSEC
  0
SECTION
  2
BLOCKS
  0
BLOCK
  5
20
330
1F
100
AcDbEntity
  8
0
100
AcDbBlockBegin
  2
*MODEL_SPACE
 70
     0
 71
     0
 10
0.0
 20
0.0
 30
0.0
  3
*MODEL_SPACE
  1

  0
ENDBLK
  5
21
330
1F
100
AcDbEntity
  8
0
100
AcDbBlockEnd
  0
BLOCK
  5
1C
330
1B
100
AcDbEntity
 67
     1
  8
0
100
AcDbBlockBegin
  2
*PAPER_SPACE
 70
     0
 71
     0
 10
0.0
 20
0.0
 30
0.0
  3
*PAPER_SPACE
  1

  0
ENDBLK
  5
1D
330
1B
100
AcDbEntity
 67
     1
  8
0
100
AcDbBlockEnd
  0
BLOCK
  5
42
330
41
100
AcDbEntity
  8
0
100
AcDbBlockBegin
  2
FXTIP_ARROW_S
 70
     0
 71
     0
 10
0.0
 20
0.0
 30
0.0
  3
FXTIP_ARROW_S
  1

  0
LINE
  5
44
330
41
100
AcDbEntity
  8
0
  6
CONTINUOUS
 62
     0
100
AcDbLine
 10
0.0
 20
0.0
 30
0.0
 11
-1.0
 21
0.0
 31
0.0
  0
LINE
  5
45
330
41
100
AcDbEntity
  8
0
  6
CONTINUOUS
 62
     0
100
AcDbLine
 10
0.0
 20
0.0
 30
0.0
 11
-0.965926
 21
-0.258819
 31
0.0
  0
LINE
  5
46
330
41
100
AcDbEntity
  8
0
  6
CONTINUOUS
 62
     0
100
AcDbLine
 10
0.0
 20
0.0
 30
0.0
 11
-0.965926
 21
0.258819
 31
0.0
  0
ENDBLK
  5
43
330
41
100
AcDbEntity
  8
0
100
AcDbBlockEnd
  0
BLOCK
  5
48
330
47
100
AcDbEntity
  8
0
100
AcDbBlockBegin
  2
FXTIP_ARROW_E
 70
     0
 71
     0
 10
0.0
 20
0.0
 30
0.0
  3
FXTIP_ARROW_E
  1

  0
LINE
  5
4A
330
47
100
AcDbEntity
  8
0
  6
CONTINUOUS
 62
     0
100
AcDbLine
 10
0.0
 20
0.0
 30
0.0
 11
-1.0
 21
0.0
 31
0.0
  0
LINE
  5
4B
330
47
100
AcDbEntity
  8
0
  6
CONTINUOUS
 62
     0
100
AcDbLine
 10
0.0
 20
0.0
 30
0.0
 11
-0.965926
 21
0.258819
 31
0.0
  0
LINE
  5
4C
330
47
100
AcDbEntity
  8
0
  6
CONTINUOUS
 62
     0
100
AcDbLine
 10
0.0
 20
0.0
 30
0.0
 11
-0.965926
 21
-0.258819
 31
0.0
  0
ENDBLK
  5
49
330
47
100
AcDbEntity
  8
0
100
AcDbBlockEnd
  0
BLOCK
  5
4E
330
4D
100
AcDbEntity
  8
0
100
AcDbBlockBegin
  2
FXTIP_BLACKDOT_S
 70
     0
 71
     0
 10
0.0
 20
0.0
 30
0.0
  3
FXTIP_BLACKDOT_S
  1

  0
LINE
  5
50
330
4D
100
AcDbEntity
  8
0
  6
CONTINUOUS
 62
     0
100
AcDbLine
 10
0.0
 20
0.0
 30
0.0
 11
-1.0
 21
0.0
 31
0.0
  0
LWPOLYLINE
  5
51
330
4D
100
AcDbEntity
  8
0
  6
CONTINUOUS
 62
     0
100
AcDbPolyline
 90
        2
 70
     1
 10
-0.25
 20
0.0
 40
0.5
 41
0.5
 42
1.0
 10
0.25
 20
0.0
 40
0.5
 41
0.5
 42
1.0
  0
CIRCLE
  5
52
330
4D
100
AcDbEntity
  8
0
  6
CONTINUOUS
 62
     0
100
AcDbCircle
 10
0.0
 20
0.0
 30
0.0
 40
0.5
  0
ENDBLK
  5
4F
330
4D
100
AcDbEntity
  8
0
100
AcDbBlockEnd
  0
BLOCK
  5
54
330
53
100
AcDbEntity
  8
0
100
AcDbBlockBegin
  2
FXTIP_BLACKDOT_E
 70
     0
 71
     0
 10
0.0
 20
0.0
 30
0.0
  3
FXTIP_BLACKDOT_E
  1

  0
LINE
  5
56
330
53
100
AcDbEntity
  8
0
  6
CONTINUOUS
 62
     0
100
AcDbLine
 10
0.0
 20
0.0
 30
0.0
 11
-1.0
 21
0.0
 31
0.0
  0
LWPOLYLINE
  5
57
330
53
100
AcDbEntity
  8
0
  6
CONTINUOUS
 62
     0
100
AcDbPolyline
 90
        2
 70
     1
 10
-0.25
 20
0.0
 40
0.5
 41
0.5
 42
1.0
 10
0.25
 20
0.0
 40
0.5
 41
0.5
 42
1.0
  0
CIRCLE
  5
58
330
53
100
AcDbEntity
  8
0
  6
CONTINUOUS
 62
     0
100
AcDbCircle
 10
0.0
 20
0.0
 30
0.0
 40
0.5
  0
ENDBLK
  5
55
330
53
100
AcDbEntity
  8
0
100
AcDbBlockEnd
  0
BLOCK
  5
5A
330
59
100
AcDbEntity
  8
0
100
AcDbBlockBegin
  2
FXTIP_TRIANGLE_S
 70
     0
 71
     0
 10
0.0
 20
0.0
 30
0.0
  3
FXTIP_TRIANGLE_S
  1

  0
LINE
  5
5C
330
59
100
AcDbEntity
  8
0
  6
CONTINUOUS
 62
     0
100
AcDbLine
 10
0.0
 20
0.0
 30
0.0
 11
-1.0
 21
0.0
 31
0.0
  0
LINE
  5
5D
330
59
100
AcDbEntity
  8
0
  6
CONTINUOUS
 62
     0
100
AcDbLine
 10
0.0
 20
0.0
 30
0.0
 11
-0.965926
 21
-0.258819
 31
0.0
  0
LINE
  5
5E
330
59
100
AcDbEntity
  8
0
  6
CONTINUOUS
 62
     0
100
AcDbLine
 10
0.0
 20
0.0
 30
0.0
 11
-0.965926
 21
0.258819
 31
0.0
  0
LINE
  5
5F
330
59
100
AcDbEntity
  8
0
  6
CONTINUOUS
 62
     0
100
AcDbLine
 10
-0.965926
 20
-0.258819
 30
0.0
 11
-0.965926
 21
0.258819
 31
0.0
  0
ENDBLK
  5
5B
330
59
100
AcDbEntity
  8
0
100
AcDbBlockEnd
  0
BLOCK
  5
61
330
60
100
AcDbEntity
  8
0
100
AcDbBlockBegin
  2
FXTIP_TRIANGLE_E
 70
     0
 71
     0
 10
0.0
 20
0.0
 30
0.0
  3
FXTIP_TRIANGLE_E
  1

  0
LINE
  5
63
330
60
100
AcDbEntity
  8
0
  6
CONTINUOUS
 62
     0
100
AcDbLine
 10
0.0
 20
0.0
 30
0.0
 11
-1.0
 21
0.0
 31
0.0
  0
LINE
  5
64
330
60
100
AcDbEntity
  8
0
  6
CONTINUOUS
 62
     0
100
AcDbLine
 10
0.0
 20
0.0
 30
0.0
 11
-0.965926
 21
0.258819
 31
0.0
  0
LINE
  5
65
330
60
100
AcDbEntity
  8
0
  6
CONTINUOUS
 62
     0
100
AcDbLine
 10
0.0
 20
0.0
 30
0.0
 11
-0.965926
 21
-0.258819
 31
0.0
  0
LINE
  5
66
330
60
100
AcDbEntity
  8
0
  6
CONTINUOUS
 62
     0
100
AcDbLine
 10
-0.965926
 20
0.258819
 30
0.0
 11
-0.965926
 21
-0.258819
 31
0.0
  0
ENDBLK
  5
62
330
60
100
AcDbEntity
  8
0
100
AcDbBlockEnd
  0
BLOCK
  5
68
330
67
100
AcDbEntity
  8
0
100
AcDbBlockBegin
  2
FXTIP_ARCHITECT_S
 70
     0
 71
     0
 10
0.0
 20
0.0
 30
0.0
  3
FXTIP_ARCHITECT_S
  1

  0
LINE
  5
6A
330
67
100
AcDbEntity
  8
0
  6
CONTINUOUS
 62
     0
100
AcDbLine
 10
0.0
 20
0.0
 30
0.0
 11
-1.0
 21
0.0
 31
0.0
  0
LINE
  5
6B
330
67
100
AcDbEntity
  8
0
  6
CONTINUOUS
 62
     0
100
AcDbLine
 10
0.0
 20
0.0
 30
0.0
 11
-0.707107
 21
-0.707107
 31
0.0
  0
LINE
  5
6C
330
67
100
AcDbEntity
  8
0
  6
CONTINUOUS
 62
     0
100
AcDbLine
 10
0.0
 20
0.0
 30
0.0
 11
0.707107
 21
0.707107
 31
0.0
  0
ENDBLK
  5
69
330
67
100
AcDbEntity
  8
0
100
AcDbBlockEnd
  0
BLOCK
  5
6E
330
6D
100
AcDbEntity
  8
0
100
AcDbBlockBegin
  2
FXTIP_ARCHITECT_E
 70
     0
 71
     0
 10
0.0
 20
0.0
 30
0.0
  3
FXTIP_ARCHITECT_E
  1

  0
LINE
  5
70
330
6D
100
AcDbEntity
  8
0
  6
CONTINUOUS
 62
     0
100
AcDbLine
 10
0.0
 20
0.0
 30
0.0
 11
-1.0
 21
0.0
 31
0.0
  0
LINE
  5
71
330
6D
100
AcDbEntity
  8
0
  6
CONTINUOUS
 62
     0
100
AcDbLine
 10
0.0
 20
0.0
 30
0.0
 11
0.707107
 21
0.707107
 31
0.0
  0
LINE
  5
72
330
6D
100
AcDbEntity
  8
0
  6
CONTINUOUS
 62
     0
100
AcDbLine
 10
0.0
 20
0.0
 30
0.0
 11
-0.707107
 21
-0.707107
 31
0.0
  0
ENDBLK
  5
6F
330
6D
100
AcDbEntity
  8
0
100
AcDbBlockEnd
  0
BLOCK
  5
74
330
73
100
AcDbEntity
  8
0
100
AcDbBlockBegin
  2
FXTIP_CIVIL_S
 70
     0
 71
     0
 10
0.0
 20
0.0
 30
0.0
  3
FXTIP_CIVIL_S
  1

  0
LINE
  5
76
330
73
100
AcDbEntity
  8
0
  6
CONTINUOUS
 62
     0
100
AcDbLine
 10
0.0
 20
0.0
 30
0.0
 11
-1.0
 21
0.0
 31
0.0
  0
LINE
  5
77
330
73
100
AcDbEntity
  8
0
  6
CONTINUOUS
 62
     0
100
AcDbLine
 10
0.0
 20
-0.083333
 30
0.0
 11
-1.0
 21
-0.083333
 31
0.0
  0
LINE
  5
78
330
73
100
AcDbEntity
  8
0
  6
CONTINUOUS
 62
     0
100
AcDbLine
 10
0.0
 20
-0.166667
 30
0.0
 11
-1.0
 21
-0.166667
 31
0.0
  0
ENDBLK
  5
75
330
73
100
AcDbEntity
  8
0
100
AcDbBlockEnd
  0
BLOCK
  5
7A
330
79
100
AcDbEntity
  8
0
100
AcDbBlockBegin
  2
FXTIP_CIVIL_E
 70
     0
 71
     0
 10
0.0
 20
0.0
 30
0.0
  3
FXTIP_CIVIL_E
  1

  0
LINE
  5
7C
330
79
100
AcDbEntity
  8
0
  6
CONTINUOUS
 62
     0
100
AcDbLine
 10
0.0
 20
0.0
 30
0.0
 11
-1.0
 21
0.0
 31
0.0
  0
LINE
  5
7D
330
79
100
AcDbEntity
  8
0
  6
CONTINUOUS
 62
     0
100
AcDbLine
 10
0.0
 20
0.083333
 30
0.0
 11
-1.0
 21
0.083333
 31
0.0
  0
LINE
  5
7E
330
79
100
AcDbEntity
  8
0
  6
CONTINUOUS
 62
     0
100
AcDbLine
 10
0.0
 20
0.166667
 30
0.0
 11
-1.0
 21
0.166667
 31
0.0
  0
ENDBLK
  5
7B
330
79
100
AcDbEntity
  8
0
100
AcDbBlockEnd
  0
BLOCK
  5
80
330
7F
100
AcDbEntity
  8
0
100
AcDbBlockBegin
  2
FXTIP_WHITEDOT_S
 70
     0
 71
     0
 10
0.0
 20
0.0
 30
0.0
  3
FXTIP_WHITEDOT_S
  1

  0
LINE
  5
82
330
7F
100
AcDbEntity
  8
0
  6
CONTINUOUS
 62
     0
100
AcDbLine
 10
0.0
 20
0.0
 30
0.0
 11
-1.0
 21
0.0
 31
0.0
  0
CIRCLE
  5
83
330
7F
100
AcDbEntity
  8
0
  6
CONTINUOUS
 62
     0
100
AcDbCircle
 10
0.0
 20
0.0
 30
0.0
 40
0.5
  0
ENDBLK
  5
81
330
7F
100
AcDbEntity
  8
0
100
AcDbBlockEnd
  0
BLOCK
  5
85
330
84
100
AcDbEntity
  8
0
100
AcDbBlockBegin
  2
FXTIP_WHITEDOT_E
 70
     0
 71
     0
 10
0.0
 20
0.0
 30
0.0
  3
FXTIP_WHITEDOT_E
  1

  0
LINE
  5
87
330
84
100
AcDbEntity
  8
0
  6
CONTINUOUS
 62
     0
100
AcDbLine
 10
0.0
 20
0.0
 30
0.0
 11
-1.0
 21
0.0
 31
0.0
  0
CIRCLE
  5
88
330
84
100
AcDbEntity
  8
0
  6
CONTINUOUS
 62
     0
100
AcDbCircle
 10
0.0
 20
0.0
 30
0.0
 40
0.5
  0
ENDBLK
  5
86
330
84
100
AcDbEntity
  8
0
100
AcDbBlockEnd
  0
BLOCK
  5
8A
330
89
100
AcDbEntity
  8
0
100
AcDbBlockBegin
  2
FXTIP_UPARROW_S
 70
     0
 71
     0
 10
0.0
 20
0.0
 30
0.0
  3
FXTIP_UPARROW_S
  1

  0
LINE
  5
8C
330
89
100
AcDbEntity
  8
0
  6
CONTINUOUS
 62
     0
100
AcDbLine
 10
0.0
 20
0.0
 30
0.0
 11
-1.0
 21
0.0
 31
0.0
  0
LINE
  5
8D
330
89
100
AcDbEntity
  8
0
  6
CONTINUOUS
 62
     0
100
AcDbLine
 10
0.0
 20
0.0
 30
0.0
 11
-0.965926
 21
-0.258819
 31
0.0
  0
ENDBLK
  5
8B
330
89
100
AcDbEntity
  8
0
100
AcDbBlockEnd
  0
BLOCK
  5
8F
330
8E
100
AcDbEntity
  8
0
100
AcDbBlockBegin
  2
FXTIP_UPARROW_E
 70
     0
 71
     0
 10
0.0
 20
0.0
 30
0.0
  3
FXTIP_UPARROW_E
  1

  0
LINE
  5
91
330
8E
100
AcDbEntity
  8
0
  6
CONTINUOUS
 62
     0
100
AcDbLine
 10
0.0
 20
0.0
 30
0.0
 11
-1.0
 21
0.0
 31
0.0
  0
LINE
  5
92
330
8E
100
AcDbEntity
  8
0
  6
CONTINUOUS
 62
     0
100
AcDbLine
 10
0.0
 20
0.0
 30
0.0
 11
-0.965926
 21
0.258819
 31
0.0
  0
ENDBLK
  5
90
330
8E
100
AcDbEntity
  8
0
100
AcDbBlockEnd
  0
BLOCK
  5
94
330
93
100
AcDbEntity
  8
0
100
AcDbBlockBegin
  2
FXTIP_DOWNARROW_S
 70
     0
 71
     0
 10
0.0
 20
0.0
 30
0.0
  3
FXTIP_DOWNARROW_S
  1

  0
LINE
  5
96
330
93
100
AcDbEntity
  8
0
  6
CONTINUOUS
 62
     0
100
AcDbLine
 10
0.0
 20
0.0
 30
0.0
 11
-1.0
 21
0.0
 31
0.0
  0
LINE
  5
97
330
93
100
AcDbEntity
  8
0
  6
CONTINUOUS
 62
     0
100
AcDbLine
 10
0.0
 20
0.0
 30
0.0
 11
-0.965926
 21
0.258819
 31
0.0
  0
ENDBLK
  5
95
330
93
100
AcDbEntity
  8
0
100
AcDbBlockEnd
  0
BLOCK
  5
99
330
98
100
AcDbEntity
  8
0
100
AcDbBlockBegin
  2
FXTIP_DOWNARROW_E
 70
     0
 71
     0
 10
0.0
 20
0.0
 30
0.0
  3
FXTIP_DOWNARROW_E
  1

  0
LINE
  5
9B
330
98
100
AcDbEntity
  8
0
  6
CONTINUOUS
 62
     0
100
AcDbLine
 10
0.0
 20
0.0
 30
0.0
 11
-1.0
 21
0.0
 31
0.0
  0
LINE
  5
9C
330
98
100
AcDbEntity
  8
0
  6
CONTINUOUS
 62
     0
100
AcDbLine
 10
0.0
 20
0.0
 30
0.0
 11
-0.965926
 21
-0.258819
 31
0.0
  0
ENDBLK
  5
9A
330
98
100
AcDbEntity
  8
0
100
AcDbBlockEnd
  0
BLOCK
  5
9E
330
9D
100
AcDbEntity
  8
0
100
AcDbBlockBegin
  2
FXTIP_BLACKTRIANGLE_S
 70
     0
 71
     0
 10
0.0
 20
0.0
 30
0.0
  3
FXTIP_BLACKTRIANGLE_S
  1

  0
LINE
  5
A0
330
9D
100
AcDbEntity
  8
0
  6
CONTINUOUS
 62
     0
100
AcDbLine
 10
0.0
 20
0.0
 30
0.0
 11
-1.0
 21
0.0
 31
0.0
  0
SOLID
  5
A1
330
9D
100
AcDbEntity
  8
0
  6
CONTINUOUS
 62
     0
100
AcDbTrace
 10
0.0
 20
0.0
 30
0.0
 11
-0.965926
 21
-0.258819
 31
0.0
 12
-0.965926
 22
0.258819
 32
0.0
 13
-0.965926
 23
0.258819
 33
0.0
  0
ENDBLK
  5
9F
330
9D
100
AcDbEntity
  8
0
100
AcDbBlockEnd
  0
BLOCK
  5
A3
330
A2
100
AcDbEntity
  8
0
100
AcDbBlockBegin
  2
FXTIP_BLACKTRIANGLE_E
 70
     0
 71
     0
 10
0.0
 20
0.0
 30
0.0
  3
FXTIP_BLACKTRIANGLE_E
  1

  0
LINE
  5
A5
330
A2
100
AcDbEntity
  8
0
  6
CONTINUOUS
 62
     0
100
AcDbLine
 10
0.0
 20
0.0
 30
0.0
 11
-1.0
 21
0.0
 31
0.0
  0
SOLID
  5
A6
330
A2
100
AcDbEntity
  8
0
  6
CONTINUOUS
 62
     0
100
AcDbTrace
 10
0.0
 20
0.0
 30
0.0
 11
-0.965926
 21
0.258819
 31
0.0
 12
-0.965926
 22
-0.258819
 32
0.0
 13
-0.965926
 23
-0.258819
 33
0.0
  0
ENDBLK
  5
A4
330
A2
100
AcDbEntity
  8
0
100
AcDbBlockEnd
  0
BLOCK
  5
105
330
104
100
AcDbEntity
  8
0
100
AcDbBlockBegin
  2
BLKF021
 70
     0
 71
     0
 10
0.0
 20
0.0
 30
0.0
  3
BLKF021
  1

  0
LINE
  5
108
330
104
100
AcDbEntity
  8
GR1-1
  6
CONTINUOUS
 62
     7
100
AcDbLine
 10
188.321748
 20
115.444603
 30
0.0
 11
188.245523
 21
115.679197
 31
0.0
  0
LINE
  5
109
330
104
100
AcDbEntity
  8
GR1-1
  6
CONTINUOUS
 62
     7
100
AcDbLine
 10
188.242563
 20
115.289193
 30
0.0
 11
188.090114
 21
115.758381
 31
0.0
  0
LINE
  5
10A
330
104
100
AcDbEntity
  8
GR1-1
  6
CONTINUOUS
 62
     7
100
AcDbLine
 10
188.163378
 20
115.133784
 30
0.0
 11
187.934705
 21
115.837566
 31
0.0
  0
LINE
  5
10B
330
104
100
AcDbEntity
  8
GR1-1
  6
CONTINUOUS
 62
     7
100
AcDbLine
 10
188.084193
 20
114.978375
 30
0.0
 11
187.779296
 21
115.916751
 31
0.0
  0
LINE
  5
10C
330
104
100
AcDbEntity
  8
GR1-1
  6
CONTINUOUS
 62
     7
100
AcDbLine
 10
188.005008
 20
114.822966
 30
0.0
 11
187.742069
 21
115.632209
 31
0.0
  0
LINE
  5
10D
330
104
100
AcDbEntity
  8
GR1-1
  6
CONTINUOUS
 62
     7
100
AcDbLine
 10
187.670125
 20
115.853631
 30
0.0
 11
187.623887
 21
115.995936
 31
0.0
  0
LINE
  5
10E
330
104
100
AcDbEntity
  8
GR1-1
  6
CONTINUOUS
 62
     7
100
AcDbLine
 10
187.925823
 20
114.667557
 30
0.0
 11
187.662884
 21
115.4768
 31
0.0
  0
LINE
  5
10F
330
104
100
AcDbEntity
  8
GR1-1
  6
CONTINUOUS
 62
     7
100
AcDbLine
 10
187.514716
 20
115.932816
 30
0.0
 11
187.468478
 21
116.075121
 31
0.0
  0
LINE
  5
110
330
104
100
AcDbEntity
  8
GR1-1
  6
CONTINUOUS
 62
     7
100
AcDbLine
 10
187.846638
 20
114.512148
 30
0.0
 11
187.583699
 21
115.321391
 31
0.0
  0
LINE
  5
111
330
104
100
AcDbEntity
  8
GR1-1
  6
CONTINUOUS
 62
     7
100
AcDbLine
 10
187.359307
 20
116.012001
 30
0.0
 11
187.313069
 21
116.154306
 31
0.0
  0
LINE
  5
112
330
104
100
AcDbEntity
  8
GR1-1
  6
CONTINUOUS
 62
     7
100
AcDbLine
 10
187.767454
 20
114.356739
 30
0.0
 11
187.473391
 21
115.261771
 31
0.0
  0
LINE
  5
113
330
104
100
AcDbEntity
  8
GR1-1
  6
CONTINUOUS
 62
     7
100
AcDbLine
 10
187.203898
 20
116.091186
 30
0.0
 11
187.15766
 21
116.233491
 31
0.0
  0
LINE
  5
114
330
104
100
AcDbEntity
  8
GR1-1
  6
CONTINUOUS
 62
     7
100
AcDbLine
 10
187.688269
 20
114.20133
 30
0.0
 11
187.317982
 21
115.340956
 31
0.0
  0
LINE
  5
115
330
104
100
AcDbEntity
  8
GR1-1
  6
CONTINUOUS
 62
     7
100
AcDbLine
 10
187.048489
 20
116.17037
 30
0.0
 11
187.002251
 21
116.312676
 31
0.0
  0
LINE
  5
116
330
104
100
AcDbEntity
  8
GR1-1
  6
CONTINUOUS
 62
     7
100
AcDbLine
 10
187.609084
 20
114.045921
 30
0.0
 11
187.162573
 21
115.42014
 31
0.0
  0
LINE
  5
117
330
104
100
AcDbEntity
  8
GR1-1
  6
CONTINUOUS
 62
     7
100
AcDbLine
 10
186.89308
 20
116.249555
 30
0.0
 11
186.846842
 21
116.39186
 31
0.0
  0
LINE
  5
118
330
104
100
AcDbEntity
  8
GR1-1
  6
CONTINUOUS
 62
     7
100
AcDbLine
 10
187.529899
 20
113.890512
 30
0.0
 11
187.029434
 21
115.430785
 31
0.0
  0
LINE
  5
119
330
104
100
AcDbEntity
  8
GR1-1
  6
CONTINUOUS
 62
     7
100
AcDbLine
 10
186.73767
 20
116.32874
 30
0.0
 11
186.691433
 21
116.471045
 31
0.0
  0
LINE
  5
11A
330
104
100
AcDbEntity
  8
GR1-1
  6
CONTINUOUS
 62
     7
100
AcDbLine
 10
187.450714
 20
113.735103
 30
0.0
 11
187.37449
 21
113.969697
 31
0.0
  0
LINE
  5
11B
330
104
100
AcDbEntity
  8
GR1-1
  6
CONTINUOUS
 62
     7
100
AcDbLine
 10
186.642234
 20
116.223347
 30
0.0
 11
186.536024
 21
116.55023
 31
0.0
  0
LINE
  5
11C
330
104
100
AcDbEntity
  8
GR1-1
  6
CONTINUOUS
 62
     7
100
AcDbLine
 10
187.371529
 20
113.579694
 30
0.0
 11
187.257193
 21
113.931585
 31
0.0
  0
LINE
  5
11D
330
104
100
AcDbEntity
  8
GR1-1
  6
CONTINUOUS
 62
     7
100
AcDbLine
 10
186.563049
 20
116.067938
 30
0.0
 11
186.380615
 21
116.629415
 31
0.0
  0
LINE
  5
11E
330
104
100
AcDbEntity
  8
GR1-1
  6
CONTINUOUS
 62
     7
100
AcDbLine
 10
187.292344
 20
113.424285
 30
0.0
 11
187.139896
 21
113.893473
 31
0.0
  0
LINE
  5
11F
330
104
100
AcDbEntity
  8
GR1-1
  6
CONTINUOUS
 62
     7
100
AcDbLine
 10
186.483865
 20
115.912529
 30
0.0
 11
186.403017
 21
116.161354
 31
0.0
  0
LINE
  5
120
330
104
100
AcDbEntity
  8
GR1-1
  6
CONTINUOUS
 62
     7
100
AcDbLine
 10
186.377654
 20
116.239412
 30
0.0
 11
186.225205
 21
116.7086
 31
0.0
  0
LINE
  5
121
330
104
100
AcDbEntity
  8
GR1-1
  6
CONTINUOUS
 62
     7
100
AcDbLine
 10
187.213159
 20
113.268876
 30
0.0
 11
187.022599
 21
113.85536
 31
0.0
  0
LINE
  5
122
330
104
100
AcDbEntity
  8
GR1-1
  6
CONTINUOUS
 62
     7
100
AcDbLine
 10
186.40468
 20
115.75712
 30
0.0
 11
186.323832
 21
116.005945
 31
0.0
  0
LINE
  5
123
330
104
100
AcDbEntity
  8
GR1-1
  6
CONTINUOUS
 62
     7
100
AcDbLine
 10
186.260357
 20
116.2013
 30
0.0
 11
186.069796
 21
116.787785
 31
0.0
  0
LINE
  5
124
330
104
100
AcDbEntity
  8
GR1-1
  6
CONTINUOUS
 62
     7
100
AcDbLine
 10
187.133974
 20
113.113466
 30
0.0
 11
186.905302
 21
113.817248
 31
0.0
  0
LINE
  5
125
330
104
100
AcDbEntity
  8
GR1-1
  6
CONTINUOUS
 62
     7
100
AcDbLine
 10
186.325495
 20
115.601711
 30
0.0
 11
186.244647
 21
115.850536
 31
0.0
  0
LINE
  5
126
330
104
100
AcDbEntity
  8
GR1-1
  6
CONTINUOUS
 62
     7
100
AcDbLine
 10
186.14306
 20
116.163188
 30
0.0
 11
185.914387
 21
116.86697
 31
0.0
  0
LINE
  5
127
330
104
100
AcDbEntity
  8
GR1-1
  6
CONTINUOUS
 62
     7
100
AcDbLine
 10
187.05479
 20
112.958057
 30
0.0
 11
186.788005
 21
113.779136
 31
0.0
  0
LINE
  5
128
330
104
100
AcDbEntity
  8
GR1-1
  6
CONTINUOUS
 62
     7
100
AcDbLine
 10
186.597444
 20
114.365621
 30
0.0
 11
186.381466
 21
115.030335
 31
0.0
  0
LINE
  5
129
330
104
100
AcDbEntity
  8
GR1-1
  6
CONTINUOUS
 62
     7
100
AcDbLine
 10
186.24631
 20
115.446302
 30
0.0
 11
186.165462
 21
115.695126
 31
0.0
  0
LINE
  5
12A
330
104
100
AcDbEntity
  8
GR1-1
  6
CONTINUOUS
 62
     7
100
AcDbLine
 10
186.025763
 20
116.125076
 30
0.0
 11
185.758978
 21
116.946155
 31
0.0
  0
LINE
  5
12B
330
104
100
AcDbEntity
  8
GR1-1
  6
CONTINUOUS
 62
     7
100
AcDbLine
 10
186.975605
 20
112.802648
 30
0.0
 11
186.670708
 21
113.741024
 31
0.0
  0
LINE
  5
12C
330
104
100
AcDbEntity
  8
GR1-1
  6
CONTINUOUS
 62
     7
100
AcDbLine
 10
186.480147
 20
114.327509
 30
0.0
 11
186.301872
 21
114.876185
 31
0.0
  0
LINE
  5
12D
330
104
100
AcDbEntity
  8
GR1-1
  6
CONTINUOUS
 62
     7
100
AcDbLine
 10
186.167125
 20
115.290893
 30
0.0
 11
186.086277
 21
115.539717
 31
0.0
  0
LINE
  5
12E
330
104
100
AcDbEntity
  8
GR1-1
  6
CONTINUOUS
 62
     7
100
AcDbLine
 10
185.908466
 20
116.086964
 30
0.0
 11
185.603569
 21
117.025339
 31
0.0
  0
LINE
  5
12F
330
104
100
AcDbEntity
  8
GR1-1
  6
CONTINUOUS
 62
     7
100
AcDbLine
 10
186.89642
 20
112.647239
 30
0.0
 11
186.553411
 21
113.702912
 31
0.0
  0
LINE
  5
130
330
104
100
AcDbEntity
  8
GR1-1
  6
CONTINUOUS
 62
     7
100
AcDbLine
 10
186.36285
 20
114.289397
 30
0.0
 11
186.222687
 21
114.720776
 31
0.0
  0
LINE
  5
131
330
104
100
AcDbEntity
  8
GR1-1
  6
CONTINUOUS
 62
     7
100
AcDbLine
 10
186.08794
 20
115.135484
 30
0.0
 11
185.981729
 21
115.462367
 31
0.0
  0
LINE
  5
132
330
104
100
AcDbEntity
  8
GR1-1
  6
CONTINUOUS
 62
     7
100
AcDbLine
 10
185.791169
 20
116.048852
 30
0.0
 11
185.44816
 21
117.104524
 31
0.0
  0
LINE
  5
133
330
104
100
AcDbEntity
  8
GR1-1
  6
CONTINUOUS
 62
     7
100
AcDbLine
 10
186.817235
 20
112.49183
 30
0.0
 11
186.436114
 21
113.6648
 31
0.0
  0
LINE
  5
134
330
104
100
AcDbEntity
  8
GR1-1
  6
CONTINUOUS
 62
     7
100
AcDbLine
 10
186.245553
 20
114.251285
 30
0.0
 11
186.101231
 21
114.695465
 31
0.0
  0
LINE
  5
135
330
104
100
AcDbEntity
  8
GR1-1
  6
CONTINUOUS
 62
     7
100
AcDbLine
 10
186.008755
 20
114.980075
 30
0.0
 11
185.864433
 21
115.424255
 31
0.0
  0
LINE
  5
136
330
104
100
AcDbEntity
  8
GR1-1
  6
CONTINUOUS
 62
     7
100
AcDbLine
 10
185.673872
 20
116.010739
 30
0.0
 11
185.292751
 21
117.183709
 31
0.0
  0
LINE
  5
137
330
104
100
AcDbEntity
  8
GR1-1
  6
CONTINUOUS
 62
     7
100
AcDbLine
 10
186.73805
 20
112.336421
 30
0.0
 11
186.318817
 21
113.626688
 31
0.0
  0
LINE
  5
138
330
104
100
AcDbEntity
  8
GR1-1
  6
CONTINUOUS
 62
     7
100
AcDbLine
 10
186.128257
 20
114.213173
 30
0.0
 11
185.945822
 21
114.774649
 31
0.0
  0
LINE
  5
139
330
104
100
AcDbEntity
  8
GR1-1
  6
CONTINUOUS
 62
     7
100
AcDbLine
 10
185.92957
 20
114.824666
 30
0.0
 11
185.747136
 21
115.386142
 31
0.0
  0
LINE
  5
13A
330
104
100
AcDbEntity
  8
GR1-1
  6
CONTINUOUS
 62
     7
100
AcDbLine
 10
185.556575
 20
115.972627
 30
0.0
 11
185.137342
 21
117.262894
 31
0.0
  0
LINE
  5
13B
330
104
100
AcDbEntity
  8
GR1-1
  6
CONTINUOUS
 62
     7
100
AcDbLine
 10
186.598892
 20
112.36559
 30
0.0
 11
186.20152
 21
113.588576
 31
0.0
  0
LINE
  5
13C
330
104
100
AcDbEntity
  8
GR1-1
  6
CONTINUOUS
 62
     7
100
AcDbLine
 10
186.01096
 20
114.175061
 30
0.0
 11
185.629839
 21
115.34803
 31
0.0
  0
LINE
  5
13D
330
104
100
AcDbEntity
  8
GR1-1
  6
CONTINUOUS
 62
     7
100
AcDbLine
 10
185.439278
 20
115.934515
 30
0.0
 11
185.041906
 21
117.157501
 31
0.0
  0
LINE
  5
13E
330
104
100
AcDbEntity
  8
GR1-1
  6
CONTINUOUS
 62
     7
100
AcDbLine
 10
186.443483
 20
112.444775
 30
0.0
 11
186.084223
 21
113.550464
 31
0.0
  0
LINE
  5
13F
330
104
100
AcDbEntity
  8
GR1-1
  6
CONTINUOUS
 62
     7
100
AcDbLine
 10
185.893663
 20
114.136949
 30
0.0
 11
185.512542
 21
115.309918
 31
0.0
  0
LINE
  5
140
330
104
100
AcDbEntity
  8
GR1-1
  6
CONTINUOUS
 62
     7
100
AcDbLine
 10
185.321981
 20
115.896403
 30
0.0
 11
184.962721
 21
117.002092
 31
0.0
  0
LINE
  5
141
330
104
100
AcDbEntity
  8
GR1-1
  6
CONTINUOUS
 62
     7
100
AcDbLine
 10
186.288074
 20
112.523959
 30
0.0
 11
185.966926
 21
113.512352
 31
0.0
  0
LINE
  5
142
330
104
100
AcDbEntity
  8
GR1-1
  6
CONTINUOUS
 62
     7
100
AcDbLine
 10
185.776366
 20
114.098836
 30
0.0
 11
185.395245
 21
115.271806
 31
0.0
  0
LINE
  5
143
330
104
100
AcDbEntity
  8
GR1-1
  6
CONTINUOUS
 62
     7
100
AcDbLine
 10
185.204684
 20
115.858291
 30
0.0
 11
184.883536
 21
116.846683
 31
0.0
  0
LINE
  5
144
330
104
100
AcDbEntity
  8
GR1-1
  6
CONTINUOUS
 62
     7
100
AcDbLine
 10
186.132665
 20
112.603144
 30
0.0
 11
185.849629
 21
113.474239
 31
0.0
  0
LINE
  5
145
330
104
100
AcDbEntity
  8
GR1-1
  6
CONTINUOUS
 62
     7
100
AcDbLine
 10
185.659069
 20
114.060724
 30
0.0
 11
185.277948
 21
115.233694
 31
0.0
  0
LINE
  5
146
330
104
100
AcDbEntity
  8
GR1-1
  6
CONTINUOUS
 62
     7
100
AcDbLine
 10
185.087387
 20
115.820179
 30
0.0
 11
184.804351
 21
116.691274
 31
0.0
  0
LINE
  5
147
330
104
100
AcDbEntity
  8
GR1-1
  6
CONTINUOUS
 62
     7
100
AcDbLine
 10
185.977256
 20
112.682329
 30
0.0
 11
185.732332
 21
113.436127
 31
0.0
  0
LINE
  5
148
330
104
100
AcDbEntity
  8
GR1-1
  6
CONTINUOUS
 62
     7
100
AcDbLine
 10
185.541772
 20
114.022612
 30
0.0
 11
185.160651
 21
115.195582
 31
0.0
  0
LINE
  5
149
330
104
100
AcDbEntity
  8
GR1-1
  6
CONTINUOUS
 62
     7
100
AcDbLine
 10
184.97009
 20
115.782067
 30
0.0
 11
184.725166
 21
116.535865
 31
0.0
  0
LINE
  5
14A
330
104
100
AcDbEntity
  8
GR1-1
  6
CONTINUOUS
 62
     7
100
AcDbLine
 10
185.821847
 20
112.761514
 30
0.0
 11
185.615035
 21
113.398015
 31
0.0
  0
LINE
  5
14B
330
104
100
AcDbEntity
  8
GR1-1
  6
CONTINUOUS
 62
     7
100
AcDbLine
 10
184.852793
 20
115.743955
 30
0.0
 11
184.645981
 21
116.380456
 31
0.0
  0
LINE
  5
14C
330
104
100
AcDbEntity
  8
GR1-1
  6
CONTINUOUS
 62
     7
100
AcDbLine
 10
185.666438
 20
112.840699
 30
0.0
 11
185.497738
 21
113.359903
 31
0.0
  0
LINE
  5
14D
330
104
100
AcDbEntity
  8
GR1-1
  6
CONTINUOUS
 62
     7
100
AcDbLine
 10
184.735496
 20
115.705843
 30
0.0
 11
184.566797
 21
116.225047
 31
0.0
  0
LINE
  5
14E
330
104
100
AcDbEntity
  8
GR1-1
  6
CONTINUOUS
 62
     7
100
AcDbLine
 10
185.511029
 20
112.919884
 30
0.0
 11
185.380441
 21
113.321791
 31
0.0
  0
LINE
  5
14F
330
104
100
AcDbEntity
  8
GR1-1
  6
CONTINUOUS
 62
     7
100
AcDbLine
 10
184.618199
 20
115.667731
 30
0.0
 11
184.487612
 21
116.069638
 31
0.0
  0
LINE
  5
150
330
104
100
AcDbEntity
  8
GR1-1
  6
CONTINUOUS
 62
     7
100
AcDbLine
 10
185.35562
 20
112.999069
 30
0.0
 11
185.263144
 21
113.283679
 31
0.0
  0
LINE
  5
151
330
104
100
AcDbEntity
  8
GR1-1
  6
CONTINUOUS
 62
     7
100
AcDbLine
 10
184.500902
 20
115.629618
 30
0.0
 11
184.408427
 21
115.914229
 31
0.0
  0
LINE
  5
152
330
104
100
AcDbEntity
  8
GR1-1
  6
CONTINUOUS
 62
     7
100
AcDbLine
 10
185.200211
 20
113.078254
 30
0.0
 11
185.145847
 21
113.245567
 31
0.0
  0
LINE
  5
153
330
104
100
AcDbEntity
  8
GR1-1
  6
CONTINUOUS
 62
     7
100
AcDbLine
 10
184.383605
 20
115.591506
 30
0.0
 11
184.329242
 21
115.75882
 31
0.0
  0
LINE
  5
154
330
104
100
AcDbEntity
  8
GR1-1
  6
CONTINUOUS
 62
     7
100
AcDbLine
 10
185.044802
 20
113.157439
 30
0.0
 11
184.250057
 21
115.603411
 31
0.0
  0
LINE
  5
155
330
104
100
AcDbEntity
  8
GR1-1
  6
CONTINUOUS
 62
     7
100
AcDbLine
 10
184.889392
 20
113.236623
 30
0.0
 11
184.170872
 21
115.448001
 31
0.0
  0
LINE
  5
156
330
104
100
AcDbEntity
  8
GR1-1
  6
CONTINUOUS
 62
     7
100
AcDbLine
 10
184.733983
 20
113.315808
 30
0.0
 11
184.091687
 21
115.292592
 31
0.0
  0
LINE
  5
157
330
104
100
AcDbEntity
  8
GR1-1
  6
CONTINUOUS
 62
     7
100
AcDbLine
 10
184.578574
 20
113.394993
 30
0.0
 11
184.012502
 21
115.137183
 31
0.0
  0
LINE
  5
158
330
104
100
AcDbEntity
  8
GR1-1
  6
CONTINUOUS
 62
     7
100
AcDbLine
 10
184.423165
 20
113.474178
 30
0.0
 11
183.933318
 21
114.981774
 31
0.0
  0
LINE
  5
159
330
104
100
AcDbEntity
  8
GR1-1
  6
CONTINUOUS
 62
     7
100
AcDbLine
 10
184.267756
 20
113.553363
 30
0.0
 11
183.854133
 21
114.826365
 31
0.0
  0
LINE
  5
15A
330
104
100
AcDbEntity
  8
GR1-1
  6
CONTINUOUS
 62
     7
100
AcDbLine
 10
184.112347
 20
113.632548
 30
0.0
 11
183.774948
 21
114.670956
 31
0.0
  0
LINE
  5
15B
330
104
100
AcDbEntity
  8
GR1-1
  6
CONTINUOUS
 62
     7
100
AcDbLine
 10
183.956938
 20
113.711733
 30
0.0
 11
183.695763
 21
114.515547
 31
0.0
  0
LINE
  5
15C
330
104
100
AcDbEntity
  8
GR1-1
  6
CONTINUOUS
 62
     7
100
AcDbLine
 10
183.801529
 20
113.790918
 30
0.0
 11
183.616578
 21
114.360138
 31
0.0
  0
LINE
  5
15D
330
104
100
AcDbEntity
  8
GR1-1
  6
CONTINUOUS
 62
     7
100
AcDbLine
 10
183.64612
 20
113.870102
 30
0.0
 11
183.537393
 21
114.204729
 31
0.0
  0
LINE
  5
15E
330
104
100
AcDbEntity
  8
GR1-1
  6
CONTINUOUS
 62
     7
100
AcDbLine
 10
183.490711
 20
113.949287
 30
0.0
 11
183.458208
 21
114.04932
 31
0.0
  0
ENDBLK
  5
106
330
104
100
AcDbEntity
  8
0
100
AcDbBlockEnd
  0
BLOCK
  5
184
330
183
100
AcDbEntity
  8
0
100
AcDbBlockBegin
  2
BLKF022
 70
     0
 71
     0
 10
0.0
 20
0.0
 30
0.0
  3
BLKF022
  1

  0
LINE
  5
187
330
183
100
AcDbEntity
  8
LAYERGROUP-1
  6
CONTINUOUS
 62
     3
100
AcDbLine
 10
92.619645
 20
118.715385
 30
0.0
 11
101.419645
 21
118.715385
 31
0.0
  0
LINE
  5
188
330
183
100
AcDbEntity
  8
LAYERGROUP-1
  6
CONTINUOUS
 62
     3
100
AcDbLine
 10
92.019645
 20
118.115385
 30
0.0
 11
92.019645
 21
112.048718
 31
0.0
  0
LINE
  5
189
330
183
100
AcDbEntity
  8
LAYERGROUP-1
  6
CONTINUOUS
 62
     3
100
AcDbLine
 10
102.019645
 20
118.115385
 30
0.0
 11
102.019645
 21
112.048718
 31
0.0
  0
LINE
  5
18A
330
183
100
AcDbEntity
  8
LAYERGROUP-1
  6
CONTINUOUS
 62
     3
100
AcDbLine
 10
85.019645
 20
112.048718
 30
0.0
 11
94.132893
 21
112.048718
 31
0.0
  0
LINE
  5
18B
330
183
100
AcDbEntity
  8
LAYERGROUP-1
  6
CONTINUOUS
 62
     3
100
AcDbLine
 10
99.906396
 20
112.048718
 30
0.0
 11
105.019645
 21
112.048718
 31
0.0
  0
CIRCLE
  5
18C
330
183
100
AcDbEntity
  8
LAYERGROUP-1
  6
CONTINUOUS
 62
     3
100
AcDbCircle
 10
97.019645
 20
113.715385
 30
0.0
 40
3.333333333333334
  0
LINE
  5
18D
330
183
100
AcDbEntity
  8
LAYERGROUP-1
  6
CONTINUOUS
 62
     3
100
AcDbLine
 10
85.619645
 20
108.715385
 30
0.0
 11
104.419645
 21
108.715385
 31
0.0
  0
ARC
  5
18E
330
183
100
AcDbEntity
  8
LAYERGROUP-1
  6
CONTINUOUS
 62
     3
100
AcDbCircle
 10
92.619645
 20
118.115385
 30
0.0
 40
0.6
100
AcDbArc
 50
90.0
 51
180.0
  0
ARC
  5
18F
330
183
100
AcDbEntity
  8
LAYERGROUP-1
  6
CONTINUOUS
 62
     3
100
AcDbCircle
 10
101.419645
 20
118.115385
 30
0.0
 40
0.6
100
AcDbArc
 50
0.0
 51
90.0
  0
LINE
  5
190
330
183
100
AcDbEntity
  8
LAYERGROUP-1
  6
CONTINUOUS
 62
     3
100
AcDbLine
 10
85.619645
 20
96.715385
 30
0.0
 11
104.419645
 21
96.715385
 31
0.0
  0
LINE
  5
191
330
183
100
AcDbEntity
  8
LAYERGROUP-1
  6
CONTINUOUS
 62
     3
100
AcDbLine
 10
92.019645
 20
93.382051
 30
0.0
 11
92.019645
 21
87.315385
 31
0.0
  0
LINE
  5
192
330
183
100
AcDbEntity
  8
LAYERGROUP-1
  6
CONTINUOUS
 62
     3
100
AcDbLine
 10
102.019645
 20
93.382051
 30
0.0
 11
102.019645
 21
87.315385
 31
0.0
  0
LINE
  5
193
330
183
100
AcDbEntity
  8
LAYERGROUP-1
  6
CONTINUOUS
 62
     3
100
AcDbLine
 10
85.019645
 20
93.382051
 30
0.0
 11
94.132893
 21
93.382051
 31
0.0
  0
LINE
  5
194
330
183
100
AcDbEntity
  8
LAYERGROUP-1
  6
CONTINUOUS
 62
     3
100
AcDbLine
 10
99.906396
 20
93.382051
 30
0.0
 11
105.019645
 21
93.382051
 31
0.0
  0
CIRCLE
  5
195
330
183
100
AcDbEntity
  8
LAYERGROUP-1
  6
CONTINUOUS
 62
     3
100
AcDbCircle
 10
97.019645
 20
91.715385
 30
0.0
 40
3.333333333333334
  0
LINE
  5
196
330
183
100
AcDbEntity
  8
LAYERGROUP-1
  6
CONTINUOUS
 62
     3
100
AcDbLine
 10
92.619645
 20
86.715385
 30
0.0
 11
101.419645
 21
86.715385
 31
0.0
  0
ARC
  5
197
330
183
100
AcDbEntity
  8
LAYERGROUP-1
  6
CONTINUOUS
 62
     3
100
AcDbCircle
 10
92.619645
 20
87.315385
 30
0.0
 40
0.6
100
AcDbArc
 50
180.0
 51
270.0
  0
ARC
  5
198
330
183
100
AcDbEntity
  8
LAYERGROUP-1
  6
CONTINUOUS
 62
     3
100
AcDbCircle
 10
101.419645
 20
87.315385
 30
0.0
 40
0.6
100
AcDbArc
 50
270.0
 51
360.0
  0
LINE
  5
199
330
183
100
AcDbEntity
  8
LAYERGROUP-1
  6
CONTINUOUS
 62
     3
100
AcDbLine
 10
93.269645
 20
112.326496
 30
0.0
 11
92.852978
 21
112.326496
 31
0.0
  0
LINE
  5
19A
330
183
100
AcDbEntity
  8
LAYERGROUP-1
  6
CONTINUOUS
 62
     3
100
AcDbLine
 10
92.852978
 20
112.326496
 30
0.0
 11
92.852978
 21
114.965385
 31
0.0
  0
LINE
  5
19B
330
183
100
AcDbEntity
  8
LAYERGROUP-1
  6
CONTINUOUS
 62
     3
100
AcDbLine
 10
92.852978
 20
114.965385
 30
0.0
 11
93.269645
 21
115.382051
 31
0.0
  0
LINE
  5
19C
330
183
100
AcDbEntity
  8
LAYERGROUP-1
  6
CONTINUOUS
 62
     3
100
AcDbLine
 10
93.269645
 20
115.382051
 30
0.0
 11
93.269645
 21
115.965385
 31
0.0
  0
LINE
  5
19D
330
183
100
AcDbEntity
  8
LAYERGROUP-1
  6
CONTINUOUS
 62
     3
100
AcDbLine
 10
92.436311
 20
115.965385
 30
0.0
 11
92.436311
 21
115.673718
 31
0.0
  0
LINE
  5
19E
330
183
100
AcDbEntity
  8
LAYERGROUP-1
  6
CONTINUOUS
 62
     3
100
AcDbLine
 10
92.436311
 20
115.965385
 30
0.0
 11
92.019645
 21
115.965385
 31
0.0
  0
LINE
  5
19F
330
183
100
AcDbEntity
  8
LAYERGROUP-1
  6
CONTINUOUS
 62
     3
100
AcDbLine
 10
94.132893
 20
115.382051
 30
0.0
 11
93.269645
 21
115.382051
 31
0.0
  0
ARC
  5
1A0
330
183
100
AcDbEntity
  8
LAYERGROUP-1
  6
CONTINUOUS
 62
     3
100
AcDbCircle
 10
92.852978
 20
115.965385
 30
0.0
 40
0.4166666666666714
100
AcDbArc
 50
0.0
 51
180.0
  0
LINE
  5
1A1
330
183
100
AcDbEntity
  8
LAYERGROUP-1
  6
CONTINUOUS
 62
     3
100
AcDbLine
 10
100.769645
 20
112.326496
 30
0.0
 11
101.186311
 21
112.326496
 31
0.0
  0
LINE
  5
1A2
330
183
100
AcDbEntity
  8
LAYERGROUP-1
  6
CONTINUOUS
 62
     3
100
AcDbLine
 10
101.186311
 20
112.326496
 30
0.0
 11
101.186311
 21
114.965385
 31
0.0
  0
LINE
  5
1A3
330
183
100
AcDbEntity
  8
LAYERGROUP-1
  6
CONTINUOUS
 62
     3
100
AcDbLine
 10
101.186311
 20
114.965385
 30
0.0
 11
100.769645
 21
115.382051
 31
0.0
  0
LINE
  5
1A4
330
183
100
AcDbEntity
  8
LAYERGROUP-1
  6
CONTINUOUS
 62
     3
100
AcDbLine
 10
100.769645
 20
115.382051
 30
0.0
 11
100.769645
 21
115.965385
 31
0.0
  0
LINE
  5
1A5
330
183
100
AcDbEntity
  8
LAYERGROUP-1
  6
CONTINUOUS
 62
     3
100
AcDbLine
 10
101.602978
 20
115.965385
 30
0.0
 11
101.602978
 21
115.673718
 31
0.0
  0
LINE
  5
1A6
330
183
100
AcDbEntity
  8
LAYERGROUP-1
  6
CONTINUOUS
 62
     3
100
AcDbLine
 10
101.602978
 20
115.965385
 30
0.0
 11
102.019645
 21
115.965385
 31
0.0
  0
LINE
  5
1A7
330
183
100
AcDbEntity
  8
LAYERGROUP-1
  6
CONTINUOUS
 62
     3
100
AcDbLine
 10
99.906396
 20
115.382051
 30
0.0
 11
100.769645
 21
115.382051
 31
0.0
  0
ARC
  5
1A8
330
183
100
AcDbEntity
  8
LAYERGROUP-1
  6
CONTINUOUS
 62
     3
100
AcDbCircle
 10
101.186311
 20
115.965385
 30
0.0
 40
0.4166666666666714
100
AcDbArc
 50
0.0
 51
180.0
  0
LINE
  5
1A9
330
183
100
AcDbEntity
  8
LAYERGROUP-1
  6
CONTINUOUS
 62
     3
100
AcDbLine
 10
93.269645
 20
93.104274
 30
0.0
 11
92.852978
 21
93.104274
 31
0.0
  0
LINE
  5
1AA
330
183
100
AcDbEntity
  8
LAYERGROUP-1
  6
CONTINUOUS
 62
     3
100
AcDbLine
 10
92.852978
 20
93.104274
 30
0.0
 11
92.852978
 21
90.465385
 31
0.0
  0
LINE
  5
1AB
330
183
100
AcDbEntity
  8
LAYERGROUP-1
  6
CONTINUOUS
 62
     3
100
AcDbLine
 10
92.852978
 20
90.465385
 30
0.0
 11
93.269645
 21
90.048718
 31
0.0
  0
LINE
  5
1AC
330
183
100
AcDbEntity
  8
LAYERGROUP-1
  6
CONTINUOUS
 62
     3
100
AcDbLine
 10
93.269645
 20
90.048718
 30
0.0
 11
93.269645
 21
89.465385
 31
0.0
  0
LINE
  5
1AD
330
183
100
AcDbEntity
  8
LAYERGROUP-1
  6
CONTINUOUS
 62
     3
100
AcDbLine
 10
92.436311
 20
89.465385
 30
0.0
 11
92.436311
 21
89.757051
 31
0.0
  0
LINE
  5
1AE
330
183
100
AcDbEntity
  8
LAYERGROUP-1
  6
CONTINUOUS
 62
     3
100
AcDbLine
 10
92.436311
 20
89.465385
 30
0.0
 11
92.019645
 21
89.465385
 31
0.0
  0
LINE
  5
1AF
330
183
100
AcDbEntity
  8
LAYERGROUP-1
  6
CONTINUOUS
 62
     3
100
AcDbLine
 10
94.132893
 20
90.048718
 30
0.0
 11
93.269645
 21
90.048718
 31
0.0
  0
ARC
  5
1B0
330
183
100
AcDbEntity
  8
LAYERGROUP-1
  6
CONTINUOUS
 62
     3
100
AcDbCircle
 10
92.852978
 20
89.465385
 30
0.0
 40
0.4166666666666714
100
AcDbArc
 50
180.0
 51
360.0
  0
LINE
  5
1B1
330
183
100
AcDbEntity
  8
LAYERGROUP-1
  6
CONTINUOUS
 62
     3
100
AcDbLine
 10
100.769645
 20
93.104274
 30
0.0
 11
101.186311
 21
93.104274
 31
0.0
  0
LINE
  5
1B2
330
183
100
AcDbEntity
  8
LAYERGROUP-1
  6
CONTINUOUS
 62
     3
100
AcDbLine
 10
101.186311
 20
93.104274
 30
0.0
 11
101.186311
 21
90.465385
 31
0.0
  0
LINE
  5
1B3
330
183
100
AcDbEntity
  8
LAYERGROUP-1
  6
CONTINUOUS
 62
     3
100
AcDbLine
 10
101.186311
 20
90.465385
 30
0.0
 11
100.769645
 21
90.048718
 31
0.0
  0
LINE
  5
1B4
330
183
100
AcDbEntity
  8
LAYERGROUP-1
  6
CONTINUOUS
 62
     3
100
AcDbLine
 10
100.769645
 20
90.048718
 30
0.0
 11
100.769645
 21
89.465385
 31
0.0
  0
LINE
  5
1B5
330
183
100
AcDbEntity
  8
LAYERGROUP-1
  6
CONTINUOUS
 62
     3
100
AcDbLine
 10
101.602978
 20
89.465385
 30
0.0
 11
101.602978
 21
89.757051
 31
0.0
  0
LINE
  5
1B6
330
183
100
AcDbEntity
  8
LAYERGROUP-1
  6
CONTINUOUS
 62
     3
100
AcDbLine
 10
101.602978
 20
89.465385
 30
0.0
 11
102.019645
 21
89.465385
 31
0.0
  0
LINE
  5
1B7
330
183
100
AcDbEntity
  8
LAYERGROUP-1
  6
CONTINUOUS
 62
     3
100
AcDbLine
 10
99.906396
 20
90.048718
 30
0.0
 11
100.769645
 21
90.048718
 31
0.0
  0
ARC
  5
1B8
330
183
100
AcDbEntity
  8
LAYERGROUP-1
  6
CONTINUOUS
 62
     3
100
AcDbCircle
 10
101.186311
 20
89.465385
 30
0.0
 40
0.4166666666666714
100
AcDbArc
 50
180.0
 51
360.0
  0
ENDBLK
  5
185
330
183
100
AcDbEntity
  8
0
100
AcDbBlockEnd
  0
BLOCK
  5
1C4
330
1C3
100
AcDbEntity
  8
0
100
AcDbBlockBegin
  2
BLKF023
 70
     0
 71
     0
 10
0.0
 20
0.0
 30
0.0
  3
BLKF023
  1

  0
LINE
  5
1C7
330
1C3
100
AcDbEntity
  8
LAYERGROUP-1
  6
CONTINUOUS
 62
     3
100
AcDbLine
 10
77.419645
 20
118.715385
 30
0.0
 11
68.619645
 21
118.715385
 31
0.0
  0
LINE
  5
1C8
330
1C3
100
AcDbEntity
  8
LAYERGROUP-1
  6
CONTINUOUS
 62
     3
100
AcDbLine
 10
78.019645
 20
118.115385
 30
0.0
 11
78.019645
 21
112.048718
 31
0.0
  0
LINE
  5
1C9
330
1C3
100
AcDbEntity
  8
LAYERGROUP-1
  6
CONTINUOUS
 62
     3
100
AcDbLine
 10
68.019645
 20
118.115385
 30
0.0
 11
68.019645
 21
112.048718
 31
0.0
  0
LINE
  5
1CA
330
1C3
100
AcDbEntity
  8
LAYERGROUP-1
  6
CONTINUOUS
 62
     3
100
AcDbLine
 10
85.019645
 20
112.048718
 30
0.0
 11
75.906396
 21
112.048718
 31
0.0
  0
LINE
  5
1CB
330
1C3
100
AcDbEntity
  8
LAYERGROUP-1
  6
CONTINUOUS
 62
     3
100
AcDbLine
 10
70.132893
 20
112.048718
 30
0.0
 11
65.019645
 21
112.048718
 31
0.0
  0
CIRCLE
  5
1CC
330
1C3
100
AcDbEntity
  8
LAYERGROUP-1
  6
CONTINUOUS
 62
     3
100
AcDbCircle
 10
73.019645
 20
113.715385
 30
0.0
 40
3.333333333333334
  0
LINE
  5
1CD
330
1C3
100
AcDbEntity
  8
LAYERGROUP-1
  6
CONTINUOUS
 62
     3
100
AcDbLine
 10
84.419645
 20
108.715385
 30
0.0
 11
65.619645
 21
108.715385
 31
0.0
  0
ARC
  5
1CE
330
1C3
100
AcDbEntity
  8
LAYERGROUP-1
  6
CONTINUOUS
 62
     3
100
AcDbCircle
 10
77.419645
 20
118.115385
 30
0.0
 40
0.6
100
AcDbArc
 50
0.0
 51
90.0
  0
ARC
  5
1CF
330
1C3
100
AcDbEntity
  8
LAYERGROUP-1
  6
CONTINUOUS
 62
     3
100
AcDbCircle
 10
68.619645
 20
118.115385
 30
0.0
 40
0.6
100
AcDbArc
 50
90.0
 51
180.0
  0
LINE
  5
1D0
330
1C3
100
AcDbEntity
  8
LAYERGROUP-1
  6
CONTINUOUS
 62
     3
100
AcDbLine
 10
84.419645
 20
96.715385
 30
0.0
 11
65.619645
 21
96.715385
 31
0.0
  0
LINE
  5
1D1
330
1C3
100
AcDbEntity
  8
LAYERGROUP-1
  6
CONTINUOUS
 62
     3
100
AcDbLine
 10
78.019645
 20
93.382051
 30
0.0
 11
78.019645
 21
87.315385
 31
0.0
  0
LINE
  5
1D2
330
1C3
100
AcDbEntity
  8
LAYERGROUP-1
  6
CONTINUOUS
 62
     3
100
AcDbLine
 10
68.019645
 20
93.382051
 30
0.0
 11
68.019645
 21
87.315385
 31
0.0
  0
LINE
  5
1D3
330
1C3
100
AcDbEntity
  8
LAYERGROUP-1
  6
CONTINUOUS
 62
     3
100
AcDbLine
 10
85.019645
 20
93.382051
 30
0.0
 11
75.906396
 21
93.382051
 31
0.0
  0
LINE
  5
1D4
330
1C3
100
AcDbEntity
  8
LAYERGROUP-1
  6
CONTINUOUS
 62
     3
100
AcDbLine
 10
70.132893
 20
93.382051
 30
0.0
 11
65.019645
 21
93.382051
 31
0.0
  0
CIRCLE
  5
1D5
330
1C3
100
AcDbEntity
  8
LAYERGROUP-1
  6
CONTINUOUS
 62
     3
100
AcDbCircle
 10
73.019645
 20
91.715385
 30
0.0
 40
3.333333333333334
  0
LINE
  5
1D6
330
1C3
100
AcDbEntity
  8
LAYERGROUP-1
  6
CONTINUOUS
 62
     3
100
AcDbLine
 10
77.419645
 20
86.715385
 30
0.0
 11
68.619645
 21
86.715385
 31
0.0
  0
ARC
  5
1D7
330
1C3
100
AcDbEntity
  8
LAYERGROUP-1
  6
CONTINUOUS
 62
     3
100
AcDbCircle
 10
77.419645
 20
87.315385
 30
0.0
 40
0.6
100
AcDbArc
 50
270.0
 51
360.0
  0
ARC
  5
1D8
330
1C3
100
AcDbEntity
  8
LAYERGROUP-1
  6
CONTINUOUS
 62
     3
100
AcDbCircle
 10
68.619645
 20
87.315385
 30
0.0
 40
0.6
100
AcDbArc
 50
180.0
 51
270.0
  0
LINE
  5
1D9
330
1C3
100
AcDbEntity
  8
LAYERGROUP-1
  6
CONTINUOUS
 62
     3
100
AcDbLine
 10
76.769645
 20
112.326496
 30
0.0
 11
77.186311
 21
112.326496
 31
0.0
  0
LINE
  5
1DA
330
1C3
100
AcDbEntity
  8
LAYERGROUP-1
  6
CONTINUOUS
 62
     3
100
AcDbLine
 10
77.186311
 20
112.326496
 30
0.0
 11
77.186311
 21
114.965385
 31
0.0
  0
LINE
  5
1DB
330
1C3
100
AcDbEntity
  8
LAYERGROUP-1
  6
CONTINUOUS
 62
     3
100
AcDbLine
 10
77.186311
 20
114.965385
 30
0.0
 11
76.769645
 21
115.382051
 31
0.0
  0
LINE
  5
1DC
330
1C3
100
AcDbEntity
  8
LAYERGROUP-1
  6
CONTINUOUS
 62
     3
100
AcDbLine
 10
76.769645
 20
115.382051
 30
0.0
 11
76.769645
 21
115.965385
 31
0.0
  0
LINE
  5
1DD
330
1C3
100
AcDbEntity
  8
LAYERGROUP-1
  6
CONTINUOUS
 62
     3
100
AcDbLine
 10
77.602978
 20
115.965385
 30
0.0
 11
77.602978
 21
115.673718
 31
0.0
  0
LINE
  5
1DE
330
1C3
100
AcDbEntity
  8
LAYERGROUP-1
  6
CONTINUOUS
 62
     3
100
AcDbLine
 10
77.602978
 20
115.965385
 30
0.0
 11
78.019645
 21
115.965385
 31
0.0
  0
LINE
  5
1DF
330
1C3
100
AcDbEntity
  8
LAYERGROUP-1
  6
CONTINUOUS
 62
     3
100
AcDbLine
 10
75.906396
 20
115.382051
 30
0.0
 11
76.769645
 21
115.382051
 31
0.0
  0
ARC
  5
1E0
330
1C3
100
AcDbEntity
  8
LAYERGROUP-1
  6
CONTINUOUS
 62
     3
100
AcDbCircle
 10
77.186311
 20
115.965385
 30
0.0
 40
0.4166666666666714
100
AcDbArc
 50
0.0
 51
180.0
  0
LINE
  5
1E1
330
1C3
100
AcDbEntity
  8
LAYERGROUP-1
  6
CONTINUOUS
 62
     3
100
AcDbLine
 10
69.269645
 20
112.326496
 30
0.0
 11
68.852978
 21
112.326496
 31
0.0
  0
LINE
  5
1E2
330
1C3
100
AcDbEntity
  8
LAYERGROUP-1
  6
CONTINUOUS
 62
     3
100
AcDbLine
 10
68.852978
 20
112.326496
 30
0.0
 11
68.852978
 21
114.965385
 31
0.0
  0
LINE
  5
1E3
330
1C3
100
AcDbEntity
  8
LAYERGROUP-1
  6
CONTINUOUS
 62
     3
100
AcDbLine
 10
68.852978
 20
114.965385
 30
0.0
 11
69.269645
 21
115.382051
 31
0.0
  0
LINE
  5
1E4
330
1C3
100
AcDbEntity
  8
LAYERGROUP-1
  6
CONTINUOUS
 62
     3
100
AcDbLine
 10
69.269645
 20
115.382051
 30
0.0
 11
69.269645
 21
115.965385
 31
0.0
  0
LINE
  5
1E5
330
1C3
100
AcDbEntity
  8
LAYERGROUP-1
  6
CONTINUOUS
 62
     3
100
AcDbLine
 10
68.436311
 20
115.965385
 30
0.0
 11
68.436311
 21
115.673718
 31
0.0
  0
LINE
  5
1E6
330
1C3
100
AcDbEntity
  8
LAYERGROUP-1
  6
CONTINUOUS
 62
     3
100
AcDbLine
 10
68.436311
 20
115.965385
 30
0.0
 11
68.019645
 21
115.965385
 31
0.0
  0
LINE
  5
1E7
330
1C3
100
AcDbEntity
  8
LAYERGROUP-1
  6
CONTINUOUS
 62
     3
100
AcDbLine
 10
70.132893
 20
115.382051
 30
0.0
 11
69.269645
 21
115.382051
 31
0.0
  0
ARC
  5
1E8
330
1C3
100
AcDbEntity
  8
LAYERGROUP-1
  6
CONTINUOUS
 62
     3
100
AcDbCircle
 10
68.852978
 20
115.965385
 30
0.0
 40
0.4166666666666714
100
AcDbArc
 50
0.0
 51
180.0
  0
LINE
  5
1E9
330
1C3
100
AcDbEntity
  8
LAYERGROUP-1
  6
CONTINUOUS
 62
     3
100
AcDbLine
 10
76.769645
 20
93.104274
 30
0.0
 11
77.186311
 21
93.104274
 31
0.0
  0
LINE
  5
1EA
330
1C3
100
AcDbEntity
  8
LAYERGROUP-1
  6
CONTINUOUS
 62
     3
100
AcDbLine
 10
77.186311
 20
93.104274
 30
0.0
 11
77.186311
 21
90.465385
 31
0.0
  0
LINE
  5
1EB
330
1C3
100
AcDbEntity
  8
LAYERGROUP-1
  6
CONTINUOUS
 62
     3
100
AcDbLine
 10
77.186311
 20
90.465385
 30
0.0
 11
76.769645
 21
90.048718
 31
0.0
  0
LINE
  5
1EC
330
1C3
100
AcDbEntity
  8
LAYERGROUP-1
  6
CONTINUOUS
 62
     3
100
AcDbLine
 10
76.769645
 20
90.048718
 30
0.0
 11
76.769645
 21
89.465385
 31
0.0
  0
LINE
  5
1ED
330
1C3
100
AcDbEntity
  8
LAYERGROUP-1
  6
CONTINUOUS
 62
     3
100
AcDbLine
 10
77.602978
 20
89.465385
 30
0.0
 11
77.602978
 21
89.757051
 31
0.0
  0
LINE
  5
1EE
330
1C3
100
AcDbEntity
  8
LAYERGROUP-1
  6
CONTINUOUS
 62
     3
100
AcDbLine
 10
77.602978
 20
89.465385
 30
0.0
 11
78.019645
 21
89.465385
 31
0.0
  0
LINE
  5
1EF
330
1C3
100
AcDbEntity
  8
LAYERGROUP-1
  6
CONTINUOUS
 62
     3
100
AcDbLine
 10
75.906396
 20
90.048718
 30
0.0
 11
76.769645
 21
90.048718
 31
0.0
  0
ARC
  5
1F0
330
1C3
100
AcDbEntity
  8
LAYERGROUP-1
  6
CONTINUOUS
 62
     3
100
AcDbCircle
 10
77.186311
 20
89.465385
 30
0.0
 40
0.4166666666666714
100
AcDbArc
 50
180.0
 51
360.0
  0
LINE
  5
1F1
330
1C3
100
AcDbEntity
  8
LAYERGROUP-1
  6
CONTINUOUS
 62
     3
100
AcDbLine
 10
69.269645
 20
93.104274
 30
0.0
 11
68.852978
 21
93.104274
 31
0.0
  0
LINE
  5
1F2
330
1C3
100
AcDbEntity
  8
LAYERGROUP-1
  6
CONTINUOUS
 62
     3
100
AcDbLine
 10
68.852978
 20
93.104274
 30
0.0
 11
68.852978
 21
90.465385
 31
0.0
  0
LINE
  5
1F3
330
1C3
100
AcDbEntity
  8
LAYERGROUP-1
  6
CONTINUOUS
 62
     3
100
AcDbLine
 10
68.852978
 20
90.465385
 30
0.0
 11
69.269645
 21
90.048718
 31
0.0
  0
LINE
  5
1F4
330
1C3
100
AcDbEntity
  8
LAYERGROUP-1
  6
CONTINUOUS
 62
     3
100
AcDbLine
 10
69.269645
 20
90.048718
 30
0.0
 11
69.269645
 21
89.465385
 31
0.0
  0
LINE
  5
1F5
330
1C3
100
AcDbEntity
  8
LAYERGROUP-1
  6
CONTINUOUS
 62
     3
100
AcDbLine
 10
68.436311
 20
89.465385
 30
0.0
 11
68.436311
 21
89.757051
 31
0.0
  0
LINE
  5
1F6
330
1C3
100
AcDbEntity
  8
LAYERGROUP-1
  6
CONTINUOUS
 62
     3
100
AcDbLine
 10
68.436311
 20
89.465385
 30
0.0
 11
68.019645
 21
89.465385
 31
0.0
  0
LINE
  5
1F7
330
1C3
100
AcDbEntity
  8
LAYERGROUP-1
  6
CONTINUOUS
 62
     3
100
AcDbLine
 10
70.132893
 20
90.048718
 30
0.0
 11
69.269645
 21
90.048718
 31
0.0
  0
ARC
  5
1F8
330
1C3
100
AcDbEntity
  8
LAYERGROUP-1
  6
CONTINUOUS
 62
     3
100
AcDbCircle
 10
68.852978
 20
89.465385
 30
0.0
 40
0.4166666666666714
100
AcDbArc
 50
180.0
 51
360.0
  0
ENDBLK
  5
1C5
330
1C3
100
AcDbEntity
  8
0
100
AcDbBlockEnd
  0
BLOCK
  5
201
330
200
100
AcDbEntity
  8
0
100
AcDbBlockBegin
  2
BLKF024
 70
     0
 71
     0
 10
0.0
 20
0.0
 30
0.0
  3
BLKF024
  1

  0
CIRCLE
  5
204
330
200
100
AcDbEntity
  8
LAYERGROUP-1
  6
CONTINUOUS
 62
     3
100
AcDbCircle
 10
209.613462
 20
102.715385
 30
0.0
 40
16.0
  0
CIRCLE
  5
205
330
200
100
AcDbEntity
  8
LAYERGROUP-1
  6
CONTINUOUS
 62
     3
100
AcDbCircle
 10
209.613462
 20
102.715385
 30
0.0
 40
12.66666666666666
  0
CIRCLE
  5
206
330
200
100
AcDbEntity
  8
LAYERGROUP-1
  6
CONTINUOUS
 62
     3
100
AcDbCircle
 10
209.613462
 20
102.715385
 30
0.0
 40
9.333333333333343
  0
CIRCLE
  5
207
330
200
100
AcDbEntity
  8
LAYERGROUP-1
  6
CONTINUOUS
 62
     3
100
AcDbCircle
 10
209.613462
 20
102.715385
 30
0.0
 40
6.0
  0
ENDBLK
  5
202
330
200
100
AcDbEntity
  8
0
100
AcDbBlockEnd
  0
BLOCK
  5
20B
330
20A
100
AcDbEntity
  8
0
100
AcDbBlockBegin
  2
*D23
 70
     1
 71
     0
 10
0.0
 20
0.0
 30
0.0
  3
*D23
  1

  0
TEXT
  5
20D
330
20A
100
AcDbEntity
  8
GR1-1
  6
CONTINUOUS
 62
     7
100
AcDbText
 10
82.019646
 20
56.119614
 30
0.0
 40
4.0
  1
38
 41
0.851351
  7
FX_VECTOR
 72
     5
 11
88.019646
 21
56.119614
 31
0.0
100
AcDbText
  0
LINE
  5
20E
330
20A
100
AcDbEntity
  8
GR1-1
  6
CONTINUOUS
 62
     7
100
AcDbLine
 10
66.019645
 20
55.119616
 30
0.0
 11
104.019645
 21
55.119616
 31
0.0
  0
INSERT
  5
20F
330
20A
100
AcDbEntity
  8
GR1-1
  6
CONTINUOUS
 62
     7
100
AcDbBlockReference
  2
FXTIP_ARROW_S
 10
66.019645
 20
55.119616
 30
0.0
 41
3.0
 42
3.0
 50
180.0
  0
INSERT
  5
210
330
20A
100
AcDbEntity
  8
GR1-1
  6
CONTINUOUS
 62
     7
100
AcDbBlockReference
  2
FXTIP_ARROW_E
 10
104.019645
 20
55.119616
 30
0.0
 41
3.0
 42
3.0
 50
360.0
  0
LINE
  5
211
330
20A
100
AcDbEntity
  8
GR1-1
  6
CONTINUOUS
 62
     7
100
AcDbLine
 10
66.019645
 20
80.715385
 30
0.0
 11
66.019645
 21
54.119616
 31
0.0
  0
LINE
  5
212
330
20A
100
AcDbEntity
  8
GR1-1
  6
CONTINUOUS
 62
     7
100
AcDbLine
 10
104.019645
 20
80.715385
 30
0.0
 11
104.019645
 21
54.119616
 31
0.0
  0
ENDBLK
  5
20C
330
20A
100
AcDbEntity
  8
0
100
AcDbBlockEnd
  0
BLOCK
  5
215
330
214
100
AcDbEntity
  8
0
100
AcDbBlockBegin
  2
*D24
 70
     1
 71
     0
 10
0.0
 20
0.0
 30
0.0
  3
*D24
  1

  0
TEXT
  5
217
330
214
100
AcDbEntity
  8
GR1-1
  6
CONTINUOUS
 62
     7
100
AcDbText
 10
82.019646
 20
47.002102
 30
0.0
 40
4.0
  1
40
 41
0.851351
  7
FX_VECTOR
 72
     5
 11
88.019646
 21
47.002102
 31
0.0
100
AcDbText
  0
LINE
  5
218
330
214
100
AcDbEntity
  8
GR1-1
  6
CONTINUOUS
 62
     7
100
AcDbLine
 10
65.019645
 20
46.002101
 30
0.0
 11
105.019645
 21
46.002101
 31
0.0
  0
INSERT
  5
219
330
214
100
AcDbEntity
  8
GR1-1
  6
CONTINUOUS
 62
     7
100
AcDbBlockReference
  2
FXTIP_ARROW_S
 10
65.019645
 20
46.002101
 30
0.0
 41
3.0
 42
3.0
 50
180.0
  0
INSERT
  5
21A
330
214
100
AcDbEntity
  8
GR1-1
  6
CONTINUOUS
 62
     7
100
AcDbBlockReference
  2
FXTIP_ARROW_E
 10
105.019645
 20
46.002101
 30
0.0
 41
3.0
 42
3.0
 50
360.0
  0
LINE
  5
21B
330
214
100
AcDbEntity
  8
GR1-1
  6
CONTINUOUS
 62
     7
100
AcDbLine
 10
65.019645
 20
92.382051
 30
0.0
 11
65.019645
 21
45.002101
 31
0.0
  0
LINE
  5
21C
330
214
100
AcDbEntity
  8
GR1-1
  6
CONTINUOUS
 62
     7
100
AcDbLine
 10
105.019645
 20
92.382051
 30
0.0
 11
105.019645
 21
45.002101
 31
0.0
  0
ENDBLK
  5
216
330
214
100
AcDbEntity
  8
0
100
AcDbBlockEnd
  0
BLOCK
  5
21F
330
21E
100
AcDbEntity
  8
0
100
AcDbBlockBegin
  2
*D25
 70
     1
 71
     0
 10
0.0
 20
0.0
 30
0.0
  3
*D25
  1

  0
TEXT
  5
221
330
21E
100
AcDbEntity
  8
GR1-1
  6
CONTINUOUS
 62
     7
100
AcDbText
 10
118.196884
 20
98.215385
 30
0.0
 40
4.0
  1
%%c12
 50
90.0
 41
0.84375
  7
FX_VECTOR
 72
     5
 11
118.196884
 21
107.215385
 31
0.0
100
AcDbText
  0
LINE
  5
222
330
21E
100
AcDbEntity
  8
GR1-1
  6
CONTINUOUS
 62
     7
100
AcDbLine
 10
119.196883
 20
96.715385
 30
0.0
 11
119.196883
 21
108.715385
 31
0.0
  0
INSERT
  5
223
330
21E
100
AcDbEntity
  8
GR1-1
  6
CONTINUOUS
 62
     7
100
AcDbBlockReference
  2
FXTIP_ARROW_S
 10
119.196883
 20
96.715385
 30
0.0
 41
3.0
 42
3.0
 50
270.0
  0
INSERT
  5
224
330
21E
100
AcDbEntity
  8
GR1-1
  6
CONTINUOUS
 62
     7
100
AcDbBlockReference
  2
FXTIP_ARROW_E
 10
119.196883
 20
108.715385
 30
0.0
 41
3.0
 42
3.0
 50
90.0
  0
LINE
  5
225
330
21E
100
AcDbEntity
  8
GR1-1
  6
CONTINUOUS
 62
     7
100
AcDbLine
 10
105.419645
 20
96.715385
 30
0.0
 11
120.196883
 21
96.715385
 31
0.0
  0
LINE
  5
226
330
21E
100
AcDbEntity
  8
GR1-1
  6
CONTINUOUS
 62
     7
100
AcDbLine
 10
105.419645
 20
108.715385
 30
0.0
 11
120.196883
 21
108.715385
 31
0.0
  0
ENDBLK
  5
220
330
21E
100
AcDbEntity
  8
0
100
AcDbBlockEnd
  0
BLOCK
  5
229
330
228
100
AcDbEntity
  8
0
100
AcDbBlockBegin
  2
*D26
 70
     1
 71
     0
 10
0.0
 20
0.0
 30
0.0
  3
*D26
  1

  0
TEXT
  5
22B
330
228
100
AcDbEntity
  8
GR1-1
  6
CONTINUOUS
 62
     7
100
AcDbText
 10
128.516449
 20
98.215385
 30
0.0
 40
4.0
  1
%%c65
 50
90.0
 41
0.84375
  7
FX_VECTOR
 72
     5
 11
128.516449
 21
107.215385
 31
0.0
100
AcDbText
  0
LINE
  5
22C
330
228
100
AcDbEntity
  8
GR1-1
  6
CONTINUOUS
 62
     7
100
AcDbLine
 10
129.516449
 20
70.215385
 30
0.0
 11
129.516449
 21
135.215385
 31
0.0
  0
INSERT
  5
22D
330
228
100
AcDbEntity
  8
GR1-1
  6
CONTINUOUS
 62
     7
100
AcDbBlockReference
  2
FXTIP_ARROW_S
 10
129.516449
 20
70.215385
 30
0.0
 41
3.0
 42
3.0
 50
270.0
  0
INSERT
  5
22E
330
228
100
AcDbEntity
  8
GR1-1
  6
CONTINUOUS
 62
     7
100
AcDbBlockReference
  2
FXTIP_ARROW_E
 10
129.516449
 20
135.215385
 30
0.0
 41
3.0
 42
3.0
 50
90.0
  0
LINE
  5
22F
330
228
100
AcDbEntity
  8
GR1-1
  6
CONTINUOUS
 62
     7
100
AcDbLine
 10
86.019645
 20
70.215385
 30
0.0
 11
130.516449
 21
70.215385
 31
0.0
  0
LINE
  5
230
330
228
100
AcDbEntity
  8
GR1-1
  6
CONTINUOUS
 62
     7
100
AcDbLine
 10
86.019645
 20
135.215385
 30
0.0
 11
130.516449
 21
135.215385
 31
0.0
  0
ENDBLK
  5
22A
330
228
100
AcDbEntity
  8
0
100
AcDbBlockEnd
  0
BLOCK
  5
23A
330
239
100
AcDbEntity
  8
0
100
AcDbBlockBegin
  2
BLKF029
 70
     0
 71
     0
 10
0.0
 20
0.0
 30
0.0
  3
BLKF029
  1

  0
LINE
  5
23D
330
239
100
AcDbEntity
  8
}}ﾊﾊGG血CCТ
  6
CONTINUOUS
 62
     7
100
AcDbLine
 10
10.0
 20
10.0
 30
0.0
 11
287.0
 21
10.0
 31
0.0
  0
LINE
  5
23E
330
239
100
AcDbEntity
  8
}}ﾊﾊGG血CCТ
  6
CONTINUOUS
 62
     7
100
AcDbLine
 10
10.0
 20
10.0
 30
0.0
 11
10.0
 21
200.0
 31
0.0
  0
LINE
  5
23F
330
239
100
AcDbEntity
  8
}}ﾊﾊGG血CCТ
  6
CONTINUOUS
 62
     7
100
AcDbLine
 10
10.0
 20
200.0
 30
0.0
 11
287.0
 21
200.0
 31
0.0
  0
LINE
  5
240
330
239
100
AcDbEntity
  8
}}ﾊﾊGG血CCТ
  6
CONTINUOUS
 62
     7
100
AcDbLine
 10
287.0
 20
200.0
 30
0.0
 11
287.0
 21
10.0
 31
0.0
  0
LINE
  5
241
330
239
100
AcDbEntity
  8
}}ﾊﾊGG血CCТ
  6
CONTINUOUS
 62
     7
100
AcDbLine
 10
30.0
 20
10.0
 30
0.0
 11
30.0
 21
20.0
 31
0.0
  0
TEXT
  5
242
330
239
100
AcDbEntity
  8
}}ﾊﾊGG血CCТ
  6
CONTINUOUS
 62
     7
100
AcDbText
 10
14.738815
 20
11.596879
 30
0.0
 40
6.648749
  1
品名
 41
1.083413
  7
FX_VECTOR
 72
     5
 11
26.058355
 21
11.596879
 31
0.0
100
AcDbText
  0
LINE
  5
243
330
239
100
AcDbEntity
  8
}}ﾊﾊGG血CCТ
  6
CONTINUOUS
 62
     7
100
AcDbLine
 10
110.0
 20
20.0
 30
0.0
 11
110.0
 21
10.0
 31
0.0
  0
LINE
  5
244
330
239
100
AcDbEntity
  8
}}ﾊﾊGG血CCТ
  6
CONTINUOUS
 62
     7
100
AcDbLine
 10
10.0
 20
20.0
 30
0.0
 11
287.0
 21
20.0
 31
0.0
  0
INSERT
  5
248
330
239
100
AcDbEntity
  8
0
100
AcDbBlockReference
  2
BLKF030
 10
0.0
 20
0.0
 30
0.0
  0
INSERT
  5
251
330
239
100
AcDbEntity
  8
0
100
AcDbBlockReference
  2
BLKF031
 10
0.0
 20
0.0
 30
0.0
  0
HATCH
  5
261
330
239
100
AcDbEntity
  8
GR1-1
  6
CONTINUOUS
 62
     7
100
AcDbHatch
 10
0.0
 20
0.0
 30
0.0
210
0.0
220
0.0
230
1.0
  2

 70
     0
 71
     1
 91
        2
 92
        0
 93
        4
 72
     1
 10
215.8018997861325
 20
17.91346152
 11
221.8018997861325
 21
17.91346152
 72
     1
 10
221.8018997861325
 20
17.91346152
 11
221.8018997861325
 21
11.91346152
 72
     1
 10
221.8018997861325
 20
11.91346152
 11
215.8018997861325
 21
11.91346152
 72
     1
 10
215.8018997861325
 20
11.91346152
 11
215.8018997861325
 21
17.91346152
 97
        0
 92
        0
 93
       15
 72
     1
 10
218.8018997861325
 20
17.76923076000002
 11
215.9461305461325
 21
14.91346152
 72
     1
 10
215.9461305461325
 20
14.91346152
 11
218.8018997861325
 21
12.05769228000001
 72
     1
 10
218.8018997861325
 20
12.05769228000001
 11
220.3595920661325
 21
13.61538462
 72
     1
 10
220.3595920661325
 20
13.61538462
 11
220.3595920661325
 21
12.98076924
 72
     1
 10
220.3595920661325
 20
12.98076924
 11
221.2249766861325
 21
12.98076924
 72
     1
 10
221.2249766861325
 20
12.98076924
 11
221.2249766861325
 21
15.00000000000001
 72
     1
 10
221.2249766861325
 20
15.00000000000001
 11
218.8018997861325
 21
15.00000000000001
 72
     1
 10
218.8018997861325
 20
15.00000000000001
 11
218.8018997861325
 21
14.13461538000001
 72
     1
 10
218.8018997861325
 20
14.13461538000001
 11
219.2461305461325
 21
14.13461538000001
 72
     1
 10
219.2461305461325
 20
14.13461538000001
 11
218.8018997861325
 21
13.69038462
 72
     1
 10
218.8018997861325
 20
13.69038462
 11
217.5788228861325
 21
14.91346152
 72
     1
 10
217.5788228861325
 20
14.91346152
 11
218.8018997861325
 21
16.13653842000003
 72
     1
 10
218.8018997861325
 20
16.13653842000003
 11
219.5922844061325
 21
15.3461538
 72
     1
 10
219.5922844061325
 20
15.3461538
 11
221.2249766861325
 21
15.3461538
 72
     1
 10
221.2249766861325
 20
15.3461538
 11
218.8018997861325
 21
17.76923076000002
 97
        0
 75
     0
 76
     0
 52
45.0
 41
0.05
 77
     0
 78
     1
 53
45.0
 43
0.0
 44
0.0
 45
-0.0353553390593274
 46
0.0353553390593274
 79
     0
 98
        0
  0
TEXT
  5
262
330
239
100
AcDbEntity
  8
}}ﾊﾊGG血CCТ
  6
CONTINUOUS
 62
     7
100
AcDbText
 10
226.225754
 20
11.461285
 30
0.0
 40
6.0
  1
GOLD CASTER
 41
0.719626
  7
FX_VECTOR
 72
     5
 11
270.225754
 21
11.461285
 31
0.0
100
AcDbText
  0
LINE
  5
263
330
239
100
AcDbEntity
  8
}}ﾊﾊGG血CCТ
  6
CONTINUOUS
 62
     7
100
AcDbLine
 10
130.0
 20
10.0
 30
0.0
 11
130.0
 21
20.0
 31
0.0
  0
TEXT
  5
264
330
239
100
AcDbEntity
  8
}}ﾊﾊGG血CCТ
  6
CONTINUOUS
 62
     7
100
AcDbText
 10
114.738815
 20
11.596879
 30
0.0
 40
6.648749
  1
図番
 41
1.083413
  7
FX_VECTOR
 72
     5
 11
126.058355
 21
11.596879
 31
0.0
100
AcDbText
  0
LINE
  5
265
330
239
100
AcDbEntity
  8
}}ﾊﾊGG血CCТ
  6
CONTINUOUS
 62
     7
100
AcDbLine
 10
210.0
 20
20.0
 30
0.0
 11
210.0
 21
10.0
 31
0.0
  0
ENDBLK
  5
23B
330
239
100
AcDbEntity
  8
0
100
AcDbBlockEnd
  0
BLOCK
  5
246
330
245
100
AcDbEntity
  8
0
100
AcDbBlockBegin
  2
BLKF030
 70
     0
 71
     0
 10
0.0
 20
0.0
 30
0.0
  3
BLKF030
  1

  0
LINE
  5
24A
330
245
100
AcDbEntity
  8
0-1
  6
CONTINUOUS
 62
     7
100
AcDbLine
 10
221.8019
 20
17.913462
 30
0.0
 11
215.8019
 21
17.913462
 31
0.0
  0
LINE
  5
24B
330
245
100
AcDbEntity
  8
0-1
  6
CONTINUOUS
 62
     7
100
AcDbLine
 10
215.8019
 20
17.913462
 30
0.0
 11
215.8019
 21
11.913462
 31
0.0
  0
LINE
  5
24C
330
245
100
AcDbEntity
  8
0-1
  6
CONTINUOUS
 62
     7
100
AcDbLine
 10
215.8019
 20
11.913462
 30
0.0
 11
221.8019
 21
11.913462
 31
0.0
  0
LINE
  5
24D
330
245
100
AcDbEntity
  8
0-1
  6
CONTINUOUS
 62
     7
100
AcDbLine
 10
221.8019
 20
11.913462
 30
0.0
 11
221.8019
 21
17.913462
 31
0.0
  0
ENDBLK
  5
247
330
245
100
AcDbEntity
  8
0
100
AcDbBlockEnd
  0
BLOCK
  5
24F
330
24E
100
AcDbEntity
  8
0
100
AcDbBlockBegin
  2
BLKF031
 70
     0
 71
     0
 10
0.0
 20
0.0
 30
0.0
  3
BLKF031
  1

  0
LINE
  5
252
330
24E
100
AcDbEntity
  8
0-1
  6
CONTINUOUS
 62
     7
100
AcDbLine
 10
221.224977
 20
15.346154
 30
0.0
 11
218.8019
 21
17.769231
 31
0.0
  0
LINE
  5
253
330
24E
100
AcDbEntity
  8
0-1
  6
CONTINUOUS
 62
     7
100
AcDbLine
 10
218.8019
 20
17.769231
 30
0.0
 11
215.946131
 21
14.913462
 31
0.0
  0
LINE
  5
254
330
24E
100
AcDbEntity
  8
0-1
  6
CONTINUOUS
 62
     7
100
AcDbLine
 10
215.946131
 20
14.913462
 30
0.0
 11
218.8019
 21
12.057692
 31
0.0
  0
LINE
  5
255
330
24E
100
AcDbEntity
  8
0-1
  6
CONTINUOUS
 62
     7
100
AcDbLine
 10
218.8019
 20
12.057692
 30
0.0
 11
220.359592
 21
13.615385
 31
0.0
  0
LINE
  5
256
330
24E
100
AcDbEntity
  8
0-1
  6
CONTINUOUS
 62
     7
100
AcDbLine
 10
220.359592
 20
13.615385
 30
0.0
 11
220.359592
 21
12.980769
 31
0.0
  0
LINE
  5
257
330
24E
100
AcDbEntity
  8
0-1
  6
CONTINUOUS
 62
     7
100
AcDbLine
 10
220.359592
 20
12.980769
 30
0.0
 11
221.224977
 21
12.980769
 31
0.0
  0
LINE
  5
258
330
24E
100
AcDbEntity
  8
0-1
  6
CONTINUOUS
 62
     7
100
AcDbLine
 10
221.224977
 20
12.980769
 30
0.0
 11
221.224977
 21
15.0
 31
0.0
  0
LINE
  5
259
330
24E
100
AcDbEntity
  8
0-1
  6
CONTINUOUS
 62
     7
100
AcDbLine
 10
221.224977
 20
15.0
 30
0.0
 11
218.8019
 21
15.0
 31
0.0
  0
LINE
  5
25A
330
24E
100
AcDbEntity
  8
0-1
  6
CONTINUOUS
 62
     7
100
AcDbLine
 10
218.8019
 20
15.0
 30
0.0
 11
218.8019
 21
14.134615
 31
0.0
  0
LINE
  5
25B
330
24E
100
AcDbEntity
  8
0-1
  6
CONTINUOUS
 62
     7
100
AcDbLine
 10
218.8019
 20
14.134615
 30
0.0
 11
219.246131
 21
14.134615
 31
0.0
  0
LINE
  5
25C
330
24E
100
AcDbEntity
  8
0-1
  6
CONTINUOUS
 62
     7
100
AcDbLine
 10
219.246131
 20
14.134615
 30
0.0
 11
218.8019
 21
13.690385
 31
0.0
  0
LINE
  5
25D
330
24E
100
AcDbEntity
  8
0-1
  6
CONTINUOUS
 62
     7
100
AcDbLine
 10
218.8019
 20
13.690385
 30
0.0
 11
217.578823
 21
14.913462
 31
0.0
  0
LINE
  5
25E
330
24E
100
AcDbEntity
  8
0-1
  6
CONTINUOUS
 62
     7
100
AcDbLine
 10
217.578823
 20
14.913462
 30
0.0
 11
218.8019
 21
16.136538
 31
0.0
  0
LINE
  5
25F
330
24E
100
AcDbEntity
  8
0-1
  6
CONTINUOUS
 62
     7
100
AcDbLine
 10
218.8019
 20
16.136538
 30
0.0
 11
219.592284
 21
15.346154
 31
0.0
  0
LINE
  5
260
330
24E
100
AcDbEntity
  8
0-1
  6
CONTINUOUS
 62
     7
100
AcDbLine
 10
219.592284
 20
15.346154
 30
0.0
 11
221.224977
 21
15.346154
 31
0.0
  0
ENDBLK
  5
250
330
24E
100
AcDbEntity
  8
0
100
AcDbBlockEnd
  0
ENDSEC
  0
SECTION
  2
ENTITIES
  0
TEXT
  5
A8
330
1F
100
AcDbEntity
  8
}}ﾊﾊGG血CCТ
  6
CONTINUOUS
 62
     7
100
AcDbText
 10
31.993109
 20
12.0
 30
0.0
 40
6.0
  1
Ｈ－　６５　ＲＢ
 41
0.794326
  7
FX_VECTOR
 72
     5
 11
63.993109
 21
12.0
 31
0.0
100
AcDbText
  0
TEXT
  5
A9
330
1F
100
AcDbEntity
  8
}}ﾊﾊGG血CCТ
  6
CONTINUOUS
 62
     7
100
AcDbText
 10
132.494263
 20
12.0
 30
0.0
 40
6.0
  1
1H23FAAA-C02
 41
0.705882
  7
FX_VECTOR
 72
     5
 11
180.494263
 21
12.0
 31
0.0
100
AcDbText
  0
LINE
  5
AB
330
1F
100
AcDbEntity
  8
GR1-1
  6
CONTINUOUS
 62
     3
100
AcDbLine
 10
68.519645
 20
126.215385
 30
0.0
 11
82.919645
 21
126.215385
 31
0.0
  0
ARC
  5
AC
330
1F
100
AcDbEntity
  8
GR1-1
  6
CONTINUOUS
 62
     3
100
AcDbCircle
 10
82.919645
 20
124.115385
 30
0.0
 40
2.1
100
AcDbArc
 50
0.0
 51
90.0
  0
LINE
  5
AD
330
1F
100
AcDbEntity
  8
GR1-1
  6
CONTINUOUS
 62
     3
100
AcDbLine
 10
85.019645
 20
123.115385
 30
0.0
 11
85.019645
 21
121.615385
 31
0.0
  0
ARC
  5
AE
330
1F
100
AcDbEntity
  8
GR1-1
  6
CONTINUOUS
 62
     3
100
AcDbCircle
 10
87.119645
 20
124.115385
 30
0.0
 40
2.1
100
AcDbArc
 50
90.0
 51
180.0
  0
LINE
  5
AF
330
1F
100
AcDbEntity
  8
GR1-1
  6
CONTINUOUS
 62
     3
100
AcDbLine
 10
86.619645
 20
123.915385
 30
0.0
 11
86.619645
 21
120.715385
 31
0.0
  0
LINE
  5
B0
330
1F
100
AcDbEntity
  8
GR1-1
  6
CONTINUOUS
 62
     3
100
AcDbLine
 10
83.419645
 20
120.715385
 30
0.0
 11
83.419645
 21
123.915385
 31
0.0
  0
LINE
  5
B1
330
1F
100
AcDbEntity
  8
GR1-1
  6
CONTINUOUS
 62
     3
100
AcDbLine
 10
82.919645
 20
124.415385
 30
0.0
 11
68.319645
 21
124.415385
 31
0.0
  0
ARC
  5
B2
330
1F
100
AcDbEntity
  8
GR1-1
  6
CONTINUOUS
 62
     3
100
AcDbCircle
 10
82.919645
 20
123.915385
 30
0.0
 40
0.5
100
AcDbArc
 50
0.0
 51
90.0
  0
ARC
  5
B3
330
1F
100
AcDbEntity
  8
GR1-1
  6
CONTINUOUS
 62
     3
100
AcDbCircle
 10
87.119645
 20
123.915385
 30
0.0
 40
0.5
100
AcDbArc
 50
90.0
 51
180.0
  0
LINE
  5
B4
330
1F
100
AcDbEntity
  8
GR1-1
  6
CENTER
 62
     6
100
AcDbLine
 10
85.019645
 20
67.293698
 30
0.0
 11
85.019645
 21
137.532863
 31
0.0
  0
LINE
  5
B5
330
1F
100
AcDbEntity
  8
GR1-1
  6
CENTER
 62
     6
100
AcDbLine
 10
63.687018
 20
102.715385
 30
0.0
 11
106.494666
 21
102.715385
 31
0.0
  0
LINE
  5
B6
330
1F
100
AcDbEntity
  8
LAYERGROUP-1
  6
CONTINUOUS
 62
     3
100
AcDbLine
 10
78.019645
 20
114.715385
 30
0.0
 11
79.819645
 21
114.715385
 31
0.0
  0
LINE
  5
B7
330
1F
100
AcDbEntity
  8
LAYERGROUP-1
  6
CONTINUOUS
 62
     3
100
AcDbLine
 10
79.819645
 20
114.715385
 30
0.0
 11
79.819645
 21
118.465385
 31
0.0
  0
LINE
  5
B8
330
1F
100
AcDbEntity
  8
GR1-1
  6
CONTINUOUS
 62
     3
100
AcDbLine
 10
86.619645
 20
120.715385
 30
0.0
 11
83.419645
 21
120.715385
 31
0.0
  0
LINE
  5
B9
330
1F
100
AcDbEntity
  8
LAYERGROUP-1
  6
CONTINUOUS
 62
     3
100
AcDbLine
 10
68.319645
 20
120.465385
 30
0.0
 11
77.819645
 21
120.465385
 31
0.0
  0
LINE
  5
BA
330
1F
100
AcDbEntity
  8
LAYERGROUP-1
  6
CONTINUOUS
 62
     3
100
AcDbLine
 10
78.019645
 20
114.715385
 30
0.0
 11
78.019645
 21
118.665385
 31
0.0
  0
LINE
  5
BB
330
1F
100
AcDbEntity
  8
LAYERGROUP-1
  6
CONTINUOUS
 62
     3
100
AcDbLine
 10
78.019645
 20
118.665385
 30
0.0
 11
68.519645
 21
118.665385
 31
0.0
  0
ARC
  5
BC
330
1F
100
AcDbEntity
  8
LAYERGROUP-1
  6
CONTINUOUS
 62
     3
100
AcDbCircle
 10
68.519645
 20
121.165385
 30
0.0
 40
2.5
100
AcDbArc
 50
180.0
 51
270.0
  0
ARC
  5
BD
330
1F
100
AcDbEntity
  8
LAYERGROUP-1
  6
CONTINUOUS
 62
     3
100
AcDbCircle
 10
68.519645
 20
123.715385
 30
0.0
 40
2.5
100
AcDbArc
 50
90.0
 51
180.0
  0
LINE
  5
BE
330
1F
100
AcDbEntity
  8
LAYERGROUP-1
  6
CONTINUOUS
 62
     3
100
AcDbLine
 10
67.819645
 20
120.965385
 30
0.0
 11
67.819645
 21
123.915385
 31
0.0
  0
ARC
  5
BF
330
1F
100
AcDbEntity
  8
LAYERGROUP-1
  6
CONTINUOUS
 62
     3
100
AcDbCircle
 10
68.319645
 20
123.915385
 30
0.0
 40
0.5
100
AcDbArc
 50
90.0
 51
180.0
  0
ARC
  5
C0
330
1F
100
AcDbEntity
  8
LAYERGROUP-1
  6
CONTINUOUS
 62
     3
100
AcDbCircle
 10
68.319645
 20
120.965385
 30
0.0
 40
0.5
100
AcDbArc
 50
180.0
 51
270.0
  0
ARC
  5
C1
330
1F
100
AcDbEntity
  8
LAYERGROUP-1
  6
CONTINUOUS
 62
     3
100
AcDbCircle
 10
77.819645
 20
118.465385
 30
0.0
 40
2.0
100
AcDbArc
 50
0.0
 51
90.0
  0
LINE
  5
C2
330
1F
100
AcDbEntity
  8
GR1-1
  6
CONTINUOUS
 62
     3
100
AcDbLine
 10
101.519645
 20
126.215385
 30
0.0
 11
87.119645
 21
126.215385
 31
0.0
  0
LINE
  5
C3
330
1F
100
AcDbEntity
  8
GR1-1
  6
CONTINUOUS
 62
     3
100
AcDbLine
 10
87.119645
 20
124.415385
 30
0.0
 11
101.719645
 21
124.415385
 31
0.0
  0
LINE
  5
C4
330
1F
100
AcDbEntity
  8
LAYERGROUP-1
  6
CONTINUOUS
 62
     3
100
AcDbLine
 10
92.019645
 20
114.715385
 30
0.0
 11
90.219645
 21
114.715385
 31
0.0
  0
LINE
  5
C5
330
1F
100
AcDbEntity
  8
LAYERGROUP-1
  6
CONTINUOUS
 62
     3
100
AcDbLine
 10
90.219645
 20
114.715385
 30
0.0
 11
90.219645
 21
118.465385
 31
0.0
  0
LINE
  5
C6
330
1F
100
AcDbEntity
  8
LAYERGROUP-1
  6
CONTINUOUS
 62
     3
100
AcDbLine
 10
101.719645
 20
120.465385
 30
0.0
 11
92.219645
 21
120.465385
 31
0.0
  0
LINE
  5
C7
330
1F
100
AcDbEntity
  8
LAYERGROUP-1
  6
CONTINUOUS
 62
     3
100
AcDbLine
 10
92.019645
 20
114.715385
 30
0.0
 11
92.019645
 21
118.665385
 31
0.0
  0
LINE
  5
C8
330
1F
100
AcDbEntity
  8
LAYERGROUP-1
  6
CONTINUOUS
 62
     3
100
AcDbLine
 10
92.019645
 20
118.665385
 30
0.0
 11
101.519645
 21
118.665385
 31
0.0
  0
ARC
  5
C9
330
1F
100
AcDbEntity
  8
LAYERGROUP-1
  6
CONTINUOUS
 62
     3
100
AcDbCircle
 10
101.519645
 20
121.165385
 30
0.0
 40
2.5
100
AcDbArc
 50
270.0
 51
360.0
  0
ARC
  5
CA
330
1F
100
AcDbEntity
  8
LAYERGROUP-1
  6
CONTINUOUS
 62
     3
100
AcDbCircle
 10
101.519645
 20
123.715385
 30
0.0
 40
2.5
100
AcDbArc
 50
0.0
 51
90.0
  0
LINE
  5
CB
330
1F
100
AcDbEntity
  8
LAYERGROUP-1
  6
CONTINUOUS
 62
     3
100
AcDbLine
 10
102.219645
 20
120.965385
 30
0.0
 11
102.219645
 21
123.915385
 31
0.0
  0
ARC
  5
CC
330
1F
100
AcDbEntity
  8
LAYERGROUP-1
  6
CONTINUOUS
 62
     3
100
AcDbCircle
 10
101.719645
 20
123.915385
 30
0.0
 40
0.5
100
AcDbArc
 50
0.0
 51
90.0
  0
ARC
  5
CD
330
1F
100
AcDbEntity
  8
LAYERGROUP-1
  6
CONTINUOUS
 62
     3
100
AcDbCircle
 10
101.719645
 20
120.965385
 30
0.0
 40
0.5
100
AcDbArc
 50
-90.0
 51
0.0
  0
ARC
  5
CE
330
1F
100
AcDbEntity
  8
LAYERGROUP-1
  6
CONTINUOUS
 62
     3
100
AcDbCircle
 10
92.219645
 20
118.465385
 30
0.0
 40
2.0
100
AcDbArc
 50
90.0
 51
180.0
  0
LINE
  5
CF
330
1F
100
AcDbEntity
  8
LAYERGROUP-1
  6
CONTINUOUS
 62
     3
100
AcDbLine
 10
104.019645
 20
126.215385
 30
0.0
 11
104.019645
 21
121.165385
 31
0.0
  0
LINE
  5
D0
330
1F
100
AcDbEntity
  8
LAYERGROUP-1
  6
CONTINUOUS
 62
     3
100
AcDbLine
 10
66.019645
 20
126.215385
 30
0.0
 11
66.019645
 21
121.165385
 31
0.0
  0
ARC
  5
D1
330
1F
100
AcDbEntity
  8
LAYERGROUP-1
  6
CONTINUOUS
 62
     3
100
AcDbCircle
 10
85.019645
 20
-14.784615
 30
0.0
 40
150.0
100
AcDbArc
 50
83.933391
 51
96.066609
  0
CIRCLE
  5
D2
330
1F
100
AcDbEntity
  8
LAYERGROUP-1
  6
CONTINUOUS
 62
     3
100
AcDbCircle
 10
209.613462
 20
102.715385
 30
0.0
 40
32.49999999999994
  0
CIRCLE
  5
D3
330
1F
100
AcDbEntity
  8
LAYERGROUP-1
  6
CONTINUOUS
 62
     6
100
AcDbCircle
 10
209.613462
 20
102.715385
 30
0.0
 40
20.00000000000003
  0
LINE
  5
D4
330
1F
100
AcDbEntity
  8
LAYERGROUP-1
  6
CENTER
 62
     6
100
AcDbLine
 10
174.967601
 20
102.715385
 30
0.0
 11
243.792228
 21
102.715385
 31
0.0
  0
LINE
  5
D5
330
1F
100
AcDbEntity
  8
LAYERGROUP-1
  6
CENTER
 62
     6
100
AcDbLine
 10
209.613462
 20
136.373606
 30
0.0
 11
209.613462
 21
68.730671
 31
0.0
  0
ARC
  5
D6
330
1F
100
AcDbEntity
  8
LAYERGROUP-1
  6
CONTINUOUS
 62
     3
100
AcDbCircle
 10
69.484012
 20
131.392141
 30
0.0
 40
3.0
100
AcDbArc
 50
96.066609
 51
175.0
  0
LINE
  5
D7
330
1F
100
AcDbEntity
  8
LAYERGROUP-1
  6
CONTINUOUS
 62
     3
100
AcDbLine
 10
66.495427
 20
131.653608
 30
0.0
 11
66.019645
 21
126.215385
 31
0.0
  0
ARC
  5
D8
330
1F
100
AcDbEntity
  8
LAYERGROUP-1
  6
CONTINUOUS
 62
     3
100
AcDbCircle
 10
100.555278
 20
131.392141
 30
0.0
 40
3.0
100
AcDbArc
 50
5.0
 51
83.933391
  0
LINE
  5
D9
330
1F
100
AcDbEntity
  8
LAYERGROUP-1
  6
CONTINUOUS
 62
     3
100
AcDbLine
 10
103.543862
 20
131.653608
 30
0.0
 11
104.019645
 21
126.215385
 31
0.0
  0
LINE
  5
DA
330
1F
100
AcDbEntity
  8
GR1-1
  6
CONTINUOUS
 62
     3
100
AcDbLine
 10
68.519645
 20
79.215385
 30
0.0
 11
82.919645
 21
79.215385
 31
0.0
  0
ARC
  5
DB
330
1F
100
AcDbEntity
  8
GR1-1
  6
CONTINUOUS
 62
     3
100
AcDbCircle
 10
82.919645
 20
81.315385
 30
0.0
 40
2.1
100
AcDbArc
 50
270.0
 51
360.0
  0
LINE
  5
DC
330
1F
100
AcDbEntity
  8
GR1-1
  6
CONTINUOUS
 62
     3
100
AcDbLine
 10
85.019645
 20
82.315385
 30
0.0
 11
85.019645
 21
83.815385
 31
0.0
  0
ARC
  5
DD
330
1F
100
AcDbEntity
  8
GR1-1
  6
CONTINUOUS
 62
     3
100
AcDbCircle
 10
87.119645
 20
81.315385
 30
0.0
 40
2.1
100
AcDbArc
 50
180.0
 51
270.0
  0
LINE
  5
DE
330
1F
100
AcDbEntity
  8
GR1-1
  6
CONTINUOUS
 62
     3
100
AcDbLine
 10
86.619645
 20
81.515385
 30
0.0
 11
86.619645
 21
84.715385
 31
0.0
  0
LINE
  5
DF
330
1F
100
AcDbEntity
  8
GR1-1
  6
CONTINUOUS
 62
     3
100
AcDbLine
 10
83.419645
 20
84.715385
 30
0.0
 11
83.419645
 21
81.515385
 31
0.0
  0
LINE
  5
E0
330
1F
100
AcDbEntity
  8
GR1-1
  6
CONTINUOUS
 62
     3
100
AcDbLine
 10
82.919645
 20
81.015385
 30
0.0
 11
68.319645
 21
81.015385
 31
0.0
  0
ARC
  5
E1
330
1F
100
AcDbEntity
  8
GR1-1
  6
CONTINUOUS
 62
     3
100
AcDbCircle
 10
82.919645
 20
81.515385
 30
0.0
 40
0.5
100
AcDbArc
 50
270.0
 51
360.0
  0
ARC
  5
E2
330
1F
100
AcDbEntity
  8
GR1-1
  6
CONTINUOUS
 62
     3
100
AcDbCircle
 10
87.119645
 20
81.515385
 30
0.0
 40
0.5
100
AcDbArc
 50
180.0
 51
270.0
  0
LINE
  5
E3
330
1F
100
AcDbEntity
  8
LAYERGROUP-1
  6
CONTINUOUS
 62
     3
100
AcDbLine
 10
78.019645
 20
90.715385
 30
0.0
 11
79.819645
 21
90.715385
 31
0.0
  0
LINE
  5
E4
330
1F
100
AcDbEntity
  8
LAYERGROUP-1
  6
CONTINUOUS
 62
     3
100
AcDbLine
 10
79.819645
 20
90.715385
 30
0.0
 11
79.819645
 21
86.965385
 31
0.0
  0
LINE
  5
E5
330
1F
100
AcDbEntity
  8
GR1-1
  6
CONTINUOUS
 62
     3
100
AcDbLine
 10
86.619645
 20
84.715385
 30
0.0
 11
83.419645
 21
84.715385
 31
0.0
  0
LINE
  5
E6
330
1F
100
AcDbEntity
  8
LAYERGROUP-1
  6
CONTINUOUS
 62
     3
100
AcDbLine
 10
68.319645
 20
84.965385
 30
0.0
 11
77.819645
 21
84.965385
 31
0.0
  0
LINE
  5
E7
330
1F
100
AcDbEntity
  8
LAYERGROUP-1
  6
CONTINUOUS
 62
     3
100
AcDbLine
 10
78.019645
 20
90.715385
 30
0.0
 11
78.019645
 21
86.765385
 31
0.0
  0
LINE
  5
E8
330
1F
100
AcDbEntity
  8
LAYERGROUP-1
  6
CONTINUOUS
 62
     3
100
AcDbLine
 10
78.019645
 20
86.765385
 30
0.0
 11
68.519645
 21
86.765385
 31
0.0
  0
ARC
  5
E9
330
1F
100
AcDbEntity
  8
LAYERGROUP-1
  6
CONTINUOUS
 62
     3
100
AcDbCircle
 10
68.519645
 20
84.265385
 30
0.0
 40
2.5
100
AcDbArc
 50
90.0
 51
180.0
  0
ARC
  5
EA
330
1F
100
AcDbEntity
  8
LAYERGROUP-1
  6
CONTINUOUS
 62
     3
100
AcDbCircle
 10
68.519645
 20
81.715385
 30
0.0
 40
2.5
100
AcDbArc
 50
180.0
 51
270.0
  0
LINE
  5
EB
330
1F
100
AcDbEntity
  8
LAYERGROUP-1
  6
CONTINUOUS
 62
     3
100
AcDbLine
 10
67.819645
 20
84.465385
 30
0.0
 11
67.819645
 21
81.515385
 31
0.0
  0
ARC
  5
EC
330
1F
100
AcDbEntity
  8
LAYERGROUP-1
  6
CONTINUOUS
 62
     3
100
AcDbCircle
 10
68.319645
 20
81.515385
 30
0.0
 40
0.5
100
AcDbArc
 50
180.0
 51
270.0
  0
ARC
  5
ED
330
1F
100
AcDbEntity
  8
LAYERGROUP-1
  6
CONTINUOUS
 62
     3
100
AcDbCircle
 10
68.319645
 20
84.465385
 30
0.0
 40
0.5
100
AcDbArc
 50
90.0
 51
180.0
  0
ARC
  5
EE
330
1F
100
AcDbEntity
  8
LAYERGROUP-1
  6
CONTINUOUS
 62
     3
100
AcDbCircle
 10
77.819645
 20
86.965385
 30
0.0
 40
2.0
100
AcDbArc
 50
270.0
 51
360.0
  0
LINE
  5
EF
330
1F
100
AcDbEntity
  8
GR1-1
  6
CONTINUOUS
 62
     3
100
AcDbLine
 10
101.519645
 20
79.215385
 30
0.0
 11
87.119645
 21
79.215385
 31
0.0
  0
LINE
  5
F0
330
1F
100
AcDbEntity
  8
GR1-1
  6
CONTINUOUS
 62
     3
100
AcDbLine
 10
87.119645
 20
81.015385
 30
0.0
 11
101.719645
 21
81.015385
 31
0.0
  0
LINE
  5
F1
330
1F
100
AcDbEntity
  8
LAYERGROUP-1
  6
CONTINUOUS
 62
     3
100
AcDbLine
 10
92.019645
 20
90.715385
 30
0.0
 11
90.219645
 21
90.715385
 31
0.0
  0
LINE
  5
F2
330
1F
100
AcDbEntity
  8
LAYERGROUP-1
  6
CONTINUOUS
 62
     3
100
AcDbLine
 10
90.219645
 20
90.715385
 30
0.0
 11
90.219645
 21
86.965385
 31
0.0
  0
LINE
  5
F3
330
1F
100
AcDbEntity
  8
LAYERGROUP-1
  6
CONTINUOUS
 62
     3
100
AcDbLine
 10
101.719645
 20
84.965385
 30
0.0
 11
92.219645
 21
84.965385
 31
0.0
  0
LINE
  5
F4
330
1F
100
AcDbEntity
  8
LAYERGROUP-1
  6
CONTINUOUS
 62
     3
100
AcDbLine
 10
92.019645
 20
90.715385
 30
0.0
 11
92.019645
 21
86.765385
 31
0.0
  0
LINE
  5
F5
330
1F
100
AcDbEntity
  8
LAYERGROUP-1
  6
CONTINUOUS
 62
     3
100
AcDbLine
 10
92.019645
 20
86.765385
 30
0.0
 11
101.519645
 21
86.765385
 31
0.0
  0
ARC
  5
F6
330
1F
100
AcDbEntity
  8
LAYERGROUP-1
  6
CONTINUOUS
 62
     3
100
AcDbCircle
 10
101.519645
 20
84.265385
 30
0.0
 40
2.5
100
AcDbArc
 50
0.0
 51
90.0
  0
ARC
  5
F7
330
1F
100
AcDbEntity
  8
LAYERGROUP-1
  6
CONTINUOUS
 62
     3
100
AcDbCircle
 10
101.519645
 20
81.715385
 30
0.0
 40
2.5
100
AcDbArc
 50
270.0
 51
360.0
  0
LINE
  5
F8
330
1F
100
AcDbEntity
  8
LAYERGROUP-1
  6
CONTINUOUS
 62
     3
100
AcDbLine
 10
102.219645
 20
84.465385
 30
0.0
 11
102.219645
 21
81.515385
 31
0.0
  0
ARC
  5
F9
330
1F
100
AcDbEntity
  8
LAYERGROUP-1
  6
CONTINUOUS
 62
     3
100
AcDbCircle
 10
101.719645
 20
81.515385
 30
0.0
 40
0.5
100
AcDbArc
 50
270.0
 51
360.0
  0
ARC
  5
FA
330
1F
100
AcDbEntity
  8
LAYERGROUP-1
  6
CONTINUOUS
 62
     3
100
AcDbCircle
 10
101.719645
 20
84.465385
 30
0.0
 40
0.5
100
AcDbArc
 50
0.0
 51
90.0
  0
ARC
  5
FB
330
1F
100
AcDbEntity
  8
LAYERGROUP-1
  6
CONTINUOUS
 62
     3
100
AcDbCircle
 10
92.219645
 20
86.965385
 30
0.0
 40
2.0
100
AcDbArc
 50
180.0
 51
270.0
  0
LINE
  5
FC
330
1F
100
AcDbEntity
  8
LAYERGROUP-1
  6
CONTINUOUS
 62
     3
100
AcDbLine
 10
104.019645
 20
79.215385
 30
0.0
 11
104.019645
 21
84.265385
 31
0.0
  0
LINE
  5
FD
330
1F
100
AcDbEntity
  8
LAYERGROUP-1
  6
CONTINUOUS
 62
     3
100
AcDbLine
 10
66.019645
 20
79.215385
 30
0.0
 11
66.019645
 21
84.265385
 31
0.0
  0
ARC
  5
FE
330
1F
100
AcDbEntity
  8
LAYERGROUP-1
  6
CONTINUOUS
 62
     3
100
AcDbCircle
 10
85.019645
 20
220.215385
 30
0.0
 40
150.0
100
AcDbArc
 50
263.933391
 51
276.066609
  0
ARC
  5
FF
330
1F
100
AcDbEntity
  8
LAYERGROUP-1
  6
CONTINUOUS
 62
     3
100
AcDbCircle
 10
69.484012
 20
74.038628
 30
0.0
 40
3.0
100
AcDbArc
 50
185.0
 51
263.933391
  0
LINE
  5
100
330
1F
100
AcDbEntity
  8
LAYERGROUP-1
  6
CONTINUOUS
 62
     3
100
AcDbLine
 10
66.495427
 20
73.777161
 30
0.0
 11
66.019645
 21
79.215385
 31
0.0
  0
ARC
  5
101
330
1F
100
AcDbEntity
  8
LAYERGROUP-1
  6
CONTINUOUS
 62
     3
100
AcDbCircle
 10
100.555278
 20
74.038628
 30
0.0
 40
3.0
100
AcDbArc
 50
276.066609
 51
355.0
  0
LINE
  5
102
330
1F
100
AcDbEntity
  8
LAYERGROUP-1
  6
CONTINUOUS
 62
     3
100
AcDbLine
 10
103.543862
 20
73.777161
 30
0.0
 11
104.019645
 21
79.215385
 31
0.0
  0
CIRCLE
  5
103
330
1F
100
AcDbEntity
  8
LAYERGROUP-1
  6
CONTINUOUS
 62
     3
100
AcDbCircle
 10
209.613462
 20
102.715385
 30
0.0
 40
23.50000000000003
  0
INSERT
  5
107
330
1F
100
AcDbEntity
  8
0
100
AcDbBlockReference
  2
BLKF021
 10
0.0
 20
0.0
 30
0.0
  0
LINE
  5
15F
330
1F
100
AcDbEntity
  8
GR1-1
  6
CONTINUOUS
 62
     7
100
AcDbLine
 10
186.721168
 20
112.303287
 30
0.0
 11
188.400933
 21
115.600012
 31
0.0
  0
LINE
  5
160
330
1F
100
AcDbEntity
  8
GR1-1
  6
CONTINUOUS
 62
     7
100
AcDbLine
 10
188.400933
 20
115.600012
 30
0.0
 11
185.104208
 21
117.279777
 31
0.0
  0
LINE
  5
161
330
1F
100
AcDbEntity
  8
GR1-1
  6
CONTINUOUS
 62
     7
100
AcDbLine
 10
185.104208
 20
117.279777
 30
0.0
 11
183.424443
 21
113.983052
 31
0.0
  0
LINE
  5
162
330
1F
100
AcDbEntity
  8
GR1-1
  6
CONTINUOUS
 62
     7
100
AcDbLine
 10
183.424443
 20
113.983052
 30
0.0
 11
186.721168
 21
112.303287
 31
0.0
  0
LINE
  5
163
330
1F
100
AcDbEntity
  8
GR1-1
  6
CONTINUOUS
 62
     7
100
AcDbLine
 10
185.120839
 20
113.237441
 30
0.0
 11
184.358597
 21
115.583381
 31
0.0
  0
LINE
  5
164
330
1F
100
AcDbEntity
  8
GR1-1
  6
CONTINUOUS
 62
     7
100
AcDbLine
 10
184.358597
 20
115.583381
 30
0.0
 11
186.455712
 21
116.264775
 31
0.0
  0
LINE
  5
165
330
1F
100
AcDbEntity
  8
GR1-1
  6
CONTINUOUS
 62
     7
100
AcDbLine
 10
186.455712
 20
116.264775
 30
0.0
 11
186.059788
 21
115.487729
 31
0.0
  0
LINE
  5
166
330
1F
100
AcDbEntity
  8
GR1-1
  6
CONTINUOUS
 62
     7
100
AcDbLine
 10
186.059788
 20
115.487729
 30
0.0
 11
185.135643
 21
115.187456
 31
0.0
  0
LINE
  5
167
330
1F
100
AcDbEntity
  8
GR1-1
  6
CONTINUOUS
 62
     7
100
AcDbLine
 10
185.135643
 20
115.187456
 30
0.0
 11
185.516764
 21
114.014487
 31
0.0
  0
LINE
  5
168
330
1F
100
AcDbEntity
  8
GR1-1
  6
CONTINUOUS
 62
     7
100
AcDbLine
 10
185.516764
 20
114.014487
 30
0.0
 11
186.689733
 21
114.395608
 31
0.0
  0
LINE
  5
169
330
1F
100
AcDbEntity
  8
GR1-1
  6
CONTINUOUS
 62
     7
100
AcDbLine
 10
186.689733
 20
114.395608
 30
0.0
 11
186.489364
 21
115.01228
 31
0.0
  0
ARC
  5
16A
330
1F
100
AcDbEntity
  8
GR1-1
  6
CONTINUOUS
 62
     7
100
AcDbCircle
 10
186.430716
 20
114.993224
 30
0.0
 40
0.06166667
100
AcDbArc
 50
18.0
 51
153.0
  0
LINE
  5
16B
330
1F
100
AcDbEntity
  8
GR1-1
  6
CONTINUOUS
 62
     7
100
AcDbLine
 10
186.37577
 20
115.02122
 30
0.0
 11
186.187415
 21
114.651552
 31
0.0
  0
LINE
  5
16C
330
1F
100
AcDbEntity
  8
GR1-1
  6
CONTINUOUS
 62
     7
100
AcDbLine
 10
186.187415
 20
114.651552
 30
0.0
 11
185.912688
 21
114.791532
 31
0.0
  0
LINE
  5
16D
330
1F
100
AcDbEntity
  8
GR1-1
  6
CONTINUOUS
 62
     7
100
AcDbLine
 10
185.912688
 20
114.791532
 30
0.0
 11
186.704537
 21
116.345623
 31
0.0
  0
LINE
  5
16E
330
1F
100
AcDbEntity
  8
GR1-1
  6
CONTINUOUS
 62
     7
100
AcDbLine
 10
186.704537
 20
116.345623
 30
0.0
 11
187.816808
 21
115.778892
 31
0.0
  0
LINE
  5
16F
330
1F
100
AcDbEntity
  8
GR1-1
  6
CONTINUOUS
 62
     7
100
AcDbLine
 10
187.816808
 20
115.778892
 30
0.0
 11
187.536847
 21
115.229438
 31
0.0
  0
LINE
  5
170
330
1F
100
AcDbEntity
  8
GR1-1
  6
CONTINUOUS
 62
     7
100
AcDbLine
 10
187.536847
 20
115.229438
 30
0.0
 11
187.10668
 21
115.448619
 31
0.0
  0
ARC
  5
171
330
1F
100
AcDbEntity
  8
GR1-1
  6
CONTINUOUS
 62
     7
100
AcDbCircle
 10
187.078684
 20
115.393674
 30
0.0
 40
0.06166667
100
AcDbArc
 50
63.0
 51
198.0
  0
LINE
  5
172
330
1F
100
AcDbEntity
  8
GR1-1
  6
CONTINUOUS
 62
     7
100
AcDbLine
 10
187.020035
 20
115.374618
 30
0.0
 11
187.466779
 21
113.999683
 31
0.0
  0
LINE
  5
173
330
1F
100
AcDbEntity
  8
GR1-1
  6
CONTINUOUS
 62
     7
100
AcDbLine
 10
187.466779
 20
113.999683
 30
0.0
 11
185.120839
 21
113.237441
 31
0.0
  0
TEXT
  5
174
330
1F
100
AcDbEntity
  8
LAYERGROUP-1
  6
CONTINUOUS
 62
     7
100
AcDbText
 10
191.368942
 20
119.203194
 30
0.0
 40
4.423212
  1
G
 50
43.0
 41
1.106999
  7
FX_VECTOR
 72
     5
 11
194.438427
 21
122.065535
 31
0.0
100
AcDbText
  0
TEXT
  5
175
330
1F
100
AcDbEntity
  8
LAYERGROUP-1
  6
CONTINUOUS
 62
     7
100
AcDbText
 10
194.850174
 20
122.381477
 30
0.0
 40
4.423212
  1
O
 50
32.0
 41
1.048736
  7
FX_VECTOR
 72
     5
 11
198.409425
 21
124.605544
 31
0.0
100
AcDbText
  0
TEXT
  5
176
330
1F
100
AcDbEntity
  8
LAYERGROUP-1
  6
CONTINUOUS
 62
     7
100
AcDbText
 10
198.873886
 20
124.837135
 30
0.0
 40
4.423212
  1
L
 50
21.0
 41
1.245374
  7
FX_VECTOR
 72
     5
 11
202.792115
 21
126.341203
 31
0.0
100
AcDbText
  0
TEXT
  5
177
330
1F
100
AcDbEntity
  8
LAYERGROUP-1
  6
CONTINUOUS
 62
     7
100
AcDbText
 10
203.292221
 20
126.479897
 30
0.0
 40
4.423212
  1
D
 50
10.0
 41
1.106999
  7
FX_VECTOR
 72
     5
 11
207.425451
 21
127.208696
 31
0.0
100
AcDbText
  0
TEXT
  5
178
330
1F
100
AcDbEntity
  8
LAYERGROUP-1
  6
CONTINUOUS
 62
     7
100
AcDbText
 10
211.801376
 20
127.208717
 30
0.0
 40
4.423212
  1
C
 50
350.0
 41
1.106999
  7
FX_VECTOR
 72
     5
 11
215.934606
 21
126.479917
 31
0.0
100
AcDbText
  0
TEXT
  5
179
330
1F
100
AcDbEntity
  8
LAYERGROUP-1
  6
CONTINUOUS
 62
     7
100
AcDbText
 10
216.434738
 20
126.341225
 30
0.0
 40
4.423212
  1
A
 50
339.0
 41
1.172116
  7
FX_VECTOR
 72
     5
 11
220.352967
 21
124.837157
 31
0.0
100
AcDbText
  0
TEXT
  5
17A
330
1F
100
AcDbEntity
  8
LAYERGROUP-1
  6
CONTINUOUS
 62
     7
100
AcDbText
 10
220.817429
 20
124.605583
 30
0.0
 40
4.423212
  1
S
 50
328.0
 41
1.172116
  7
FX_VECTOR
 72
     5
 11
224.376679
 21
122.381517
 31
0.0
100
AcDbText
  0
TEXT
  5
17B
330
1F
100
AcDbEntity
  8
LAYERGROUP-1
  6
CONTINUOUS
 62
     7
100
AcDbText
 10
224.788437
 20
122.06559
 30
0.0
 40
4.423212
  1
T
 50
317.0
 41
1.328399
  7
FX_VECTOR
 72
     5
 11
227.857922
 21
119.203249
 31
0.0
100
AcDbText
  0
TEXT
  5
17C
330
1F
100
AcDbEntity
  8
LAYERGROUP-1
  6
CONTINUOUS
 62
     7
100
AcDbText
 10
230.932144
 20
114.971931
 30
0.0
 40
4.423212
  1
R
 50
295.0
 41
1.106999
  7
FX_VECTOR
 72
     5
 11
232.705869
 21
111.168165
 31
0.0
100
AcDbText
  0
TEXT
  5
17D
330
1F
100
AcDbEntity
  8
LAYERGROUP-1
  6
CONTINUOUS
 62
     7
100
AcDbText
 10
228.201828
 20
118.814552
 30
0.0
 40
4.423212
  1
E
 50
306.0
 41
1.172116
  7
FX_VECTOR
 72
     5
 11
230.668758
 21
115.419115
 31
0.0
100
AcDbText
  0
TEXT
  5
17E
330
1F
100
AcDbEntity
  8
LAYERGROUP-1
  6
CONTINUOUS
 62
     7
100
AcDbText
 10
216.348404
 20
79.064789
 30
0.0
 40
4.423212
  1
5
 50
191.0
 41
1.172116
  7
FX_VECTOR
 72
     5
 11
212.228523
 21
78.263965
 31
0.0
100
AcDbText
  0
TEXT
  5
17F
330
1F
100
AcDbEntity
  8
LAYERGROUP-1
  6
CONTINUOUS
 62
     7
100
AcDbText
 10
220.737411
 20
80.784409
 30
0.0
 40
4.423212
  1
6
 50
202.0
 41
1.172116
  7
FX_VECTOR
 72
     5
 11
216.846029
 21
79.212188
 31
0.0
100
AcDbText
  0
TEXT
  5
180
330
1F
100
AcDbEntity
  8
LAYERGROUP-1
  6
CONTINUOUS
 62
     7
100
AcDbText
 10
211.711929
 20
78.214226
 30
0.0
 40
4.423212
  1
×
 50
180.0
 41
1.328399
  7
FX_VECTOR
 72
     5
 11
207.514938
 21
78.214226
 31
0.0
100
AcDbText
  0
TEXT
  5
181
330
1F
100
AcDbEntity
  8
LAYERGROUP-1
  6
CONTINUOUS
 62
     7
100
AcDbText
 10
206.998306
 20
78.263977
 30
0.0
 40
4.423212
  1
３
 50
169.0
 41
1.328399
  7
FX_VECTOR
 72
     5
 11
202.878425
 21
79.064801
 31
0.0
100
AcDbText
  0
TEXT
  5
182
330
1F
100
AcDbEntity
  8
LAYERGROUP-1
  6
CONTINUOUS
 62
     7
100
AcDbText
 10
202.380814
 20
79.212212
 30
0.0
 40
4.423212
  1
８
 50
158.0
 41
1.328399
  7
FX_VECTOR
 72
     5
 11
198.489431
 21
80.784432
 31
0.0
100
AcDbText
  0
INSERT
  5
186
330
1F
100
AcDbEntity
  8
0
100
AcDbBlockReference
  2
BLKF022
 10
0.0
 20
0.0
 30
0.0
  0
LINE
  5
1B9
330
1F
100
AcDbEntity
  8
LAYERGROUP-1
  6
CONTINUOUS
 62
     6
100
AcDbLine
 10
85.019645
 20
109.315385
 30
0.0
 11
85.019645
 21
96.115385
 31
0.0
  0
LINE
  5
1BA
330
1F
100
AcDbEntity
  8
LAYERGROUP-1
  6
CONTINUOUS
 62
     3
100
AcDbLine
 10
105.019645
 20
112.048718
 30
0.0
 11
105.019645
 21
109.315385
 31
0.0
  0
LINE
  5
1BB
330
1F
100
AcDbEntity
  8
LAYERGROUP-1
  6
CONTINUOUS
 62
     3
100
AcDbLine
 10
105.019645
 20
96.115385
 30
0.0
 11
105.019645
 21
93.382051
 31
0.0
  0
ARC
  5
1BC
330
1F
100
AcDbEntity
  8
LAYERGROUP-1
  6
CONTINUOUS
 62
     3
100
AcDbCircle
 10
104.419645
 20
96.115385
 30
0.0
 40
0.6
100
AcDbArc
 50
0.0
 51
90.0
  0
ARC
  5
1BD
330
1F
100
AcDbEntity
  8
LAYERGROUP-1
  6
CONTINUOUS
 62
     3
100
AcDbCircle
 10
104.419645
 20
109.315385
 30
0.0
 40
0.6
100
AcDbArc
 50
270.0
 51
360.0
  0
LINE
  5
1BE
330
1F
100
AcDbEntity
  8
LAYERGROUP-1
  6
CONTINUOUS
 62
     6
100
AcDbLine
 10
105.019645
 20
109.315385
 30
0.0
 11
105.019645
 21
96.115385
 31
0.0
  0
LINE
  5
1BF
330
1F
100
AcDbEntity
  8
LAYERGROUP-1
  6
CONTINUOUS
 62
     3
100
AcDbLine
 10
85.019645
 20
112.048718
 30
0.0
 11
85.019645
 21
109.315385
 31
0.0
  0
ARC
  5
1C0
330
1F
100
AcDbEntity
  8
LAYERGROUP-1
  6
CONTINUOUS
 62
     3
100
AcDbCircle
 10
85.619645
 20
96.115385
 30
0.0
 40
0.6
100
AcDbArc
 50
90.0
 51
180.0
  0
ARC
  5
1C1
330
1F
100
AcDbEntity
  8
LAYERGROUP-1
  6
CONTINUOUS
 62
     3
100
AcDbCircle
 10
85.619645
 20
109.315385
 30
0.0
 40
0.6
100
AcDbArc
 50
180.0
 51
270.0
  0
LINE
  5
1C2
330
1F
100
AcDbEntity
  8
LAYERGROUP-1
  6
CONTINUOUS
 62
     3
100
AcDbLine
 10
85.019645
 20
93.382051
 30
0.0
 11
85.019645
 21
96.115385
 31
0.0
  0
INSERT
  5
1C6
330
1F
100
AcDbEntity
  8
0
100
AcDbBlockReference
  2
BLKF023
 10
0.0
 20
0.0
 30
0.0
  0
LINE
  5
1F9
330
1F
100
AcDbEntity
  8
LAYERGROUP-1
  6
CONTINUOUS
 62
     3
100
AcDbLine
 10
65.019645
 20
112.048718
 30
0.0
 11
65.019645
 21
109.315385
 31
0.0
  0
ARC
  5
1FA
330
1F
100
AcDbEntity
  8
LAYERGROUP-1
  6
CONTINUOUS
 62
     3
100
AcDbCircle
 10
65.619645
 20
96.115385
 30
0.0
 40
0.6
100
AcDbArc
 50
90.0
 51
180.0
  0
ARC
  5
1FB
330
1F
100
AcDbEntity
  8
LAYERGROUP-1
  6
CONTINUOUS
 62
     3
100
AcDbCircle
 10
65.619645
 20
109.315385
 30
0.0
 40
0.6
100
AcDbArc
 50
180.0
 51
270.0
  0
LINE
  5
1FC
330
1F
100
AcDbEntity
  8
LAYERGROUP-1
  6
CONTINUOUS
 62
     6
100
AcDbLine
 10
65.019645
 20
109.315385
 30
0.0
 11
65.019645
 21
96.115385
 31
0.0
  0
ARC
  5
1FD
330
1F
100
AcDbEntity
  8
LAYERGROUP-1
  6
CONTINUOUS
 62
     3
100
AcDbCircle
 10
84.419645
 20
96.115385
 30
0.0
 40
0.6
100
AcDbArc
 50
0.0
 51
90.0
  0
ARC
  5
1FE
330
1F
100
AcDbEntity
  8
LAYERGROUP-1
  6
CONTINUOUS
 62
     3
100
AcDbCircle
 10
84.419645
 20
109.315385
 30
0.0
 40
0.6
100
AcDbArc
 50
270.0
 51
360.0
  0
LINE
  5
1FF
330
1F
100
AcDbEntity
  8
LAYERGROUP-1
  6
CONTINUOUS
 62
     3
100
AcDbLine
 10
65.019645
 20
96.115385
 30
0.0
 11
65.019645
 21
93.382051
 31
0.0
  0
INSERT
  5
203
330
1F
100
AcDbEntity
  8
0
100
AcDbBlockReference
  2
BLKF024
 10
0.0
 20
0.0
 30
0.0
  0
HATCH
  5
208
330
1F
100
AcDbEntity
  8
GR1-1
  6
CONTINUOUS
 62
     6
100
AcDbHatch
 10
0.0
 20
0.0
 30
0.0
210
0.0
220
0.0
230
1.0
  2

 70
     0
 71
     1
 91
        2
 92
        0
 93
       35
 72
     1
 10
82.91964452759584
 20
126.2153846153845
 11
68.51964452759583
 21
126.2153846153846
 72
     2
 10
68.51964452759582
 20
123.7153846153846
 40
2.5
 50
89.99999999999969
 51
179.999999999999
 73
     1
 72
     1
 10
66.01964452759583
 20
123.7153846153846
 11
66.01964452759577
 21
121.1653846153847
 72
     2
 10
68.51964452759582
 20
121.1653846153846
 40
2.5
 50
179.9999999999987
 51
269.9999999999997
 73
     1
 72
     1
 10
68.5196445275958
 20
118.6653846153846
 11
78.01964452759584
 21
118.6653846153846
 72
     1
 10
78.01964452759584
 20
118.6653846153846
 11
78.01964452759584
 21
114.7153846153846
 72
     1
 10
78.01964452759584
 20
114.7153846153846
 11
79.81964452759583
 21
114.7153846153846
 72
     1
 10
79.81964452759583
 20
114.7153846153846
 11
79.81964452759586
 21
118.4653846153846
 72
     2
 10
77.81964452759586
 20
118.4653846153846
 40
2.0
 50
359.9999999999996
 51
450.0000000000004
 73
     1
 72
     1
 10
77.81964452759584
 20
120.4653846153847
 11
68.3196445275958
 21
120.4653846153846
 72
     2
 10
68.3196445275958
 20
120.9653846153846
 40
0.5
 50
179.9999999999951
 51
270.0
 73
     0
 72
     1
 10
67.81964452759581
 20
120.9653846153847
 11
67.81964452759603
 21
123.9153846153846
 72
     2
 10
68.31964452759583
 20
123.9153846153845
 40
0.5
 50
90.0
 51
179.9999999999951
 73
     0
 72
     1
 10
68.31964452759583
 20
124.4153846153845
 11
82.91964452759582
 21
124.4153846153845
 72
     2
 10
82.91964452759582
 20
123.9153846153845
 40
0.5
 50
0.0
 51
90.0
 73
     0
 72
     1
 10
83.41964452759582
 20
123.9153846153845
 11
83.41964452759582
 21
120.7153846153846
 72
     1
 10
83.41964452759582
 20
120.7153846153846
 11
86.61964452759575
 21
120.7153846153846
 72
     1
 10
86.61964452759575
 20
120.7153846153846
 11
86.61964452759581
 21
123.9153846153845
 72
     2
 10
87.11964452759581
 20
123.9153846153845
 40
0.5
 50
90.0
 51
179.9999999999984
 73
     0
 72
     1
 10
87.11964452759581
 20
124.4153846153845
 11
101.7196445275958
 21
124.4153846153845
 72
     2
 10
101.7196445275958
 20
123.9153846153845
 40
0.5
 50
0.0
 51
90.0
 73
     0
 72
     1
 10
102.2196445275958
 20
123.9153846153845
 11
102.2196445275958
 21
120.9653846153846
 72
     2
 10
101.7196445275959
 20
120.9653846153846
 40
0.5
 50
270.0
 51
360.0
 73
     0
 72
     1
 10
101.7196445275959
 20
120.4653846153846
 11
92.21964452759582
 21
120.4653846153847
 72
     2
 10
92.2196445275958
 20
118.4653846153846
 40
2.0
 50
89.9999999999996
 51
180.0
 73
     1
 72
     1
 10
90.21964452759583
 20
118.4653846153846
 11
90.21964452759583
 21
114.7153846153846
 72
     1
 10
90.21964452759583
 20
114.7153846153846
 11
92.01964452759584
 21
114.7153846153846
 72
     1
 10
92.01964452759584
 20
114.7153846153846
 11
92.01964452759584
 21
118.6653846153846
 72
     1
 10
92.01964452759584
 20
118.6653846153846
 11
101.5196445275959
 21
118.6653846153846
 72
     2
 10
101.5196445275958
 20
121.1653846153846
 40
2.5
 50
270.0000000000003
 51
360.0000000000013
 73
     1
 72
     1
 10
104.0196445275959
 20
121.1653846153847
 11
104.0196445275958
 21
123.7153846153846
 72
     2
 10
101.5196445275958
 20
123.7153846153846
 40
2.5
 50
0.0000000000013028
 51
90.00000000000033
 73
     1
 72
     1
 10
101.5196445275958
 20
126.2153846153846
 11
87.11964452759574
 21
126.2153846153845
 72
     2
 10
87.11964452759575
 20
124.1153846153846
 40
2.1
 50
90.00000000000041
 51
180.0
 73
     1
 72
     2
 10
82.91964452759582
 20
124.1153846153846
 40
2.1
 50
0.0
 51
89.99999999999963
 73
     1
 97
        0
 92
        0
 93
       37
 72
     1
 10
86.61964452759575
 20
84.71538461538464
 11
83.41964452759576
 21
84.71538461538464
 72
     1
 10
83.41964452759576
 20
84.71538461538464
 11
83.41964452759582
 21
81.51538461538478
 72
     2
 10
82.91964452759582
 20
81.51538461538476
 40
0.5
 50
270.0
 51
360.0000000000017
 73
     0
 72
     1
 10
82.91964452759582
 20
81.01538461538476
 11
68.31964452759583
 21
81.01538461538476
 72
     2
 10
68.31964452759583
 20
81.51538461538476
 40
0.5
 50
180.0000000000049
 51
270.0
 73
     0
 72
     1
 10
67.81964452759603
 20
81.51538461538472
 11
67.81964452759581
 21
84.46538461538462
 72
     2
 10
68.3196445275958
 20
84.46538461538466
 40
0.5
 50
90.0
 51
180.0000000000049
 73
     0
 72
     1
 10
68.3196445275958
 20
84.96538461538466
 11
77.81964452759584
 21
84.96538461538461
 72
     2
 10
77.81964452759586
 20
86.96538461538464
 40
2.0
 50
269.9999999999996
 51
360.0000000000004
 73
     1
 72
     1
 10
79.81964452759586
 20
86.96538461538465
 11
79.81964452759583
 21
90.71538461538464
 72
     1
 10
79.81964452759583
 20
90.71538461538464
 11
78.01964452759584
 21
90.71538461538464
 72
     1
 10
78.01964452759584
 20
90.71538461538464
 11
78.01964452759584
 21
86.76538461538468
 72
     1
 10
78.01964452759584
 20
86.76538461538468
 11
68.5196445275958
 21
86.76538461538465
 72
     2
 10
68.51964452759582
 20
84.26538461538468
 40
2.5
 50
90.00000000000033
 51
180.000000000001
 73
     1
 72
     1
 10
66.01964452759577
 20
84.26538461538463
 11
66.01964452759583
 21
81.71538461538468
 72
     2
 10
68.51964452759582
 20
81.71538461538472
 40
2.5
 50
180.000000000001
 51
270.0000000000003
 73
     1
 72
     1
 10
68.51964452759583
 20
79.21538461538464
 11
82.91964452759584
 21
79.21538461538475
 72
     2
 10
82.91964452759582
 20
81.31538461538472
 40
2.1
 50
270.0000000000004
 51
360.0
 73
     1
 72
     2
 10
87.11964452759575
 20
81.31538461538472
 40
2.1
 50
180.0
 51
269.9999999999996
 73
     1
 72
     1
 10
87.11964452759574
 20
79.21538461538475
 11
101.5196445275958
 21
79.21538461538464
 72
     2
 10
101.5196445275958
 20
81.71538461538472
 40
2.5
 50
269.9999999999997
 51
359.9999999999988
 73
     1
 72
     1
 10
104.0196445275958
 20
81.71538461538466
 11
104.0196445275959
 21
84.26538461538462
 72
     2
 10
101.5196445275958
 20
84.26538461538468
 40
2.5
 50
359.9999999999987
 51
449.9999999999997
 73
     1
 72
     1
 10
101.5196445275959
 20
86.76538461538465
 11
92.01964452759584
 21
86.76538461538468
 72
     1
 10
92.01964452759584
 20
86.76538461538468
 11
92.01964452759584
 21
90.71538461538464
 72
     1
 10
92.01964452759584
 20
90.71538461538464
 11
90.21964452759583
 21
90.71538461538464
 72
     1
 10
90.21964452759583
 20
90.71538461538464
 11
90.21964452759583
 21
86.96538461538464
 72
     2
 10
92.2196445275958
 20
86.96538461538464
 40
2.0
 50
180.0
 51
270.0000000000004
 73
     1
 72
     1
 10
92.21964452759582
 20
84.96538461538461
 11
101.7196445275959
 21
84.96538461538466
 72
     2
 10
101.7196445275959
 20
84.46538461538466
 40
0.5
 50
0.0
 51
90.0
 73
     0
 72
     1
 10
102.2196445275958
 20
84.46538461538466
 11
102.2196445275958
 21
81.51538461538476
 72
     2
 10
101.7196445275958
 20
81.51538461538476
 40
0.5
 50
270.0
 51
360.0
 73
     0
 72
     1
 10
101.7196445275958
 20
81.01538461538476
 11
87.11964452759581
 21
81.01538461538476
 72
     2
 10
87.11964452759581
 20
81.51538461538476
 40
0.5
 50
180.0
 51
270.0
 73
     0
 72
     1
 10
86.61964452759581
 20
81.51538461538476
 11
86.61964452759581
 21
84.71538461538464
 72
     1
 10
86.61964452759581
 20
84.71538461538464
 11
83.41964452759576
 21
84.71538461538464
 72
     1
 10
83.41964452759576
 20
84.71538461538464
 11
86.61964452759575
 21
84.71538461538464
 97
        0
 75
     0
 76
     0
 52
45.0
 41
2.0
 77
     0
 78
     1
 53
45.0
 43
0.0
 44
0.0
 45
-1.414213562373095
 46
1.414213562373095
 79
     0
 98
        0
  0
DIMENSION
  5
209
330
1F
100
AcDbEntity
  8
GR1-1
100
AcDbDimension
  2
*D23
 10
104.019645
 20
55.119616
 30
0.0
 11
85.019646
 21
56.119614
 31
0.0
 70
    33
  3
FXDIMINFO
100
AcDbAlignedDimension
 13
66.019645
 23
81.715385
 33
0.0
 14
104.019645
 24
81.715385
 34
0.0
1001
ACAD
1000
DSTYLE
1002
{
1070
     7
1000
FXTIP_ARROW_E
1070
     6
1000
FXTIP_ARROW_S
1070
   173
1070
     1
1002
}
  0
DIMENSION
  5
213
330
1F
100
AcDbEntity
  8
GR1-1
100
AcDbDimension
  2
*D24
 10
105.019645
 20
46.002101
 30
0.0
 11
85.019646
 21
47.002102
 31
0.0
 70
    33
  3
FXDIMINFO
100
AcDbAlignedDimension
 13
65.019645
 23
93.382051
 33
0.0
 14
105.019645
 24
93.382051
 34
0.0
1001
ACAD
1000
DSTYLE
1002
{
1070
     7
1000
FXTIP_ARROW_E
1070
     6
1000
FXTIP_ARROW_S
1070
   173
1070
     1
1002
}
  0
DIMENSION
  5
21D
330
1F
100
AcDbEntity
  8
GR1-1
100
AcDbDimension
  2
*D25
 10
119.196883
 20
108.715385
 30
0.0
 11
118.196884
 21
102.715385
 31
0.0
 70
    33
  3
FXDIMINFO
100
AcDbAlignedDimension
 13
104.419645
 23
96.715385
 33
0.0
 14
104.419645
 24
108.715385
 34
0.0
1001
ACAD
1000
DSTYLE
1002
{
1070
     7
1000
FXTIP_ARROW_E
1070
     6
1000
FXTIP_ARROW_S
1070
   173
1070
     1
1002
}
  0
DIMENSION
  5
227
330
1F
100
AcDbEntity
  8
GR1-1
100
AcDbDimension
  2
*D26
 10
129.516449
 20
135.215385
 30
0.0
 11
128.516449
 21
102.715385
 31
0.0
 70
    33
  3
FXDIMINFO
100
AcDbAlignedDimension
 13
85.019645
 23
70.215385
 33
0.0
 14
85.019645
 24
135.215385
 34
0.0
1001
ACAD
1000
DSTYLE
1002
{
1070
     7
1000
FXTIP_ARROW_E
1070
     6
1000
FXTIP_ARROW_S
1070
   173
1070
     1
1002
}
  0
LINE
  5
231
330
1F
100
AcDbEntity
  8
GR1-1
  6
CONTINUOUS
 62
     6
100
AcDbLine
 10
79.819645
 20
93.382051
 30
0.0
 11
79.819645
 21
90.715385
 31
0.0
  0
LINE
  5
232
330
1F
100
AcDbEntity
  8
GR1-1
  6
CONTINUOUS
 62
     6
100
AcDbLine
 10
79.819645
 20
112.048718
 30
0.0
 11
79.819645
 21
114.715385
 31
0.0
  0
LINE
  5
233
330
1F
100
AcDbEntity
  8
GR1-1
  6
CONTINUOUS
 62
     6
100
AcDbLine
 10
90.219645
 20
112.048718
 30
0.0
 11
90.219645
 21
114.715385
 31
0.0
  0
LINE
  5
234
330
1F
100
AcDbEntity
  8
GR1-1
  6
CONTINUOUS
 62
     6
100
AcDbLine
 10
90.219645
 20
93.382051
 30
0.0
 11
90.219645
 21
90.715385
 31
0.0
  0
LINE
  5
235
330
1F
100
AcDbEntity
  8
GR1-1
  6
CONTINUOUS
 62
     3
100
AcDbLine
 10
104.019645
 20
112.048718
 30
0.0
 11
104.019645
 21
121.165385
 31
0.0
  0
LINE
  5
236
330
1F
100
AcDbEntity
  8
GR1-1
  6
CONTINUOUS
 62
     3
100
AcDbLine
 10
104.019645
 20
93.382051
 30
0.0
 11
104.019645
 21
84.265385
 31
0.0
  0
LINE
  5
237
330
1F
100
AcDbEntity
  8
GR1-1
  6
CONTINUOUS
 62
     3
100
AcDbLine
 10
66.019645
 20
93.382051
 30
0.0
 11
66.019645
 21
84.265385
 31
0.0
  0
LINE
  5
238
330
1F
100
AcDbEntity
  8
GR1-1
  6
CONTINUOUS
 62
     3
100
AcDbLine
 10
66.019645
 20
112.048718
 30
0.0
 11
66.019645
 21
121.165385
 31
0.0
  0
INSERT
  5
23C
330
1F
100
AcDbEntity
  8
0
100
AcDbBlockReference
  2
BLKF029
 10
0.0
 20
0.0
 30
0.0
  0
ENDSEC
  0
SECTION
  2
OBJECTS
  0
DICTIONARY
  5
C
330
0
100
AcDbDictionary
  3
ACAD_GROUP
350
D
  3
ACAD_LAYOUT
350
1A
  3
ACAD_MLINESTYLE
350
17
  3
ACAD_PLOTSETTINGS
350
19
  3
ACDBHEADERROUNDTRIPXREC
350
266
  0
DICTIONARY
  5
D
102
{ACAD_REACTORS
330
C
102
}
330
C
100
AcDbDictionary
  0
DICTIONARY
  5
1A
102
{ACAD_REACTORS
330
C
102
}
330
C
100
AcDbDictionary
  0
DICTIONARY
  5
17
102
{ACAD_REACTORS
330
C
102
}
330
C
100
AcDbDictionary
  3
STANDARD
350
18
  0
DICTIONARY
  5
19
102
{ACAD_REACTORS
330
C
102
}
330
C
100
AcDbDictionary
  0
DICTIONARY
  5
266
102
{ACAD_REACTORS
330
C
102
}
330
C
100
AcDbDictionary
  3
CEPSNTYPE
350
26F
  3
DIMSTYLEDATA
350
285
  3
FINGERPRINTGUID
350
270
  3
HYPERLINKBASE
350
269
  3
INSUNITS
350
26E
  3
LAYOUTDICT
350
26B
  3
LWETCUNION
350
26D
  3
PLOTSETDICT
350
26C
  3
PSVPSCALE
350
272
  3
PUCSBASE
350
275
  3
PUCSORGBACK
350
27B
  3
PUCSORGBOTTOM
350
277
  3
PUCSORGFRONT
350
27A
  3
PUCSORGLEFT
350
278
  3
PUCSORGRIGHT
350
279
  3
PUCSORGTOP
350
276
  3
PUCSORTHOREF
350
273
  3
PUCSORTHOVIEW
350
274
  3
STYLESHEET
350
26A
  3
TSTACKALIGN
350
267
  3
TSTACKSIZE
350
268
  3
UCSBASE
350
27E
  3
UCSORGBACK
350
284
  3
UCSORGBOTTOM
350
280
  3
UCSORGFRONT
350
283
  3
UCSORGLEFT
350
281
  3
UCSORGRIGHT
350
282
  3
UCSORGTOP
350
27F
  3
UCSORTHOREF
350
27C
  3
UCSORTHOVIEW
350
27D
  3
VERSIONGUID
350
271
  0
MLINESTYLE
  5
18
102
{ACAD_REACTORS
330
17
102
}
330
17
100
AcDbMlineStyle
  2
Standard
 70
     0
  3

 62
   256
 51
90.0
 52
90.0
 71
     2
 49
0.5
 62
   256
  6
BYLAYER
 49
-0.5
 62
   256
  6
BYLAYER
  0
XRECORD
  5
26F
102
{ACAD_REACTORS
330
266
102
}
330
266
100
AcDbXrecord
 90
        0
  0
XRECORD
  5
285
102
{ACAD_REACTORS
330
266
102
}
330
266
100
AcDbXrecord
1000
DSTYLE
1002
{
1070
   179
 70
     2
1070
   171
 70
     3
1070
   143
 40
0.03937
1070
   274
 70
     3
1070
    41
 40
3.0
1070
   343
340
41
1070
   344
340
47
1070
   141
 40
2.5
1070
   176
 70
     7
1070
   177
 70
     7
1070
   178
 70
     7
1070
   271
 70
     2
1070
    46
 40
6.0
1070
    43
 40
8.0
1070
    44
 40
1.0
1070
    42
 40
1.0
1070
   147
 40
1.0
1070
   341
340
41
1070
   173
 70
     1
1070
    77
 70
     1
1070
   272
 70
     2
1070
    73
 70
     0
1070
   172
 70
     1
1070
    74
 70
     0
1070
   283
 70
     0
1070
   340
340
3F
1070
   140
 40
4.0
1070
   284
 70
     8
1070
    78
 70
     8
1002
}
  0
XRECORD
  5
270
102
{ACAD_REACTORS
330
266
102
}
330
266
100
AcDbXrecord
  1
{D839CF9A-F45F-4862-942A-E39B56F7449A}
  0
XRECORD
  5
269
102
{ACAD_REACTORS
330
266
102
}
330
266
100
AcDbXrecord
  1

  0
XRECORD
  5
26E
102
{ACAD_REACTORS
330
266
102
}
330
266
100
AcDbXrecord
 90
        1
  0
XRECORD
  5
26B
102
{ACAD_REACTORS
330
266
102
}
330
266
100
AcDbXrecord
340
1A
  0
XRECORD
  5
26D
102
{ACAD_REACTORS
330
266
102
}
330
266
100
AcDbXrecord
 90
    10781
  0
XRECORD
  5
26C
102
{ACAD_REACTORS
330
266
102
}
330
266
100
AcDbXrecord
340
19
  0
XRECORD
  5
272
102
{ACAD_REACTORS
330
266
102
}
330
266
100
AcDbXrecord
 40
0.0
  0
XRECORD
  5
275
102
{ACAD_REACTORS
330
266
102
}
330
266
100
AcDbXrecord
340
0
  0
XRECORD
  5
27B
102
{ACAD_REACTORS
330
266
102
}
330
266
100
AcDbXrecord
 10
0.0
 20
0.0
 30
0.0
  0
XRECORD
  5
277
102
{ACAD_REACTORS
330
266
102
}
330
266
100
AcDbXrecord
 10
0.0
 20
0.0
 30
0.0
  0
XRECORD
  5
27A
102
{ACAD_REACTORS
330
266
102
}
330
266
100
AcDbXrecord
 10
0.0
 20
0.0
 30
0.0
  0
XRECORD
  5
278
102
{ACAD_REACTORS
330
266
102
}
330
266
100
AcDbXrecord
 10
0.0
 20
0.0
 30
0.0
  0
XRECORD
  5
279
102
{ACAD_REACTORS
330
266
102
}
330
266
100
AcDbXrecord
 10
0.0
 20
0.0
 30
0.0
  0
XRECORD
  5
276
102
{ACAD_REACTORS
330
266
102
}
330
266
100
AcDbXrecord
 10
0.0
 20
0.0
 30
0.0
  0
XRECORD
  5
273
102
{ACAD_REACTORS
330
266
102
}
330
266
100
AcDbXrecord
340
0
  0
XRECORD
  5
274
102
{ACAD_REACTORS
330
266
102
}
330
266
100
AcDbXrecord
 70
     0
  0
XRECORD
  5
26A
102
{ACAD_REACTORS
330
266
102
}
330
266
100
AcDbXrecord
  1

  0
XRECORD
  5
267
102
{ACAD_REACTORS
330
266
102
}
330
266
100
AcDbXrecord
 90
        1
  0
XRECORD
  5
268
102
{ACAD_REACTORS
330
266
102
}
330
266
100
AcDbXrecord
 90
       70
  0
XRECORD
  5
27E
102
{ACAD_REACTORS
330
266
102
}
330
266
100
AcDbXrecord
340
0
  0
XRECORD
  5
284
102
{ACAD_REACTORS
330
266
102
}
330
266
100
AcDbXrecord
 10
0.0
 20
0.0
 30
0.0
  0
XRECORD
  5
280
102
{ACAD_REACTORS
330
266
102
}
330
266
100
AcDbXrecord
 10
0.0
 20
0.0
 30
0.0
  0
XRECORD
  5
283
102
{ACAD_REACTORS
330
266
102
}
330
266
100
AcDbXrecord
 10
0.0
 20
0.0
 30
0.0
  0
XRECORD
  5
281
102
{ACAD_REACTORS
330
266
102
}
330
266
100
AcDbXrecord
 10
0.0
 20
0.0
 30
0.0
  0
XRECORD
  5
282
102
{ACAD_REACTORS
330
266
102
}
330
266
100
AcDbXrecord
 10
0.0
 20
0.0
 30
0.0
  0
XRECORD
  5
27F
102
{ACAD_REACTORS
330
266
102
}
330
266
100
AcDbXrecord
 10
0.0
 20
0.0
 30
0.0
  0
XRECORD
  5
27C
102
{ACAD_REACTORS
330
266
102
}
330
266
100
AcDbXrecord
340
0
  0
XRECORD
  5
27D
102
{ACAD_REACTORS
330
266
102
}
330
266
100
AcDbXrecord
 70
     0
  0
XRECORD
  5
271
102
{ACAD_REACTORS
330
266
102
}
330
266
100
AcDbXrecord
  1
{FAEB1C32-E019-11D5-929B-00C0DF256EC4}
  0
ENDSEC
  0
EOF
