  0
SECTION
  2
HEADER
  9
$ACADVER
  1
AC1014
  9
$ACADMAINTVER
 70
     9
  9
$DWGCODEPAGE
  3
ANSI_932
  9
$INSBASE
 10
0.0
 20
0.0
 30
0.0
  9
$EXTMIN
 10
0.0
 20
0.0
 30
0.0
  9
$EXTMAX
 10
420.0
 20
297.0
 30
0.0
  9
$LIMMIN
 10
0.0
 20
0.0
  9
$LIMMAX
 10
420.0
 20
297.0
  9
$ORTHOMODE
 70
     0
  9
$REGENMODE
 70
     1
  9
$FILLMODE
 70
     1
  9
$QTEXTMODE
 70
     0
  9
$MIRRTEXT
 70
     1
  9
$DRAGMODE
 70
     2
  9
$LTSCALE
 40
1.0
  9
$OSMODE
 70
    37
  9
$ATTMODE
 70
     1
  9
$TEXTSIZE
 40
0.2
  9
$TRACEWID
 40
0.05
  9
$TEXTSTYLE
  7
STYLE1
  9
$CLAYER
  8
0
  9
$CELTYPE
  6
BYLAYER
  9
$CECOLOR
 62
   256
  9
$CELTSCALE
 40
1.0
  9
$DELOBJ
 70
     1
  9
$DISPSILH
 70
     0
  9
$DIMSCALE
 40
1.0
  9
$DIMASZ
 40
4.0
  9
$DIMEXO
 40
1.0
  9
$DIMDLI
 40
10.0
  9
$DIMRND
 40
0.0
  9
$DIMDLE
 40
6.0
  9
$DIMEXE
 40
1.0
  9
$DIMTP
 40
0.0
  9
$DIMTM
 40
0.0
  9
$DIMTXT
 40
4.0
  9
$DIMCEN
 40
2.5
  9
$DIMTSZ
 40
0.0
  9
$DIMTOL
 70
     0
  9
$DIMLIM
 70
     0
  9
$DIMTIH
 70
     0
  9
$DIMTOH
 70
     0
  9
$DIMSE1
 70
     0
  9
$DIMSE2
 70
     0
  9
$DIMTAD
 70
     1
  9
$DIMZIN
 70
     8
  9
$DIMBLK
  1

  9
$DIMASO
 70
     1
  9
$DIMSHO
 70
     1
  9
$DIMPOST
  1

  9
$DIMAPOST
  1

  9
$DIMALT
 70
     0
  9
$DIMALTD
 70
     3
  9
$DIMALTF
 40
0.03937
  9
$DIMLFAC
 40
1.0
  9
$DIMTOFL
 70
     1
  9
$DIMTVP
 40
0.0
  9
$DIMTIX
 70
     0
  9
$DIMSOXD
 70
     0
  9
$DIMSAH
 70
     1
  9
$DIMBLK1
  1
FXTIP_ARROW_S
  9
$DIMBLK2
  1
FXTIP_ARROW_E
  9
$DIMSTYLE
  2
FXDIMINFO
  9
$DIMCLRD
 70
     7
  9
$DIMCLRE
 70
     7
  9
$DIMCLRT
 70
     7
  9
$DIMTFAC
 40
1.0
  9
$DIMGAP
 40
1.0
  9
$DIMJUST
 70
     0
  9
$DIMSD1
 70
     0
  9
$DIMSD2
 70
     0
  9
$DIMTOLJ
 70
     0
  9
$DIMTZIN
 70
     8
  9
$DIMALTZ
 70
     0
  9
$DIMALTTZ
 70
     0
  9
$DIMFIT
 70
     3
  9
$DIMUPT
 70
     0
  9
$DIMUNIT
 70
     2
  9
$DIMDEC
 70
     2
  9
$DIMTDEC
 70
     2
  9
$DIMALTU
 70
     2
  9
$DIMALTTD
 70
     3
  9
$DIMTXSTY
  7
STYLE1
  9
$DIMAUNIT
 70
     0
  9
$LUNITS
 70
     2
  9
$LUPREC
 70
     4
  9
$SKETCHINC
 40
0.1
  9
$FILLETRAD
 40
0.5
  9
$AUNITS
 70
     0
  9
$AUPREC
 70
     0
  9
$MENU
  1
.
  9
$ELEVATION
 40
0.0
  9
$PELEVATION
 40
0.0
  9
$THICKNESS
 40
0.0
  9
$LIMCHECK
 70
     0
  9
$CHAMFERA
 40
0.5
  9
$CHAMFERB
 40
0.5
  9
$CHAMFERC
 40
1.0
  9
$CHAMFERD
 40
0.0
  9
$SKPOLY
 70
     0
  9
$TDCREATE
 40
2455300.669024711
  9
$TDUPDATE
 40
2455300.669024722
  9
$TDINDWG
 40
0.0000000116
  9
$TDUSRTIMER
 40
0.0000000116
  9
$USRTIMER
 70
     1
  9
$ANGBASE
 50
0.0
  9
$ANGDIR
 70
     0
  9
$PDMODE
 70
     0
  9
$PDSIZE
 40
0.0
  9
$PLINEWID
 40
0.0
  9
$COORDS
 70
     1
  9
$SPLFRAME
 70
     0
  9
$SPLINETYPE
 70
     6
  9
$SPLINESEGS
 70
     8
  9
$ATTDIA
 70
     0
  9
$ATTREQ
 70
     1
  9
$HANDLING
 70
     1
  9
$HANDSEED
  5
2BB
  9
$SURFTAB1
 70
     6
  9
$SURFTAB2
 70
     6
  9
$SURFTYPE
 70
     6
  9
$SURFU
 70
     6
  9
$SURFV
 70
     6
  9
$UCSNAME
  2

  9
$UCSORG
 10
0.0
 20
0.0
 30
0.0
  9
$UCSXDIR
 10
1.0
 20
0.0
 30
0.0
  9
$UCSYDIR
 10
0.0
 20
1.0
 30
0.0
  9
$PUCSNAME
  2

  9
$PUCSORG
 10
0.0
 20
0.0
 30
0.0
  9
$PUCSXDIR
 10
1.0
 20
0.0
 30
0.0
  9
$PUCSYDIR
 10
0.0
 20
1.0
 30
0.0
  9
$USERI1
 70
     0
  9
$USERI2
 70
     0
  9
$USERI3
 70
     0
  9
$USERI4
 70
     0
  9
$USERI5
 70
     0
  9
$USERR1
 40
0.0
  9
$USERR2
 40
0.0
  9
$USERR3
 40
0.0
  9
$USERR4
 40
0.0
  9
$USERR5
 40
0.0
  9
$WORLDVIEW
 70
     1
  9
$SHADEDGE
 70
     3
  9
$SHADEDIF
 70
    70
  9
$TILEMODE
 70
     1
  9
$MAXACTVP
 70
    64
  9
$PINSBASE
 10
0.0
 20
0.0
 30
0.0
  9
$PLIMCHECK
 70
     0
  9
$PEXTMIN
 10
1.000000E+20
 20
1.000000E+20
 30
1.000000E+20
  9
$PEXTMAX
 10
-1.000000E+20
 20
-1.000000E+20
 30
-1.000000E+20
  9
$PLIMMIN
 10
0.0
 20
0.0
  9
$PLIMMAX
 10
12.0
 20
9.0
  9
$UNITMODE
 70
     0
  9
$VISRETAIN
 70
     1
  9
$PLINEGEN
 70
     0
  9
$PSLTSCALE
 70
     1
  9
$TREEDEPTH
 70
  3020
  9
$PICKSTYLE
 70
     1
  9
$CMLSTYLE
  2
STANDARD
  9
$CMLJUST
 70
     0
  9
$CMLSCALE
 40
1.0
  9
$PROXYGRAPHICS
 70
     1
  9
$MEASUREMENT
 70
     0
  0
ENDSEC
  0
SECTION
  2
CLASSES
  0
CLASS
  1
ACDBDICTIONARYWDFLT
  2
AcDbDictionaryWithDefault
  3
ObjectDBX Classes
 90
        0
280
     0
281
     0
  0
CLASS
  1
XRECORD
  2
AcDbXrecord
  3
AutoCAD 2000
 90
        0
280
     0
281
     0
  0
CLASS
  1
LWPOLYLINE
  2
AcDbPolyline
  3
AutoCAD 2000
 90
        0
280
     0
281
     1
  0
CLASS
  1
HATCH
  2
AcDbHatch
  3
AutoCAD 2000
 90
        0
280
     0
281
     1
  0
CLASS
  1
ACDBPLACEHOLDER
  2
AcDbPlaceHolder
  3
ObjectDBX Classes
 90
        0
280
     0
281
     0
  0
CLASS
  1
LAYOUT
  2
AcDbLayout
  3
ObjectDBX Classes
 90
        0
280
     0
281
     0
  0
ENDSEC
  0
SECTION
  2
TABLES
  0
TABLE
  2
VPORT
  5
8
330
0
100
AcDbSymbolTable
 70
     1
  0
VPORT
  5
29
330
8
100
AcDbSymbolTableRecord
100
AcDbViewportTableRecord
  2
*ACTIVE
 70
     0
 10
0.0
 20
0.0
 11
1.0
 21
1.0
 12
210.0
 22
148.5
 13
0.0
 23
0.0
 14
0.5
 24
0.5
 15
0.5
 25
0.5
 16
0.0
 26
0.0
 36
1.0
 17
0.0
 27
0.0
 37
0.0
 40
297.0
 41
1.414141
 42
50.0
 43
0.0
 44
0.0
 50
0.0
 51
0.0
 71
     0
 72
   100
 73
     1
 74
     3
 75
     0
 76
     0
 77
     0
 78
     0
  0
ENDTAB
  0
TABLE
  2
LTYPE
  5
5
330
0
100
AcDbSymbolTable
 70
     4
  0
LTYPE
  5
14
330
5
100
AcDbSymbolTableRecord
100
AcDbLinetypeTableRecord
  2
BYBLOCK
 70
     0
  3

 72
    65
 73
     0
 40
0.0
  0
LTYPE
  5
15
330
5
100
AcDbSymbolTableRecord
100
AcDbLinetypeTableRecord
  2
BYLAYER
 70
     0
  3

 72
    65
 73
     0
 40
0.0
  0
LTYPE
  5
16
330
5
100
AcDbSymbolTableRecord
100
AcDbLinetypeTableRecord
  2
CONTINUOUS
 70
     0
  3
--------------------
 72
    65
 73
     0
 40
0.0
  0
LTYPE
  5
2A
330
5
100
AcDbSymbolTableRecord
100
AcDbLinetypeTableRecord
  2
CENTER
 70
     0
  3
Center ____ _ ____ _ ____ _ ____ _ ____ _ ____
 72
    65
 73
     4
 40
13.0
 49
10.0
 74
     0
 49
-1.0
 74
     0
 49
1.0
 74
     0
 49
-1.0
 74
     0
  0
LTYPE
  5
2C
330
5
100
AcDbSymbolTableRecord
100
AcDbLinetypeTableRecord
  2
DASHED
 70
     0
  3
Dashed __ __ __ __ __ __ __ __ __ __ __ __ __ _
 72
    65
 73
     2
 40
4.0
 49
3.0
 74
     0
 49
-1.0
 74
     0
  0
ENDTAB
  0
TABLE
  2
LAYER
  5
2
330
0
100
AcDbSymbolTable
 70
    20
  0
LAYER
  5
10
330
2
100
AcDbSymbolTableRecord
100
AcDbLayerTableRecord
  2
0
 70
     0
 62
     7
  6
CONTINUOUS
  0
LAYER
  5
2D
330
2
100
AcDbSymbolTableRecord
100
AcDbLayerTableRecord
  2
LAYERGROUP-1
 70
     0
 62
     3
  6
CONTINUOUS
  0
LAYER
  5
3D
330
2
100
AcDbSymbolTableRecord
100
AcDbLayerTableRecord
  2
}}ﾊﾊGG血CCТ
 70
     0
 62
     3
  6
CONTINUOUS
  0
LAYER
  5
1C6
330
2
100
AcDbSymbolTableRecord
100
AcDbLayerTableRecord
  2
GR1-1
 70
     0
 62
     7
  6
CONTINUOUS
  0
LAYER
  5
27D
330
2
100
AcDbSymbolTableRecord
100
AcDbLayerTableRecord
  2
0-1
 70
     0
 62
     7
  6
CONTINUOUS
  0
ENDTAB
  0
TABLE
  2
STYLE
  5
3
330
0
100
AcDbSymbolTable
 70
     4
  0
STYLE
  5
11
330
3
100
AcDbSymbolTableRecord
100
AcDbTextStyleTableRecord
  2
STANDARD
 70
     0
 40
0.0
 41
1.0
 50
0.0
 71
     0
 42
0.2
  3
txt
  4

  0
STYLE
  5
3F
330
3
100
AcDbSymbolTableRecord
100
AcDbTextStyleTableRecord
  2
STYLE1
 70
     0
 40
0.0
 41
1.0
 50
0.0
 71
     0
 42
0.2
  3
MONOTXT.SHX
  4
extfont.shx
  0
STYLE
  5
40
330
3
100
AcDbSymbolTableRecord
100
AcDbTextStyleTableRecord
  2
FX_VECTOR
 70
     0
 40
0.0
 41
1.0
 50
0.0
 71
     0
 42
0.2
  3
MONOTXT.SHX
  4
BIGFONT.SHX
  0
ENDTAB
  0
TABLE
  2
VIEW
  5
6
330
0
100
AcDbSymbolTable
 70
     0
  0
ENDTAB
  0
TABLE
  2
UCS
  5
7
330
0
100
AcDbSymbolTable
 70
     0
  0
ENDTAB
  0
TABLE
  2
APPID
  5
9
330
0
100
AcDbSymbolTable
 70
     1
  0
APPID
  5
12
330
9
100
AcDbSymbolTableRecord
100
AcDbRegAppTableRecord
  2
ACAD
 70
     0
  0
ENDTAB
  0
TABLE
  2
DIMSTYLE
  5
A
330
0
100
AcDbSymbolTable
 70
     2
  0
DIMSTYLE
105
27
330
A
100
AcDbSymbolTableRecord
100
AcDbDimStyleTableRecord
  2
STANDARD
 70
     0
  3

  4

  5

  6

  7

 40
1.0
 41
0.18
 42
0.0625
 43
0.38
 44
0.18
 45
0.0
 46
0.0
 47
0.0
 48
0.0
140
0.18
141
0.09
142
0.0
143
25.4
144
1.0
145
0.0
146
1.0
147
0.09
 71
     0
 72
     0
 73
     1
 74
     1
 75
     0
 76
     0
 77
     0
 78
     0
170
     0
171
     2
172
     0
173
     0
174
     0
175
     0
176
     0
177
     0
178
     0
270
     2
271
     4
272
     4
273
     2
274
     2
340
11
275
     0
280
     0
281
     0
282
     0
283
     1
284
     0
285
     0
286
     0
287
     3
288
     0
  0
DIMSTYLE
105
A7
102
{ACAD_REACTORS
330
243
330
24D
330
257
330
261
102
}
330
A
100
AcDbSymbolTableRecord
100
AcDbDimStyleTableRecord
  2
FXDIMINFO
 70
     0
  3

  4

  5

  6
FXTIP_ARROW_S
  7
FXTIP_ARROW_E
 40
1.0
 41
4.0
 42
1.0
 43
10.0
 44
1.0
 45
0.0
 46
6.0
 47
0.0
 48
0.0
140
4.0
141
2.5
142
0.0
143
0.03937
144
1.0
145
0.0
146
1.0
147
1.0
 71
     0
 72
     0
 73
     0
 74
     0
 75
     0
 76
     0
 77
     1
 78
     8
170
     0
171
     3
172
     1
173
     1
174
     0
175
     0
176
     7
177
     7
178
     7
179
     2
270
     2
271
     2
272
     2
273
     2
274
     3
340
3F
275
     0
280
     0
281
     0
282
     0
283
     0
284
     8
285
     0
286
     0
287
     3
288
     0
  0
ENDTAB
  0
TABLE
  2
BLOCK_RECORD
  5
1
330
0
100
AcDbSymbolTable
 70
    29
  0
BLOCK_RECORD
  5
1F
330
1
100
AcDbSymbolTableRecord
100
AcDbBlockTableRecord
  2
*MODEL_SPACE
  0
BLOCK_RECORD
  5
1B
330
1
100
AcDbSymbolTableRecord
100
AcDbBlockTableRecord
  2
*PAPER_SPACE
  0
BLOCK_RECORD
  5
41
330
1
100
AcDbSymbolTableRecord
100
AcDbBlockTableRecord
  2
FXTIP_ARROW_S
  0
BLOCK_RECORD
  5
47
330
1
100
AcDbSymbolTableRecord
100
AcDbBlockTableRecord
  2
FXTIP_ARROW_E
  0
BLOCK_RECORD
  5
4D
330
1
100
AcDbSymbolTableRecord
100
AcDbBlockTableRecord
  2
FXTIP_BLACKDOT_S
  0
BLOCK_RECORD
  5
53
330
1
100
AcDbSymbolTableRecord
100
AcDbBlockTableRecord
  2
FXTIP_BLACKDOT_E
  0
BLOCK_RECORD
  5
59
330
1
100
AcDbSymbolTableRecord
100
AcDbBlockTableRecord
  2
FXTIP_TRIANGLE_S
  0
BLOCK_RECORD
  5
60
330
1
100
AcDbSymbolTableRecord
100
AcDbBlockTableRecord
  2
FXTIP_TRIANGLE_E
  0
BLOCK_RECORD
  5
67
330
1
100
AcDbSymbolTableRecord
100
AcDbBlockTableRecord
  2
FXTIP_ARCHITECT_S
  0
BLOCK_RECORD
  5
6D
330
1
100
AcDbSymbolTableRecord
100
AcDbBlockTableRecord
  2
FXTIP_ARCHITECT_E
  0
BLOCK_RECORD
  5
73
330
1
100
AcDbSymbolTableRecord
100
AcDbBlockTableRecord
  2
FXTIP_CIVIL_S
  0
BLOCK_RECORD
  5
79
330
1
100
AcDbSymbolTableRecord
100
AcDbBlockTableRecord
  2
FXTIP_CIVIL_E
  0
BLOCK_RECORD
  5
7F
330
1
100
AcDbSymbolTableRecord
100
AcDbBlockTableRecord
  2
FXTIP_WHITEDOT_S
  0
BLOCK_RECORD
  5
84
330
1
100
AcDbSymbolTableRecord
100
AcDbBlockTableRecord
  2
FXTIP_WHITEDOT_E
  0
BLOCK_RECORD
  5
89
330
1
100
AcDbSymbolTableRecord
100
AcDbBlockTableRecord
  2
FXTIP_UPARROW_S
  0
BLOCK_RECORD
  5
8E
330
1
100
AcDbSymbolTableRecord
100
AcDbBlockTableRecord
  2
FXTIP_UPARROW_E
  0
BLOCK_RECORD
  5
93
330
1
100
AcDbSymbolTableRecord
100
AcDbBlockTableRecord
  2
FXTIP_DOWNARROW_S
  0
BLOCK_RECORD
  5
98
330
1
100
AcDbSymbolTableRecord
100
AcDbBlockTableRecord
  2
FXTIP_DOWNARROW_E
  0
BLOCK_RECORD
  5
9D
330
1
100
AcDbSymbolTableRecord
100
AcDbBlockTableRecord
  2
FXTIP_BLACKTRIANGLE_S
  0
BLOCK_RECORD
  5
A2
330
1
100
AcDbSymbolTableRecord
100
AcDbBlockTableRecord
  2
FXTIP_BLACKTRIANGLE_E
  0
BLOCK_RECORD
  5
A9
330
1
100
AcDbSymbolTableRecord
100
AcDbBlockTableRecord
  2
BLKF021
  0
BLOCK_RECORD
  5
171
330
1
100
AcDbSymbolTableRecord
100
AcDbBlockTableRecord
  2
BLKF022
  0
BLOCK_RECORD
  5
1C2
330
1
100
AcDbSymbolTableRecord
100
AcDbBlockTableRecord
  2
BLKF023
  0
BLOCK_RECORD
  5
244
330
1
100
AcDbSymbolTableRecord
100
AcDbBlockTableRecord
  2
*D22
  0
BLOCK_RECORD
  5
24E
330
1
100
AcDbSymbolTableRecord
100
AcDbBlockTableRecord
  2
*D23
  0
BLOCK_RECORD
  5
258
330
1
100
AcDbSymbolTableRecord
100
AcDbBlockTableRecord
  2
*D24
  0
BLOCK_RECORD
  5
262
330
1
100
AcDbSymbolTableRecord
100
AcDbBlockTableRecord
  2
*D25
  0
BLOCK_RECORD
  5
26D
330
1
100
AcDbSymbolTableRecord
100
AcDbBlockTableRecord
  2
BLKF028
  0
BLOCK_RECORD
  5
279
330
1
100
AcDbSymbolTableRecord
100
AcDbBlockTableRecord
  2
BLKF029
  0
BLOCK_RECORD
  5
282
330
1
100
AcDbSymbolTableRecord
100
AcDbBlockTableRecord
  2
BLKF030
  0
ENDTAB
  0
ENDSEC
  0
SECTION
  2
BLOCKS
  0
BLOCK
  5
20
330
1F
100
AcDbEntity
  8
0
100
AcDbBlockBegin
  2
*MODEL_SPACE
 70
     0
 71
     0
 10
0.0
 20
0.0
 30
0.0
  3
*MODEL_SPACE
  1

  0
ENDBLK
  5
21
330
1F
100
AcDbEntity
  8
0
100
AcDbBlockEnd
  0
BLOCK
  5
1C
330
1B
100
AcDbEntity
 67
     1
  8
0
100
AcDbBlockBegin
  2
*PAPER_SPACE
 70
     0
 71
     0
 10
0.0
 20
0.0
 30
0.0
  3
*PAPER_SPACE
  1

  0
ENDBLK
  5
1D
330
1B
100
AcDbEntity
 67
     1
  8
0
100
AcDbBlockEnd
  0
BLOCK
  5
42
330
41
100
AcDbEntity
  8
0
100
AcDbBlockBegin
  2
FXTIP_ARROW_S
 70
     0
 71
     0
 10
0.0
 20
0.0
 30
0.0
  3
FXTIP_ARROW_S
  1

  0
LINE
  5
44
330
41
100
AcDbEntity
  8
0
  6
CONTINUOUS
 62
     0
100
AcDbLine
 10
0.0
 20
0.0
 30
0.0
 11
-1.0
 21
0.0
 31
0.0
  0
LINE
  5
45
330
41
100
AcDbEntity
  8
0
  6
CONTINUOUS
 62
     0
100
AcDbLine
 10
0.0
 20
0.0
 30
0.0
 11
-0.965926
 21
-0.258819
 31
0.0
  0
LINE
  5
46
330
41
100
AcDbEntity
  8
0
  6
CONTINUOUS
 62
     0
100
AcDbLine
 10
0.0
 20
0.0
 30
0.0
 11
-0.965926
 21
0.258819
 31
0.0
  0
ENDBLK
  5
43
330
41
100
AcDbEntity
  8
0
100
AcDbBlockEnd
  0
BLOCK
  5
48
330
47
100
AcDbEntity
  8
0
100
AcDbBlockBegin
  2
FXTIP_ARROW_E
 70
     0
 71
     0
 10
0.0
 20
0.0
 30
0.0
  3
FXTIP_ARROW_E
  1

  0
LINE
  5
4A
330
47
100
AcDbEntity
  8
0
  6
CONTINUOUS
 62
     0
100
AcDbLine
 10
0.0
 20
0.0
 30
0.0
 11
-1.0
 21
0.0
 31
0.0
  0
LINE
  5
4B
330
47
100
AcDbEntity
  8
0
  6
CONTINUOUS
 62
     0
100
AcDbLine
 10
0.0
 20
0.0
 30
0.0
 11
-0.965926
 21
0.258819
 31
0.0
  0
LINE
  5
4C
330
47
100
AcDbEntity
  8
0
  6
CONTINUOUS
 62
     0
100
AcDbLine
 10
0.0
 20
0.0
 30
0.0
 11
-0.965926
 21
-0.258819
 31
0.0
  0
ENDBLK
  5
49
330
47
100
AcDbEntity
  8
0
100
AcDbBlockEnd
  0
BLOCK
  5
4E
330
4D
100
AcDbEntity
  8
0
100
AcDbBlockBegin
  2
FXTIP_BLACKDOT_S
 70
     0
 71
     0
 10
0.0
 20
0.0
 30
0.0
  3
FXTIP_BLACKDOT_S
  1

  0
LINE
  5
50
330
4D
100
AcDbEntity
  8
0
  6
CONTINUOUS
 62
     0
100
AcDbLine
 10
0.0
 20
0.0
 30
0.0
 11
-1.0
 21
0.0
 31
0.0
  0
LWPOLYLINE
  5
51
330
4D
100
AcDbEntity
  8
0
  6
CONTINUOUS
 62
     0
100
AcDbPolyline
 90
        2
 70
     1
 10
-0.25
 20
0.0
 40
0.5
 41
0.5
 42
1.0
 10
0.25
 20
0.0
 40
0.5
 41
0.5
 42
1.0
  0
CIRCLE
  5
52
330
4D
100
AcDbEntity
  8
0
  6
CONTINUOUS
 62
     0
100
AcDbCircle
 10
0.0
 20
0.0
 30
0.0
 40
0.5
  0
ENDBLK
  5
4F
330
4D
100
AcDbEntity
  8
0
100
AcDbBlockEnd
  0
BLOCK
  5
54
330
53
100
AcDbEntity
  8
0
100
AcDbBlockBegin
  2
FXTIP_BLACKDOT_E
 70
     0
 71
     0
 10
0.0
 20
0.0
 30
0.0
  3
FXTIP_BLACKDOT_E
  1

  0
LINE
  5
56
330
53
100
AcDbEntity
  8
0
  6
CONTINUOUS
 62
     0
100
AcDbLine
 10
0.0
 20
0.0
 30
0.0
 11
-1.0
 21
0.0
 31
0.0
  0
LWPOLYLINE
  5
57
330
53
100
AcDbEntity
  8
0
  6
CONTINUOUS
 62
     0
100
AcDbPolyline
 90
        2
 70
     1
 10
-0.25
 20
0.0
 40
0.5
 41
0.5
 42
1.0
 10
0.25
 20
0.0
 40
0.5
 41
0.5
 42
1.0
  0
CIRCLE
  5
58
330
53
100
AcDbEntity
  8
0
  6
CONTINUOUS
 62
     0
100
AcDbCircle
 10
0.0
 20
0.0
 30
0.0
 40
0.5
  0
ENDBLK
  5
55
330
53
100
AcDbEntity
  8
0
100
AcDbBlockEnd
  0
BLOCK
  5
5A
330
59
100
AcDbEntity
  8
0
100
AcDbBlockBegin
  2
FXTIP_TRIANGLE_S
 70
     0
 71
     0
 10
0.0
 20
0.0
 30
0.0
  3
FXTIP_TRIANGLE_S
  1

  0
LINE
  5
5C
330
59
100
AcDbEntity
  8
0
  6
CONTINUOUS
 62
     0
100
AcDbLine
 10
0.0
 20
0.0
 30
0.0
 11
-1.0
 21
0.0
 31
0.0
  0
LINE
  5
5D
330
59
100
AcDbEntity
  8
0
  6
CONTINUOUS
 62
     0
100
AcDbLine
 10
0.0
 20
0.0
 30
0.0
 11
-0.965926
 21
-0.258819
 31
0.0
  0
LINE
  5
5E
330
59
100
AcDbEntity
  8
0
  6
CONTINUOUS
 62
     0
100
AcDbLine
 10
0.0
 20
0.0
 30
0.0
 11
-0.965926
 21
0.258819
 31
0.0
  0
LINE
  5
5F
330
59
100
AcDbEntity
  8
0
  6
CONTINUOUS
 62
     0
100
AcDbLine
 10
-0.965926
 20
-0.258819
 30
0.0
 11
-0.965926
 21
0.258819
 31
0.0
  0
ENDBLK
  5
5B
330
59
100
AcDbEntity
  8
0
100
AcDbBlockEnd
  0
BLOCK
  5
61
330
60
100
AcDbEntity
  8
0
100
AcDbBlockBegin
  2
FXTIP_TRIANGLE_E
 70
     0
 71
     0
 10
0.0
 20
0.0
 30
0.0
  3
FXTIP_TRIANGLE_E
  1

  0
LINE
  5
63
330
60
100
AcDbEntity
  8
0
  6
CONTINUOUS
 62
     0
100
AcDbLine
 10
0.0
 20
0.0
 30
0.0
 11
-1.0
 21
0.0
 31
0.0
  0
LINE
  5
64
330
60
100
AcDbEntity
  8
0
  6
CONTINUOUS
 62
     0
100
AcDbLine
 10
0.0
 20
0.0
 30
0.0
 11
-0.965926
 21
0.258819
 31
0.0
  0
LINE
  5
65
330
60
100
AcDbEntity
  8
0
  6
CONTINUOUS
 62
     0
100
AcDbLine
 10
0.0
 20
0.0
 30
0.0
 11
-0.965926
 21
-0.258819
 31
0.0
  0
LINE
  5
66
330
60
100
AcDbEntity
  8
0
  6
CONTINUOUS
 62
     0
100
AcDbLine
 10
-0.965926
 20
0.258819
 30
0.0
 11
-0.965926
 21
-0.258819
 31
0.0
  0
ENDBLK
  5
62
330
60
100
AcDbEntity
  8
0
100
AcDbBlockEnd
  0
BLOCK
  5
68
330
67
100
AcDbEntity
  8
0
100
AcDbBlockBegin
  2
FXTIP_ARCHITECT_S
 70
     0
 71
     0
 10
0.0
 20
0.0
 30
0.0
  3
FXTIP_ARCHITECT_S
  1

  0
LINE
  5
6A
330
67
100
AcDbEntity
  8
0
  6
CONTINUOUS
 62
     0
100
AcDbLine
 10
0.0
 20
0.0
 30
0.0
 11
-1.0
 21
0.0
 31
0.0
  0
LINE
  5
6B
330
67
100
AcDbEntity
  8
0
  6
CONTINUOUS
 62
     0
100
AcDbLine
 10
0.0
 20
0.0
 30
0.0
 11
-0.707107
 21
-0.707107
 31
0.0
  0
LINE
  5
6C
330
67
100
AcDbEntity
  8
0
  6
CONTINUOUS
 62
     0
100
AcDbLine
 10
0.0
 20
0.0
 30
0.0
 11
0.707107
 21
0.707107
 31
0.0
  0
ENDBLK
  5
69
330
67
100
AcDbEntity
  8
0
100
AcDbBlockEnd
  0
BLOCK
  5
6E
330
6D
100
AcDbEntity
  8
0
100
AcDbBlockBegin
  2
FXTIP_ARCHITECT_E
 70
     0
 71
     0
 10
0.0
 20
0.0
 30
0.0
  3
FXTIP_ARCHITECT_E
  1

  0
LINE
  5
70
330
6D
100
AcDbEntity
  8
0
  6
CONTINUOUS
 62
     0
100
AcDbLine
 10
0.0
 20
0.0
 30
0.0
 11
-1.0
 21
0.0
 31
0.0
  0
LINE
  5
71
330
6D
100
AcDbEntity
  8
0
  6
CONTINUOUS
 62
     0
100
AcDbLine
 10
0.0
 20
0.0
 30
0.0
 11
0.707107
 21
0.707107
 31
0.0
  0
LINE
  5
72
330
6D
100
AcDbEntity
  8
0
  6
CONTINUOUS
 62
     0
100
AcDbLine
 10
0.0
 20
0.0
 30
0.0
 11
-0.707107
 21
-0.707107
 31
0.0
  0
ENDBLK
  5
6F
330
6D
100
AcDbEntity
  8
0
100
AcDbBlockEnd
  0
BLOCK
  5
74
330
73
100
AcDbEntity
  8
0
100
AcDbBlockBegin
  2
FXTIP_CIVIL_S
 70
     0
 71
     0
 10
0.0
 20
0.0
 30
0.0
  3
FXTIP_CIVIL_S
  1

  0
LINE
  5
76
330
73
100
AcDbEntity
  8
0
  6
CONTINUOUS
 62
     0
100
AcDbLine
 10
0.0
 20
0.0
 30
0.0
 11
-1.0
 21
0.0
 31
0.0
  0
LINE
  5
77
330
73
100
AcDbEntity
  8
0
  6
CONTINUOUS
 62
     0
100
AcDbLine
 10
0.0
 20
-0.0625
 30
0.0
 11
-1.0
 21
-0.0625
 31
0.0
  0
LINE
  5
78
330
73
100
AcDbEntity
  8
0
  6
CONTINUOUS
 62
     0
100
AcDbLine
 10
0.0
 20
-0.125
 30
0.0
 11
-1.0
 21
-0.125
 31
0.0
  0
ENDBLK
  5
75
330
73
100
AcDbEntity
  8
0
100
AcDbBlockEnd
  0
BLOCK
  5
7A
330
79
100
AcDbEntity
  8
0
100
AcDbBlockBegin
  2
FXTIP_CIVIL_E
 70
     0
 71
     0
 10
0.0
 20
0.0
 30
0.0
  3
FXTIP_CIVIL_E
  1

  0
LINE
  5
7C
330
79
100
AcDbEntity
  8
0
  6
CONTINUOUS
 62
     0
100
AcDbLine
 10
0.0
 20
0.0
 30
0.0
 11
-1.0
 21
0.0
 31
0.0
  0
LINE
  5
7D
330
79
100
AcDbEntity
  8
0
  6
CONTINUOUS
 62
     0
100
AcDbLine
 10
0.0
 20
0.0625
 30
0.0
 11
-1.0
 21
0.0625
 31
0.0
  0
LINE
  5
7E
330
79
100
AcDbEntity
  8
0
  6
CONTINUOUS
 62
     0
100
AcDbLine
 10
0.0
 20
0.125
 30
0.0
 11
-1.0
 21
0.125
 31
0.0
  0
ENDBLK
  5
7B
330
79
100
AcDbEntity
  8
0
100
AcDbBlockEnd
  0
BLOCK
  5
80
330
7F
100
AcDbEntity
  8
0
100
AcDbBlockBegin
  2
FXTIP_WHITEDOT_S
 70
     0
 71
     0
 10
0.0
 20
0.0
 30
0.0
  3
FXTIP_WHITEDOT_S
  1

  0
LINE
  5
82
330
7F
100
AcDbEntity
  8
0
  6
CONTINUOUS
 62
     0
100
AcDbLine
 10
0.0
 20
0.0
 30
0.0
 11
-1.0
 21
0.0
 31
0.0
  0
CIRCLE
  5
83
330
7F
100
AcDbEntity
  8
0
  6
CONTINUOUS
 62
     0
100
AcDbCircle
 10
0.0
 20
0.0
 30
0.0
 40
0.5
  0
ENDBLK
  5
81
330
7F
100
AcDbEntity
  8
0
100
AcDbBlockEnd
  0
BLOCK
  5
85
330
84
100
AcDbEntity
  8
0
100
AcDbBlockBegin
  2
FXTIP_WHITEDOT_E
 70
     0
 71
     0
 10
0.0
 20
0.0
 30
0.0
  3
FXTIP_WHITEDOT_E
  1

  0
LINE
  5
87
330
84
100
AcDbEntity
  8
0
  6
CONTINUOUS
 62
     0
100
AcDbLine
 10
0.0
 20
0.0
 30
0.0
 11
-1.0
 21
0.0
 31
0.0
  0
CIRCLE
  5
88
330
84
100
AcDbEntity
  8
0
  6
CONTINUOUS
 62
     0
100
AcDbCircle
 10
0.0
 20
0.0
 30
0.0
 40
0.5
  0
ENDBLK
  5
86
330
84
100
AcDbEntity
  8
0
100
AcDbBlockEnd
  0
BLOCK
  5
8A
330
89
100
AcDbEntity
  8
0
100
AcDbBlockBegin
  2
FXTIP_UPARROW_S
 70
     0
 71
     0
 10
0.0
 20
0.0
 30
0.0
  3
FXTIP_UPARROW_S
  1

  0
LINE
  5
8C
330
89
100
AcDbEntity
  8
0
  6
CONTINUOUS
 62
     0
100
AcDbLine
 10
0.0
 20
0.0
 30
0.0
 11
-1.0
 21
0.0
 31
0.0
  0
LINE
  5
8D
330
89
100
AcDbEntity
  8
0
  6
CONTINUOUS
 62
     0
100
AcDbLine
 10
0.0
 20
0.0
 30
0.0
 11
-0.965926
 21
-0.258819
 31
0.0
  0
ENDBLK
  5
8B
330
89
100
AcDbEntity
  8
0
100
AcDbBlockEnd
  0
BLOCK
  5
8F
330
8E
100
AcDbEntity
  8
0
100
AcDbBlockBegin
  2
FXTIP_UPARROW_E
 70
     0
 71
     0
 10
0.0
 20
0.0
 30
0.0
  3
FXTIP_UPARROW_E
  1

  0
LINE
  5
91
330
8E
100
AcDbEntity
  8
0
  6
CONTINUOUS
 62
     0
100
AcDbLine
 10
0.0
 20
0.0
 30
0.0
 11
-1.0
 21
0.0
 31
0.0
  0
LINE
  5
92
330
8E
100
AcDbEntity
  8
0
  6
CONTINUOUS
 62
     0
100
AcDbLine
 10
0.0
 20
0.0
 30
0.0
 11
-0.965926
 21
0.258819
 31
0.0
  0
ENDBLK
  5
90
330
8E
100
AcDbEntity
  8
0
100
AcDbBlockEnd
  0
BLOCK
  5
94
330
93
100
AcDbEntity
  8
0
100
AcDbBlockBegin
  2
FXTIP_DOWNARROW_S
 70
     0
 71
     0
 10
0.0
 20
0.0
 30
0.0
  3
FXTIP_DOWNARROW_S
  1

  0
LINE
  5
96
330
93
100
AcDbEntity
  8
0
  6
CONTINUOUS
 62
     0
100
AcDbLine
 10
0.0
 20
0.0
 30
0.0
 11
-1.0
 21
0.0
 31
0.0
  0
LINE
  5
97
330
93
100
AcDbEntity
  8
0
  6
CONTINUOUS
 62
     0
100
AcDbLine
 10
0.0
 20
0.0
 30
0.0
 11
-0.965926
 21
0.258819
 31
0.0
  0
ENDBLK
  5
95
330
93
100
AcDbEntity
  8
0
100
AcDbBlockEnd
  0
BLOCK
  5
99
330
98
100
AcDbEntity
  8
0
100
AcDbBlockBegin
  2
FXTIP_DOWNARROW_E
 70
     0
 71
     0
 10
0.0
 20
0.0
 30
0.0
  3
FXTIP_DOWNARROW_E
  1

  0
LINE
  5
9B
330
98
100
AcDbEntity
  8
0
  6
CONTINUOUS
 62
     0
100
AcDbLine
 10
0.0
 20
0.0
 30
0.0
 11
-1.0
 21
0.0
 31
0.0
  0
LINE
  5
9C
330
98
100
AcDbEntity
  8
0
  6
CONTINUOUS
 62
     0
100
AcDbLine
 10
0.0
 20
0.0
 30
0.0
 11
-0.965926
 21
-0.258819
 31
0.0
  0
ENDBLK
  5
9A
330
98
100
AcDbEntity
  8
0
100
AcDbBlockEnd
  0
BLOCK
  5
9E
330
9D
100
AcDbEntity
  8
0
100
AcDbBlockBegin
  2
FXTIP_BLACKTRIANGLE_S
 70
     0
 71
     0
 10
0.0
 20
0.0
 30
0.0
  3
FXTIP_BLACKTRIANGLE_S
  1

  0
LINE
  5
A0
330
9D
100
AcDbEntity
  8
0
  6
CONTINUOUS
 62
     0
100
AcDbLine
 10
0.0
 20
0.0
 30
0.0
 11
-1.0
 21
0.0
 31
0.0
  0
SOLID
  5
A1
330
9D
100
AcDbEntity
  8
0
  6
CONTINUOUS
 62
     0
100
AcDbTrace
 10
0.0
 20
0.0
 30
0.0
 11
-0.965926
 21
-0.258819
 31
0.0
 12
-0.965926
 22
0.258819
 32
0.0
 13
-0.965926
 23
0.258819
 33
0.0
  0
ENDBLK
  5
9F
330
9D
100
AcDbEntity
  8
0
100
AcDbBlockEnd
  0
BLOCK
  5
A3
330
A2
100
AcDbEntity
  8
0
100
AcDbBlockBegin
  2
FXTIP_BLACKTRIANGLE_E
 70
     0
 71
     0
 10
0.0
 20
0.0
 30
0.0
  3
FXTIP_BLACKTRIANGLE_E
  1

  0
LINE
  5
A5
330
A2
100
AcDbEntity
  8
0
  6
CONTINUOUS
 62
     0
100
AcDbLine
 10
0.0
 20
0.0
 30
0.0
 11
-1.0
 21
0.0
 31
0.0
  0
SOLID
  5
A6
330
A2
100
AcDbEntity
  8
0
  6
CONTINUOUS
 62
     0
100
AcDbTrace
 10
0.0
 20
0.0
 30
0.0
 11
-0.965926
 21
0.258819
 31
0.0
 12
-0.965926
 22
-0.258819
 32
0.0
 13
-0.965926
 23
-0.258819
 33
0.0
  0
ENDBLK
  5
A4
330
A2
100
AcDbEntity
  8
0
100
AcDbBlockEnd
  0
BLOCK
  5
AA
330
A9
100
AcDbEntity
  8
0
100
AcDbBlockBegin
  2
BLKF021
 70
     0
 71
     0
 10
0.0
 20
0.0
 30
0.0
  3
BLKF021
  1

  0
LINE
  5
AD
330
A9
100
AcDbEntity
  8
LAYERGROUP-1
  6
CONTINUOUS
 62
     3
100
AcDbLine
 10
79.983485
 20
184.294776
 30
0.0
 11
79.483485
 21
184.294776
 31
0.0
  0
LINE
  5
AE
330
A9
100
AcDbEntity
  8
LAYERGROUP-1
  6
CONTINUOUS
 62
     3
100
AcDbLine
 10
80.983485
 20
183.294776
 30
0.0
 11
80.983485
 21
182.794776
 31
0.0
  0
LINE
  5
AF
330
A9
100
AcDbEntity
  8
LAYERGROUP-1
  6
CONTINUOUS
 62
     3
100
AcDbLine
 10
65.983485
 20
183.294776
 30
0.0
 11
65.983485
 21
175.294776
 31
0.0
  0
LINE
  5
B0
330
A9
100
AcDbEntity
  8
LAYERGROUP-1
  6
CONTINUOUS
 62
     3
100
AcDbLine
 10
80.983485
 20
175.294776
 30
0.0
 11
77.3806
 21
175.294776
 31
0.0
  0
LINE
  5
B1
330
A9
100
AcDbEntity
  8
LAYERGROUP-1
  6
CONTINUOUS
 62
     3
100
AcDbLine
 10
69.586371
 20
175.294776
 30
0.0
 11
65.983485
 21
175.294776
 31
0.0
  0
CIRCLE
  5
B2
330
A9
100
AcDbEntity
  8
LAYERGROUP-1
  6
CONTINUOUS
 62
     3
100
AcDbCircle
 10
73.483485
 20
177.544776
 30
0.0
 40
4.5
  0
LINE
  5
B3
330
A9
100
AcDbEntity
  8
LAYERGROUP-1
  6
CONTINUOUS
 62
     3
100
AcDbLine
 10
79.983485
 20
170.794776
 30
0.0
 11
63.983485
 21
170.794776
 31
0.0
  0
ARC
  5
B4
330
A9
100
AcDbEntity
  8
LAYERGROUP-1
  6
CONTINUOUS
 62
     3
100
AcDbCircle
 10
79.983485
 20
183.294776
 30
0.0
 40
1.0
100
AcDbArc
 50
0.0
 51
90.0
  0
ARC
  5
B5
330
A9
100
AcDbEntity
  8
LAYERGROUP-1
  6
CONTINUOUS
 62
     3
100
AcDbCircle
 10
66.983485
 20
183.294776
 30
0.0
 40
1.0
100
AcDbArc
 50
90.0
 51
180.0
  0
ARC
  5
B6
330
A9
100
AcDbEntity
  8
LAYERGROUP-1
  6
CONTINUOUS
 62
     3
100
AcDbCircle
 10
79.983485
 20
171.794776
 30
0.0
 40
1.0
100
AcDbArc
 50
270.0
 51
360.0
  0
LINE
  5
B7
330
A9
100
AcDbEntity
  8
LAYERGROUP-1
  6
CONTINUOUS
 62
     3
100
AcDbLine
 10
79.983485
 20
145.794776
 30
0.0
 11
63.983485
 21
145.794776
 31
0.0
  0
LINE
  5
B8
330
A9
100
AcDbEntity
  8
LAYERGROUP-1
  6
CONTINUOUS
 62
     3
100
AcDbLine
 10
80.983485
 20
144.794776
 30
0.0
 11
80.983485
 21
133.294776
 31
0.0
  0
LINE
  5
B9
330
A9
100
AcDbEntity
  8
LAYERGROUP-1
  6
CONTINUOUS
 62
     3
100
AcDbLine
 10
65.983485
 20
141.294776
 30
0.0
 11
65.983485
 21
133.294776
 31
0.0
  0
LINE
  5
BA
330
A9
100
AcDbEntity
  8
LAYERGROUP-1
  6
CONTINUOUS
 62
     3
100
AcDbLine
 10
80.983485
 20
141.294776
 30
0.0
 11
77.3806
 21
141.294776
 31
0.0
  0
LINE
  5
BB
330
A9
100
AcDbEntity
  8
LAYERGROUP-1
  6
CONTINUOUS
 62
     3
100
AcDbLine
 10
69.586371
 20
141.294776
 30
0.0
 11
65.983485
 21
141.294776
 31
0.0
  0
CIRCLE
  5
BC
330
A9
100
AcDbEntity
  8
LAYERGROUP-1
  6
CONTINUOUS
 62
     3
100
AcDbCircle
 10
73.483485
 20
139.044776
 30
0.0
 40
4.5
  0
LINE
  5
BD
330
A9
100
AcDbEntity
  8
LAYERGROUP-1
  6
CONTINUOUS
 62
     3
100
AcDbLine
 10
79.983485
 20
132.294776
 30
0.0
 11
66.983485
 21
132.294776
 31
0.0
  0
ARC
  5
BE
330
A9
100
AcDbEntity
  8
LAYERGROUP-1
  6
CONTINUOUS
 62
     3
100
AcDbCircle
 10
79.983485
 20
144.794776
 30
0.0
 40
1.0
100
AcDbArc
 50
0.0
 51
90.0
  0
ARC
  5
BF
330
A9
100
AcDbEntity
  8
LAYERGROUP-1
  6
CONTINUOUS
 62
     3
100
AcDbCircle
 10
79.983485
 20
133.294776
 30
0.0
 40
1.0
100
AcDbArc
 50
270.0
 51
360.0
  0
ARC
  5
C0
330
A9
100
AcDbEntity
  8
LAYERGROUP-1
  6
CONTINUOUS
 62
     3
100
AcDbCircle
 10
66.983485
 20
133.294776
 30
0.0
 40
1.0
100
AcDbArc
 50
180.0
 51
270.0
  0
LINE
  5
C1
330
A9
100
AcDbEntity
  8
LAYERGROUP-1
  6
CONTINUOUS
 62
     3
100
AcDbLine
 10
78.733485
 20
175.669776
 30
0.0
 11
79.483485
 21
175.669776
 31
0.0
  0
LINE
  5
C2
330
A9
100
AcDbEntity
  8
LAYERGROUP-1
  6
CONTINUOUS
 62
     3
100
AcDbLine
 10
79.483485
 20
175.669776
 30
0.0
 11
79.483485
 21
179.044776
 31
0.0
  0
LINE
  5
C3
330
A9
100
AcDbEntity
  8
LAYERGROUP-1
  6
CONTINUOUS
 62
     3
100
AcDbLine
 10
79.483485
 20
179.044776
 30
0.0
 11
78.733485
 21
179.794776
 31
0.0
  0
LINE
  5
C4
330
A9
100
AcDbEntity
  8
LAYERGROUP-1
  6
CONTINUOUS
 62
     3
100
AcDbLine
 10
78.733485
 20
179.794776
 30
0.0
 11
78.733485
 21
180.394776
 31
0.0
  0
LINE
  5
C5
330
A9
100
AcDbEntity
  8
LAYERGROUP-1
  6
CONTINUOUS
 62
     3
100
AcDbLine
 10
80.233485
 20
180.394776
 30
0.0
 11
80.233485
 21
180.094776
 31
0.0
  0
LINE
  5
C6
330
A9
100
AcDbEntity
  8
LAYERGROUP-1
  6
CONTINUOUS
 62
     3
100
AcDbLine
 10
80.233485
 20
180.394776
 30
0.0
 11
80.983485
 21
180.394776
 31
0.0
  0
LINE
  5
C7
330
A9
100
AcDbEntity
  8
LAYERGROUP-1
  6
CONTINUOUS
 62
     3
100
AcDbLine
 10
77.3806
 20
179.794776
 30
0.0
 11
78.733485
 21
179.794776
 31
0.0
  0
ARC
  5
C8
330
A9
100
AcDbEntity
  8
LAYERGROUP-1
  6
CONTINUOUS
 62
     3
100
AcDbCircle
 10
79.483485
 20
180.394776
 30
0.0
 40
0.75
100
AcDbArc
 50
0.0
 51
180.0
  0
LINE
  5
C9
330
A9
100
AcDbEntity
  8
LAYERGROUP-1
  6
CONTINUOUS
 62
     3
100
AcDbLine
 10
68.233485
 20
175.669776
 30
0.0
 11
67.483485
 21
175.669776
 31
0.0
  0
LINE
  5
CA
330
A9
100
AcDbEntity
  8
LAYERGROUP-1
  6
CONTINUOUS
 62
     3
100
AcDbLine
 10
67.483485
 20
175.669776
 30
0.0
 11
67.483485
 21
179.044776
 31
0.0
  0
LINE
  5
CB
330
A9
100
AcDbEntity
  8
LAYERGROUP-1
  6
CONTINUOUS
 62
     3
100
AcDbLine
 10
67.483485
 20
179.044776
 30
0.0
 11
68.233485
 21
179.794776
 31
0.0
  0
LINE
  5
CC
330
A9
100
AcDbEntity
  8
LAYERGROUP-1
  6
CONTINUOUS
 62
     3
100
AcDbLine
 10
68.233485
 20
179.794776
 30
0.0
 11
68.233485
 21
180.394776
 31
0.0
  0
LINE
  5
CD
330
A9
100
AcDbEntity
  8
LAYERGROUP-1
  6
CONTINUOUS
 62
     3
100
AcDbLine
 10
66.733485
 20
180.394776
 30
0.0
 11
66.733485
 21
180.094776
 31
0.0
  0
LINE
  5
CE
330
A9
100
AcDbEntity
  8
LAYERGROUP-1
  6
CONTINUOUS
 62
     3
100
AcDbLine
 10
66.733485
 20
180.394776
 30
0.0
 11
65.983485
 21
180.394776
 31
0.0
  0
LINE
  5
CF
330
A9
100
AcDbEntity
  8
LAYERGROUP-1
  6
CONTINUOUS
 62
     3
100
AcDbLine
 10
69.586371
 20
179.794776
 30
0.0
 11
68.233485
 21
179.794776
 31
0.0
  0
ARC
  5
D0
330
A9
100
AcDbEntity
  8
LAYERGROUP-1
  6
CONTINUOUS
 62
     3
100
AcDbCircle
 10
67.483485
 20
180.394776
 30
0.0
 40
0.75
100
AcDbArc
 50
0.0
 51
180.0
  0
LINE
  5
D1
330
A9
100
AcDbEntity
  8
LAYERGROUP-1
  6
CONTINUOUS
 62
     3
100
AcDbLine
 10
78.733485
 20
140.919776
 30
0.0
 11
79.483485
 21
140.919776
 31
0.0
  0
LINE
  5
D2
330
A9
100
AcDbEntity
  8
LAYERGROUP-1
  6
CONTINUOUS
 62
     3
100
AcDbLine
 10
79.483485
 20
140.919776
 30
0.0
 11
79.483485
 21
137.544776
 31
0.0
  0
LINE
  5
D3
330
A9
100
AcDbEntity
  8
LAYERGROUP-1
  6
CONTINUOUS
 62
     3
100
AcDbLine
 10
79.483485
 20
137.544776
 30
0.0
 11
78.733485
 21
136.794776
 31
0.0
  0
LINE
  5
D4
330
A9
100
AcDbEntity
  8
LAYERGROUP-1
  6
CONTINUOUS
 62
     3
100
AcDbLine
 10
78.733485
 20
136.794776
 30
0.0
 11
78.733485
 21
136.194776
 31
0.0
  0
LINE
  5
D5
330
A9
100
AcDbEntity
  8
LAYERGROUP-1
  6
CONTINUOUS
 62
     3
100
AcDbLine
 10
80.233485
 20
136.194776
 30
0.0
 11
80.233485
 21
136.494776
 31
0.0
  0
LINE
  5
D6
330
A9
100
AcDbEntity
  8
LAYERGROUP-1
  6
CONTINUOUS
 62
     3
100
AcDbLine
 10
80.233485
 20
136.194776
 30
0.0
 11
80.983485
 21
136.194776
 31
0.0
  0
LINE
  5
D7
330
A9
100
AcDbEntity
  8
LAYERGROUP-1
  6
CONTINUOUS
 62
     3
100
AcDbLine
 10
77.3806
 20
136.794776
 30
0.0
 11
78.733485
 21
136.794776
 31
0.0
  0
ARC
  5
D8
330
A9
100
AcDbEntity
  8
LAYERGROUP-1
  6
CONTINUOUS
 62
     3
100
AcDbCircle
 10
79.483485
 20
136.194776
 30
0.0
 40
0.75
100
AcDbArc
 50
180.0
 51
360.0
  0
LINE
  5
D9
330
A9
100
AcDbEntity
  8
LAYERGROUP-1
  6
CONTINUOUS
 62
     3
100
AcDbLine
 10
68.233485
 20
140.919776
 30
0.0
 11
67.483485
 21
140.919776
 31
0.0
  0
LINE
  5
DA
330
A9
100
AcDbEntity
  8
LAYERGROUP-1
  6
CONTINUOUS
 62
     3
100
AcDbLine
 10
67.483485
 20
140.919776
 30
0.0
 11
67.483485
 21
137.544776
 31
0.0
  0
LINE
  5
DB
330
A9
100
AcDbEntity
  8
LAYERGROUP-1
  6
CONTINUOUS
 62
     3
100
AcDbLine
 10
67.483485
 20
137.544776
 30
0.0
 11
68.233485
 21
136.794776
 31
0.0
  0
LINE
  5
DC
330
A9
100
AcDbEntity
  8
LAYERGROUP-1
  6
CONTINUOUS
 62
     3
100
AcDbLine
 10
68.233485
 20
136.794776
 30
0.0
 11
68.233485
 21
136.194776
 31
0.0
  0
LINE
  5
DD
330
A9
100
AcDbEntity
  8
LAYERGROUP-1
  6
CONTINUOUS
 62
     3
100
AcDbLine
 10
66.733485
 20
136.194776
 30
0.0
 11
66.733485
 21
136.494776
 31
0.0
  0
LINE
  5
DE
330
A9
100
AcDbEntity
  8
LAYERGROUP-1
  6
CONTINUOUS
 62
     3
100
AcDbLine
 10
66.733485
 20
136.194776
 30
0.0
 11
65.983485
 21
136.194776
 31
0.0
  0
LINE
  5
DF
330
A9
100
AcDbEntity
  8
LAYERGROUP-1
  6
CONTINUOUS
 62
     3
100
AcDbLine
 10
69.586371
 20
136.794776
 30
0.0
 11
68.233485
 21
136.794776
 31
0.0
  0
ARC
  5
E0
330
A9
100
AcDbEntity
  8
LAYERGROUP-1
  6
CONTINUOUS
 62
     3
100
AcDbCircle
 10
67.483485
 20
136.194776
 30
0.0
 40
0.75
100
AcDbArc
 50
180.0
 51
360.0
  0
LINE
  5
E1
330
A9
100
AcDbEntity
  8
LAYERGROUP-1
  6
CONTINUOUS
 62
     3
100
AcDbLine
 10
80.983485
 20
182.794776
 30
0.0
 11
80.983485
 21
171.794776
 31
0.0
  0
LINE
  5
E2
330
A9
100
AcDbEntity
  8
LAYERGROUP-1
  6
CONTINUOUS
 62
     3
100
AcDbLine
 10
79.483485
 20
184.294776
 30
0.0
 11
66.983485
 21
184.294776
 31
0.0
  0
ARC
  5
E3
330
A9
100
AcDbEntity
  8
LAYERGROUP-1
  6
CONTINUOUS
 62
     3
100
AcDbCircle
 10
63.983485
 20
171.794776
 30
0.0
 40
1.0
100
AcDbArc
 50
180.0
 51
270.0
  0
ARC
  5
E4
330
A9
100
AcDbEntity
  8
LAYERGROUP-1
  6
CONTINUOUS
 62
     3
100
AcDbCircle
 10
63.983485
 20
144.794776
 30
0.0
 40
1.0
100
AcDbArc
 50
90.0
 51
180.0
  0
ENDBLK
  5
AB
330
A9
100
AcDbEntity
  8
0
100
AcDbBlockEnd
  0
BLOCK
  5
172
330
171
100
AcDbEntity
  8
0
100
AcDbBlockBegin
  2
BLKF022
 70
     0
 71
     0
 10
0.0
 20
0.0
 30
0.0
  3
BLKF022
  1

  0
LINE
  5
175
330
171
100
AcDbEntity
  8
LAYERGROUP-1
  6
CONTINUOUS
 62
     3
100
AcDbLine
 10
116.983485
 20
184.294776
 30
0.0
 11
117.483485
 21
184.294776
 31
0.0
  0
LINE
  5
176
330
171
100
AcDbEntity
  8
LAYERGROUP-1
  6
CONTINUOUS
 62
     3
100
AcDbLine
 10
115.983485
 20
183.294776
 30
0.0
 11
115.983485
 21
182.794776
 31
0.0
  0
LINE
  5
177
330
171
100
AcDbEntity
  8
LAYERGROUP-1
  6
CONTINUOUS
 62
     3
100
AcDbLine
 10
130.983485
 20
183.294776
 30
0.0
 11
130.983485
 21
175.294776
 31
0.0
  0
LINE
  5
178
330
171
100
AcDbEntity
  8
LAYERGROUP-1
  6
CONTINUOUS
 62
     3
100
AcDbLine
 10
115.983485
 20
175.294776
 30
0.0
 11
119.586371
 21
175.294776
 31
0.0
  0
LINE
  5
179
330
171
100
AcDbEntity
  8
LAYERGROUP-1
  6
CONTINUOUS
 62
     3
100
AcDbLine
 10
127.3806
 20
175.294776
 30
0.0
 11
130.983485
 21
175.294776
 31
0.0
  0
CIRCLE
  5
17A
330
171
100
AcDbEntity
  8
LAYERGROUP-1
  6
CONTINUOUS
 62
     3
100
AcDbCircle
 10
123.483485
 20
177.544776
 30
0.0
 40
4.5
  0
LINE
  5
17B
330
171
100
AcDbEntity
  8
LAYERGROUP-1
  6
CONTINUOUS
 62
     3
100
AcDbLine
 10
116.983485
 20
170.794776
 30
0.0
 11
132.983485
 21
170.794776
 31
0.0
  0
ARC
  5
17C
330
171
100
AcDbEntity
  8
LAYERGROUP-1
  6
CONTINUOUS
 62
     3
100
AcDbCircle
 10
116.983485
 20
183.294776
 30
0.0
 40
1.0
100
AcDbArc
 50
90.0
 51
180.0
  0
ARC
  5
17D
330
171
100
AcDbEntity
  8
LAYERGROUP-1
  6
CONTINUOUS
 62
     3
100
AcDbCircle
 10
129.983485
 20
183.294776
 30
0.0
 40
1.0
100
AcDbArc
 50
0.0
 51
90.0
  0
ARC
  5
17E
330
171
100
AcDbEntity
  8
LAYERGROUP-1
  6
CONTINUOUS
 62
     3
100
AcDbCircle
 10
116.983485
 20
171.794776
 30
0.0
 40
1.0
100
AcDbArc
 50
180.0
 51
270.0
  0
LINE
  5
17F
330
171
100
AcDbEntity
  8
LAYERGROUP-1
  6
CONTINUOUS
 62
     3
100
AcDbLine
 10
116.983485
 20
145.794776
 30
0.0
 11
132.983485
 21
145.794776
 31
0.0
  0
LINE
  5
180
330
171
100
AcDbEntity
  8
LAYERGROUP-1
  6
CONTINUOUS
 62
     3
100
AcDbLine
 10
115.983485
 20
144.794776
 30
0.0
 11
115.983485
 21
133.294776
 31
0.0
  0
LINE
  5
181
330
171
100
AcDbEntity
  8
LAYERGROUP-1
  6
CONTINUOUS
 62
     3
100
AcDbLine
 10
130.983485
 20
141.294776
 30
0.0
 11
130.983485
 21
133.294776
 31
0.0
  0
LINE
  5
182
330
171
100
AcDbEntity
  8
LAYERGROUP-1
  6
CONTINUOUS
 62
     3
100
AcDbLine
 10
115.983485
 20
141.294776
 30
0.0
 11
119.586371
 21
141.294776
 31
0.0
  0
LINE
  5
183
330
171
100
AcDbEntity
  8
LAYERGROUP-1
  6
CONTINUOUS
 62
     3
100
AcDbLine
 10
127.3806
 20
141.294776
 30
0.0
 11
130.983485
 21
141.294776
 31
0.0
  0
CIRCLE
  5
184
330
171
100
AcDbEntity
  8
LAYERGROUP-1
  6
CONTINUOUS
 62
     3
100
AcDbCircle
 10
123.483485
 20
139.044776
 30
0.0
 40
4.5
  0
LINE
  5
185
330
171
100
AcDbEntity
  8
LAYERGROUP-1
  6
CONTINUOUS
 62
     3
100
AcDbLine
 10
116.983485
 20
132.294776
 30
0.0
 11
129.983485
 21
132.294776
 31
0.0
  0
ARC
  5
186
330
171
100
AcDbEntity
  8
LAYERGROUP-1
  6
CONTINUOUS
 62
     3
100
AcDbCircle
 10
116.983485
 20
144.794776
 30
0.0
 40
1.0
100
AcDbArc
 50
90.0
 51
180.0
  0
ARC
  5
187
330
171
100
AcDbEntity
  8
LAYERGROUP-1
  6
CONTINUOUS
 62
     3
100
AcDbCircle
 10
116.983485
 20
133.294776
 30
0.0
 40
1.0
100
AcDbArc
 50
180.0
 51
270.0
  0
ARC
  5
188
330
171
100
AcDbEntity
  8
LAYERGROUP-1
  6
CONTINUOUS
 62
     3
100
AcDbCircle
 10
129.983485
 20
133.294776
 30
0.0
 40
1.0
100
AcDbArc
 50
270.0
 51
360.0
  0
LINE
  5
189
330
171
100
AcDbEntity
  8
LAYERGROUP-1
  6
CONTINUOUS
 62
     3
100
AcDbLine
 10
118.233485
 20
175.669776
 30
0.0
 11
117.483485
 21
175.669776
 31
0.0
  0
LINE
  5
18A
330
171
100
AcDbEntity
  8
LAYERGROUP-1
  6
CONTINUOUS
 62
     3
100
AcDbLine
 10
117.483485
 20
175.669776
 30
0.0
 11
117.483485
 21
179.044776
 31
0.0
  0
LINE
  5
18B
330
171
100
AcDbEntity
  8
LAYERGROUP-1
  6
CONTINUOUS
 62
     3
100
AcDbLine
 10
117.483485
 20
179.044776
 30
0.0
 11
118.233485
 21
179.794776
 31
0.0
  0
LINE
  5
18C
330
171
100
AcDbEntity
  8
LAYERGROUP-1
  6
CONTINUOUS
 62
     3
100
AcDbLine
 10
118.233485
 20
179.794776
 30
0.0
 11
118.233485
 21
180.394776
 31
0.0
  0
LINE
  5
18D
330
171
100
AcDbEntity
  8
LAYERGROUP-1
  6
CONTINUOUS
 62
     3
100
AcDbLine
 10
116.733485
 20
180.394776
 30
0.0
 11
116.733485
 21
180.094776
 31
0.0
  0
LINE
  5
18E
330
171
100
AcDbEntity
  8
LAYERGROUP-1
  6
CONTINUOUS
 62
     3
100
AcDbLine
 10
116.733485
 20
180.394776
 30
0.0
 11
115.983485
 21
180.394776
 31
0.0
  0
LINE
  5
18F
330
171
100
AcDbEntity
  8
LAYERGROUP-1
  6
CONTINUOUS
 62
     3
100
AcDbLine
 10
119.586371
 20
179.794776
 30
0.0
 11
118.233485
 21
179.794776
 31
0.0
  0
ARC
  5
190
330
171
100
AcDbEntity
  8
LAYERGROUP-1
  6
CONTINUOUS
 62
     3
100
AcDbCircle
 10
117.483485
 20
180.394776
 30
0.0
 40
0.75
100
AcDbArc
 50
0.0
 51
180.0
  0
LINE
  5
191
330
171
100
AcDbEntity
  8
LAYERGROUP-1
  6
CONTINUOUS
 62
     3
100
AcDbLine
 10
128.733485
 20
175.669776
 30
0.0
 11
129.483485
 21
175.669776
 31
0.0
  0
LINE
  5
192
330
171
100
AcDbEntity
  8
LAYERGROUP-1
  6
CONTINUOUS
 62
     3
100
AcDbLine
 10
129.483485
 20
175.669776
 30
0.0
 11
129.483485
 21
179.044776
 31
0.0
  0
LINE
  5
193
330
171
100
AcDbEntity
  8
LAYERGROUP-1
  6
CONTINUOUS
 62
     3
100
AcDbLine
 10
129.483485
 20
179.044776
 30
0.0
 11
128.733485
 21
179.794776
 31
0.0
  0
LINE
  5
194
330
171
100
AcDbEntity
  8
LAYERGROUP-1
  6
CONTINUOUS
 62
     3
100
AcDbLine
 10
128.733485
 20
179.794776
 30
0.0
 11
128.733485
 21
180.394776
 31
0.0
  0
LINE
  5
195
330
171
100
AcDbEntity
  8
LAYERGROUP-1
  6
CONTINUOUS
 62
     3
100
AcDbLine
 10
130.233485
 20
180.394776
 30
0.0
 11
130.233485
 21
180.094776
 31
0.0
  0
LINE
  5
196
330
171
100
AcDbEntity
  8
LAYERGROUP-1
  6
CONTINUOUS
 62
     3
100
AcDbLine
 10
130.233485
 20
180.394776
 30
0.0
 11
130.983485
 21
180.394776
 31
0.0
  0
LINE
  5
197
330
171
100
AcDbEntity
  8
LAYERGROUP-1
  6
CONTINUOUS
 62
     3
100
AcDbLine
 10
127.3806
 20
179.794776
 30
0.0
 11
128.733485
 21
179.794776
 31
0.0
  0
ARC
  5
198
330
171
100
AcDbEntity
  8
LAYERGROUP-1
  6
CONTINUOUS
 62
     3
100
AcDbCircle
 10
129.483485
 20
180.394776
 30
0.0
 40
0.75
100
AcDbArc
 50
0.0
 51
180.0
  0
LINE
  5
199
330
171
100
AcDbEntity
  8
LAYERGROUP-1
  6
CONTINUOUS
 62
     3
100
AcDbLine
 10
118.233485
 20
140.919776
 30
0.0
 11
117.483485
 21
140.919776
 31
0.0
  0
LINE
  5
19A
330
171
100
AcDbEntity
  8
LAYERGROUP-1
  6
CONTINUOUS
 62
     3
100
AcDbLine
 10
117.483485
 20
140.919776
 30
0.0
 11
117.483485
 21
137.544776
 31
0.0
  0
LINE
  5
19B
330
171
100
AcDbEntity
  8
LAYERGROUP-1
  6
CONTINUOUS
 62
     3
100
AcDbLine
 10
117.483485
 20
137.544776
 30
0.0
 11
118.233485
 21
136.794776
 31
0.0
  0
LINE
  5
19C
330
171
100
AcDbEntity
  8
LAYERGROUP-1
  6
CONTINUOUS
 62
     3
100
AcDbLine
 10
118.233485
 20
136.794776
 30
0.0
 11
118.233485
 21
136.194776
 31
0.0
  0
LINE
  5
19D
330
171
100
AcDbEntity
  8
LAYERGROUP-1
  6
CONTINUOUS
 62
     3
100
AcDbLine
 10
116.733485
 20
136.194776
 30
0.0
 11
116.733485
 21
136.494776
 31
0.0
  0
LINE
  5
19E
330
171
100
AcDbEntity
  8
LAYERGROUP-1
  6
CONTINUOUS
 62
     3
100
AcDbLine
 10
116.733485
 20
136.194776
 30
0.0
 11
115.983485
 21
136.194776
 31
0.0
  0
LINE
  5
19F
330
171
100
AcDbEntity
  8
LAYERGROUP-1
  6
CONTINUOUS
 62
     3
100
AcDbLine
 10
119.586371
 20
136.794776
 30
0.0
 11
118.233485
 21
136.794776
 31
0.0
  0
ARC
  5
1A0
330
171
100
AcDbEntity
  8
LAYERGROUP-1
  6
CONTINUOUS
 62
     3
100
AcDbCircle
 10
117.483485
 20
136.194776
 30
0.0
 40
0.75
100
AcDbArc
 50
180.0
 51
360.0
  0
LINE
  5
1A1
330
171
100
AcDbEntity
  8
LAYERGROUP-1
  6
CONTINUOUS
 62
     3
100
AcDbLine
 10
128.733485
 20
140.919776
 30
0.0
 11
129.483485
 21
140.919776
 31
0.0
  0
LINE
  5
1A2
330
171
100
AcDbEntity
  8
LAYERGROUP-1
  6
CONTINUOUS
 62
     3
100
AcDbLine
 10
129.483485
 20
140.919776
 30
0.0
 11
129.483485
 21
137.544776
 31
0.0
  0
LINE
  5
1A3
330
171
100
AcDbEntity
  8
LAYERGROUP-1
  6
CONTINUOUS
 62
     3
100
AcDbLine
 10
129.483485
 20
137.544776
 30
0.0
 11
128.733485
 21
136.794776
 31
0.0
  0
LINE
  5
1A4
330
171
100
AcDbEntity
  8
LAYERGROUP-1
  6
CONTINUOUS
 62
     3
100
AcDbLine
 10
128.733485
 20
136.794776
 30
0.0
 11
128.733485
 21
136.194776
 31
0.0
  0
LINE
  5
1A5
330
171
100
AcDbEntity
  8
LAYERGROUP-1
  6
CONTINUOUS
 62
     3
100
AcDbLine
 10
130.233485
 20
136.194776
 30
0.0
 11
130.233485
 21
136.494776
 31
0.0
  0
LINE
  5
1A6
330
171
100
AcDbEntity
  8
LAYERGROUP-1
  6
CONTINUOUS
 62
     3
100
AcDbLine
 10
130.233485
 20
136.194776
 30
0.0
 11
130.983485
 21
136.194776
 31
0.0
  0
LINE
  5
1A7
330
171
100
AcDbEntity
  8
LAYERGROUP-1
  6
CONTINUOUS
 62
     3
100
AcDbLine
 10
127.3806
 20
136.794776
 30
0.0
 11
128.733485
 21
136.794776
 31
0.0
  0
ARC
  5
1A8
330
171
100
AcDbEntity
  8
LAYERGROUP-1
  6
CONTINUOUS
 62
     3
100
AcDbCircle
 10
129.483485
 20
136.194776
 30
0.0
 40
0.75
100
AcDbArc
 50
180.0
 51
360.0
  0
LINE
  5
1A9
330
171
100
AcDbEntity
  8
LAYERGROUP-1
  6
CONTINUOUS
 62
     3
100
AcDbLine
 10
115.983485
 20
182.794776
 30
0.0
 11
115.983485
 21
171.794776
 31
0.0
  0
LINE
  5
1AA
330
171
100
AcDbEntity
  8
LAYERGROUP-1
  6
CONTINUOUS
 62
     3
100
AcDbLine
 10
117.483485
 20
184.294776
 30
0.0
 11
129.983485
 21
184.294776
 31
0.0
  0
ENDBLK
  5
173
330
171
100
AcDbEntity
  8
0
100
AcDbBlockEnd
  0
BLOCK
  5
1C3
330
1C2
100
AcDbEntity
  8
0
100
AcDbBlockBegin
  2
BLKF023
 70
     0
 71
     0
 10
0.0
 20
0.0
 30
0.0
  3
BLKF023
  1

  0
LINE
  5
1C7
330
1C2
100
AcDbEntity
  8
GR1-1
  6
CONTINUOUS
 62
     7
100
AcDbLine
 10
247.881088
 20
232.624028
 30
0.0
 11
247.963257
 21
233.015498
 31
0.0
  0
LINE
  5
1C8
330
1C2
100
AcDbEntity
  8
GR1-1
  6
CONTINUOUS
 62
     7
100
AcDbLine
 10
247.644268
 20
232.469378
 30
0.0
 11
247.808607
 21
233.252317
 31
0.0
  0
LINE
  5
1C9
330
1C2
100
AcDbEntity
  8
GR1-1
  6
CONTINUOUS
 62
     7
100
AcDbLine
 10
247.407449
 20
232.314728
 30
0.0
 11
247.653957
 21
233.489136
 31
0.0
  0
LINE
  5
1CA
330
1C2
100
AcDbEntity
  8
GR1-1
  6
CONTINUOUS
 62
     7
100
AcDbLine
 10
247.17063
 20
232.160078
 30
0.0
 11
247.499307
 21
233.725955
 31
0.0
  0
LINE
  5
1CB
330
1C2
100
AcDbEntity
  8
GR1-1
  6
CONTINUOUS
 62
     7
100
AcDbLine
 10
246.93381
 20
232.005428
 30
0.0
 11
247.217257
 21
233.35582
 31
0.0
  0
LINE
  5
1CC
330
1C2
100
AcDbEntity
  8
GR1-1
  6
CONTINUOUS
 62
     7
100
AcDbLine
 10
247.294813
 20
233.725309
 30
0.0
 11
247.344657
 21
233.962775
 31
0.0
  0
LINE
  5
1CD
330
1C2
100
AcDbEntity
  8
GR1-1
  6
CONTINUOUS
 62
     7
100
AcDbLine
 10
246.696991
 20
231.850778
 30
0.0
 11
246.980438
 21
233.20117
 31
0.0
  0
LINE
  5
1CE
330
1C2
100
AcDbEntity
  8
GR1-1
  6
CONTINUOUS
 62
     7
100
AcDbLine
 10
247.140163
 20
233.962128
 30
0.0
 11
247.190007
 21
234.199594
 31
0.0
  0
LINE
  5
1CF
330
1C2
100
AcDbEntity
  8
GR1-1
  6
CONTINUOUS
 62
     7
100
AcDbLine
 10
246.460172
 20
231.696128
 30
0.0
 11
246.743619
 21
233.04652
 31
0.0
  0
LINE
  5
1D0
330
1C2
100
AcDbEntity
  8
GR1-1
  6
CONTINUOUS
 62
     7
100
AcDbLine
 10
246.985513
 20
234.198947
 30
0.0
 11
247.035357
 21
234.436413
 31
0.0
  0
LINE
  5
1D1
330
1C2
100
AcDbEntity
  8
GR1-1
  6
CONTINUOUS
 62
     7
100
AcDbLine
 10
246.223353
 20
231.541478
 30
0.0
 11
246.540351
 21
233.051714
 31
0.0
  0
LINE
  5
1D2
330
1C2
100
AcDbEntity
  8
GR1-1
  6
CONTINUOUS
 62
     7
100
AcDbLine
 10
246.830863
 20
234.435767
 30
0.0
 11
246.880707
 21
234.673233
 31
0.0
  0
LINE
  5
1D3
330
1C2
100
AcDbEntity
  8
GR1-1
  6
CONTINUOUS
 62
     7
100
AcDbLine
 10
245.986533
 20
231.386828
 30
0.0
 11
246.385701
 21
233.288533
 31
0.0
  0
LINE
  5
1D4
330
1C2
100
AcDbEntity
  8
GR1-1
  6
CONTINUOUS
 62
     7
100
AcDbLine
 10
246.676213
 20
234.672586
 30
0.0
 11
246.726057
 21
234.910052
 31
0.0
  0
LINE
  5
1D5
330
1C2
100
AcDbEntity
  8
GR1-1
  6
CONTINUOUS
 62
     7
100
AcDbLine
 10
245.749714
 20
231.232178
 30
0.0
 11
246.231051
 21
233.525352
 31
0.0
  0
LINE
  5
1D6
330
1C2
100
AcDbEntity
  8
GR1-1
  6
CONTINUOUS
 62
     7
100
AcDbLine
 10
246.521563
 20
234.909405
 30
0.0
 11
246.571407
 21
235.146871
 31
0.0
  0
LINE
  5
1D7
330
1C2
100
AcDbEntity
  8
GR1-1
  6
CONTINUOUS
 62
     7
100
AcDbLine
 10
245.512895
 20
231.077528
 30
0.0
 11
246.052393
 21
233.647797
 31
0.0
  0
LINE
  5
1D8
330
1C2
100
AcDbEntity
  8
GR1-1
  6
CONTINUOUS
 62
     7
100
AcDbLine
 10
246.366913
 20
235.146225
 30
0.0
 11
246.416757
 21
235.383691
 31
0.0
  0
LINE
  5
1D9
330
1C2
100
AcDbEntity
  8
GR1-1
  6
CONTINUOUS
 62
     7
100
AcDbLine
 10
245.276075
 20
230.922878
 30
0.0
 11
245.358245
 21
231.314348
 31
0.0
  0
LINE
  5
1DA
330
1C2
100
AcDbEntity
  8
GR1-1
  6
CONTINUOUS
 62
     7
100
AcDbLine
 10
246.147612
 20
235.075037
 30
0.0
 11
246.262107
 21
235.62051
 31
0.0
  0
LINE
  5
1DB
330
1C2
100
AcDbEntity
  8
GR1-1
  6
CONTINUOUS
 62
     7
100
AcDbLine
 10
245.039256
 20
230.768228
 30
0.0
 11
245.16251
 21
231.355432
 31
0.0
  0
LINE
  5
1DC
330
1C2
100
AcDbEntity
  8
GR1-1
  6
CONTINUOUS
 62
     7
100
AcDbLine
 10
245.910793
 20
234.920387
 30
0.0
 11
246.107457
 21
235.857329
 31
0.0
  0
LINE
  5
1DD
330
1C2
100
AcDbEntity
  8
GR1-1
  6
CONTINUOUS
 62
     7
100
AcDbLine
 10
244.802437
 20
230.613578
 30
0.0
 11
244.966775
 21
231.396517
 31
0.0
  0
LINE
  5
1DE
330
1C2
100
AcDbEntity
  8
GR1-1
  6
CONTINUOUS
 62
     7
100
AcDbLine
 10
245.673974
 20
234.765737
 30
0.0
 11
245.761128
 21
235.180953
 31
0.0
  0
LINE
  5
1DF
330
1C2
100
AcDbEntity
  8
GR1-1
  6
CONTINUOUS
 62
     7
100
AcDbLine
 10
245.788468
 20
235.31121
 30
0.0
 11
245.952807
 21
236.094148
 31
0.0
  0
LINE
  5
1E0
330
1C2
100
AcDbEntity
  8
GR1-1
  6
CONTINUOUS
 62
     7
100
AcDbLine
 10
244.565617
 20
230.458928
 30
0.0
 11
244.771041
 21
231.437602
 31
0.0
  0
LINE
  5
1E1
330
1C2
100
AcDbEntity
  8
GR1-1
  6
CONTINUOUS
 62
     7
100
AcDbLine
 10
245.437155
 20
234.611087
 30
0.0
 11
245.524308
 21
235.026303
 31
0.0
  0
LINE
  5
1E2
330
1C2
100
AcDbEntity
  8
GR1-1
  6
CONTINUOUS
 62
     7
100
AcDbLine
 10
245.592734
 20
235.352295
 30
0.0
 11
245.798157
 21
236.330968
 31
0.0
  0
LINE
  5
1E3
330
1C2
100
AcDbEntity
  8
GR1-1
  6
CONTINUOUS
 62
     7
100
AcDbLine
 10
244.328798
 20
230.304278
 30
0.0
 11
244.575306
 21
231.478686
 31
0.0
  0
LINE
  5
1E4
330
1C2
100
AcDbEntity
  8
GR1-1
  6
CONTINUOUS
 62
     7
100
AcDbLine
 10
245.200335
 20
234.456437
 30
0.0
 11
245.287489
 21
234.871653
 31
0.0
  0
LINE
  5
1E5
330
1C2
100
AcDbEntity
  8
GR1-1
  6
CONTINUOUS
 62
     7
100
AcDbLine
 10
245.396999
 20
235.393379
 30
0.0
 11
245.643507
 21
236.567787
 31
0.0
  0
LINE
  5
1E6
330
1C2
100
AcDbEntity
  8
GR1-1
  6
CONTINUOUS
 62
     7
100
AcDbLine
 10
244.091979
 20
230.149628
 30
0.0
 11
244.379571
 21
231.519771
 31
0.0
  0
LINE
  5
1E7
330
1C2
100
AcDbEntity
  8
GR1-1
  6
CONTINUOUS
 62
     7
100
AcDbLine
 10
244.584995
 20
232.498444
 30
0.0
 11
244.817819
 21
233.607659
 31
0.0
  0
LINE
  5
1E8
330
1C2
100
AcDbEntity
  8
GR1-1
  6
CONTINUOUS
 62
     7
100
AcDbLine
 10
244.963516
 20
234.301787
 30
0.0
 11
245.05067
 21
234.717003
 31
0.0
  0
LINE
  5
1E9
330
1C2
100
AcDbEntity
  8
GR1-1
  6
CONTINUOUS
 62
     7
100
AcDbLine
 10
245.201264
 20
235.434464
 30
0.0
 11
245.488857
 21
236.804606
 31
0.0
  0
LINE
  5
1EA
330
1C2
100
AcDbEntity
  8
GR1-1
  6
CONTINUOUS
 62
     7
100
AcDbLine
 10
243.85516
 20
229.994978
 30
0.0
 11
244.183837
 21
231.560856
 31
0.0
  0
LINE
  5
1EB
330
1C2
100
AcDbEntity
  8
GR1-1
  6
CONTINUOUS
 62
     7
100
AcDbLine
 10
244.38926
 20
232.539529
 30
0.0
 11
244.58144
 21
233.455111
 31
0.0
  0
LINE
  5
1EC
330
1C2
100
AcDbEntity
  8
GR1-1
  6
CONTINUOUS
 62
     7
100
AcDbLine
 10
244.726697
 20
234.147137
 30
0.0
 11
244.81385
 21
234.562353
 31
0.0
  0
LINE
  5
1ED
330
1C2
100
AcDbEntity
  8
GR1-1
  6
CONTINUOUS
 62
     7
100
AcDbLine
 10
245.00553
 20
235.475548
 30
0.0
 11
245.334207
 21
237.041426
 31
0.0
  0
LINE
  5
1EE
330
1C2
100
AcDbEntity
  8
GR1-1
  6
CONTINUOUS
 62
     7
100
AcDbLine
 10
243.61834
 20
229.840328
 30
0.0
 11
243.988102
 21
231.60194
 31
0.0
  0
LINE
  5
1EF
330
1C2
100
AcDbEntity
  8
GR1-1
  6
CONTINUOUS
 62
     7
100
AcDbLine
 10
244.193525
 20
232.580613
 30
0.0
 11
244.344621
 21
233.300461
 31
0.0
  0
LINE
  5
1F0
330
1C2
100
AcDbEntity
  8
GR1-1
  6
CONTINUOUS
 62
     7
100
AcDbLine
 10
244.489877
 20
233.992487
 30
0.0
 11
244.604372
 21
234.53796
 31
0.0
  0
LINE
  5
1F1
330
1C2
100
AcDbEntity
  8
GR1-1
  6
CONTINUOUS
 62
     7
100
AcDbLine
 10
244.809795
 20
235.516633
 30
0.0
 11
245.179557
 21
237.278245
 31
0.0
  0
LINE
  5
1F2
330
1C2
100
AcDbEntity
  8
GR1-1
  6
CONTINUOUS
 62
     7
100
AcDbLine
 10
243.381521
 20
229.685678
 30
0.0
 11
243.792367
 21
231.643025
 31
0.0
  0
LINE
  5
1F3
330
1C2
100
AcDbEntity
  8
GR1-1
  6
CONTINUOUS
 62
     7
100
AcDbLine
 10
243.997791
 20
232.621698
 30
0.0
 11
244.15337
 21
233.362905
 31
0.0
  0
LINE
  5
1F4
330
1C2
100
AcDbEntity
  8
GR1-1
  6
CONTINUOUS
 62
     7
100
AcDbLine
 10
244.253058
 20
233.837837
 30
0.0
 11
244.408637
 21
234.579045
 31
0.0
  0
LINE
  5
1F5
330
1C2
100
AcDbEntity
  8
GR1-1
  6
CONTINUOUS
 62
     7
100
AcDbLine
 10
244.614061
 20
235.557718
 30
0.0
 11
245.024907
 21
237.515064
 31
0.0
  0
LINE
  5
1F6
330
1C2
100
AcDbEntity
  8
GR1-1
  6
CONTINUOUS
 62
     7
100
AcDbLine
 10
243.144702
 20
229.531028
 30
0.0
 11
243.596633
 21
231.68411
 31
0.0
  0
LINE
  5
1F7
330
1C2
100
AcDbEntity
  8
GR1-1
  6
CONTINUOUS
 62
     7
100
AcDbLine
 10
243.802056
 20
232.662783
 30
0.0
 11
243.99872
 21
233.599725
 31
0.0
  0
LINE
  5
1F8
330
1C2
100
AcDbEntity
  8
GR1-1
  6
CONTINUOUS
 62
     7
100
AcDbLine
 10
244.016239
 20
233.683187
 30
0.0
 11
244.212903
 21
234.620129
 31
0.0
  0
LINE
  5
1F9
330
1C2
100
AcDbEntity
  8
GR1-1
  6
CONTINUOUS
 62
     7
100
AcDbLine
 10
244.418326
 20
235.598802
 30
0.0
 11
244.870257
 21
237.751884
 31
0.0
  0
LINE
  5
1FA
330
1C2
100
AcDbEntity
  8
GR1-1
  6
CONTINUOUS
 62
     7
100
AcDbLine
 10
242.972533
 20
229.684385
 30
0.0
 11
243.400898
 21
231.725194
 31
0.0
  0
LINE
  5
1FB
330
1C2
100
AcDbEntity
  8
GR1-1
  6
CONTINUOUS
 62
     7
100
AcDbLine
 10
243.606321
 20
232.703867
 30
0.0
 11
244.017168
 21
234.661214
 31
0.0
  0
LINE
  5
1FC
330
1C2
100
AcDbEntity
  8
GR1-1
  6
CONTINUOUS
 62
     7
100
AcDbLine
 10
244.222591
 20
235.639887
 30
0.0
 11
244.650957
 21
237.680696
 31
0.0
  0
LINE
  5
1FD
330
1C2
100
AcDbEntity
  8
GR1-1
  6
CONTINUOUS
 62
     7
100
AcDbLine
 10
242.817883
 20
229.921204
 30
0.0
 11
243.205164
 21
231.766279
 31
0.0
  0
LINE
  5
1FE
330
1C2
100
AcDbEntity
  8
GR1-1
  6
CONTINUOUS
 62
     7
100
AcDbLine
 10
243.410587
 20
232.744952
 30
0.0
 11
243.821433
 21
234.702299
 31
0.0
  0
LINE
  5
1FF
330
1C2
100
AcDbEntity
  8
GR1-1
  6
CONTINUOUS
 62
     7
100
AcDbLine
 10
244.026857
 20
235.680972
 30
0.0
 11
244.414137
 21
237.526046
 31
0.0
  0
LINE
  5
200
330
1C2
100
AcDbEntity
  8
GR1-1
  6
CONTINUOUS
 62
     7
100
AcDbLine
 10
242.663233
 20
230.158024
 30
0.0
 11
243.009429
 21
231.807363
 31
0.0
  0
LINE
  5
201
330
1C2
100
AcDbEntity
  8
GR1-1
  6
CONTINUOUS
 62
     7
100
AcDbLine
 10
243.214852
 20
232.786037
 30
0.0
 11
243.625699
 21
234.743383
 31
0.0
  0
LINE
  5
202
330
1C2
100
AcDbEntity
  8
GR1-1
  6
CONTINUOUS
 62
     7
100
AcDbLine
 10
243.831122
 20
235.722056
 30
0.0
 11
244.177318
 21
237.371396
 31
0.0
  0
LINE
  5
203
330
1C2
100
AcDbEntity
  8
GR1-1
  6
CONTINUOUS
 62
     7
100
AcDbLine
 10
242.508583
 20
230.394843
 30
0.0
 11
242.813694
 21
231.848448
 31
0.0
  0
LINE
  5
204
330
1C2
100
AcDbEntity
  8
GR1-1
  6
CONTINUOUS
 62
     7
100
AcDbLine
 10
243.019118
 20
232.827121
 30
0.0
 11
243.429964
 21
234.784468
 31
0.0
  0
LINE
  5
205
330
1C2
100
AcDbEntity
  8
GR1-1
  6
CONTINUOUS
 62
     7
100
AcDbLine
 10
243.635387
 20
235.763141
 30
0.0
 11
243.940499
 21
237.216746
 31
0.0
  0
LINE
  5
206
330
1C2
100
AcDbEntity
  8
GR1-1
  6
CONTINUOUS
 62
     7
100
AcDbLine
 10
242.353933
 20
230.631662
 30
0.0
 11
242.61796
 21
231.889533
 31
0.0
  0
LINE
  5
207
330
1C2
100
AcDbEntity
  8
GR1-1
  6
CONTINUOUS
 62
     7
100
AcDbLine
 10
242.823383
 20
232.868206
 30
0.0
 11
243.234229
 21
234.825552
 31
0.0
  0
LINE
  5
208
330
1C2
100
AcDbEntity
  8
GR1-1
  6
CONTINUOUS
 62
     7
100
AcDbLine
 10
243.439653
 20
235.804226
 30
0.0
 11
243.703679
 21
237.062096
 31
0.0
  0
LINE
  5
209
330
1C2
100
AcDbEntity
  8
GR1-1
  6
CONTINUOUS
 62
     7
100
AcDbLine
 10
242.199283
 20
230.868482
 30
0.0
 11
242.422225
 21
231.930617
 31
0.0
  0
LINE
  5
20A
330
1C2
100
AcDbEntity
  8
GR1-1
  6
CONTINUOUS
 62
     7
100
AcDbLine
 10
243.243918
 20
235.84531
 30
0.0
 11
243.46686
 21
236.907446
 31
0.0
  0
LINE
  5
20B
330
1C2
100
AcDbEntity
  8
GR1-1
  6
CONTINUOUS
 62
     7
100
AcDbLine
 10
242.044633
 20
231.105301
 30
0.0
 11
242.22649
 21
231.971702
 31
0.0
  0
LINE
  5
20C
330
1C2
100
AcDbEntity
  8
GR1-1
  6
CONTINUOUS
 62
     7
100
AcDbLine
 10
243.048183
 20
235.886395
 30
0.0
 11
243.230041
 21
236.752796
 31
0.0
  0
LINE
  5
20D
330
1C2
100
AcDbEntity
  8
GR1-1
  6
CONTINUOUS
 62
     7
100
AcDbLine
 10
241.889983
 20
231.34212
 30
0.0
 11
242.030756
 21
232.012787
 31
0.0
  0
LINE
  5
20E
330
1C2
100
AcDbEntity
  8
GR1-1
  6
CONTINUOUS
 62
     7
100
AcDbLine
 10
242.852449
 20
235.92748
 30
0.0
 11
242.993221
 21
236.598146
 31
0.0
  0
LINE
  5
20F
330
1C2
100
AcDbEntity
  8
GR1-1
  6
CONTINUOUS
 62
     7
100
AcDbLine
 10
241.735333
 20
231.57894
 30
0.0
 11
241.835021
 21
232.053871
 31
0.0
  0
LINE
  5
210
330
1C2
100
AcDbEntity
  8
GR1-1
  6
CONTINUOUS
 62
     7
100
AcDbLine
 10
242.656714
 20
235.968564
 30
0.0
 11
242.756402
 21
236.443496
 31
0.0
  0
LINE
  5
211
330
1C2
100
AcDbEntity
  8
GR1-1
  6
CONTINUOUS
 62
     7
100
AcDbLine
 10
241.580683
 20
231.815759
 30
0.0
 11
241.639286
 21
232.094956
 31
0.0
  0
LINE
  5
212
330
1C2
100
AcDbEntity
  8
GR1-1
  6
CONTINUOUS
 62
     7
100
AcDbLine
 10
242.460979
 20
236.009649
 30
0.0
 11
242.519583
 21
236.288846
 31
0.0
  0
LINE
  5
213
330
1C2
100
AcDbEntity
  8
GR1-1
  6
CONTINUOUS
 62
     7
100
AcDbLine
 10
241.426033
 20
232.052578
 30
0.0
 11
242.282764
 21
236.134196
 31
0.0
  0
LINE
  5
214
330
1C2
100
AcDbEntity
  8
GR1-1
  6
CONTINUOUS
 62
     7
100
AcDbLine
 10
241.271383
 20
232.289397
 30
0.0
 11
242.045944
 21
235.979546
 31
0.0
  0
LINE
  5
215
330
1C2
100
AcDbEntity
  8
GR1-1
  6
CONTINUOUS
 62
     7
100
AcDbLine
 10
241.116733
 20
232.526217
 30
0.0
 11
241.809125
 21
235.824896
 31
0.0
  0
LINE
  5
216
330
1C2
100
AcDbEntity
  8
GR1-1
  6
CONTINUOUS
 62
     7
100
AcDbLine
 10
240.962083
 20
232.763036
 30
0.0
 11
241.572306
 21
235.670246
 31
0.0
  0
LINE
  5
217
330
1C2
100
AcDbEntity
  8
GR1-1
  6
CONTINUOUS
 62
     7
100
AcDbLine
 10
240.807433
 20
232.999855
 30
0.0
 11
241.335486
 21
235.515596
 31
0.0
  0
LINE
  5
218
330
1C2
100
AcDbEntity
  8
GR1-1
  6
CONTINUOUS
 62
     7
100
AcDbLine
 10
240.652783
 20
233.236675
 30
0.0
 11
241.098667
 21
235.360946
 31
0.0
  0
LINE
  5
219
330
1C2
100
AcDbEntity
  8
GR1-1
  6
CONTINUOUS
 62
     7
100
AcDbLine
 10
240.498133
 20
233.473494
 30
0.0
 11
240.861848
 21
235.206296
 31
0.0
  0
LINE
  5
21A
330
1C2
100
AcDbEntity
  8
GR1-1
  6
CONTINUOUS
 62
     7
100
AcDbLine
 10
240.343483
 20
233.710313
 30
0.0
 11
240.625029
 21
235.051646
 31
0.0
  0
LINE
  5
21B
330
1C2
100
AcDbEntity
  8
GR1-1
  6
CONTINUOUS
 62
     7
100
AcDbLine
 10
240.188833
 20
233.947132
 30
0.0
 11
240.388209
 21
234.896996
 31
0.0
  0
LINE
  5
21C
330
1C2
100
AcDbEntity
  8
GR1-1
  6
CONTINUOUS
 62
     7
100
AcDbLine
 10
240.034183
 20
234.183952
 30
0.0
 11
240.15139
 21
234.742346
 31
0.0
  0
LINE
  5
21D
330
1C2
100
AcDbEntity
  8
GR1-1
  6
CONTINUOUS
 62
     7
100
AcDbLine
 10
239.879533
 20
234.420771
 30
0.0
 11
239.914571
 21
234.587696
 31
0.0
  0
ENDBLK
  5
1C4
330
1C2
100
AcDbEntity
  8
0
100
AcDbBlockEnd
  0
BLOCK
  5
245
330
244
100
AcDbEntity
  8
0
100
AcDbBlockBegin
  2
*D22
 70
     1
 71
     0
 10
0.0
 20
0.0
 30
0.0
  3
*D22
  1

  0
TEXT
  5
247
330
244
100
AcDbEntity
  8
LAYERGROUP-1
  6
CONTINUOUS
 62
     7
100
AcDbText
 10
147.230011
 20
153.794769
 30
0.0
 40
4.0
  1
%%c25
 50
90.0
 41
0.84375
  7
FX_VECTOR
 72
     5
 11
147.230011
 21
162.794769
 31
0.0
100
AcDbText
  0
LINE
  5
248
330
244
100
AcDbEntity
  8
LAYERGROUP-1
  6
CONTINUOUS
 62
     7
100
AcDbLine
 10
148.230007
 20
145.794776
 30
0.0
 11
148.230007
 21
170.794776
 31
0.0
  0
INSERT
  5
249
330
244
100
AcDbEntity
  8
LAYERGROUP-1
  6
CONTINUOUS
 62
     7
100
AcDbBlockReference
  2
FXTIP_ARROW_S
 10
148.230007
 20
145.794776
 30
0.0
 41
4.0
 42
4.0
 50
270.0
  0
INSERT
  5
24A
330
244
100
AcDbEntity
  8
LAYERGROUP-1
  6
CONTINUOUS
 62
     7
100
AcDbBlockReference
  2
FXTIP_ARROW_E
 10
148.230007
 20
170.794776
 30
0.0
 41
4.0
 42
4.0
 50
90.0
  0
LINE
  5
24B
330
244
100
AcDbEntity
  8
LAYERGROUP-1
  6
CONTINUOUS
 62
     7
100
AcDbLine
 10
133.983485
 20
145.794776
 30
0.0
 11
149.230007
 21
145.794776
 31
0.0
  0
LINE
  5
24C
330
244
100
AcDbEntity
  8
LAYERGROUP-1
  6
CONTINUOUS
 62
     7
100
AcDbLine
 10
133.983485
 20
170.794776
 30
0.0
 11
149.230007
 21
170.794776
 31
0.0
  0
ENDBLK
  5
246
330
244
100
AcDbEntity
  8
0
100
AcDbBlockEnd
  0
BLOCK
  5
24F
330
24E
100
AcDbEntity
  8
0
100
AcDbBlockBegin
  2
*D23
 70
     1
 71
     0
 10
0.0
 20
0.0
 30
0.0
  3
*D23
  1

  0
TEXT
  5
251
330
24E
100
AcDbEntity
  8
LAYERGROUP-1
  6
CONTINUOUS
 62
     7
100
AcDbText
 10
160.572952
 20
152.294769
 30
0.0
 40
4.0
  1
%%c200
 50
90.0
 41
0.828947
  7
FX_VECTOR
 72
     5
 11
160.572952
 21
164.294769
 31
0.0
100
AcDbText
  0
LINE
  5
252
330
24E
100
AcDbEntity
  8
LAYERGROUP-1
  6
CONTINUOUS
 62
     7
100
AcDbLine
 10
161.572958
 20
58.294776
 30
0.0
 11
161.572958
 21
258.294776
 31
0.0
  0
INSERT
  5
253
330
24E
100
AcDbEntity
  8
LAYERGROUP-1
  6
CONTINUOUS
 62
     7
100
AcDbBlockReference
  2
FXTIP_ARROW_S
 10
161.572958
 20
58.294776
 30
0.0
 41
4.0
 42
4.0
 50
270.0
  0
INSERT
  5
254
330
24E
100
AcDbEntity
  8
LAYERGROUP-1
  6
CONTINUOUS
 62
     7
100
AcDbBlockReference
  2
FXTIP_ARROW_E
 10
161.572958
 20
258.294776
 30
0.0
 41
4.0
 42
4.0
 50
90.0
  0
LINE
  5
255
330
24E
100
AcDbEntity
  8
LAYERGROUP-1
  6
CONTINUOUS
 62
     7
100
AcDbLine
 10
99.483485
 20
58.294776
 30
0.0
 11
162.572958
 21
58.294776
 31
0.0
  0
LINE
  5
256
330
24E
100
AcDbEntity
  8
LAYERGROUP-1
  6
CONTINUOUS
 62
     7
100
AcDbLine
 10
98.483485
 20
258.294776
 30
0.0
 11
162.572958
 21
258.294776
 31
0.0
  0
ENDBLK
  5
250
330
24E
100
AcDbEntity
  8
0
100
AcDbBlockEnd
  0
BLOCK
  5
259
330
258
100
AcDbEntity
  8
0
100
AcDbBlockBegin
  2
*D24
 70
     1
 71
     0
 10
0.0
 20
0.0
 30
0.0
  3
*D24
  1

  0
TEXT
  5
25B
330
258
100
AcDbEntity
  8
LAYERGROUP-1
  6
CONTINUOUS
 62
     7
100
AcDbText
 10
95.483482
 20
43.960632
 30
0.0
 40
4.0
  1
63
 41
0.851351
  7
FX_VECTOR
 72
     5
 11
101.483482
 21
43.960632
 31
0.0
100
AcDbText
  0
LINE
  5
25C
330
258
100
AcDbEntity
  8
LAYERGROUP-1
  6
CONTINUOUS
 62
     7
100
AcDbLine
 10
66.983485
 20
42.96063
 30
0.0
 11
129.983485
 21
42.96063
 31
0.0
  0
INSERT
  5
25D
330
258
100
AcDbEntity
  8
LAYERGROUP-1
  6
CONTINUOUS
 62
     7
100
AcDbBlockReference
  2
FXTIP_ARROW_S
 10
66.983485
 20
42.96063
 30
0.0
 41
4.0
 42
4.0
 50
180.0
  0
INSERT
  5
25E
330
258
100
AcDbEntity
  8
LAYERGROUP-1
  6
CONTINUOUS
 62
     7
100
AcDbBlockReference
  2
FXTIP_ARROW_E
 10
129.983485
 20
42.96063
 30
0.0
 41
4.0
 42
4.0
 50
360.0
  0
LINE
  5
25F
330
258
100
AcDbEntity
  8
LAYERGROUP-1
  6
CONTINUOUS
 62
     7
100
AcDbLine
 10
66.983485
 20
75.294776
 30
0.0
 11
66.983485
 21
41.96063
 31
0.0
  0
LINE
  5
260
330
258
100
AcDbEntity
  8
LAYERGROUP-1
  6
CONTINUOUS
 62
     7
100
AcDbLine
 10
129.983485
 20
75.294776
 30
0.0
 11
129.983485
 21
41.96063
 31
0.0
  0
ENDBLK
  5
25A
330
258
100
AcDbEntity
  8
0
100
AcDbBlockEnd
  0
BLOCK
  5
263
330
262
100
AcDbEntity
  8
0
100
AcDbBlockBegin
  2
*D25
 70
     1
 71
     0
 10
0.0
 20
0.0
 30
0.0
  3
*D25
  1

  0
TEXT
  5
265
330
262
100
AcDbEntity
  8
LAYERGROUP-1
  6
CONTINUOUS
 62
     7
100
AcDbText
 10
95.483482
 20
33.433014
 30
0.0
 40
4.0
  1
71
 41
1.016129
  7
FX_VECTOR
 72
     5
 11
101.483482
 21
33.433014
 31
0.0
100
AcDbText
  0
LINE
  5
266
330
262
100
AcDbEntity
  8
LAYERGROUP-1
  6
CONTINUOUS
 62
     7
100
AcDbLine
 10
62.983485
 20
32.433013
 30
0.0
 11
133.983485
 21
32.433013
 31
0.0
  0
INSERT
  5
267
330
262
100
AcDbEntity
  8
LAYERGROUP-1
  6
CONTINUOUS
 62
     7
100
AcDbBlockReference
  2
FXTIP_ARROW_S
 10
62.983485
 20
32.433013
 30
0.0
 41
4.0
 42
4.0
 50
180.0
  0
INSERT
  5
268
330
262
100
AcDbEntity
  8
LAYERGROUP-1
  6
CONTINUOUS
 62
     7
100
AcDbBlockReference
  2
FXTIP_ARROW_E
 10
133.983485
 20
32.433013
 30
0.0
 41
4.0
 42
4.0
 50
360.0
  0
LINE
  5
269
330
262
100
AcDbEntity
  8
LAYERGROUP-1
  6
CONTINUOUS
 62
     7
100
AcDbLine
 10
62.983485
 20
141.294776
 30
0.0
 11
62.983485
 21
31.433013
 31
0.0
  0
LINE
  5
26A
330
262
100
AcDbEntity
  8
LAYERGROUP-1
  6
CONTINUOUS
 62
     7
100
AcDbLine
 10
133.983485
 20
141.294776
 30
0.0
 11
133.983485
 21
31.433013
 31
0.0
  0
ENDBLK
  5
264
330
262
100
AcDbEntity
  8
0
100
AcDbBlockEnd
  0
BLOCK
  5
26E
330
26D
100
AcDbEntity
  8
0
100
AcDbBlockBegin
  2
BLKF028
 70
     0
 71
     0
 10
0.0
 20
0.0
 30
0.0
  3
BLKF028
  1

  0
LINE
  5
271
330
26D
100
AcDbEntity
  8
}}ﾊﾊGG血CCТ
  6
CONTINUOUS
 62
     7
100
AcDbLine
 10
10.0
 20
10.0
 30
0.0
 11
410.0
 21
10.0
 31
0.0
  0
LINE
  5
272
330
26D
100
AcDbEntity
  8
}}ﾊﾊGG血CCТ
  6
CONTINUOUS
 62
     7
100
AcDbLine
 10
10.0
 20
10.0
 30
0.0
 11
10.0
 21
287.0
 31
0.0
  0
LINE
  5
273
330
26D
100
AcDbEntity
  8
}}ﾊﾊGG血CCТ
  6
CONTINUOUS
 62
     7
100
AcDbLine
 10
10.0
 20
287.0
 30
0.0
 11
410.0
 21
287.0
 31
0.0
  0
LINE
  5
274
330
26D
100
AcDbEntity
  8
}}ﾊﾊGG血CCТ
  6
CONTINUOUS
 62
     7
100
AcDbLine
 10
410.0
 20
287.0
 30
0.0
 11
410.0
 21
10.0
 31
0.0
  0
LINE
  5
275
330
26D
100
AcDbEntity
  8
}}ﾊﾊGG血CCТ
  6
CONTINUOUS
 62
     7
100
AcDbLine
 10
153.0
 20
10.0
 30
0.0
 11
153.0
 21
20.0
 31
0.0
  0
TEXT
  5
276
330
26D
100
AcDbEntity
  8
}}ﾊﾊGG血CCТ
  6
CONTINUOUS
 62
     7
100
AcDbText
 10
137.738815
 20
11.596879
 30
0.0
 40
6.648749
  1
品名
 41
1.083413
  7
FX_VECTOR
 72
     5
 11
149.058355
 21
11.596879
 31
0.0
100
AcDbText
  0
LINE
  5
277
330
26D
100
AcDbEntity
  8
}}ﾊﾊGG血CCТ
  6
CONTINUOUS
 62
     7
100
AcDbLine
 10
233.0
 20
20.0
 30
0.0
 11
233.0
 21
10.0
 31
0.0
  0
LINE
  5
278
330
26D
100
AcDbEntity
  8
}}ﾊﾊGG血CCТ
  6
CONTINUOUS
 62
     7
100
AcDbLine
 10
133.0
 20
20.0
 30
0.0
 11
410.0
 21
20.0
 31
0.0
  0
INSERT
  5
27C
330
26D
100
AcDbEntity
  8
0
100
AcDbBlockReference
  2
BLKF029
 10
0.0
 20
0.0
 30
0.0
  0
INSERT
  5
285
330
26D
100
AcDbEntity
  8
0
100
AcDbBlockReference
  2
BLKF030
 10
0.0
 20
0.0
 30
0.0
  0
HATCH
  5
295
330
26D
100
AcDbEntity
  8
GR1-1
  6
CONTINUOUS
 62
     7
100
AcDbHatch
 10
0.0
 20
0.0
 30
0.0
210
0.0
220
0.0
230
1.0
  2

 70
     0
 71
     1
 91
        2
 92
        0
 93
        4
 72
     1
 10
338.8018997861325
 20
17.91346152
 11
344.8018997861325
 21
17.91346152
 72
     1
 10
344.8018997861325
 20
17.91346152
 11
344.8018997861325
 21
11.91346152
 72
     1
 10
344.8018997861325
 20
11.91346152
 11
338.8018997861325
 21
11.91346152
 72
     1
 10
338.8018997861325
 20
11.91346152
 11
338.8018997861325
 21
17.91346152
 97
        0
 92
        0
 93
       15
 72
     1
 10
341.8018997861325
 20
17.76923076000002
 11
338.9461305461325
 21
14.91346152
 72
     1
 10
338.9461305461325
 20
14.91346152
 11
341.8018997861325
 21
12.05769228000001
 72
     1
 10
341.8018997861325
 20
12.05769228000001
 11
343.3595920661325
 21
13.61538462
 72
     1
 10
343.3595920661325
 20
13.61538462
 11
343.3595920661325
 21
12.98076924
 72
     1
 10
343.3595920661325
 20
12.98076924
 11
344.2249766861325
 21
12.98076924
 72
     1
 10
344.2249766861325
 20
12.98076924
 11
344.2249766861325
 21
15.00000000000001
 72
     1
 10
344.2249766861325
 20
15.00000000000001
 11
341.8018997861325
 21
15.00000000000001
 72
     1
 10
341.8018997861325
 20
15.00000000000001
 11
341.8018997861325
 21
14.13461538000001
 72
     1
 10
341.8018997861325
 20
14.13461538000001
 11
342.2461305461325
 21
14.13461538000001
 72
     1
 10
342.2461305461325
 20
14.13461538000001
 11
341.8018997861325
 21
13.69038462
 72
     1
 10
341.8018997861325
 20
13.69038462
 11
340.5788228861325
 21
14.91346152
 72
     1
 10
340.5788228861325
 20
14.91346152
 11
341.8018997861325
 21
16.13653842000003
 72
     1
 10
341.8018997861325
 20
16.13653842000003
 11
342.5922844061325
 21
15.3461538
 72
     1
 10
342.5922844061325
 20
15.3461538
 11
344.2249766861325
 21
15.3461538
 72
     1
 10
344.2249766861325
 20
15.3461538
 11
341.8018997861325
 21
17.76923076000002
 97
        0
 75
     0
 76
     0
 52
45.0
 41
0.05
 77
     0
 78
     1
 53
45.0
 43
0.0
 44
0.0
 45
-0.0353553390593274
 46
0.0353553390593274
 79
     0
 98
        0
  0
TEXT
  5
296
330
26D
100
AcDbEntity
  8
}}ﾊﾊGG血CCТ
  6
CONTINUOUS
 62
     7
100
AcDbText
 10
349.225769
 20
11.461285
 30
0.0
 40
6.0
  1
GOLD CASTER
 41
0.719626
  7
FX_VECTOR
 72
     5
 11
393.225769
 21
11.461285
 31
0.0
100
AcDbText
  0
LINE
  5
297
330
26D
100
AcDbEntity
  8
}}ﾊﾊGG血CCТ
  6
CONTINUOUS
 62
     7
100
AcDbLine
 10
253.0
 20
10.0
 30
0.0
 11
253.0
 21
20.0
 31
0.0
  0
TEXT
  5
298
330
26D
100
AcDbEntity
  8
}}ﾊﾊGG血CCТ
  6
CONTINUOUS
 62
     7
100
AcDbText
 10
237.738815
 20
11.596879
 30
0.0
 40
6.648749
  1
図番
 41
1.083413
  7
FX_VECTOR
 72
     5
 11
249.058355
 21
11.596879
 31
0.0
100
AcDbText
  0
LINE
  5
299
330
26D
100
AcDbEntity
  8
}}ﾊﾊGG血CCТ
  6
CONTINUOUS
 62
     7
100
AcDbLine
 10
333.0
 20
20.0
 30
0.0
 11
333.0
 21
10.0
 31
0.0
  0
LINE
  5
29A
330
26D
100
AcDbEntity
  8
}}ﾊﾊGG血CCТ
  6
CONTINUOUS
 62
     7
100
AcDbLine
 10
133.0
 20
20.0
 30
0.0
 11
133.0
 21
10.0
 31
0.0
  0
ENDBLK
  5
26F
330
26D
100
AcDbEntity
  8
0
100
AcDbBlockEnd
  0
BLOCK
  5
27A
330
279
100
AcDbEntity
  8
0
100
AcDbBlockBegin
  2
BLKF029
 70
     0
 71
     0
 10
0.0
 20
0.0
 30
0.0
  3
BLKF029
  1

  0
LINE
  5
27E
330
279
100
AcDbEntity
  8
0-1
  6
CONTINUOUS
 62
     7
100
AcDbLine
 10
344.8019
 20
17.913462
 30
0.0
 11
338.8019
 21
17.913462
 31
0.0
  0
LINE
  5
27F
330
279
100
AcDbEntity
  8
0-1
  6
CONTINUOUS
 62
     7
100
AcDbLine
 10
338.8019
 20
17.913462
 30
0.0
 11
338.8019
 21
11.913462
 31
0.0
  0
LINE
  5
280
330
279
100
AcDbEntity
  8
0-1
  6
CONTINUOUS
 62
     7
100
AcDbLine
 10
338.8019
 20
11.913462
 30
0.0
 11
344.8019
 21
11.913462
 31
0.0
  0
LINE
  5
281
330
279
100
AcDbEntity
  8
0-1
  6
CONTINUOUS
 62
     7
100
AcDbLine
 10
344.8019
 20
11.913462
 30
0.0
 11
344.8019
 21
17.913462
 31
0.0
  0
ENDBLK
  5
27B
330
279
100
AcDbEntity
  8
0
100
AcDbBlockEnd
  0
BLOCK
  5
283
330
282
100
AcDbEntity
  8
0
100
AcDbBlockBegin
  2
BLKF030
 70
     0
 71
     0
 10
0.0
 20
0.0
 30
0.0
  3
BLKF030
  1

  0
LINE
  5
286
330
282
100
AcDbEntity
  8
0-1
  6
CONTINUOUS
 62
     7
100
AcDbLine
 10
344.224977
 20
15.346154
 30
0.0
 11
341.8019
 21
17.769231
 31
0.0
  0
LINE
  5
287
330
282
100
AcDbEntity
  8
0-1
  6
CONTINUOUS
 62
     7
100
AcDbLine
 10
341.8019
 20
17.769231
 30
0.0
 11
338.946131
 21
14.913462
 31
0.0
  0
LINE
  5
288
330
282
100
AcDbEntity
  8
0-1
  6
CONTINUOUS
 62
     7
100
AcDbLine
 10
338.946131
 20
14.913462
 30
0.0
 11
341.8019
 21
12.057692
 31
0.0
  0
LINE
  5
289
330
282
100
AcDbEntity
  8
0-1
  6
CONTINUOUS
 62
     7
100
AcDbLine
 10
341.8019
 20
12.057692
 30
0.0
 11
343.359592
 21
13.615385
 31
0.0
  0
LINE
  5
28A
330
282
100
AcDbEntity
  8
0-1
  6
CONTINUOUS
 62
     7
100
AcDbLine
 10
343.359592
 20
13.615385
 30
0.0
 11
343.359592
 21
12.980769
 31
0.0
  0
LINE
  5
28B
330
282
100
AcDbEntity
  8
0-1
  6
CONTINUOUS
 62
     7
100
AcDbLine
 10
343.359592
 20
12.980769
 30
0.0
 11
344.224977
 21
12.980769
 31
0.0
  0
LINE
  5
28C
330
282
100
AcDbEntity
  8
0-1
  6
CONTINUOUS
 62
     7
100
AcDbLine
 10
344.224977
 20
12.980769
 30
0.0
 11
344.224977
 21
15.0
 31
0.0
  0
LINE
  5
28D
330
282
100
AcDbEntity
  8
0-1
  6
CONTINUOUS
 62
     7
100
AcDbLine
 10
344.224977
 20
15.0
 30
0.0
 11
341.8019
 21
15.0
 31
0.0
  0
LINE
  5
28E
330
282
100
AcDbEntity
  8
0-1
  6
CONTINUOUS
 62
     7
100
AcDbLine
 10
341.8019
 20
15.0
 30
0.0
 11
341.8019
 21
14.134615
 31
0.0
  0
LINE
  5
28F
330
282
100
AcDbEntity
  8
0-1
  6
CONTINUOUS
 62
     7
100
AcDbLine
 10
341.8019
 20
14.134615
 30
0.0
 11
342.246131
 21
14.134615
 31
0.0
  0
LINE
  5
290
330
282
100
AcDbEntity
  8
0-1
  6
CONTINUOUS
 62
     7
100
AcDbLine
 10
342.246131
 20
14.134615
 30
0.0
 11
341.8019
 21
13.690385
 31
0.0
  0
LINE
  5
291
330
282
100
AcDbEntity
  8
0-1
  6
CONTINUOUS
 62
     7
100
AcDbLine
 10
341.8019
 20
13.690385
 30
0.0
 11
340.578823
 21
14.913462
 31
0.0
  0
LINE
  5
292
330
282
100
AcDbEntity
  8
0-1
  6
CONTINUOUS
 62
     7
100
AcDbLine
 10
340.578823
 20
14.913462
 30
0.0
 11
341.8019
 21
16.136538
 31
0.0
  0
LINE
  5
293
330
282
100
AcDbEntity
  8
0-1
  6
CONTINUOUS
 62
     7
100
AcDbLine
 10
341.8019
 20
16.136538
 30
0.0
 11
342.592284
 21
15.346154
 31
0.0
  0
LINE
  5
294
330
282
100
AcDbEntity
  8
0-1
  6
CONTINUOUS
 62
     7
100
AcDbLine
 10
342.592284
 20
15.346154
 30
0.0
 11
344.224977
 21
15.346154
 31
0.0
  0
ENDBLK
  5
284
330
282
100
AcDbEntity
  8
0
100
AcDbBlockEnd
  0
ENDSEC
  0
SECTION
  2
ENTITIES
  0
TEXT
  5
A8
330
1F
100
AcDbEntity
  8
}}ﾊﾊGG血CCТ
  6
CONTINUOUS
 62
     7
100
AcDbText
 10
155.782761
 20
12.0
 30
0.0
 40
6.0
  1
Ｈ－２００　ＲＢ
 41
0.794326
  7
FX_VECTOR
 72
     5
 11
187.782761
 21
12.0
 31
0.0
100
AcDbText
  0
INSERT
  5
AC
330
1F
100
AcDbEntity
  8
0
100
AcDbBlockReference
  2
BLKF021
 10
0.0
 20
0.0
 30
0.0
  0
LINE
  5
E5
330
1F
100
AcDbEntity
  8
LAYERGROUP-1
  6
CENTER
 62
     6
100
AcDbLine
 10
57.842481
 20
158.294776
 30
0.0
 11
138.854484
 21
158.294776
 31
0.0
  0
LINE
  5
E6
330
1F
100
AcDbEntity
  8
LAYERGROUP-1
  6
CENTER
 62
     6
100
AcDbLine
 10
98.483485
 20
54.832188
 30
0.0
 11
98.483485
 21
261.780266
 31
0.0
  0
LINE
  5
E7
330
1F
100
AcDbEntity
  8
LAYERGROUP-1
  6
CONTINUOUS
 62
     3
100
AcDbLine
 10
124.483485
 20
240.294776
 30
0.0
 11
102.583485
 21
240.294776
 31
0.0
  0
LINE
  5
E8
330
1F
100
AcDbEntity
  8
LAYERGROUP-1
  6
CONTINUOUS
 62
     3
100
AcDbLine
 10
129.983485
 20
196.19166
 30
0.0
 11
129.983485
 21
240.294776
 31
0.0
  0
LINE
  5
E9
330
1F
100
AcDbEntity
  8
LAYERGROUP-1
  6
CONTINUOUS
 62
     3
100
AcDbLine
 10
70.183485
 20
229.694776
 30
0.0
 11
70.183485
 21
235.094776
 31
0.0
  0
LINE
  5
EA
330
1F
100
AcDbEntity
  8
LAYERGROUP-1
  6
CONTINUOUS
 62
     3
100
AcDbLine
 10
66.983485
 20
196.19166
 30
0.0
 11
66.983485
 21
240.294776
 31
0.0
  0
LINE
  5
EB
330
1F
100
AcDbEntity
  8
LAYERGROUP-1
  6
CONTINUOUS
 62
     3
100
AcDbLine
 10
98.483485
 20
241.894776
 30
0.0
 11
98.483485
 21
244.294776
 31
0.0
  0
LINE
  5
EC
330
1F
100
AcDbEntity
  8
LAYERGROUP-1
  6
CONTINUOUS
 62
     3
100
AcDbLine
 10
101.083485
 20
241.794776
 30
0.0
 11
101.083485
 21
244.294776
 31
0.0
  0
LINE
  5
ED
330
1F
100
AcDbEntity
  8
LAYERGROUP-1
  6
CENTER
 62
     6
100
AcDbLine
 10
293.175074
 20
266.775862
 30
0.0
 11
293.175074
 21
52.52475
 31
0.0
  0
LINE
  5
EE
330
1F
100
AcDbEntity
  8
LAYERGROUP-1
  6
CENTER
 62
     6
100
AcDbLine
 10
190.707942
 20
158.294776
 30
0.0
 11
399.835524
 21
158.294776
 31
0.0
  0
LINE
  5
EF
330
1F
100
AcDbEntity
  8
LAYERGROUP-1
  6
CONTINUOUS
 62
     3
100
AcDbLine
 10
115.983485
 20
183.094776
 30
0.0
 11
115.983485
 21
175.044776
 31
0.0
  0
LINE
  5
F0
330
1F
100
AcDbEntity
  8
LAYERGROUP-1
  6
CONTINUOUS
 62
     3
100
AcDbLine
 10
117.183485
 20
184.294776
 30
0.0
 11
126.483485
 21
184.294776
 31
0.0
  0
LINE
  5
F1
330
1F
100
AcDbEntity
  8
LAYERGROUP-1
  6
CONTINUOUS
 62
     3
100
AcDbLine
 10
117.283485
 20
187.294776
 30
0.0
 11
126.283485
 21
187.294776
 31
0.0
  0
LINE
  5
F2
330
1F
100
AcDbEntity
  8
LAYERGROUP-1
  6
CONTINUOUS
 62
     3
100
AcDbLine
 10
112.983485
 20
183.094776
 30
0.0
 11
112.983485
 21
175.044776
 31
0.0
  0
LINE
  5
F3
330
1F
100
AcDbEntity
  8
LAYERGROUP-1
  6
CONTINUOUS
 62
     3
100
AcDbLine
 10
103.283485
 20
237.094776
 30
0.0
 11
124.783485
 21
237.094776
 31
0.0
  0
LINE
  5
F4
330
1F
100
AcDbEntity
  8
LAYERGROUP-1
  6
CONTINUOUS
 62
     3
100
AcDbLine
 10
126.783485
 20
229.694776
 30
0.0
 11
126.783485
 21
235.094776
 31
0.0
  0
LINE
  5
F5
330
1F
100
AcDbEntity
  8
LAYERGROUP-1
  6
CONTINUOUS
 62
     3
100
AcDbLine
 10
101.083485
 20
244.294776
 30
0.0
 11
95.883485
 21
244.294776
 31
0.0
  0
LINE
  5
F6
330
1F
100
AcDbEntity
  8
LAYERGROUP-1
  6
CONTINUOUS
 62
     3
100
AcDbLine
 10
72.483485
 20
240.294776
 30
0.0
 11
94.383485
 21
240.294776
 31
0.0
  0
LINE
  5
F7
330
1F
100
AcDbEntity
  8
LAYERGROUP-1
  6
CONTINUOUS
 62
     3
100
AcDbLine
 10
95.883485
 20
241.794776
 30
0.0
 11
95.883485
 21
244.294776
 31
0.0
  0
LINE
  5
F8
330
1F
100
AcDbEntity
  8
LAYERGROUP-1
  6
CONTINUOUS
 62
     3
100
AcDbLine
 10
93.683485
 20
237.094776
 30
0.0
 11
72.183485
 21
237.094776
 31
0.0
  0
ARC
  5
F9
330
1F
100
AcDbEntity
  8
LAYERGROUP-1
  6
CONTINUOUS
 62
     3
100
AcDbCircle
 10
129.483485
 20
214.294776
 30
0.0
 40
8.0
100
AcDbArc
 50
143.130102
 51
207.284358
  0
LINE
  5
FA
330
1F
100
AcDbEntity
  8
LAYERGROUP-1
  6
CONTINUOUS
 62
     3
100
AcDbLine
 10
130.983485
 20
193.230741
 30
0.0
 11
130.983485
 21
183.294776
 31
0.0
  0
LINE
  5
FB
330
1F
100
AcDbEntity
  8
LAYERGROUP-1
  6
CONTINUOUS
 62
     3
100
AcDbLine
 10
127.783485
 20
188.794776
 30
0.0
 11
127.783485
 21
193.255486
 31
0.0
  0
ARC
  5
FC
330
1F
100
AcDbEntity
  8
LAYERGROUP-1
  6
CONTINUOUS
 62
     3
100
AcDbCircle
 10
117.283485
 20
182.994776
 30
0.0
 40
4.3
100
AcDbArc
 50
90.0
 51
180.0
  0
ARC
  5
FD
330
1F
100
AcDbEntity
  8
LAYERGROUP-1
  6
CONTINUOUS
 62
     3
100
AcDbCircle
 10
126.283485
 20
188.794776
 30
0.0
 40
1.5
100
AcDbArc
 50
270.0
 51
360.0
  0
ARC
  5
FE
330
1F
100
AcDbEntity
  8
LAYERGROUP-1
  6
CONTINUOUS
 62
     3
100
AcDbCircle
 10
126.483485
 20
188.794776
 30
0.0
 40
4.5
100
AcDbArc
 50
270.0
 51
360.0
  0
LINE
  5
FF
330
1F
100
AcDbEntity
  8
LAYERGROUP-1
  6
CONTINUOUS
 62
     3
100
AcDbLine
 10
65.983485
 20
193.230741
 30
0.0
 11
65.983485
 21
183.294776
 31
0.0
  0
LINE
  5
100
330
1F
100
AcDbEntity
  8
LAYERGROUP-1
  6
CONTINUOUS
 62
     3
100
AcDbLine
 10
69.183485
 20
188.794776
 30
0.0
 11
69.183485
 21
193.255486
 31
0.0
  0
ARC
  5
101
330
1F
100
AcDbEntity
  8
LAYERGROUP-1
  6
CONTINUOUS
 62
     3
100
AcDbCircle
 10
70.683485
 20
188.794776
 30
0.0
 40
1.5
100
AcDbArc
 50
180.0
 51
270.0
  0
ARC
  5
102
330
1F
100
AcDbEntity
  8
LAYERGROUP-1
  6
CONTINUOUS
 62
     3
100
AcDbCircle
 10
70.483485
 20
188.794776
 30
0.0
 40
4.5
100
AcDbArc
 50
180.0
 51
270.0
  0
LINE
  5
103
330
1F
100
AcDbEntity
  8
LAYERGROUP-1
  6
CONTINUOUS
 62
     3
100
AcDbLine
 10
83.983485
 20
182.994776
 30
0.0
 11
83.983485
 21
175.044776
 31
0.0
  0
ARC
  5
104
330
1F
100
AcDbEntity
  8
LAYERGROUP-1
  6
CONTINUOUS
 62
     3
100
AcDbCircle
 10
79.983485
 20
183.294776
 30
0.0
 40
1.0
100
AcDbArc
 50
0.0
 51
90.0
  0
ARC
  5
105
330
1F
100
AcDbEntity
  8
LAYERGROUP-1
  6
CONTINUOUS
 62
     3
100
AcDbCircle
 10
79.683485
 20
182.994776
 30
0.0
 40
4.3
100
AcDbArc
 50
0.0
 51
90.0
  0
LINE
  5
106
330
1F
100
AcDbEntity
  8
LAYERGROUP-1
  6
CONTINUOUS
 62
     3
100
AcDbLine
 10
79.683485
 20
187.294776
 30
0.0
 11
70.683485
 21
187.294776
 31
0.0
  0
LINE
  5
107
330
1F
100
AcDbEntity
  8
LAYERGROUP-1
  6
CONTINUOUS
 62
     3
100
AcDbLine
 10
125.283485
 20
76.294776
 30
0.0
 11
102.583485
 21
76.294776
 31
0.0
  0
ARC
  5
108
330
1F
100
AcDbEntity
  8
LAYERGROUP-1
  6
CONTINUOUS
 62
     3
100
AcDbCircle
 10
125.283485
 20
80.994776
 30
0.0
 40
4.7
100
AcDbArc
 50
270.0
 51
360.0
  0
LINE
  5
109
330
1F
100
AcDbEntity
  8
LAYERGROUP-1
  6
CONTINUOUS
 62
     3
100
AcDbLine
 10
129.983485
 20
120.397892
 30
0.0
 11
129.983485
 21
76.294776
 31
0.0
  0
LINE
  5
10A
330
1F
100
AcDbEntity
  8
LAYERGROUP-1
  6
CONTINUOUS
 62
     3
100
AcDbLine
 10
70.183485
 20
86.894776
 30
0.0
 11
70.183485
 21
80.994776
 31
0.0
  0
LINE
  5
10B
330
1F
100
AcDbEntity
  8
LAYERGROUP-1
  6
CONTINUOUS
 62
     3
100
AcDbLine
 10
66.983485
 20
120.397892
 30
0.0
 11
66.983485
 21
76.294776
 31
0.0
  0
LINE
  5
10C
330
1F
100
AcDbEntity
  8
LAYERGROUP-1
  6
CONTINUOUS
 62
     3
100
AcDbLine
 10
115.983485
 20
133.294776
 30
0.0
 11
115.983485
 21
141.544776
 31
0.0
  0
LINE
  5
10D
330
1F
100
AcDbEntity
  8
LAYERGROUP-1
  6
CONTINUOUS
 62
     3
100
AcDbLine
 10
116.983485
 20
132.294776
 30
0.0
 11
126.483485
 21
132.294776
 31
0.0
  0
LINE
  5
10E
330
1F
100
AcDbEntity
  8
LAYERGROUP-1
  6
CONTINUOUS
 62
     3
100
AcDbLine
 10
117.283485
 20
129.294776
 30
0.0
 11
126.283485
 21
129.294776
 31
0.0
  0
LINE
  5
10F
330
1F
100
AcDbEntity
  8
LAYERGROUP-1
  6
CONTINUOUS
 62
     3
100
AcDbLine
 10
112.983485
 20
133.494776
 30
0.0
 11
112.983485
 21
141.544776
 31
0.0
  0
LINE
  5
110
330
1F
100
AcDbEntity
  8
LAYERGROUP-1
  6
CONTINUOUS
 62
     3
100
AcDbLine
 10
103.283485
 20
79.494776
 30
0.0
 11
125.283485
 21
79.494776
 31
0.0
  0
LINE
  5
111
330
1F
100
AcDbEntity
  8
LAYERGROUP-1
  6
CONTINUOUS
 62
     3
100
AcDbLine
 10
126.783485
 20
86.894776
 30
0.0
 11
126.783485
 21
80.994776
 31
0.0
  0
ARC
  5
112
330
1F
100
AcDbEntity
  8
LAYERGROUP-1
  6
CONTINUOUS
 62
     3
100
AcDbCircle
 10
125.283485
 20
80.994776
 30
0.0
 40
1.5
100
AcDbArc
 50
270.0
 51
360.0
  0
LINE
  5
113
330
1F
100
AcDbEntity
  8
LAYERGROUP-1
  6
CONTINUOUS
 62
     3
100
AcDbLine
 10
71.683485
 20
76.294776
 30
0.0
 11
94.383485
 21
76.294776
 31
0.0
  0
ARC
  5
114
330
1F
100
AcDbEntity
  8
LAYERGROUP-1
  6
CONTINUOUS
 62
     3
100
AcDbCircle
 10
71.683485
 20
80.994776
 30
0.0
 40
4.7
100
AcDbArc
 50
180.0
 51
270.0
  0
LINE
  5
115
330
1F
100
AcDbEntity
  8
LAYERGROUP-1
  6
CONTINUOUS
 62
     3
100
AcDbLine
 10
93.683485
 20
79.494776
 30
0.0
 11
71.683485
 21
79.494776
 31
0.0
  0
ARC
  5
116
330
1F
100
AcDbEntity
  8
LAYERGROUP-1
  6
CONTINUOUS
 62
     3
100
AcDbCircle
 10
71.683485
 20
80.994776
 30
0.0
 40
1.5
100
AcDbArc
 50
180.0
 51
270.0
  0
LINE
  5
117
330
1F
100
AcDbEntity
  8
LAYERGROUP-1
  6
CONTINUOUS
 62
     3
100
AcDbLine
 10
130.983485
 20
123.358812
 30
0.0
 11
130.983485
 21
133.294776
 31
0.0
  0
LINE
  5
118
330
1F
100
AcDbEntity
  8
LAYERGROUP-1
  6
CONTINUOUS
 62
     3
100
AcDbLine
 10
127.783485
 20
127.794776
 30
0.0
 11
127.783485
 21
123.334067
 31
0.0
  0
ARC
  5
119
330
1F
100
AcDbEntity
  8
LAYERGROUP-1
  6
CONTINUOUS
 62
     3
100
AcDbCircle
 10
116.983485
 20
133.294776
 30
0.0
 40
1.0
100
AcDbArc
 50
180.0
 51
270.0
  0
ARC
  5
11A
330
1F
100
AcDbEntity
  8
LAYERGROUP-1
  6
CONTINUOUS
 62
     3
100
AcDbCircle
 10
117.283485
 20
133.594776
 30
0.0
 40
4.3
100
AcDbArc
 50
180.0
 51
270.0
  0
ARC
  5
11B
330
1F
100
AcDbEntity
  8
LAYERGROUP-1
  6
CONTINUOUS
 62
     3
100
AcDbCircle
 10
126.283485
 20
127.794776
 30
0.0
 40
1.5
100
AcDbArc
 50
0.0
 51
90.0
  0
ARC
  5
11C
330
1F
100
AcDbEntity
  8
LAYERGROUP-1
  6
CONTINUOUS
 62
     3
100
AcDbCircle
 10
126.483485
 20
127.794776
 30
0.0
 40
4.5
100
AcDbArc
 50
0.0
 51
90.0
  0
LINE
  5
11D
330
1F
100
AcDbEntity
  8
LAYERGROUP-1
  6
CONTINUOUS
 62
     3
100
AcDbLine
 10
65.983485
 20
123.358812
 30
0.0
 11
65.983485
 21
133.294776
 31
0.0
  0
LINE
  5
11E
330
1F
100
AcDbEntity
  8
LAYERGROUP-1
  6
CONTINUOUS
 62
     3
100
AcDbLine
 10
69.183485
 20
127.794776
 30
0.0
 11
69.183485
 21
123.334067
 31
0.0
  0
ARC
  5
11F
330
1F
100
AcDbEntity
  8
LAYERGROUP-1
  6
CONTINUOUS
 62
     3
100
AcDbCircle
 10
70.683485
 20
127.794776
 30
0.0
 40
1.5
100
AcDbArc
 50
90.0
 51
180.0
  0
ARC
  5
120
330
1F
100
AcDbEntity
  8
LAYERGROUP-1
  6
CONTINUOUS
 62
     3
100
AcDbCircle
 10
70.483485
 20
127.794776
 30
0.0
 40
4.5
100
AcDbArc
 50
90.0
 51
180.0
  0
LINE
  5
121
330
1F
100
AcDbEntity
  8
LAYERGROUP-1
  6
CONTINUOUS
 62
     3
100
AcDbLine
 10
83.983485
 20
133.494776
 30
0.0
 11
83.983485
 21
141.544776
 31
0.0
  0
ARC
  5
122
330
1F
100
AcDbEntity
  8
LAYERGROUP-1
  6
CONTINUOUS
 62
     3
100
AcDbCircle
 10
79.983485
 20
133.294776
 30
0.0
 40
1.0
100
AcDbArc
 50
270.0
 51
360.0
  0
ARC
  5
123
330
1F
100
AcDbEntity
  8
LAYERGROUP-1
  6
CONTINUOUS
 62
     3
100
AcDbCircle
 10
79.683485
 20
133.594776
 30
0.0
 40
4.3
100
AcDbArc
 50
270.0
 51
360.0
  0
LINE
  5
124
330
1F
100
AcDbEntity
  8
LAYERGROUP-1
  6
CONTINUOUS
 62
     3
100
AcDbLine
 10
79.983485
 20
132.294776
 30
0.0
 11
70.483485
 21
132.294776
 31
0.0
  0
LINE
  5
125
330
1F
100
AcDbEntity
  8
LAYERGROUP-1
  6
CONTINUOUS
 62
     3
100
AcDbLine
 10
79.683485
 20
129.294776
 30
0.0
 11
70.683485
 21
129.294776
 31
0.0
  0
LINE
  5
126
330
1F
100
AcDbEntity
  8
LAYERGROUP-1
  6
CONTINUOUS
 62
     3
100
AcDbLine
 10
63.983485
 20
175.294776
 30
0.0
 11
65.983485
 21
175.294776
 31
0.0
  0
LINE
  5
127
330
1F
100
AcDbEntity
  8
LAYERGROUP-1
  6
CONTINUOUS
 62
     3
100
AcDbLine
 10
63.983485
 20
141.294776
 30
0.0
 11
65.983485
 21
141.294776
 31
0.0
  0
LINE
  5
128
330
1F
100
AcDbEntity
  8
LAYERGROUP-1
  6
CONTINUOUS
 62
     3
100
AcDbLine
 10
63.983485
 20
175.294776
 30
0.0
 11
62.983485
 21
174.294776
 31
0.0
  0
LINE
  5
129
330
1F
100
AcDbEntity
  8
LAYERGROUP-1
  6
CONTINUOUS
 62
     3
100
AcDbLine
 10
63.983485
 20
141.294776
 30
0.0
 11
62.983485
 21
142.294776
 31
0.0
  0
LINE
  5
12A
330
1F
100
AcDbEntity
  8
LAYERGROUP-1
  6
CONTINUOUS
 62
     3
100
AcDbLine
 10
129.123485
 20
227.148109
 30
0.0
 11
123.083485
 21
219.094776
 31
0.0
  0
LINE
  5
12B
330
1F
100
AcDbEntity
  8
LAYERGROUP-1
  6
CONTINUOUS
 62
     3
100
AcDbLine
 10
130.487278
 20
195.236025
 30
0.0
 11
122.373262
 21
210.627371
 31
0.0
  0
LINE
  5
12C
330
1F
100
AcDbEntity
  8
LAYERGROUP-1
  6
CONTINUOUS
 62
     3
100
AcDbLine
 10
126.583485
 20
229.094776
 30
0.0
 11
120.523485
 21
221.014776
 31
0.0
  0
ARC
  5
12D
330
1F
100
AcDbEntity
  8
LAYERGROUP-1
  6
CONTINUOUS
 62
     3
100
AcDbCircle
 10
129.483485
 20
214.294776
 30
0.0
 40
11.2
100
AcDbArc
 50
143.130102
 51
207.284358
  0
LINE
  5
12E
330
1F
100
AcDbEntity
  8
LAYERGROUP-1
  6
CONTINUOUS
 62
     3
100
AcDbLine
 10
127.668088
 20
193.721831
 30
0.0
 11
119.542533
 21
209.135066
 31
0.0
  0
ARC
  5
12F
330
1F
100
AcDbEntity
  8
LAYERGROUP-1
  6
CONTINUOUS
 62
     3
100
AcDbCircle
 10
67.483485
 20
214.294776
 30
0.0
 40
8.0
100
AcDbArc
 50
-27.284358
 51
36.869898
  0
LINE
  5
130
330
1F
100
AcDbEntity
  8
LAYERGROUP-1
  6
CONTINUOUS
 62
     3
100
AcDbLine
 10
67.843485
 20
227.148109
 30
0.0
 11
73.883485
 21
219.094776
 31
0.0
  0
LINE
  5
131
330
1F
100
AcDbEntity
  8
LAYERGROUP-1
  6
CONTINUOUS
 62
     3
100
AcDbLine
 10
66.479693
 20
195.236025
 30
0.0
 11
74.593708
 21
210.627371
 31
0.0
  0
LINE
  5
132
330
1F
100
AcDbEntity
  8
LAYERGROUP-1
  6
CONTINUOUS
 62
     3
100
AcDbLine
 10
70.383485
 20
229.094776
 30
0.0
 11
76.443485
 21
221.014776
 31
0.0
  0
ARC
  5
133
330
1F
100
AcDbEntity
  8
LAYERGROUP-1
  6
CONTINUOUS
 62
     3
100
AcDbCircle
 10
67.483485
 20
214.294776
 30
0.0
 40
11.2
100
AcDbArc
 50
-27.284358
 51
36.869898
  0
LINE
  5
134
330
1F
100
AcDbEntity
  8
LAYERGROUP-1
  6
CONTINUOUS
 62
     3
100
AcDbLine
 10
69.298883
 20
193.721831
 30
0.0
 11
77.424437
 21
209.135066
 31
0.0
  0
ARC
  5
135
330
1F
100
AcDbEntity
  8
LAYERGROUP-1
  6
CONTINUOUS
 62
     3
100
AcDbCircle
 10
72.183485
 20
235.094776
 30
0.0
 40
2.0
100
AcDbArc
 50
90.0
 51
180.0
  0
ARC
  5
136
330
1F
100
AcDbEntity
  8
LAYERGROUP-1
  6
CONTINUOUS
 62
     3
100
AcDbCircle
 10
124.783485
 20
235.094776
 30
0.0
 40
2.0
100
AcDbArc
 50
0.0
 51
90.0
  0
ARC
  5
137
330
1F
100
AcDbEntity
  8
LAYERGROUP-1
  6
CONTINUOUS
 62
     3
100
AcDbCircle
 10
72.483485
 20
234.794776
 30
0.0
 40
5.5
100
AcDbArc
 50
90.0
 51
180.0
  0
ARC
  5
138
330
1F
100
AcDbEntity
  8
LAYERGROUP-1
  6
CONTINUOUS
 62
     3
100
AcDbCircle
 10
124.483485
 20
234.794776
 30
0.0
 40
5.5
100
AcDbArc
 50
0.0
 51
90.0
  0
ARC
  5
139
330
1F
100
AcDbEntity
  8
LAYERGROUP-1
  6
CONTINUOUS
 62
     3
100
AcDbCircle
 10
102.583485
 20
241.794776
 30
0.0
 40
1.5
100
AcDbArc
 50
180.0
 51
270.0
  0
ARC
  5
13A
330
1F
100
AcDbEntity
  8
LAYERGROUP-1
  6
CONTINUOUS
 62
     3
100
AcDbCircle
 10
94.383485
 20
241.794776
 30
0.0
 40
1.5
100
AcDbArc
 50
270.0
 51
360.0
  0
ARC
  5
13B
330
1F
100
AcDbEntity
  8
LAYERGROUP-1
  6
CONTINUOUS
 62
     3
100
AcDbCircle
 10
103.283485
 20
241.894776
 30
0.0
 40
4.8
100
AcDbArc
 50
180.0
 51
270.0
  0
ARC
  5
13C
330
1F
100
AcDbEntity
  8
LAYERGROUP-1
  6
CONTINUOUS
 62
     3
100
AcDbCircle
 10
93.683485
 20
241.894776
 30
0.0
 40
4.8
100
AcDbArc
 50
270.0
 51
360.0
  0
LINE
  5
13D
330
1F
100
AcDbEntity
  8
LAYERGROUP-1
  6
CONTINUOUS
 62
     3
100
AcDbLine
 10
98.483485
 20
74.694776
 30
0.0
 11
98.483485
 21
72.294776
 31
0.0
  0
LINE
  5
13E
330
1F
100
AcDbEntity
  8
LAYERGROUP-1
  6
CONTINUOUS
 62
     3
100
AcDbLine
 10
101.083485
 20
74.794776
 30
0.0
 11
101.083485
 21
72.294776
 31
0.0
  0
LINE
  5
13F
330
1F
100
AcDbEntity
  8
LAYERGROUP-1
  6
CONTINUOUS
 62
     3
100
AcDbLine
 10
101.083485
 20
72.294776
 30
0.0
 11
95.883485
 21
72.294776
 31
0.0
  0
LINE
  5
140
330
1F
100
AcDbEntity
  8
LAYERGROUP-1
  6
CONTINUOUS
 62
     3
100
AcDbLine
 10
95.883485
 20
74.794776
 30
0.0
 11
95.883485
 21
72.294776
 31
0.0
  0
ARC
  5
141
330
1F
100
AcDbEntity
  8
LAYERGROUP-1
  6
CONTINUOUS
 62
     3
100
AcDbCircle
 10
102.583485
 20
74.794776
 30
0.0
 40
1.5
100
AcDbArc
 50
90.0
 51
180.0
  0
ARC
  5
142
330
1F
100
AcDbEntity
  8
LAYERGROUP-1
  6
CONTINUOUS
 62
     3
100
AcDbCircle
 10
94.383485
 20
74.794776
 30
0.0
 40
1.5
100
AcDbArc
 50
0.0
 51
90.0
  0
ARC
  5
143
330
1F
100
AcDbEntity
  8
LAYERGROUP-1
  6
CONTINUOUS
 62
     3
100
AcDbCircle
 10
103.283485
 20
74.694776
 30
0.0
 40
4.8
100
AcDbArc
 50
90.0
 51
180.0
  0
ARC
  5
144
330
1F
100
AcDbEntity
  8
LAYERGROUP-1
  6
CONTINUOUS
 62
     3
100
AcDbCircle
 10
93.683485
 20
74.694776
 30
0.0
 40
4.8
100
AcDbArc
 50
0.0
 51
90.0
  0
ARC
  5
145
330
1F
100
AcDbEntity
  8
LAYERGROUP-1
  6
CONTINUOUS
 62
     3
100
AcDbCircle
 10
129.483485
 20
102.294776
 30
0.0
 40
8.0
100
AcDbArc
 50
152.715642
 51
216.869898
  0
LINE
  5
146
330
1F
100
AcDbEntity
  8
LAYERGROUP-1
  6
CONTINUOUS
 62
     3
100
AcDbLine
 10
129.123485
 20
89.441443
 30
0.0
 11
123.083485
 21
97.494776
 31
0.0
  0
LINE
  5
147
330
1F
100
AcDbEntity
  8
LAYERGROUP-1
  6
CONTINUOUS
 62
     3
100
AcDbLine
 10
130.487278
 20
121.353527
 30
0.0
 11
122.373262
 21
105.962181
 31
0.0
  0
LINE
  5
148
330
1F
100
AcDbEntity
  8
LAYERGROUP-1
  6
CONTINUOUS
 62
     3
100
AcDbLine
 10
126.583485
 20
87.494776
 30
0.0
 11
120.523485
 21
95.574776
 31
0.0
  0
ARC
  5
149
330
1F
100
AcDbEntity
  8
LAYERGROUP-1
  6
CONTINUOUS
 62
     3
100
AcDbCircle
 10
129.483485
 20
102.294776
 30
0.0
 40
11.2
100
AcDbArc
 50
152.715642
 51
216.869898
  0
LINE
  5
14A
330
1F
100
AcDbEntity
  8
LAYERGROUP-1
  6
CONTINUOUS
 62
     3
100
AcDbLine
 10
127.668088
 20
122.867721
 30
0.0
 11
119.542533
 21
107.454486
 31
0.0
  0
ARC
  5
14B
330
1F
100
AcDbEntity
  8
LAYERGROUP-1
  6
CONTINUOUS
 62
     3
100
AcDbCircle
 10
67.483485
 20
102.294776
 30
0.0
 40
8.0
100
AcDbArc
 50
-36.869898
 51
27.284358
  0
LINE
  5
14C
330
1F
100
AcDbEntity
  8
LAYERGROUP-1
  6
CONTINUOUS
 62
     3
100
AcDbLine
 10
67.843485
 20
89.441443
 30
0.0
 11
73.883485
 21
97.494776
 31
0.0
  0
LINE
  5
14D
330
1F
100
AcDbEntity
  8
LAYERGROUP-1
  6
CONTINUOUS
 62
     3
100
AcDbLine
 10
66.479693
 20
121.353527
 30
0.0
 11
74.593708
 21
105.962181
 31
0.0
  0
LINE
  5
14E
330
1F
100
AcDbEntity
  8
LAYERGROUP-1
  6
CONTINUOUS
 62
     3
100
AcDbLine
 10
70.383485
 20
87.494776
 30
0.0
 11
76.443485
 21
95.574776
 31
0.0
  0
ARC
  5
14F
330
1F
100
AcDbEntity
  8
LAYERGROUP-1
  6
CONTINUOUS
 62
     3
100
AcDbCircle
 10
67.483485
 20
102.294776
 30
0.0
 40
11.2
100
AcDbArc
 50
-36.869898
 51
27.284358
  0
LINE
  5
150
330
1F
100
AcDbEntity
  8
LAYERGROUP-1
  6
CONTINUOUS
 62
     3
100
AcDbLine
 10
69.298883
 20
122.867721
 30
0.0
 11
77.424437
 21
107.454486
 31
0.0
  0
LINE
  5
151
330
1F
100
AcDbEntity
  8
LAYERGROUP-1
  6
CONTINUOUS
 62
     6
100
AcDbLine
 10
115.983485
 20
141.544776
 30
0.0
 11
115.983485
 21
175.044776
 31
0.0
  0
ARC
  5
152
330
1F
100
AcDbEntity
  8
LAYERGROUP-1
  6
CONTINUOUS
 62
     3
100
AcDbCircle
 10
125.783485
 20
229.694776
 30
0.0
 40
1.0
100
AcDbArc
 50
323.130102
 51
360.0
  0
ARC
  5
153
330
1F
100
AcDbEntity
  8
LAYERGROUP-1
  6
CONTINUOUS
 62
     3
100
AcDbCircle
 10
125.683485
 20
229.728109
 30
0.0
 40
4.3
100
AcDbArc
 50
323.130102
 51
360.0
  0
ARC
  5
154
330
1F
100
AcDbEntity
  8
LAYERGROUP-1
  6
CONTINUOUS
 62
     3
100
AcDbCircle
 10
126.783485
 20
193.255486
 30
0.0
 40
0.9999999999999716
100
AcDbArc
 50
0.0
 51
27.797317
  0
ARC
  5
155
330
1F
100
AcDbEntity
  8
LAYERGROUP-1
  6
CONTINUOUS
 62
     3
100
AcDbCircle
 10
126.683485
 20
193.230741
 30
0.0
 40
4.3
100
AcDbArc
 50
0.0
 51
27.797317
  0
ARC
  5
156
330
1F
100
AcDbEntity
  8
LAYERGROUP-1
  6
CONTINUOUS
 62
     3
100
AcDbCircle
 10
70.183485
 20
193.255486
 30
0.0
 40
0.9999999999999716
100
AcDbArc
 50
152.202683
 51
180.0
  0
ARC
  5
157
330
1F
100
AcDbEntity
  8
LAYERGROUP-1
  6
CONTINUOUS
 62
     3
100
AcDbCircle
 10
70.283485
 20
193.230741
 30
0.0
 40
4.3
100
AcDbArc
 50
152.202683
 51
180.0
  0
ARC
  5
158
330
1F
100
AcDbEntity
  8
LAYERGROUP-1
  6
CONTINUOUS
 62
     3
100
AcDbCircle
 10
71.183485
 20
229.694776
 30
0.0
 40
1.0
100
AcDbArc
 50
180.0
 51
216.869898
  0
ARC
  5
159
330
1F
100
AcDbEntity
  8
LAYERGROUP-1
  6
CONTINUOUS
 62
     3
100
AcDbCircle
 10
71.283485
 20
229.728109
 30
0.0
 40
4.3
100
AcDbArc
 50
180.0
 51
216.869898
  0
ARC
  5
15A
330
1F
100
AcDbEntity
  8
LAYERGROUP-1
  6
CONTINUOUS
 62
     3
100
AcDbCircle
 10
126.783485
 20
123.334067
 30
0.0
 40
0.9999999999999716
100
AcDbArc
 50
332.202683
 51
360.0
  0
ARC
  5
15B
330
1F
100
AcDbEntity
  8
LAYERGROUP-1
  6
CONTINUOUS
 62
     3
100
AcDbCircle
 10
126.683485
 20
123.358812
 30
0.0
 40
4.3
100
AcDbArc
 50
332.202683
 51
360.0
  0
ARC
  5
15C
330
1F
100
AcDbEntity
  8
LAYERGROUP-1
  6
CONTINUOUS
 62
     3
100
AcDbCircle
 10
70.183485
 20
123.334067
 30
0.0
 40
0.9999999999999716
100
AcDbArc
 50
180.0
 51
207.797317
  0
ARC
  5
15D
330
1F
100
AcDbEntity
  8
LAYERGROUP-1
  6
CONTINUOUS
 62
     3
100
AcDbCircle
 10
70.283485
 20
123.358812
 30
0.0
 40
4.3
100
AcDbArc
 50
180.0
 51
207.797317
  0
ARC
  5
15E
330
1F
100
AcDbEntity
  8
LAYERGROUP-1
  6
CONTINUOUS
 62
     3
100
AcDbCircle
 10
71.183485
 20
86.894776
 30
0.0
 40
1.0
100
AcDbArc
 50
143.130102
 51
180.0
  0
ARC
  5
15F
330
1F
100
AcDbEntity
  8
LAYERGROUP-1
  6
CONTINUOUS
 62
     3
100
AcDbCircle
 10
71.283485
 20
86.861443
 30
0.0
 40
4.3
100
AcDbArc
 50
143.130102
 51
180.0
  0
ARC
  5
160
330
1F
100
AcDbEntity
  8
LAYERGROUP-1
  6
CONTINUOUS
 62
     3
100
AcDbCircle
 10
125.783485
 20
86.894776
 30
0.0
 40
1.0
100
AcDbArc
 50
0.0
 51
36.869898
  0
ARC
  5
161
330
1F
100
AcDbEntity
  8
LAYERGROUP-1
  6
CONTINUOUS
 62
     3
100
AcDbCircle
 10
125.683485
 20
86.861443
 30
0.0
 40
4.3
100
AcDbArc
 50
0.0
 51
36.869898
  0
LINE
  5
162
330
1F
100
AcDbEntity
  8
LAYERGROUP-1
  6
CONTINUOUS
 62
     3
100
AcDbLine
 10
80.983485
 20
175.044776
 30
0.0
 11
83.983485
 21
175.044776
 31
0.0
  0
LINE
  5
163
330
1F
100
AcDbEntity
  8
LAYERGROUP-1
  6
CONTINUOUS
 62
     3
100
AcDbLine
 10
115.983485
 20
175.044776
 30
0.0
 11
112.983485
 21
175.044776
 31
0.0
  0
LINE
  5
164
330
1F
100
AcDbEntity
  8
LAYERGROUP-1
  6
CONTINUOUS
 62
     3
100
AcDbLine
 10
80.983485
 20
141.544776
 30
0.0
 11
83.983485
 21
141.544776
 31
0.0
  0
LINE
  5
165
330
1F
100
AcDbEntity
  8
LAYERGROUP-1
  6
CONTINUOUS
 62
     3
100
AcDbLine
 10
115.983485
 20
141.544776
 30
0.0
 11
112.983485
 21
141.544776
 31
0.0
  0
ARC
  5
166
330
1F
100
AcDbEntity
  8
LAYERGROUP-1
  6
CONTINUOUS
 62
     3
100
AcDbCircle
 10
98.483485
 20
58.294776
 30
0.0
 40
200.0
100
AcDbArc
 50
82.948473
 51
97.051527
  0
ARC
  5
167
330
1F
100
AcDbEntity
  8
LAYERGROUP-1
  6
CONTINUOUS
 62
     3
100
AcDbCircle
 10
74.544913
 20
251.819826
 30
0.0
 40
5.0
100
AcDbArc
 50
97.051527
 51
168.0
  0
LINE
  5
168
330
1F
100
AcDbEntity
  8
LAYERGROUP-1
  6
CONTINUOUS
 62
     3
100
AcDbLine
 10
69.654175
 20
252.859384
 30
0.0
 11
66.983485
 21
240.294776
 31
0.0
  0
ARC
  5
169
330
1F
100
AcDbEntity
  8
LAYERGROUP-1
  6
CONTINUOUS
 62
     3
100
AcDbCircle
 10
122.422058
 20
251.819826
 30
0.0
 40
5.0
100
AcDbArc
 50
12.0
 51
82.948473
  0
LINE
  5
16A
330
1F
100
AcDbEntity
  8
LAYERGROUP-1
  6
CONTINUOUS
 62
     3
100
AcDbLine
 10
127.312796
 20
252.859384
 30
0.0
 11
129.983485
 21
240.294776
 31
0.0
  0
ARC
  5
16B
330
1F
100
AcDbEntity
  8
LAYERGROUP-1
  6
CONTINUOUS
 62
     3
100
AcDbCircle
 10
98.483485
 20
258.294776
 30
0.0
 40
200.0
100
AcDbArc
 50
262.948473
 51
277.051527
  0
ARC
  5
16C
330
1F
100
AcDbEntity
  8
LAYERGROUP-1
  6
CONTINUOUS
 62
     3
100
AcDbCircle
 10
74.544913
 20
64.769727
 30
0.0
 40
5.0
100
AcDbArc
 50
192.0
 51
262.948473
  0
LINE
  5
16D
330
1F
100
AcDbEntity
  8
LAYERGROUP-1
  6
CONTINUOUS
 62
     3
100
AcDbLine
 10
69.654175
 20
63.730168
 30
0.0
 11
66.983485
 21
76.294776
 31
0.0
  0
ARC
  5
16E
330
1F
100
AcDbEntity
  8
LAYERGROUP-1
  6
CONTINUOUS
 62
     3
100
AcDbCircle
 10
122.422058
 20
64.769727
 30
0.0
 40
5.0
100
AcDbArc
 50
277.051527
 51
348.0
  0
LINE
  5
16F
330
1F
100
AcDbEntity
  8
LAYERGROUP-1
  6
CONTINUOUS
 62
     3
100
AcDbLine
 10
127.312796
 20
63.730168
 30
0.0
 11
129.983485
 21
76.294776
 31
0.0
  0
CIRCLE
  5
170
330
1F
100
AcDbEntity
  8
LAYERGROUP-1
  6
CONTINUOUS
 62
     3
100
AcDbCircle
 10
293.175074
 20
158.294776
 30
0.0
 40
99.99999999999997
  0
INSERT
  5
174
330
1F
100
AcDbEntity
  8
0
100
AcDbBlockReference
  2
BLKF022
 10
0.0
 20
0.0
 30
0.0
  0
LINE
  5
1AB
330
1F
100
AcDbEntity
  8
LAYERGROUP-1
  6
CONTINUOUS
 62
     3
100
AcDbLine
 10
132.983485
 20
175.294776
 30
0.0
 11
130.983485
 21
175.294776
 31
0.0
  0
LINE
  5
1AC
330
1F
100
AcDbEntity
  8
LAYERGROUP-1
  6
CONTINUOUS
 62
     3
100
AcDbLine
 10
132.983485
 20
141.294776
 30
0.0
 11
130.983485
 21
141.294776
 31
0.0
  0
LINE
  5
1AD
330
1F
100
AcDbEntity
  8
LAYERGROUP-1
  6
CONTINUOUS
 62
     3
100
AcDbLine
 10
132.983485
 20
175.294776
 30
0.0
 11
133.983485
 21
174.294776
 31
0.0
  0
LINE
  5
1AE
330
1F
100
AcDbEntity
  8
LAYERGROUP-1
  6
CONTINUOUS
 62
     3
100
AcDbLine
 10
132.983485
 20
141.294776
 30
0.0
 11
133.983485
 21
142.294776
 31
0.0
  0
LINE
  5
1AF
330
1F
100
AcDbEntity
  8
LAYERGROUP-1
  6
CONTINUOUS
 62
     6
100
AcDbLine
 10
112.983485
 20
141.544776
 30
0.0
 11
112.983485
 21
175.044776
 31
0.0
  0
LINE
  5
1B0
330
1F
100
AcDbEntity
  8
LAYERGROUP-1
  6
CONTINUOUS
 62
     6
100
AcDbLine
 10
83.983485
 20
141.544776
 30
0.0
 11
83.983485
 21
175.044776
 31
0.0
  0
LINE
  5
1B1
330
1F
100
AcDbEntity
  8
LAYERGROUP-1
  6
CONTINUOUS
 62
     6
100
AcDbLine
 10
80.983485
 20
141.544776
 30
0.0
 11
80.983485
 21
175.294776
 31
0.0
  0
LINE
  5
1B2
330
1F
100
AcDbEntity
  8
LAYERGROUP-1
  6
CONTINUOUS
 62
     3
100
AcDbLine
 10
133.983485
 20
174.294776
 30
0.0
 11
133.983485
 21
142.294776
 31
0.0
  0
LINE
  5
1B3
330
1F
100
AcDbEntity
  8
LAYERGROUP-1
  6
CONTINUOUS
 62
     3
100
AcDbLine
 10
62.983485
 20
174.294776
 30
0.0
 11
62.983485
 21
142.294776
 31
0.0
  0
ARC
  5
1B4
330
1F
100
AcDbEntity
  8
LAYERGROUP-1
  6
CONTINUOUS
 62
     3
100
AcDbCircle
 10
132.983485
 20
171.794776
 30
0.0
 40
1.0
100
AcDbArc
 50
270.0
 51
360.0
  0
ARC
  5
1B5
330
1F
100
AcDbEntity
  8
LAYERGROUP-1
  6
CONTINUOUS
 62
     3
100
AcDbCircle
 10
132.983485
 20
144.794776
 30
0.0
 40
1.0
100
AcDbArc
 50
0.0
 51
90.0
  0
CIRCLE
  5
1B6
330
1F
100
AcDbEntity
  8
LAYERGROUP-1
  6
CONTINUOUS
 62
     3
100
AcDbCircle
 10
293.175074
 20
158.294776
 30
0.0
 40
12.5
  0
CIRCLE
  5
1B7
330
1F
100
AcDbEntity
  8
LAYERGROUP-1
  6
CONTINUOUS
 62
     3
100
AcDbCircle
 10
293.175074
 20
158.294776
 30
0.0
 40
16.0
  0
CIRCLE
  5
1B8
330
1F
100
AcDbEntity
  8
LAYERGROUP-1
  6
CONTINUOUS
 62
     3
100
AcDbCircle
 10
293.175074
 20
158.294776
 30
0.0
 40
17.0
  0
CIRCLE
  5
1B9
330
1F
100
AcDbEntity
  8
LAYERGROUP-1
  6
CONTINUOUS
 62
     3
100
AcDbCircle
 10
293.175074
 20
158.294776
 30
0.0
 40
26.0
  0
CIRCLE
  5
1BA
330
1F
100
AcDbEntity
  8
LAYERGROUP-1
  6
CONTINUOUS
 62
     6
100
AcDbCircle
 10
293.175074
 20
158.294776
 30
0.0
 40
21.49999999999997
  0
CIRCLE
  5
1BB
330
1F
100
AcDbEntity
  8
LAYERGROUP-1
  6
CONTINUOUS
 62
     6
100
AcDbCircle
 10
293.175074
 20
158.294776
 30
0.0
 40
13.5
  0
CIRCLE
  5
1BC
330
1F
100
AcDbEntity
  8
LAYERGROUP-1
  6
CONTINUOUS
 62
     6
100
AcDbCircle
 10
293.175074
 20
158.294776
 30
0.0
 40
70.3
  0
CIRCLE
  5
1BD
330
1F
100
AcDbEntity
  8
LAYERGROUP-1
  6
CONTINUOUS
 62
     6
100
AcDbCircle
 10
293.175074
 20
158.294776
 30
0.0
 40
36.0
  0
CIRCLE
  5
1BE
330
1F
100
AcDbEntity
  8
LAYERGROUP-1
  6
CONTINUOUS
 62
     6
100
AcDbCircle
 10
293.175074
 20
158.294776
 30
0.0
 40
56.0
  0
CIRCLE
  5
1BF
330
1F
100
AcDbEntity
  8
LAYERGROUP-1
  6
DASHED
 62
     6
100
AcDbCircle
 10
293.175074
 20
158.294776
 30
0.0
 40
29.0
  0
CIRCLE
  5
1C0
330
1F
100
AcDbEntity
  8
LAYERGROUP-1
  6
CONTINUOUS
 62
     3
100
AcDbCircle
 10
293.175074
 20
158.294776
 30
0.0
 40
77.29999999999994
  0
CIRCLE
  5
1C1
330
1F
100
AcDbEntity
  8
LAYERGROUP-1
  6
DASHED
 62
     6
100
AcDbCircle
 10
293.175074
 20
158.294776
 30
0.0
 40
81.99999999999986
  0
INSERT
  5
1C5
330
1F
100
AcDbEntity
  8
0
100
AcDbBlockReference
  2
BLKF023
 10
0.0
 20
0.0
 30
0.0
  0
TEXT
  5
21E
330
1F
100
AcDbEntity
  8
GR1-1
  6
CONTINUOUS
 62
     7
100
AcDbText
 10
257.436798
 20
237.615448
 30
0.0
 40
7.0
  1
G
 50
19.145725
 41
1.166667
  7
FX_VECTOR
 72
     5
 11
264.04961
 21
239.911251
 31
0.0
100
AcDbText
  0
TEXT
  5
21F
330
1F
100
AcDbEntity
  8
GR1-1
  6
CONTINUOUS
 62
     7
100
AcDbText
 10
265.332092
 20
240.719086
 30
0.0
 40
7.0
  1
O
 50
13.645726
 41
1.105263
  7
FX_VECTOR
 72
     5
 11
272.134503
 21
242.37051
 31
0.0
100
AcDbText
  0
TEXT
  5
220
330
1F
100
AcDbEntity
  8
GR1-1
  6
CONTINUOUS
 62
     7
100
AcDbText
 10
272.97879
 20
242.918121
 30
0.0
 40
7.0
  1
L
 50
8.145726
 41
1.3125
  7
FX_VECTOR
 72
     5
 11
279.908167
 21
243.90996
 31
0.0
100
AcDbText
  0
TEXT
  5
221
330
1F
100
AcDbEntity
  8
GR1-1
  6
CONTINUOUS
 62
     7
100
AcDbText
 10
281.275238
 20
244.477081
 30
0.0
 40
7.0
  1
D
 50
2.645726
 41
1.166667
  7
FX_VECTOR
 72
     5
 11
288.267776
 21
244.800203
 31
0.0
100
AcDbText
  0
TEXT
  5
222
330
1F
100
AcDbEntity
  8
GR1-1
  6
CONTINUOUS
 62
     7
100
AcDbText
 10
297.518097
 20
245.186279
 30
0.0
 40
7.0
  1
C
 50
351.645721
 41
1.166667
  7
FX_VECTOR
 72
     5
 11
304.443817
 21
244.169224
 31
0.0
100
AcDbText
  0
TEXT
  5
223
330
1F
100
AcDbEntity
  8
GR1-1
  6
CONTINUOUS
 62
     7
100
AcDbText
 10
306.095673
 20
244.329987
 30
0.0
 40
7.0
  1
A
 50
346.145721
 41
1.235294
  7
FX_VECTOR
 72
     5
 11
312.892028
 21
242.653813
 31
0.0
100
AcDbText
  0
TEXT
  5
224
330
1F
100
AcDbEntity
  8
GR1-1
  6
CONTINUOUS
 62
     7
100
AcDbText
 10
314.408844
 20
242.663757
 30
0.0
 40
7.0
  1
S
 50
340.645721
 41
1.235294
  7
FX_VECTOR
 72
     5
 11
321.013256
 21
240.343899
 31
0.0
100
AcDbText
  0
TEXT
  5
225
330
1F
100
AcDbEntity
  8
GR1-1
  6
CONTINUOUS
 62
     7
100
AcDbText
 10
322.261505
 20
240.288544
 30
0.0
 40
7.0
  1
T
 50
335.145721
 41
1.4
  7
FX_VECTOR
 72
     5
 11
328.613163
 21
237.346361
 31
0.0
100
AcDbText
  0
TEXT
  5
226
330
1F
100
AcDbEntity
  8
GR1-1
  6
CONTINUOUS
 62
     7
100
AcDbText
 10
329.921661
 20
237.153458
 30
0.0
 40
7.0
  1
E
 50
329.645721
 41
1.235294
  7
FX_VECTOR
 72
     5
 11
335.962082
 21
233.61604
 31
0.0
100
AcDbText
  0
TEXT
  5
227
330
1F
100
AcDbEntity
  8
GR1-1
  6
CONTINUOUS
 62
     7
100
AcDbText
 10
337.651703
 20
233.06665
 30
0.0
 40
7.0
  1
R
 50
324.145721
 41
1.166667
  7
FX_VECTOR
 72
     5
 11
343.325268
 21
228.96657
 31
0.0
100
AcDbText
  0
TEXT
  5
228
330
1F
100
AcDbEntity
  8
GR1-1
  6
CONTINUOUS
 62
     7
100
AcDbText
 10
282.97226
 20
71.895126
 30
0.0
 40
7.0
  1
6
 50
171.145721
 41
1.235294
  7
FX_VECTOR
 72
     5
 11
276.055678
 21
72.97258
 31
0.0
100
AcDbText
  0
TEXT
  5
229
330
1F
100
AcDbEntity
  8
GR1-1
  6
CONTINUOUS
 62
     7
100
AcDbText
 10
273.742706
 20
73.492775
 30
0.0
 40
7.0
  1
3
 50
165.145721
 41
1.235294
  7
FX_VECTOR
 72
     5
 11
266.97664
 21
75.287306
 31
0.0
100
AcDbText
  0
TEXT
  5
22A
330
1F
100
AcDbEntity
  8
GR1-1
  6
CONTINUOUS
 62
     7
100
AcDbText
 10
292.023407
 20
71.30246
 30
0.0
 40
7.0
  1
X
 50
177.145737
 41
1.235294
  7
FX_VECTOR
 72
     5
 11
285.032091
 21
71.65103
 31
0.0
100
AcDbText
  0
TEXT
  5
22B
330
1F
100
AcDbEntity
  8
GR1-1
  6
CONTINUOUS
 62
     7
100
AcDbText
 10
301.116852
 20
71.658012
 30
0.0
 40
7.0
  1
0
 50
183.145737
 41
1.235294
  7
FX_VECTOR
 72
     5
 11
294.1274
 21
71.273881
 31
0.0
100
AcDbText
  0
TEXT
  5
22C
330
1F
100
AcDbEntity
  8
GR1-1
  6
CONTINUOUS
 62
     7
100
AcDbText
 10
309.951874
 20
72.927704
 30
0.0
 40
7.0
  1
0
 50
189.145737
 41
1.235294
  7
FX_VECTOR
 72
     5
 11
303.040863
 21
71.81508
 31
0.0
100
AcDbText
  0
TEXT
  5
22D
330
1F
100
AcDbEntity
  8
GR1-1
  6
CONTINUOUS
 62
     7
100
AcDbText
 10
318.808929
 20
75.156952
 30
0.0
 40
7.0
  1
2
 50
195.145737
 41
1.235294
  7
FX_VECTOR
 72
     5
 11
312.052079
 21
73.328026
 31
0.0
100
AcDbText
  0
LINE
  5
22E
330
1F
100
AcDbEntity
  8
GR1-1
  6
CONTINUOUS
 62
     7
100
AcDbLine
 10
244.837285
 20
237.802374
 30
0.0
 11
239.813589
 21
234.521752
 31
0.0
  0
LINE
  5
22F
330
1F
100
AcDbEntity
  8
GR1-1
  6
CONTINUOUS
 62
     7
100
AcDbLine
 10
239.813589
 20
234.521752
 30
0.0
 11
243.094211
 21
229.498057
 31
0.0
  0
LINE
  5
230
330
1F
100
AcDbEntity
  8
GR1-1
  6
CONTINUOUS
 62
     7
100
AcDbLine
 10
243.094211
 20
229.498057
 30
0.0
 11
248.117907
 21
232.778678
 31
0.0
  0
LINE
  5
231
330
1F
100
AcDbEntity
  8
GR1-1
  6
CONTINUOUS
 62
     7
100
AcDbLine
 10
248.117907
 20
232.778678
 30
0.0
 11
244.837285
 21
237.802374
 31
0.0
  0
LINE
  5
232
330
1F
100
AcDbEntity
  8
GR1-1
  6
CONTINUOUS
 62
     7
100
AcDbLine
 10
245.918725
 20
235.283869
 30
0.0
 11
242.419248
 21
236.018408
 31
0.0
  0
LINE
  5
233
330
1F
100
AcDbEntity
  8
GR1-1
  6
CONTINUOUS
 62
     7
100
AcDbLine
 10
242.419248
 20
236.018408
 30
0.0
 11
241.597555
 21
232.103715
 31
0.0
  0
LINE
  5
234
330
1F
100
AcDbEntity
  8
GR1-1
  6
CONTINUOUS
 62
     7
100
AcDbLine
 10
241.597555
 20
232.103715
 30
0.0
 11
245.512248
 21
231.282022
 31
0.0
  0
LINE
  5
235
330
1F
100
AcDbEntity
  8
GR1-1
  6
CONTINUOUS
 62
     7
100
AcDbLine
 10
245.512248
 20
231.282022
 30
0.0
 11
245.993835
 21
233.57639
 31
0.0
  0
LINE
  5
236
330
1F
100
AcDbEntity
  8
GR1-1
  6
CONTINUOUS
 62
     7
100
AcDbLine
 10
246.175431
 20
233.610524
 30
0.0
 11
246.603497
 21
232.955016
 31
0.0
  0
LINE
  5
237
330
1F
100
AcDbEntity
  8
GR1-1
  6
CONTINUOUS
 62
     7
100
AcDbLine
 10
246.603497
 20
232.955016
 30
0.0
 11
247.440779
 21
233.501787
 31
0.0
  0
LINE
  5
238
330
1F
100
AcDbEntity
  8
GR1-1
  6
CONTINUOUS
 62
     7
100
AcDbLine
 10
247.440779
 20
233.501787
 30
0.0
 11
246.333941
 21
235.196715
 31
0.0
  0
LINE
  5
239
330
1F
100
AcDbEntity
  8
GR1-1
  6
CONTINUOUS
 62
     7
100
AcDbLine
 10
246.333941
 20
235.196715
 30
0.0
 11
243.965748
 21
233.650215
 31
0.0
  0
LINE
  5
23A
330
1F
100
AcDbEntity
  8
GR1-1
  6
CONTINUOUS
 62
     7
100
AcDbLine
 10
243.965748
 20
233.650215
 30
0.0
 11
244.239133
 21
233.231574
 31
0.0
  0
LINE
  5
23B
330
1F
100
AcDbEntity
  8
GR1-1
  6
CONTINUOUS
 62
     7
100
AcDbLine
 10
244.239133
 20
233.231574
 30
0.0
 11
244.80245
 21
233.599437
 31
0.0
  0
ARC
  5
23C
330
1F
100
AcDbEntity
  8
GR1-1
  6
CONTINUOUS
 62
     7
100
AcDbCircle
 10
244.857128
 20
233.515709
 30
0.0
 40
0.1
100
AcDbArc
 50
-11.854278
 51
123.145722
  0
LINE
  5
23D
330
1F
100
AcDbEntity
  8
GR1-1
  6
CONTINUOUS
 62
     7
100
AcDbLine
 10
244.954995
 20
233.495166
 30
0.0
 11
244.738998
 21
232.466119
 31
0.0
  0
LINE
  5
23E
330
1F
100
AcDbEntity
  8
GR1-1
  6
CONTINUOUS
 62
     7
100
AcDbLine
 10
244.738998
 20
232.466119
 30
0.0
 11
242.781652
 21
232.876965
 31
0.0
  0
LINE
  5
23F
330
1F
100
AcDbEntity
  8
GR1-1
  6
CONTINUOUS
 62
     7
100
AcDbLine
 10
242.781652
 20
232.876965
 30
0.0
 11
243.192498
 21
234.834312
 31
0.0
  0
LINE
  5
240
330
1F
100
AcDbEntity
  8
GR1-1
  6
CONTINUOUS
 62
     7
100
AcDbLine
 10
243.192498
 20
234.834312
 30
0.0
 11
244.734629
 21
234.510619
 31
0.0
  0
LINE
  5
241
330
1F
100
AcDbEntity
  8
GR1-1
  6
CONTINUOUS
 62
     7
100
AcDbLine
 10
244.734629
 20
234.510619
 30
0.0
 11
245.918725
 21
235.283869
 31
0.0
  0
ARC
  5
242
330
1F
100
AcDbEntity
  8
GR1-1
  6
CONTINUOUS
 62
     7
100
AcDbCircle
 10
246.091702
 20
233.555847
 30
0.0
 40
0.1
100
AcDbArc
 50
33.145722
 51
168.145722
  0
DIMENSION
  5
243
330
1F
100
AcDbEntity
  8
LAYERGROUP-1
100
AcDbDimension
  2
*D22
 10
148.230007
 20
170.794776
 30
0.0
 11
147.230011
 21
158.294769
 31
0.0
 70
    33
  3
FXDIMINFO
100
AcDbAlignedDimension
 13
132.983485
 23
145.794776
 33
0.0
 14
132.983485
 24
170.794776
 34
0.0
1001
ACAD
1000
DSTYLE
1002
{
1070
     7
1000
FXTIP_ARROW_E
1070
     6
1000
FXTIP_ARROW_S
1070
   173
1070
     1
1002
}
  0
DIMENSION
  5
24D
330
1F
100
AcDbEntity
  8
LAYERGROUP-1
100
AcDbDimension
  2
*D23
 10
161.572958
 20
258.294776
 30
0.0
 11
160.572952
 21
158.294769
 31
0.0
 70
    32
  3
FXDIMINFO
100
AcDbAlignedDimension
 13
98.483485
 23
58.294776
 33
0.0
 14
97.483485
 24
258.294776
 34
0.0
 50
270.0
100
AcDbRotatedDimension
1001
ACAD
1000
DSTYLE
1002
{
1070
     7
1000
FXTIP_ARROW_E
1070
     6
1000
FXTIP_ARROW_S
1070
   173
1070
     1
1002
}
  0
DIMENSION
  5
257
330
1F
100
AcDbEntity
  8
LAYERGROUP-1
100
AcDbDimension
  2
*D24
 10
129.983485
 20
42.96063
 30
0.0
 11
98.483482
 21
43.960632
 31
0.0
 70
    33
  3
FXDIMINFO
100
AcDbAlignedDimension
 13
66.983485
 23
76.294776
 33
0.0
 14
129.983485
 24
76.294776
 34
0.0
1001
ACAD
1000
DSTYLE
1002
{
1070
     7
1000
FXTIP_ARROW_E
1070
     6
1000
FXTIP_ARROW_S
1070
   173
1070
     1
1002
}
  0
DIMENSION
  5
261
330
1F
100
AcDbEntity
  8
LAYERGROUP-1
100
AcDbDimension
  2
*D25
 10
133.983485
 20
32.433013
 30
0.0
 11
98.483482
 21
33.433014
 31
0.0
 70
    33
  3
FXDIMINFO
100
AcDbAlignedDimension
 13
62.983485
 23
142.294776
 33
0.0
 14
133.983485
 24
142.294776
 34
0.0
1001
ACAD
1000
DSTYLE
1002
{
1070
     7
1000
FXTIP_ARROW_E
1070
     6
1000
FXTIP_ARROW_S
1070
   173
1070
     1
1002
}
  0
HATCH
  5
26B
330
1F
100
AcDbEntity
  8
LAYERGROUP-1
  6
CONTINUOUS
 62
     6
100
AcDbHatch
 10
0.0
 20
0.0
 30
0.0
210
0.0
220
0.0
230
1.0
  2

 70
     0
 71
     1
 91
        2
 92
        0
 93
       64
 72
     2
 10
67.48348539892949
 20
214.294776119403
 40
8.0
 50
332.2026833960366
 51
396.8698976458443
 73
     0
 72
     1
 10
74.56030793526243
 20
210.564014429178
 11
66.47969328565057
 21
195.236024970718
 72
     2
 10
70.28348539892951
 20
193.2307405622221
 40
4.3
 50
152.2026833960366
 51
180.0
 73
     1
 72
     1
 10
65.98348539892949
 20
193.2307405622221
 11
65.98348539892949
 21
188.794776119403
 72
     2
 10
70.48348539892949
 20
188.794776119403
 40
4.5
 50
180.0
 51
270.0
 73
     1
 72
     1
 10
70.48348539892949
 20
184.294776119403
 11
79.48348539892947
 21
184.294776119403
 72
     1
 10
79.48348539892947
 20
184.294776119403
 11
79.98348539892947
 21
184.294776119403
 72
     2
 10
79.98348539892947
 20
183.294776119403
 40
1.0
 50
0.0
 51
90.0
 73
     0
 72
     1
 10
80.98348539892947
 20
183.294776119403
 11
80.98348539892947
 21
175.044776119403
 72
     1
 10
80.98348539892947
 20
175.044776119403
 11
83.98348539892949
 21
175.044776119403
 72
     1
 10
83.98348539892949
 20
175.044776119403
 11
83.98348539892949
 21
182.994776119403
 72
     2
 10
79.68348539892948
 20
182.994776119403
 40
4.3
 50
0.0
 51
90.0
 73
     1
 72
     1
 10
79.68348539892948
 20
187.294776119403
 11
70.68348539892945
 21
187.294776119403
 72
     2
 10
70.68348539892945
 20
188.7947761194031
 40
1.5
 50
180.0
 51
270.0
 73
     0
 72
     1
 10
69.18348539892948
 20
188.7947761194031
 11
69.18348539892951
 21
193.2554855751797
 72
     2
 10
70.18348539892946
 20
193.2554855751797
 40
0.9999999999999716
 50
152.202683396036
 51
180.0
 73
     0
 72
     1
 10
69.2988825818879
 20
193.7218307864578
 11
77.39103694979561
 21
209.071709753088
 72
     2
 10
67.48348539892949
 20
214.294776119403
 40
11.2
 50
332.2026833960365
 51
396.8698976458443
 73
     1
 72
     1
 10
76.44348539892945
 20
221.0147761194031
 11
70.38348539892948
 21
229.0947761194029
 72
     2
 10
71.18348539892946
 20
229.6947761194029
 40
1.0
 50
180.0
 51
216.8698976458443
 73
     0
 72
     1
 10
70.18348539892946
 20
229.6947761194029
 11
70.18348539892946
 21
235.0947761194029
 72
     2
 10
72.18348539892946
 20
235.0947761194029
 40
2.0
 50
90.0
 51
180.0
 73
     0
 72
     1
 10
72.18348539892946
 20
237.094776119403
 11
93.68348539892948
 21
237.094776119403
 72
     2
 10
93.68348539892948
 20
241.8947761194029
 40
4.8
 50
270.0
 51
360.0
 73
     1
 72
     2
 10
103.2834853989295
 20
241.8947761194029
 40
4.8
 50
180.0
 51
270.0
 73
     1
 72
     1
 10
103.2834853989295
 20
237.094776119403
 11
124.7834853989295
 21
237.094776119403
 72
     2
 10
124.7834853989295
 20
235.0947761194029
 40
2.0
 50
0.0
 51
90.0
 73
     0
 72
     1
 10
126.7834853989295
 20
235.0947761194029
 11
126.7834853989295
 21
229.6947761194029
 72
     2
 10
125.7834853989295
 20
229.6947761194029
 40
1.0
 50
323.1301023541557
 51
360.0
 73
     0
 72
     1
 10
126.5834853989295
 20
229.0947761194029
 11
120.5234853989295
 21
221.0147761194031
 72
     2
 10
129.4834853989295
 20
214.294776119403
 40
11.2
 50
143.1301023541556
 51
207.7973166039635
 73
     1
 72
     1
 10
119.5759338480633
 20
209.071709753088
 11
127.6680882159711
 21
193.7218307864578
 72
     2
 10
126.7834853989295
 20
193.2554855751797
 40
0.9999999999999716
 50
0.0
 51
27.79731660396367
 73
     0
 72
     1
 10
127.7834853989295
 20
193.2554855751797
 11
127.7834853989295
 21
188.7947761194031
 72
     2
 10
126.2834853989295
 20
188.7947761194031
 40
1.5
 50
270.0
 51
360.0
 73
     0
 72
     1
 10
126.2834853989295
 20
187.294776119403
 11
117.2834853989295
 21
187.294776119403
 72
     2
 10
117.2834853989295
 20
182.994776119403
 40
4.3
 50
90.0
 51
180.0
 73
     1
 72
     1
 10
112.9834853989295
 20
182.994776119403
 11
112.9834853989295
 21
175.044776119403
 72
     1
 10
112.9834853989295
 20
175.044776119403
 11
115.9834853989295
 21
175.044776119403
 72
     1
 10
115.9834853989295
 20
175.044776119403
 11
115.9834853989295
 21
182.794776119403
 72
     1
 10
115.9834853989295
 20
182.794776119403
 11
115.9834853989295
 21
183.294776119403
 72
     2
 10
116.9834853989295
 20
183.294776119403
 40
1.0
 50
90.0
 51
180.0000000000032
 73
     0
 72
     1
 10
116.9834853989295
 20
184.294776119403
 11
117.4834853989295
 21
184.294776119403
 72
     1
 10
117.4834853989295
 20
184.294776119403
 11
126.4834853989295
 21
184.294776119403
 72
     2
 10
126.4834853989295
 20
188.794776119403
 40
4.5
 50
270.0
 51
360.0
 73
     1
 72
     1
 10
130.9834853989295
 20
188.794776119403
 11
130.9834853989295
 21
193.2307405622221
 72
     2
 10
126.6834853989294
 20
193.2307405622221
 40
4.3
 50
0.0
 51
27.79731660396356
 73
     1
 72
     1
 10
130.4872775122084
 20
195.236024970718
 11
122.4066628625965
 21
210.564014429178
 72
     2
 10
129.4834853989295
 20
214.294776119403
 40
8.0
 50
143.1301023541558
 51
207.7973166039635
 73
     0
 72
     1
 10
123.0834853989295
 20
219.094776119403
 11
129.1234853989294
 21
227.1481094527362
 72
     2
 10
125.6834853989294
 20
229.7281094527362
 40
4.3
 50
323.1301023541556
 51
360.0
 73
     1
 72
     1
 10
129.9834853989295
 20
229.7281094527362
 11
129.9834853989295
 21
234.7947761194029
 72
     2
 10
124.4834853989295
 20
234.7947761194029
 40
5.5
 50
0.0
 51
90.0
 73
     1
 72
     1
 10
124.4834853989295
 20
240.2947761194029
 11
102.5834853989295
 21
240.2947761194029
 72
     2
 10
102.5834853989295
 20
241.794776119403
 40
1.5
 50
180.0
 51
270.0
 73
     0
 72
     1
 10
101.0834853989295
 20
241.794776119403
 11
101.0834853989295
 21
244.2947761194029
 72
     1
 10
101.0834853989295
 20
244.2947761194029
 11
95.88348539892949
 21
244.2947761194029
 72
     1
 10
95.88348539892949
 20
244.2947761194029
 11
95.88348539892949
 21
241.794776119403
 72
     2
 10
94.38348539892949
 20
241.794776119403
 40
1.5
 50
270.0
 51
360.0
 73
     0
 72
     1
 10
94.38348539892949
 20
240.2947761194029
 11
72.48348539892949
 21
240.2947761194029
 72
     2
 10
72.48348539892949
 20
234.7947761194029
 40
5.5
 50
90.0
 51
180.0
 73
     1
 72
     1
 10
66.98348539892947
 20
234.7947761194029
 11
66.98348539892947
 21
229.7281094527362
 72
     2
 10
71.28348539892951
 20
229.7281094527362
 40
4.3
 50
180.0
 51
216.8698976458443
 73
     1
 72
     1
 10
67.84348539892953
 20
227.1481094527362
 11
73.88348539892947
 21
219.094776119403
 97
        0
 92
        0
 93
       61
 72
     1
 10
94.38348539892949
 20
76.29477611940311
 11
71.68348539892948
 21
76.29477611940311
 72
     2
 10
71.68348539892948
 20
80.99477611940307
 40
4.7
 50
180.0
 51
270.0
 73
     0
 72
     1
 10
66.98348539892949
 20
80.99477611940307
 11
66.98348539892947
 21
86.86144278606977
 72
     2
 10
71.28348539892951
 20
86.86144278606977
 40
4.3
 50
143.1301023541557
 51
180.0
 73
     0
 72
     1
 10
67.84348539892953
 20
89.44144278606979
 11
73.88348539892947
 21
97.49477611940296
 72
     2
 10
67.48348539892949
 20
102.294776119403
 40
8.0
 50
323.1301023541557
 51
387.7973166039636
 73
     1
 72
     1
 10
74.56030793526243
 20
106.025537809628
 11
66.47969328565056
 21
121.353527268088
 72
     2
 10
70.28348539892951
 20
123.3588116765839
 40
4.3
 50
180.0
 51
207.7973166039636
 73
     0
 72
     1
 10
65.98348539892949
 20
123.3588116765839
 11
65.98348539892949
 21
127.794776119403
 72
     2
 10
70.48348539892949
 20
127.794776119403
 40
4.5
 50
90.0
 51
180.0
 73
     0
 72
     1
 10
70.48348539892949
 20
132.294776119403
 11
79.98348539892949
 21
132.294776119403
 72
     2
 10
79.98348539892949
 20
133.294776119403
 40
1.0
 50
270.0
 51
360.0
 73
     1
 72
     1
 10
80.98348539892947
 20
133.294776119403
 11
80.98348539892947
 21
141.544776119403
 72
     1
 10
80.98348539892947
 20
141.544776119403
 11
83.98348539892949
 21
141.544776119403
 72
     1
 10
83.98348539892949
 20
141.544776119403
 11
83.98348539892949
 21
133.594776119403
 72
     2
 10
79.68348539892948
 20
133.594776119403
 40
4.3
 50
270.0
 51
360.0
 73
     0
 72
     1
 10
79.68348539892948
 20
129.294776119403
 11
70.68348539892945
 21
129.294776119403
 72
     2
 10
70.68348539892945
 20
127.7947761194029
 40
1.5
 50
90.0
 51
180.0000000000006
 73
     1
 72
     1
 10
69.18348539892948
 20
127.7947761194029
 11
69.18348539892951
 21
123.3340666636263
 72
     2
 10
70.18348539892946
 20
123.3340666636263
 40
0.9999999999999716
 50
180.0
 51
207.7973166039633
 73
     1
 72
     1
 10
69.2988825818879
 20
122.8677214523482
 11
77.39103694979561
 21
107.517842485718
 72
     2
 10
67.48348539892949
 20
102.294776119403
 40
11.2
 50
323.1301023541553
 51
387.7973166039635
 73
     0
 72
     1
 10
76.44348539892943
 20
95.57477611940288
 11
70.38348539892945
 21
87.4947761194031
 72
     2
 10
71.18348539892946
 20
86.89477611940308
 40
1.0
 50
143.1301023541554
 51
180.0
 73
     1
 72
     1
 10
70.18348539892946
 20
86.89477611940308
 11
70.18348539892946
 21
80.99477611940307
 72
     2
 10
71.68348539892948
 20
80.99477611940307
 40
1.5
 50
180.0
 51
270.0
 73
     1
 72
     1
 10
71.68348539892948
 20
79.49477611940304
 11
93.68348539892948
 21
79.49477611940304
 72
     2
 10
93.68348539892948
 20
74.69477611940306
 40
4.8
 50
0.0
 51
90.0
 73
     0
 72
     2
 10
103.2834853989295
 20
74.69477611940306
 40
4.8
 50
90.0
 51
180.0
 73
     0
 72
     1
 10
103.2834853989295
 20
79.49477611940304
 11
125.2834853989295
 21
79.49477611940304
 72
     2
 10
125.2834853989295
 20
80.99477611940307
 40
1.5
 50
270.0
 51
360.0
 73
     1
 72
     1
 10
126.7834853989295
 20
80.99477611940307
 11
126.7834853989295
 21
86.89477611940308
 72
     2
 10
125.7834853989295
 20
86.89477611940308
 40
1.0
 50
0.0
 51
36.86989764584467
 73
     1
 72
     1
 10
126.5834853989295
 20
87.4947761194031
 11
120.5234853989295
 21
95.5747761194029
 72
     2
 10
129.4834853989295
 20
102.294776119403
 40
11.2
 50
152.2026833960365
 51
216.8698976458447
 73
     0
 72
     1
 10
119.5759338480633
 20
107.517842485718
 11
127.6680882159711
 21
122.8677214523482
 72
     2
 10
126.7834853989295
 20
123.3340666636263
 40
0.9999999999999716
 50
332.2026833960363
 51
360.0
 73
     1
 72
     1
 10
127.7834853989295
 20
123.3340666636263
 11
127.7834853989295
 21
127.7947761194029
 72
     2
 10
126.2834853989295
 20
127.7947761194029
 40
1.5
 50
0.0
 51
90.0
 73
     1
 72
     1
 10
126.2834853989295
 20
129.294776119403
 11
117.2834853989295
 21
129.294776119403
 72
     2
 10
117.2834853989295
 20
133.594776119403
 40
4.3
 50
180.0
 51
270.0
 73
     0
 72
     1
 10
112.9834853989295
 20
133.594776119403
 11
112.9834853989295
 21
141.544776119403
 72
     1
 10
112.9834853989295
 20
141.544776119403
 11
115.9834853989295
 21
141.544776119403
 72
     1
 10
115.9834853989295
 20
141.544776119403
 11
115.9834853989295
 21
133.294776119403
 72
     2
 10
116.9834853989295
 20
133.294776119403
 40
1.0
 50
180.0
 51
270.0
 73
     1
 72
     1
 10
116.9834853989295
 20
132.294776119403
 11
126.4834853989295
 21
132.294776119403
 72
     2
 10
126.4834853989295
 20
127.794776119403
 40
4.5
 50
0.0
 51
90.0
 73
     0
 72
     1
 10
130.9834853989295
 20
127.794776119403
 11
130.9834853989295
 21
123.3588116765839
 72
     2
 10
126.6834853989294
 20
123.3588116765839
 40
4.3
 50
332.2026833960366
 51
360.0
 73
     0
 72
     1
 10
130.4872775122084
 20
121.353527268088
 11
122.4066628625965
 21
106.025537809628
 72
     2
 10
129.4834853989295
 20
102.294776119403
 40
8.0
 50
152.2026833960366
 51
216.8698976458442
 73
     1
 72
     1
 10
123.0834853989295
 20
97.49477611940299
 11
129.1234853989294
 21
89.44144278606977
 72
     2
 10
125.6834853989294
 20
86.86144278606977
 40
4.3
 50
0.0
 51
36.86989764584425
 73
     0
 72
     1
 10
129.9834853989295
 20
86.86144278606977
 11
129.9834853989295
 21
80.99477611940307
 72
     2
 10
125.2834853989295
 20
80.99477611940307
 40
4.7
 50
270.0
 51
360.0
 73
     0
 72
     1
 10
125.2834853989295
 20
76.29477611940311
 11
102.5834853989295
 21
76.29477611940311
 72
     2
 10
102.5834853989295
 20
74.79477611940303
 40
1.5
 50
90.0
 51
180.0
 73
     1
 72
     1
 10
101.0834853989295
 20
74.79477611940303
 11
101.0834853989295
 21
72.29477611940311
 72
     1
 10
101.0834853989295
 20
72.29477611940311
 11
95.88348539892949
 21
72.29477611940311
 72
     1
 10
95.88348539892949
 20
72.29477611940311
 11
95.88348539892949
 21
74.79477611940303
 72
     2
 10
94.38348539892949
 20
74.79477611940303
 40
1.5
 50
0.0
 51
90.0
 73
     1
 97
        0
 75
     0
 76
     0
 52
45.0
 41
2.0
 77
     0
 78
     1
 53
45.0
 43
0.0
 44
0.0
 45
-1.414213562373095
 46
1.414213562373095
 79
     0
 98
        0
  0
TEXT
  5
26C
330
1F
100
AcDbEntity
  8
LAYERGROUP-1
  6
CONTINUOUS
 62
     7
100
AcDbText
 10
255.268753
 20
12.0
 30
0.0
 40
6.0
  1
1H50FAAA-C02
 41
0.705882
  7
FX_VECTOR
 72
     5
 11
303.268753
 21
12.0
 31
0.0
100
AcDbText
  0
INSERT
  5
270
330
1F
100
AcDbEntity
  8
0
100
AcDbBlockReference
  2
BLKF028
 10
0.0
 20
0.0
 30
0.0
  0
ENDSEC
  0
SECTION
  2
OBJECTS
  0
DICTIONARY
  5
C
330
0
100
AcDbDictionary
  3
ACAD_GROUP
350
D
  3
ACAD_LAYOUT
350
1A
  3
ACAD_MLINESTYLE
350
17
  3
ACAD_PLOTSETTINGS
350
19
  3
ACDBHEADERROUNDTRIPXREC
350
29B
  0
DICTIONARY
  5
D
102
{ACAD_REACTORS
330
C
102
}
330
C
100
AcDbDictionary
  0
DICTIONARY
  5
1A
102
{ACAD_REACTORS
330
C
102
}
330
C
100
AcDbDictionary
  0
DICTIONARY
  5
17
102
{ACAD_REACTORS
330
C
102
}
330
C
100
AcDbDictionary
  3
STANDARD
350
18
  0
DICTIONARY
  5
19
102
{ACAD_REACTORS
330
C
102
}
330
C
100
AcDbDictionary
  0
DICTIONARY
  5
29B
102
{ACAD_REACTORS
330
C
102
}
330
C
100
AcDbDictionary
  3
CEPSNTYPE
350
2A4
  3
DIMSTYLEDATA
350
2BA
  3
FINGERPRINTGUID
350
2A5
  3
HYPERLINKBASE
350
29E
  3
INSUNITS
350
2A3
  3
LAYOUTDICT
350
2A0
  3
LWETCUNION
350
2A2
  3
PLOTSETDICT
350
2A1
  3
PSVPSCALE
350
2A7
  3
PUCSBASE
350
2AA
  3
PUCSORGBACK
350
2B0
  3
PUCSORGBOTTOM
350
2AC
  3
PUCSORGFRONT
350
2AF
  3
PUCSORGLEFT
350
2AD
  3
PUCSORGRIGHT
350
2AE
  3
PUCSORGTOP
350
2AB
  3
PUCSORTHOREF
350
2A8
  3
PUCSORTHOVIEW
350
2A9
  3
STYLESHEET
350
29F
  3
TSTACKALIGN
350
29C
  3
TSTACKSIZE
350
29D
  3
UCSBASE
350
2B3
  3
UCSORGBACK
350
2B9
  3
UCSORGBOTTOM
350
2B5
  3
UCSORGFRONT
350
2B8
  3
UCSORGLEFT
350
2B6
  3
UCSORGRIGHT
350
2B7
  3
UCSORGTOP
350
2B4
  3
UCSORTHOREF
350
2B1
  3
UCSORTHOVIEW
350
2B2
  3
VERSIONGUID
350
2A6
  0
MLINESTYLE
  5
18
102
{ACAD_REACTORS
330
17
102
}
330
17
100
AcDbMlineStyle
  2
Standard
 70
     0
  3

 62
   256
 51
90.0
 52
90.0
 71
     2
 49
0.5
 62
   256
  6
BYLAYER
 49
-0.5
 62
   256
  6
BYLAYER
  0
XRECORD
  5
2A4
102
{ACAD_REACTORS
330
29B
102
}
330
29B
100
AcDbXrecord
 90
        0
  0
XRECORD
  5
2BA
102
{ACAD_REACTORS
330
29B
102
}
330
29B
100
AcDbXrecord
1000
DSTYLE
1002
{
1070
   179
 70
     2
1070
   171
 70
     3
1070
   143
 40
0.03937
1070
   274
 70
     3
1070
    41
 40
4.0
1070
   343
340
41
1070
   344
340
47
1070
   141
 40
2.5
1070
   176
 70
     7
1070
   177
 70
     7
1070
   178
 70
     7
1070
   271
 70
     2
1070
    46
 40
6.0
1070
    43
 40
10.0
1070
    44
 40
1.0
1070
    42
 40
1.0
1070
   147
 40
1.0
1070
   341
340
41
1070
   173
 70
     1
1070
    77
 70
     1
1070
   272
 70
     2
1070
    73
 70
     0
1070
   172
 70
     1
1070
    74
 70
     0
1070
   283
 70
     0
1070
   340
340
3F
1070
   140
 40
4.0
1070
   284
 70
     8
1070
    78
 70
     8
1002
}
  0
XRECORD
  5
2A5
102
{ACAD_REACTORS
330
29B
102
}
330
29B
100
AcDbXrecord
  1
{B73867E1-2F0A-4ED0-80D8-316F2213C9AD}
  0
XRECORD
  5
29E
102
{ACAD_REACTORS
330
29B
102
}
330
29B
100
AcDbXrecord
  1

  0
XRECORD
  5
2A3
102
{ACAD_REACTORS
330
29B
102
}
330
29B
100
AcDbXrecord
 90
        1
  0
XRECORD
  5
2A0
102
{ACAD_REACTORS
330
29B
102
}
330
29B
100
AcDbXrecord
340
1A
  0
XRECORD
  5
2A2
102
{ACAD_REACTORS
330
29B
102
}
330
29B
100
AcDbXrecord
 90
    10781
  0
XRECORD
  5
2A1
102
{ACAD_REACTORS
330
29B
102
}
330
29B
100
AcDbXrecord
340
19
  0
XRECORD
  5
2A7
102
{ACAD_REACTORS
330
29B
102
}
330
29B
100
AcDbXrecord
 40
0.0
  0
XRECORD
  5
2AA
102
{ACAD_REACTORS
330
29B
102
}
330
29B
100
AcDbXrecord
340
0
  0
XRECORD
  5
2B0
102
{ACAD_REACTORS
330
29B
102
}
330
29B
100
AcDbXrecord
 10
0.0
 20
0.0
 30
0.0
  0
XRECORD
  5
2AC
102
{ACAD_REACTORS
330
29B
102
}
330
29B
100
AcDbXrecord
 10
0.0
 20
0.0
 30
0.0
  0
XRECORD
  5
2AF
102
{ACAD_REACTORS
330
29B
102
}
330
29B
100
AcDbXrecord
 10
0.0
 20
0.0
 30
0.0
  0
XRECORD
  5
2AD
102
{ACAD_REACTORS
330
29B
102
}
330
29B
100
AcDbXrecord
 10
0.0
 20
0.0
 30
0.0
  0
XRECORD
  5
2AE
102
{ACAD_REACTORS
330
29B
102
}
330
29B
100
AcDbXrecord
 10
0.0
 20
0.0
 30
0.0
  0
XRECORD
  5
2AB
102
{ACAD_REACTORS
330
29B
102
}
330
29B
100
AcDbXrecord
 10
0.0
 20
0.0
 30
0.0
  0
XRECORD
  5
2A8
102
{ACAD_REACTORS
330
29B
102
}
330
29B
100
AcDbXrecord
340
0
  0
XRECORD
  5
2A9
102
{ACAD_REACTORS
330
29B
102
}
330
29B
100
AcDbXrecord
 70
     0
  0
XRECORD
  5
29F
102
{ACAD_REACTORS
330
29B
102
}
330
29B
100
AcDbXrecord
  1

  0
XRECORD
  5
29C
102
{ACAD_REACTORS
330
29B
102
}
330
29B
100
AcDbXrecord
 90
        1
  0
XRECORD
  5
29D
102
{ACAD_REACTORS
330
29B
102
}
330
29B
100
AcDbXrecord
 90
       70
  0
XRECORD
  5
2B3
102
{ACAD_REACTORS
330
29B
102
}
330
29B
100
AcDbXrecord
340
0
  0
XRECORD
  5
2B9
102
{ACAD_REACTORS
330
29B
102
}
330
29B
100
AcDbXrecord
 10
0.0
 20
0.0
 30
0.0
  0
XRECORD
  5
2B5
102
{ACAD_REACTORS
330
29B
102
}
330
29B
100
AcDbXrecord
 10
0.0
 20
0.0
 30
0.0
  0
XRECORD
  5
2B8
102
{ACAD_REACTORS
330
29B
102
}
330
29B
100
AcDbXrecord
 10
0.0
 20
0.0
 30
0.0
  0
XRECORD
  5
2B6
102
{ACAD_REACTORS
330
29B
102
}
330
29B
100
AcDbXrecord
 10
0.0
 20
0.0
 30
0.0
  0
XRECORD
  5
2B7
102
{ACAD_REACTORS
330
29B
102
}
330
29B
100
AcDbXrecord
 10
0.0
 20
0.0
 30
0.0
  0
XRECORD
  5
2B4
102
{ACAD_REACTORS
330
29B
102
}
330
29B
100
AcDbXrecord
 10
0.0
 20
0.0
 30
0.0
  0
XRECORD
  5
2B1
102
{ACAD_REACTORS
330
29B
102
}
330
29B
100
AcDbXrecord
340
0
  0
XRECORD
  5
2B2
102
{ACAD_REACTORS
330
29B
102
}
330
29B
100
AcDbXrecord
 70
     0
  0
XRECORD
  5
2A6
102
{ACAD_REACTORS
330
29B
102
}
330
29B
100
AcDbXrecord
  1
{FAEB1C32-E019-11D5-929B-00C0DF256EC4}
  0
ENDSEC
  0
EOF
