  0
SECTION
  2
HEADER
  9
$ACADVER
  1
AC1014
  9
$ACADMAINTVER
 70
     9
  9
$DWGCODEPAGE
  3
ANSI_932
  9
$INSBASE
 10
0.0
 20
0.0
 30
0.0
  9
$EXTMIN
 10
0.0
 20
0.0
 30
0.0
  9
$EXTMAX
 10
297.0
 20
210.0
 30
0.0
  9
$LIMMIN
 10
0.0
 20
0.0
  9
$LIMMAX
 10
297.0
 20
210.0
  9
$ORTHOMODE
 70
     0
  9
$REGENMODE
 70
     1
  9
$FILLMODE
 70
     1
  9
$QTEXTMODE
 70
     0
  9
$MIRRTEXT
 70
     1
  9
$DRAGMODE
 70
     2
  9
$LTSCALE
 40
1.0
  9
$OSMODE
 70
    37
  9
$ATTMODE
 70
     1
  9
$TEXTSIZE
 40
0.2
  9
$TRACEWID
 40
0.05
  9
$TEXTSTYLE
  7
STYLE1
  9
$CLAYER
  8
0
  9
$CELTYPE
  6
BYLAYER
  9
$CECOLOR
 62
   256
  9
$CELTSCALE
 40
1.0
  9
$DELOBJ
 70
     1
  9
$DISPSILH
 70
     0
  9
$DIMSCALE
 40
1.0
  9
$DIMASZ
 40
3.0
  9
$DIMEXO
 40
1.0
  9
$DIMDLI
 40
8.0
  9
$DIMRND
 40
0.0
  9
$DIMDLE
 40
6.0
  9
$DIMEXE
 40
1.0
  9
$DIMTP
 40
0.0
  9
$DIMTM
 40
0.0
  9
$DIMTXT
 40
4.0
  9
$DIMCEN
 40
2.5
  9
$DIMTSZ
 40
0.0
  9
$DIMTOL
 70
     0
  9
$DIMLIM
 70
     0
  9
$DIMTIH
 70
     0
  9
$DIMTOH
 70
     0
  9
$DIMSE1
 70
     0
  9
$DIMSE2
 70
     0
  9
$DIMTAD
 70
     1
  9
$DIMZIN
 70
     8
  9
$DIMBLK
  1

  9
$DIMASO
 70
     1
  9
$DIMSHO
 70
     1
  9
$DIMPOST
  1

  9
$DIMAPOST
  1

  9
$DIMALT
 70
     0
  9
$DIMALTD
 70
     3
  9
$DIMALTF
 40
0.03937
  9
$DIMLFAC
 40
1.0
  9
$DIMTOFL
 70
     1
  9
$DIMTVP
 40
0.0
  9
$DIMTIX
 70
     0
  9
$DIMSOXD
 70
     0
  9
$DIMSAH
 70
     1
  9
$DIMBLK1
  1
FXTIP_ARROW_S
  9
$DIMBLK2
  1
FXTIP_ARROW_E
  9
$DIMSTYLE
  2
FXDIMINFO
  9
$DIMCLRD
 70
     7
  9
$DIMCLRE
 70
     7
  9
$DIMCLRT
 70
     7
  9
$DIMTFAC
 40
1.0
  9
$DIMGAP
 40
1.0
  9
$DIMJUST
 70
     0
  9
$DIMSD1
 70
     0
  9
$DIMSD2
 70
     0
  9
$DIMTOLJ
 70
     0
  9
$DIMTZIN
 70
     8
  9
$DIMALTZ
 70
     0
  9
$DIMALTTZ
 70
     0
  9
$DIMFIT
 70
     3
  9
$DIMUPT
 70
     0
  9
$DIMUNIT
 70
     2
  9
$DIMDEC
 70
     2
  9
$DIMTDEC
 70
     2
  9
$DIMALTU
 70
     2
  9
$DIMALTTD
 70
     3
  9
$DIMTXSTY
  7
STYLE1
  9
$DIMAUNIT
 70
     0
  9
$LUNITS
 70
     2
  9
$LUPREC
 70
     4
  9
$SKETCHINC
 40
0.1
  9
$FILLETRAD
 40
0.5
  9
$AUNITS
 70
     0
  9
$AUPREC
 70
     0
  9
$MENU
  1
.
  9
$ELEVATION
 40
0.0
  9
$PELEVATION
 40
0.0
  9
$THICKNESS
 40
0.0
  9
$LIMCHECK
 70
     0
  9
$CHAMFERA
 40
0.5
  9
$CHAMFERB
 40
0.5
  9
$CHAMFERC
 40
1.0
  9
$CHAMFERD
 40
0.0
  9
$SKPOLY
 70
     0
  9
$TDCREATE
 40
2455301.578334317
  9
$TDUPDATE
 40
2455301.578334329
  9
$TDINDWG
 40
0.0000000116
  9
$TDUSRTIMER
 40
0.0000000116
  9
$USRTIMER
 70
     1
  9
$ANGBASE
 50
0.0
  9
$ANGDIR
 70
     0
  9
$PDMODE
 70
     0
  9
$PDSIZE
 40
0.0
  9
$PLINEWID
 40
0.0
  9
$COORDS
 70
     1
  9
$SPLFRAME
 70
     0
  9
$SPLINETYPE
 70
     6
  9
$SPLINESEGS
 70
     8
  9
$ATTDIA
 70
     0
  9
$ATTREQ
 70
     1
  9
$HANDLING
 70
     1
  9
$HANDSEED
  5
21F
  9
$SURFTAB1
 70
     6
  9
$SURFTAB2
 70
     6
  9
$SURFTYPE
 70
     6
  9
$SURFU
 70
     6
  9
$SURFV
 70
     6
  9
$UCSNAME
  2

  9
$UCSORG
 10
0.0
 20
0.0
 30
0.0
  9
$UCSXDIR
 10
1.0
 20
0.0
 30
0.0
  9
$UCSYDIR
 10
0.0
 20
1.0
 30
0.0
  9
$PUCSNAME
  2

  9
$PUCSORG
 10
0.0
 20
0.0
 30
0.0
  9
$PUCSXDIR
 10
1.0
 20
0.0
 30
0.0
  9
$PUCSYDIR
 10
0.0
 20
1.0
 30
0.0
  9
$USERI1
 70
     0
  9
$USERI2
 70
     0
  9
$USERI3
 70
     0
  9
$USERI4
 70
     0
  9
$USERI5
 70
     0
  9
$USERR1
 40
0.0
  9
$USERR2
 40
0.0
  9
$USERR3
 40
0.0
  9
$USERR4
 40
0.0
  9
$USERR5
 40
0.0
  9
$WORLDVIEW
 70
     1
  9
$SHADEDGE
 70
     3
  9
$SHADEDIF
 70
    70
  9
$TILEMODE
 70
     1
  9
$MAXACTVP
 70
    64
  9
$PINSBASE
 10
0.0
 20
0.0
 30
0.0
  9
$PLIMCHECK
 70
     0
  9
$PEXTMIN
 10
1.000000E+20
 20
1.000000E+20
 30
1.000000E+20
  9
$PEXTMAX
 10
-1.000000E+20
 20
-1.000000E+20
 30
-1.000000E+20
  9
$PLIMMIN
 10
0.0
 20
0.0
  9
$PLIMMAX
 10
12.0
 20
9.0
  9
$UNITMODE
 70
     0
  9
$VISRETAIN
 70
     1
  9
$PLINEGEN
 70
     0
  9
$PSLTSCALE
 70
     1
  9
$TREEDEPTH
 70
  3020
  9
$PICKSTYLE
 70
     1
  9
$CMLSTYLE
  2
STANDARD
  9
$CMLJUST
 70
     0
  9
$CMLSCALE
 40
1.0
  9
$PROXYGRAPHICS
 70
     1
  9
$MEASUREMENT
 70
     0
  0
ENDSEC
  0
SECTION
  2
CLASSES
  0
CLASS
  1
ACDBDICTIONARYWDFLT
  2
AcDbDictionaryWithDefault
  3
ObjectDBX Classes
 90
        0
280
     0
281
     0
  0
CLASS
  1
XRECORD
  2
AcDbXrecord
  3
AutoCAD 2000
 90
        0
280
     0
281
     0
  0
CLASS
  1
LWPOLYLINE
  2
AcDbPolyline
  3
AutoCAD 2000
 90
        0
280
     0
281
     1
  0
CLASS
  1
HATCH
  2
AcDbHatch
  3
AutoCAD 2000
 90
        0
280
     0
281
     1
  0
CLASS
  1
ACDBPLACEHOLDER
  2
AcDbPlaceHolder
  3
ObjectDBX Classes
 90
        0
280
     0
281
     0
  0
CLASS
  1
LAYOUT
  2
AcDbLayout
  3
ObjectDBX Classes
 90
        0
280
     0
281
     0
  0
ENDSEC
  0
SECTION
  2
TABLES
  0
TABLE
  2
VPORT
  5
8
330
0
100
AcDbSymbolTable
 70
     1
  0
VPORT
  5
29
330
8
100
AcDbSymbolTableRecord
100
AcDbViewportTableRecord
  2
*ACTIVE
 70
     0
 10
0.0
 20
0.0
 11
1.0
 21
1.0
 12
148.5
 22
105.0
 13
0.0
 23
0.0
 14
0.5
 24
0.5
 15
0.5
 25
0.5
 16
0.0
 26
0.0
 36
1.0
 17
0.0
 27
0.0
 37
0.0
 40
210.0
 41
1.414286
 42
50.0
 43
0.0
 44
0.0
 50
0.0
 51
0.0
 71
     0
 72
   100
 73
     1
 74
     3
 75
     0
 76
     0
 77
     0
 78
     0
  0
ENDTAB
  0
TABLE
  2
LTYPE
  5
5
330
0
100
AcDbSymbolTable
 70
     4
  0
LTYPE
  5
14
330
5
100
AcDbSymbolTableRecord
100
AcDbLinetypeTableRecord
  2
BYBLOCK
 70
     0
  3

 72
    65
 73
     0
 40
0.0
  0
LTYPE
  5
15
330
5
100
AcDbSymbolTableRecord
100
AcDbLinetypeTableRecord
  2
BYLAYER
 70
     0
  3

 72
    65
 73
     0
 40
0.0
  0
LTYPE
  5
16
330
5
100
AcDbSymbolTableRecord
100
AcDbLinetypeTableRecord
  2
CONTINUOUS
 70
     0
  3
--------------------
 72
    65
 73
     0
 40
0.0
  0
LTYPE
  5
2A
330
5
100
AcDbSymbolTableRecord
100
AcDbLinetypeTableRecord
  2
CENTER
 70
     0
  3
Center ____ _ ____ _ ____ _ ____ _ ____ _ ____
 72
    65
 73
     4
 40
13.0
 49
10.0
 74
     0
 49
-1.0
 74
     0
 49
1.0
 74
     0
 49
-1.0
 74
     0
  0
ENDTAB
  0
TABLE
  2
LAYER
  5
2
330
0
100
AcDbSymbolTable
 70
    20
  0
LAYER
  5
10
330
2
100
AcDbSymbolTableRecord
100
AcDbLayerTableRecord
  2
0
 70
     0
 62
     7
  6
CONTINUOUS
  0
LAYER
  5
2D
330
2
100
AcDbSymbolTableRecord
100
AcDbLayerTableRecord
  2
LAYERGROUP-1
 70
     0
 62
     3
  6
CONTINUOUS
  0
LAYER
  5
3D
330
2
100
AcDbSymbolTableRecord
100
AcDbLayerTableRecord
  2
}}ﾊﾊGG血CCТ
 70
     0
 62
     3
  6
CONTINUOUS
  0
LAYER
  5
14F
330
2
100
AcDbSymbolTableRecord
100
AcDbLayerTableRecord
  2
GR1-1
 70
     0
 62
     7
  6
CONTINUOUS
  0
LAYER
  5
1E2
330
2
100
AcDbSymbolTableRecord
100
AcDbLayerTableRecord
  2
0-1
 70
     0
 62
     7
  6
CONTINUOUS
  0
ENDTAB
  0
TABLE
  2
STYLE
  5
3
330
0
100
AcDbSymbolTable
 70
     4
  0
STYLE
  5
11
330
3
100
AcDbSymbolTableRecord
100
AcDbTextStyleTableRecord
  2
STANDARD
 70
     0
 40
0.0
 41
1.0
 50
0.0
 71
     0
 42
0.2
  3
txt
  4

  0
STYLE
  5
3F
330
3
100
AcDbSymbolTableRecord
100
AcDbTextStyleTableRecord
  2
STYLE1
 70
     0
 40
0.0
 41
1.0
 50
0.0
 71
     0
 42
0.2
  3
MONOTXT.SHX
  4
extfont.shx
  0
STYLE
  5
40
330
3
100
AcDbSymbolTableRecord
100
AcDbTextStyleTableRecord
  2
FX_VECTOR
 70
     0
 40
0.0
 41
1.0
 50
0.0
 71
     0
 42
0.2
  3
MONOTXT.SHX
  4
BIGFONT.SHX
  0
ENDTAB
  0
TABLE
  2
VIEW
  5
6
330
0
100
AcDbSymbolTable
 70
     0
  0
ENDTAB
  0
TABLE
  2
UCS
  5
7
330
0
100
AcDbSymbolTable
 70
     0
  0
ENDTAB
  0
TABLE
  2
APPID
  5
9
330
0
100
AcDbSymbolTable
 70
     1
  0
APPID
  5
12
330
9
100
AcDbSymbolTableRecord
100
AcDbRegAppTableRecord
  2
ACAD
 70
     0
  0
ENDTAB
  0
TABLE
  2
DIMSTYLE
  5
A
330
0
100
AcDbSymbolTable
 70
     2
  0
DIMSTYLE
105
27
330
A
100
AcDbSymbolTableRecord
100
AcDbDimStyleTableRecord
  2
STANDARD
 70
     0
  3

  4

  5

  6

  7

 40
1.0
 41
0.18
 42
0.0625
 43
0.38
 44
0.18
 45
0.0
 46
0.0
 47
0.0
 48
0.0
140
0.18
141
0.09
142
0.0
143
25.4
144
1.0
145
0.0
146
1.0
147
0.09
 71
     0
 72
     0
 73
     1
 74
     1
 75
     0
 76
     0
 77
     0
 78
     0
170
     0
171
     2
172
     0
173
     0
174
     0
175
     0
176
     0
177
     0
178
     0
270
     2
271
     4
272
     4
273
     2
274
     2
340
11
275
     0
280
     0
281
     0
282
     0
283
     1
284
     0
285
     0
286
     0
287
     3
288
     0
  0
DIMSTYLE
105
A7
102
{ACAD_REACTORS
330
12D
330
137
330
141
330
1C5
102
}
330
A
100
AcDbSymbolTableRecord
100
AcDbDimStyleTableRecord
  2
FXDIMINFO
 70
     0
  3

  4

  5

  6
FXTIP_ARROW_S
  7
FXTIP_ARROW_E
 40
1.0
 41
3.0
 42
1.0
 43
8.0
 44
1.0
 45
0.0
 46
6.0
 47
0.0
 48
0.0
140
4.0
141
2.5
142
0.0
143
0.03937
144
1.0
145
0.0
146
1.0
147
1.0
 71
     0
 72
     0
 73
     0
 74
     0
 75
     0
 76
     0
 77
     1
 78
     8
170
     0
171
     3
172
     1
173
     1
174
     0
175
     0
176
     7
177
     7
178
     7
179
     2
270
     2
271
     2
272
     2
273
     2
274
     3
340
3F
275
     0
280
     0
281
     0
282
     0
283
     0
284
     8
285
     0
286
     0
287
     3
288
     0
  0
ENDTAB
  0
TABLE
  2
BLOCK_RECORD
  5
1
330
0
100
AcDbSymbolTable
 70
    27
  0
BLOCK_RECORD
  5
1F
330
1
100
AcDbSymbolTableRecord
100
AcDbBlockTableRecord
  2
*MODEL_SPACE
  0
BLOCK_RECORD
  5
1B
330
1
100
AcDbSymbolTableRecord
100
AcDbBlockTableRecord
  2
*PAPER_SPACE
  0
BLOCK_RECORD
  5
41
330
1
100
AcDbSymbolTableRecord
100
AcDbBlockTableRecord
  2
FXTIP_ARROW_S
  0
BLOCK_RECORD
  5
47
330
1
100
AcDbSymbolTableRecord
100
AcDbBlockTableRecord
  2
FXTIP_ARROW_E
  0
BLOCK_RECORD
  5
4D
330
1
100
AcDbSymbolTableRecord
100
AcDbBlockTableRecord
  2
FXTIP_BLACKDOT_S
  0
BLOCK_RECORD
  5
53
330
1
100
AcDbSymbolTableRecord
100
AcDbBlockTableRecord
  2
FXTIP_BLACKDOT_E
  0
BLOCK_RECORD
  5
59
330
1
100
AcDbSymbolTableRecord
100
AcDbBlockTableRecord
  2
FXTIP_TRIANGLE_S
  0
BLOCK_RECORD
  5
60
330
1
100
AcDbSymbolTableRecord
100
AcDbBlockTableRecord
  2
FXTIP_TRIANGLE_E
  0
BLOCK_RECORD
  5
67
330
1
100
AcDbSymbolTableRecord
100
AcDbBlockTableRecord
  2
FXTIP_ARCHITECT_S
  0
BLOCK_RECORD
  5
6D
330
1
100
AcDbSymbolTableRecord
100
AcDbBlockTableRecord
  2
FXTIP_ARCHITECT_E
  0
BLOCK_RECORD
  5
73
330
1
100
AcDbSymbolTableRecord
100
AcDbBlockTableRecord
  2
FXTIP_CIVIL_S
  0
BLOCK_RECORD
  5
79
330
1
100
AcDbSymbolTableRecord
100
AcDbBlockTableRecord
  2
FXTIP_CIVIL_E
  0
BLOCK_RECORD
  5
7F
330
1
100
AcDbSymbolTableRecord
100
AcDbBlockTableRecord
  2
FXTIP_WHITEDOT_S
  0
BLOCK_RECORD
  5
84
330
1
100
AcDbSymbolTableRecord
100
AcDbBlockTableRecord
  2
FXTIP_WHITEDOT_E
  0
BLOCK_RECORD
  5
89
330
1
100
AcDbSymbolTableRecord
100
AcDbBlockTableRecord
  2
FXTIP_UPARROW_S
  0
BLOCK_RECORD
  5
8E
330
1
100
AcDbSymbolTableRecord
100
AcDbBlockTableRecord
  2
FXTIP_UPARROW_E
  0
BLOCK_RECORD
  5
93
330
1
100
AcDbSymbolTableRecord
100
AcDbBlockTableRecord
  2
FXTIP_DOWNARROW_S
  0
BLOCK_RECORD
  5
98
330
1
100
AcDbSymbolTableRecord
100
AcDbBlockTableRecord
  2
FXTIP_DOWNARROW_E
  0
BLOCK_RECORD
  5
9D
330
1
100
AcDbSymbolTableRecord
100
AcDbBlockTableRecord
  2
FXTIP_BLACKTRIANGLE_S
  0
BLOCK_RECORD
  5
A2
330
1
100
AcDbSymbolTableRecord
100
AcDbBlockTableRecord
  2
FXTIP_BLACKTRIANGLE_E
  0
BLOCK_RECORD
  5
12E
330
1
100
AcDbSymbolTableRecord
100
AcDbBlockTableRecord
  2
*D19
  0
BLOCK_RECORD
  5
138
330
1
100
AcDbSymbolTableRecord
100
AcDbBlockTableRecord
  2
*D20
  0
BLOCK_RECORD
  5
142
330
1
100
AcDbSymbolTableRecord
100
AcDbBlockTableRecord
  2
*D21
  0
BLOCK_RECORD
  5
14B
330
1
100
AcDbSymbolTableRecord
100
AcDbBlockTableRecord
  2
BLKF024
  0
BLOCK_RECORD
  5
1C6
330
1
100
AcDbSymbolTableRecord
100
AcDbBlockTableRecord
  2
*D23
  0
BLOCK_RECORD
  5
1D2
330
1
100
AcDbSymbolTableRecord
100
AcDbBlockTableRecord
  2
BLKF026
  0
BLOCK_RECORD
  5
1DE
330
1
100
AcDbSymbolTableRecord
100
AcDbBlockTableRecord
  2
BLKF027
  0
BLOCK_RECORD
  5
1E7
330
1
100
AcDbSymbolTableRecord
100
AcDbBlockTableRecord
  2
BLKF028
  0
ENDTAB
  0
ENDSEC
  0
SECTION
  2
BLOCKS
  0
BLOCK
  5
20
330
1F
100
AcDbEntity
  8
0
100
AcDbBlockBegin
  2
*MODEL_SPACE
 70
     0
 71
     0
 10
0.0
 20
0.0
 30
0.0
  3
*MODEL_SPACE
  1

  0
ENDBLK
  5
21
330
1F
100
AcDbEntity
  8
0
100
AcDbBlockEnd
  0
BLOCK
  5
1C
330
1B
100
AcDbEntity
 67
     1
  8
0
100
AcDbBlockBegin
  2
*PAPER_SPACE
 70
     0
 71
     0
 10
0.0
 20
0.0
 30
0.0
  3
*PAPER_SPACE
  1

  0
ENDBLK
  5
1D
330
1B
100
AcDbEntity
 67
     1
  8
0
100
AcDbBlockEnd
  0
BLOCK
  5
42
330
41
100
AcDbEntity
  8
0
100
AcDbBlockBegin
  2
FXTIP_ARROW_S
 70
     0
 71
     0
 10
0.0
 20
0.0
 30
0.0
  3
FXTIP_ARROW_S
  1

  0
LINE
  5
44
330
41
100
AcDbEntity
  8
0
  6
CONTINUOUS
 62
     0
100
AcDbLine
 10
0.0
 20
0.0
 30
0.0
 11
-1.0
 21
0.0
 31
0.0
  0
LINE
  5
45
330
41
100
AcDbEntity
  8
0
  6
CONTINUOUS
 62
     0
100
AcDbLine
 10
0.0
 20
0.0
 30
0.0
 11
-0.965926
 21
-0.258819
 31
0.0
  0
LINE
  5
46
330
41
100
AcDbEntity
  8
0
  6
CONTINUOUS
 62
     0
100
AcDbLine
 10
0.0
 20
0.0
 30
0.0
 11
-0.965926
 21
0.258819
 31
0.0
  0
ENDBLK
  5
43
330
41
100
AcDbEntity
  8
0
100
AcDbBlockEnd
  0
BLOCK
  5
48
330
47
100
AcDbEntity
  8
0
100
AcDbBlockBegin
  2
FXTIP_ARROW_E
 70
     0
 71
     0
 10
0.0
 20
0.0
 30
0.0
  3
FXTIP_ARROW_E
  1

  0
LINE
  5
4A
330
47
100
AcDbEntity
  8
0
  6
CONTINUOUS
 62
     0
100
AcDbLine
 10
0.0
 20
0.0
 30
0.0
 11
-1.0
 21
0.0
 31
0.0
  0
LINE
  5
4B
330
47
100
AcDbEntity
  8
0
  6
CONTINUOUS
 62
     0
100
AcDbLine
 10
0.0
 20
0.0
 30
0.0
 11
-0.965926
 21
0.258819
 31
0.0
  0
LINE
  5
4C
330
47
100
AcDbEntity
  8
0
  6
CONTINUOUS
 62
     0
100
AcDbLine
 10
0.0
 20
0.0
 30
0.0
 11
-0.965926
 21
-0.258819
 31
0.0
  0
ENDBLK
  5
49
330
47
100
AcDbEntity
  8
0
100
AcDbBlockEnd
  0
BLOCK
  5
4E
330
4D
100
AcDbEntity
  8
0
100
AcDbBlockBegin
  2
FXTIP_BLACKDOT_S
 70
     0
 71
     0
 10
0.0
 20
0.0
 30
0.0
  3
FXTIP_BLACKDOT_S
  1

  0
LINE
  5
50
330
4D
100
AcDbEntity
  8
0
  6
CONTINUOUS
 62
     0
100
AcDbLine
 10
0.0
 20
0.0
 30
0.0
 11
-1.0
 21
0.0
 31
0.0
  0
LWPOLYLINE
  5
51
330
4D
100
AcDbEntity
  8
0
  6
CONTINUOUS
 62
     0
100
AcDbPolyline
 90
        2
 70
     1
 10
-0.25
 20
0.0
 40
0.5
 41
0.5
 42
1.0
 10
0.25
 20
0.0
 40
0.5
 41
0.5
 42
1.0
  0
CIRCLE
  5
52
330
4D
100
AcDbEntity
  8
0
  6
CONTINUOUS
 62
     0
100
AcDbCircle
 10
0.0
 20
0.0
 30
0.0
 40
0.5
  0
ENDBLK
  5
4F
330
4D
100
AcDbEntity
  8
0
100
AcDbBlockEnd
  0
BLOCK
  5
54
330
53
100
AcDbEntity
  8
0
100
AcDbBlockBegin
  2
FXTIP_BLACKDOT_E
 70
     0
 71
     0
 10
0.0
 20
0.0
 30
0.0
  3
FXTIP_BLACKDOT_E
  1

  0
LINE
  5
56
330
53
100
AcDbEntity
  8
0
  6
CONTINUOUS
 62
     0
100
AcDbLine
 10
0.0
 20
0.0
 30
0.0
 11
-1.0
 21
0.0
 31
0.0
  0
LWPOLYLINE
  5
57
330
53
100
AcDbEntity
  8
0
  6
CONTINUOUS
 62
     0
100
AcDbPolyline
 90
        2
 70
     1
 10
-0.25
 20
0.0
 40
0.5
 41
0.5
 42
1.0
 10
0.25
 20
0.0
 40
0.5
 41
0.5
 42
1.0
  0
CIRCLE
  5
58
330
53
100
AcDbEntity
  8
0
  6
CONTINUOUS
 62
     0
100
AcDbCircle
 10
0.0
 20
0.0
 30
0.0
 40
0.5
  0
ENDBLK
  5
55
330
53
100
AcDbEntity
  8
0
100
AcDbBlockEnd
  0
BLOCK
  5
5A
330
59
100
AcDbEntity
  8
0
100
AcDbBlockBegin
  2
FXTIP_TRIANGLE_S
 70
     0
 71
     0
 10
0.0
 20
0.0
 30
0.0
  3
FXTIP_TRIANGLE_S
  1

  0
LINE
  5
5C
330
59
100
AcDbEntity
  8
0
  6
CONTINUOUS
 62
     0
100
AcDbLine
 10
0.0
 20
0.0
 30
0.0
 11
-1.0
 21
0.0
 31
0.0
  0
LINE
  5
5D
330
59
100
AcDbEntity
  8
0
  6
CONTINUOUS
 62
     0
100
AcDbLine
 10
0.0
 20
0.0
 30
0.0
 11
-0.965926
 21
-0.258819
 31
0.0
  0
LINE
  5
5E
330
59
100
AcDbEntity
  8
0
  6
CONTINUOUS
 62
     0
100
AcDbLine
 10
0.0
 20
0.0
 30
0.0
 11
-0.965926
 21
0.258819
 31
0.0
  0
LINE
  5
5F
330
59
100
AcDbEntity
  8
0
  6
CONTINUOUS
 62
     0
100
AcDbLine
 10
-0.965926
 20
-0.258819
 30
0.0
 11
-0.965926
 21
0.258819
 31
0.0
  0
ENDBLK
  5
5B
330
59
100
AcDbEntity
  8
0
100
AcDbBlockEnd
  0
BLOCK
  5
61
330
60
100
AcDbEntity
  8
0
100
AcDbBlockBegin
  2
FXTIP_TRIANGLE_E
 70
     0
 71
     0
 10
0.0
 20
0.0
 30
0.0
  3
FXTIP_TRIANGLE_E
  1

  0
LINE
  5
63
330
60
100
AcDbEntity
  8
0
  6
CONTINUOUS
 62
     0
100
AcDbLine
 10
0.0
 20
0.0
 30
0.0
 11
-1.0
 21
0.0
 31
0.0
  0
LINE
  5
64
330
60
100
AcDbEntity
  8
0
  6
CONTINUOUS
 62
     0
100
AcDbLine
 10
0.0
 20
0.0
 30
0.0
 11
-0.965926
 21
0.258819
 31
0.0
  0
LINE
  5
65
330
60
100
AcDbEntity
  8
0
  6
CONTINUOUS
 62
     0
100
AcDbLine
 10
0.0
 20
0.0
 30
0.0
 11
-0.965926
 21
-0.258819
 31
0.0
  0
LINE
  5
66
330
60
100
AcDbEntity
  8
0
  6
CONTINUOUS
 62
     0
100
AcDbLine
 10
-0.965926
 20
0.258819
 30
0.0
 11
-0.965926
 21
-0.258819
 31
0.0
  0
ENDBLK
  5
62
330
60
100
AcDbEntity
  8
0
100
AcDbBlockEnd
  0
BLOCK
  5
68
330
67
100
AcDbEntity
  8
0
100
AcDbBlockBegin
  2
FXTIP_ARCHITECT_S
 70
     0
 71
     0
 10
0.0
 20
0.0
 30
0.0
  3
FXTIP_ARCHITECT_S
  1

  0
LINE
  5
6A
330
67
100
AcDbEntity
  8
0
  6
CONTINUOUS
 62
     0
100
AcDbLine
 10
0.0
 20
0.0
 30
0.0
 11
-1.0
 21
0.0
 31
0.0
  0
LINE
  5
6B
330
67
100
AcDbEntity
  8
0
  6
CONTINUOUS
 62
     0
100
AcDbLine
 10
0.0
 20
0.0
 30
0.0
 11
-0.707107
 21
-0.707107
 31
0.0
  0
LINE
  5
6C
330
67
100
AcDbEntity
  8
0
  6
CONTINUOUS
 62
     0
100
AcDbLine
 10
0.0
 20
0.0
 30
0.0
 11
0.707107
 21
0.707107
 31
0.0
  0
ENDBLK
  5
69
330
67
100
AcDbEntity
  8
0
100
AcDbBlockEnd
  0
BLOCK
  5
6E
330
6D
100
AcDbEntity
  8
0
100
AcDbBlockBegin
  2
FXTIP_ARCHITECT_E
 70
     0
 71
     0
 10
0.0
 20
0.0
 30
0.0
  3
FXTIP_ARCHITECT_E
  1

  0
LINE
  5
70
330
6D
100
AcDbEntity
  8
0
  6
CONTINUOUS
 62
     0
100
AcDbLine
 10
0.0
 20
0.0
 30
0.0
 11
-1.0
 21
0.0
 31
0.0
  0
LINE
  5
71
330
6D
100
AcDbEntity
  8
0
  6
CONTINUOUS
 62
     0
100
AcDbLine
 10
0.0
 20
0.0
 30
0.0
 11
0.707107
 21
0.707107
 31
0.0
  0
LINE
  5
72
330
6D
100
AcDbEntity
  8
0
  6
CONTINUOUS
 62
     0
100
AcDbLine
 10
0.0
 20
0.0
 30
0.0
 11
-0.707107
 21
-0.707107
 31
0.0
  0
ENDBLK
  5
6F
330
6D
100
AcDbEntity
  8
0
100
AcDbBlockEnd
  0
BLOCK
  5
74
330
73
100
AcDbEntity
  8
0
100
AcDbBlockBegin
  2
FXTIP_CIVIL_S
 70
     0
 71
     0
 10
0.0
 20
0.0
 30
0.0
  3
FXTIP_CIVIL_S
  1

  0
LINE
  5
76
330
73
100
AcDbEntity
  8
0
  6
CONTINUOUS
 62
     0
100
AcDbLine
 10
0.0
 20
0.0
 30
0.0
 11
-1.0
 21
0.0
 31
0.0
  0
LINE
  5
77
330
73
100
AcDbEntity
  8
0
  6
CONTINUOUS
 62
     0
100
AcDbLine
 10
0.0
 20
-0.083333
 30
0.0
 11
-1.0
 21
-0.083333
 31
0.0
  0
LINE
  5
78
330
73
100
AcDbEntity
  8
0
  6
CONTINUOUS
 62
     0
100
AcDbLine
 10
0.0
 20
-0.166667
 30
0.0
 11
-1.0
 21
-0.166667
 31
0.0
  0
ENDBLK
  5
75
330
73
100
AcDbEntity
  8
0
100
AcDbBlockEnd
  0
BLOCK
  5
7A
330
79
100
AcDbEntity
  8
0
100
AcDbBlockBegin
  2
FXTIP_CIVIL_E
 70
     0
 71
     0
 10
0.0
 20
0.0
 30
0.0
  3
FXTIP_CIVIL_E
  1

  0
LINE
  5
7C
330
79
100
AcDbEntity
  8
0
  6
CONTINUOUS
 62
     0
100
AcDbLine
 10
0.0
 20
0.0
 30
0.0
 11
-1.0
 21
0.0
 31
0.0
  0
LINE
  5
7D
330
79
100
AcDbEntity
  8
0
  6
CONTINUOUS
 62
     0
100
AcDbLine
 10
0.0
 20
0.083333
 30
0.0
 11
-1.0
 21
0.083333
 31
0.0
  0
LINE
  5
7E
330
79
100
AcDbEntity
  8
0
  6
CONTINUOUS
 62
     0
100
AcDbLine
 10
0.0
 20
0.166667
 30
0.0
 11
-1.0
 21
0.166667
 31
0.0
  0
ENDBLK
  5
7B
330
79
100
AcDbEntity
  8
0
100
AcDbBlockEnd
  0
BLOCK
  5
80
330
7F
100
AcDbEntity
  8
0
100
AcDbBlockBegin
  2
FXTIP_WHITEDOT_S
 70
     0
 71
     0
 10
0.0
 20
0.0
 30
0.0
  3
FXTIP_WHITEDOT_S
  1

  0
LINE
  5
82
330
7F
100
AcDbEntity
  8
0
  6
CONTINUOUS
 62
     0
100
AcDbLine
 10
0.0
 20
0.0
 30
0.0
 11
-1.0
 21
0.0
 31
0.0
  0
CIRCLE
  5
83
330
7F
100
AcDbEntity
  8
0
  6
CONTINUOUS
 62
     0
100
AcDbCircle
 10
0.0
 20
0.0
 30
0.0
 40
0.5
  0
ENDBLK
  5
81
330
7F
100
AcDbEntity
  8
0
100
AcDbBlockEnd
  0
BLOCK
  5
85
330
84
100
AcDbEntity
  8
0
100
AcDbBlockBegin
  2
FXTIP_WHITEDOT_E
 70
     0
 71
     0
 10
0.0
 20
0.0
 30
0.0
  3
FXTIP_WHITEDOT_E
  1

  0
LINE
  5
87
330
84
100
AcDbEntity
  8
0
  6
CONTINUOUS
 62
     0
100
AcDbLine
 10
0.0
 20
0.0
 30
0.0
 11
-1.0
 21
0.0
 31
0.0
  0
CIRCLE
  5
88
330
84
100
AcDbEntity
  8
0
  6
CONTINUOUS
 62
     0
100
AcDbCircle
 10
0.0
 20
0.0
 30
0.0
 40
0.5
  0
ENDBLK
  5
86
330
84
100
AcDbEntity
  8
0
100
AcDbBlockEnd
  0
BLOCK
  5
8A
330
89
100
AcDbEntity
  8
0
100
AcDbBlockBegin
  2
FXTIP_UPARROW_S
 70
     0
 71
     0
 10
0.0
 20
0.0
 30
0.0
  3
FXTIP_UPARROW_S
  1

  0
LINE
  5
8C
330
89
100
AcDbEntity
  8
0
  6
CONTINUOUS
 62
     0
100
AcDbLine
 10
0.0
 20
0.0
 30
0.0
 11
-1.0
 21
0.0
 31
0.0
  0
LINE
  5
8D
330
89
100
AcDbEntity
  8
0
  6
CONTINUOUS
 62
     0
100
AcDbLine
 10
0.0
 20
0.0
 30
0.0
 11
-0.965926
 21
-0.258819
 31
0.0
  0
ENDBLK
  5
8B
330
89
100
AcDbEntity
  8
0
100
AcDbBlockEnd
  0
BLOCK
  5
8F
330
8E
100
AcDbEntity
  8
0
100
AcDbBlockBegin
  2
FXTIP_UPARROW_E
 70
     0
 71
     0
 10
0.0
 20
0.0
 30
0.0
  3
FXTIP_UPARROW_E
  1

  0
LINE
  5
91
330
8E
100
AcDbEntity
  8
0
  6
CONTINUOUS
 62
     0
100
AcDbLine
 10
0.0
 20
0.0
 30
0.0
 11
-1.0
 21
0.0
 31
0.0
  0
LINE
  5
92
330
8E
100
AcDbEntity
  8
0
  6
CONTINUOUS
 62
     0
100
AcDbLine
 10
0.0
 20
0.0
 30
0.0
 11
-0.965926
 21
0.258819
 31
0.0
  0
ENDBLK
  5
90
330
8E
100
AcDbEntity
  8
0
100
AcDbBlockEnd
  0
BLOCK
  5
94
330
93
100
AcDbEntity
  8
0
100
AcDbBlockBegin
  2
FXTIP_DOWNARROW_S
 70
     0
 71
     0
 10
0.0
 20
0.0
 30
0.0
  3
FXTIP_DOWNARROW_S
  1

  0
LINE
  5
96
330
93
100
AcDbEntity
  8
0
  6
CONTINUOUS
 62
     0
100
AcDbLine
 10
0.0
 20
0.0
 30
0.0
 11
-1.0
 21
0.0
 31
0.0
  0
LINE
  5
97
330
93
100
AcDbEntity
  8
0
  6
CONTINUOUS
 62
     0
100
AcDbLine
 10
0.0
 20
0.0
 30
0.0
 11
-0.965926
 21
0.258819
 31
0.0
  0
ENDBLK
  5
95
330
93
100
AcDbEntity
  8
0
100
AcDbBlockEnd
  0
BLOCK
  5
99
330
98
100
AcDbEntity
  8
0
100
AcDbBlockBegin
  2
FXTIP_DOWNARROW_E
 70
     0
 71
     0
 10
0.0
 20
0.0
 30
0.0
  3
FXTIP_DOWNARROW_E
  1

  0
LINE
  5
9B
330
98
100
AcDbEntity
  8
0
  6
CONTINUOUS
 62
     0
100
AcDbLine
 10
0.0
 20
0.0
 30
0.0
 11
-1.0
 21
0.0
 31
0.0
  0
LINE
  5
9C
330
98
100
AcDbEntity
  8
0
  6
CONTINUOUS
 62
     0
100
AcDbLine
 10
0.0
 20
0.0
 30
0.0
 11
-0.965926
 21
-0.258819
 31
0.0
  0
ENDBLK
  5
9A
330
98
100
AcDbEntity
  8
0
100
AcDbBlockEnd
  0
BLOCK
  5
9E
330
9D
100
AcDbEntity
  8
0
100
AcDbBlockBegin
  2
FXTIP_BLACKTRIANGLE_S
 70
     0
 71
     0
 10
0.0
 20
0.0
 30
0.0
  3
FXTIP_BLACKTRIANGLE_S
  1

  0
LINE
  5
A0
330
9D
100
AcDbEntity
  8
0
  6
CONTINUOUS
 62
     0
100
AcDbLine
 10
0.0
 20
0.0
 30
0.0
 11
-1.0
 21
0.0
 31
0.0
  0
SOLID
  5
A1
330
9D
100
AcDbEntity
  8
0
  6
CONTINUOUS
 62
     0
100
AcDbTrace
 10
0.0
 20
0.0
 30
0.0
 11
-0.965926
 21
-0.258819
 31
0.0
 12
-0.965926
 22
0.258819
 32
0.0
 13
-0.965926
 23
0.258819
 33
0.0
  0
ENDBLK
  5
9F
330
9D
100
AcDbEntity
  8
0
100
AcDbBlockEnd
  0
BLOCK
  5
A3
330
A2
100
AcDbEntity
  8
0
100
AcDbBlockBegin
  2
FXTIP_BLACKTRIANGLE_E
 70
     0
 71
     0
 10
0.0
 20
0.0
 30
0.0
  3
FXTIP_BLACKTRIANGLE_E
  1

  0
LINE
  5
A5
330
A2
100
AcDbEntity
  8
0
  6
CONTINUOUS
 62
     0
100
AcDbLine
 10
0.0
 20
0.0
 30
0.0
 11
-1.0
 21
0.0
 31
0.0
  0
SOLID
  5
A6
330
A2
100
AcDbEntity
  8
0
  6
CONTINUOUS
 62
     0
100
AcDbTrace
 10
0.0
 20
0.0
 30
0.0
 11
-0.965926
 21
0.258819
 31
0.0
 12
-0.965926
 22
-0.258819
 32
0.0
 13
-0.965926
 23
-0.258819
 33
0.0
  0
ENDBLK
  5
A4
330
A2
100
AcDbEntity
  8
0
100
AcDbBlockEnd
  0
BLOCK
  5
12F
330
12E
100
AcDbEntity
  8
0
100
AcDbBlockBegin
  2
*D19
 70
     1
 71
     0
 10
0.0
 20
0.0
 30
0.0
  3
*D19
  1

  0
TEXT
  5
131
330
12E
100
AcDbEntity
  8
LAYERGROUP-1
  6
CONTINUOUS
 62
     7
100
AcDbText
 10
83.145912
 20
39.020348
 30
0.0
 40
4.0
  1
30
 41
0.851351
  7
FX_VECTOR
 72
     5
 11
89.145912
 21
39.020348
 31
0.0
100
AcDbText
  0
LINE
  5
132
330
12E
100
AcDbEntity
  8
LAYERGROUP-1
  6
CONTINUOUS
 62
     7
100
AcDbLine
 10
71.145911
 20
38.020346
 30
0.0
 11
101.145911
 21
38.020346
 31
0.0
  0
INSERT
  5
133
330
12E
100
AcDbEntity
  8
LAYERGROUP-1
  6
CONTINUOUS
 62
     7
100
AcDbBlockReference
  2
FXTIP_ARROW_S
 10
71.145911
 20
38.020346
 30
0.0
 41
3.0
 42
3.0
 50
180.0
  0
INSERT
  5
134
330
12E
100
AcDbEntity
  8
LAYERGROUP-1
  6
CONTINUOUS
 62
     7
100
AcDbBlockReference
  2
FXTIP_ARROW_E
 10
101.145911
 20
38.020346
 30
0.0
 41
3.0
 42
3.0
 50
360.0
  0
LINE
  5
135
330
12E
100
AcDbEntity
  8
LAYERGROUP-1
  6
CONTINUOUS
 62
     7
100
AcDbLine
 10
71.145911
 20
99.569231
 30
0.0
 11
71.145911
 21
37.020346
 31
0.0
  0
LINE
  5
136
330
12E
100
AcDbEntity
  8
LAYERGROUP-1
  6
CONTINUOUS
 62
     7
100
AcDbLine
 10
101.145911
 20
99.569231
 30
0.0
 11
101.145911
 21
37.020346
 31
0.0
  0
ENDBLK
  5
130
330
12E
100
AcDbEntity
  8
0
100
AcDbBlockEnd
  0
BLOCK
  5
139
330
138
100
AcDbEntity
  8
0
100
AcDbBlockBegin
  2
*D20
 70
     1
 71
     0
 10
0.0
 20
0.0
 30
0.0
  3
*D20
  1

  0
TEXT
  5
13B
330
138
100
AcDbEntity
  8
LAYERGROUP-1
  6
CONTINUOUS
 62
     7
100
AcDbText
 10
83.145912
 20
49.020344
 30
0.0
 40
4.0
  1
25
 41
0.851351
  7
FX_VECTOR
 72
     5
 11
89.145912
 21
49.020344
 31
0.0
100
AcDbText
  0
LINE
  5
13C
330
138
100
AcDbEntity
  8
LAYERGROUP-1
  6
CONTINUOUS
 62
     7
100
AcDbLine
 10
73.645911
 20
48.020346
 30
0.0
 11
98.645911
 21
48.020346
 31
0.0
  0
INSERT
  5
13D
330
138
100
AcDbEntity
  8
LAYERGROUP-1
  6
CONTINUOUS
 62
     7
100
AcDbBlockReference
  2
FXTIP_ARROW_S
 10
73.645911
 20
48.020346
 30
0.0
 41
3.0
 42
3.0
 50
180.0
  0
INSERT
  5
13E
330
138
100
AcDbEntity
  8
LAYERGROUP-1
  6
CONTINUOUS
 62
     7
100
AcDbBlockReference
  2
FXTIP_ARROW_E
 10
98.645911
 20
48.020346
 30
0.0
 41
3.0
 42
3.0
 50
360.0
  0
LINE
  5
13F
330
138
100
AcDbEntity
  8
LAYERGROUP-1
  6
CONTINUOUS
 62
     7
100
AcDbLine
 10
73.645911
 20
60.843752
 30
0.0
 11
73.645911
 21
47.020346
 31
0.0
  0
LINE
  5
140
330
138
100
AcDbEntity
  8
LAYERGROUP-1
  6
CONTINUOUS
 62
     7
100
AcDbLine
 10
98.645911
 20
60.843752
 30
0.0
 11
98.645911
 21
47.020346
 31
0.0
  0
ENDBLK
  5
13A
330
138
100
AcDbEntity
  8
0
100
AcDbBlockEnd
  0
BLOCK
  5
143
330
142
100
AcDbEntity
  8
0
100
AcDbBlockBegin
  2
*D21
 70
     1
 71
     0
 10
0.0
 20
0.0
 30
0.0
  3
*D21
  1

  0
TEXT
  5
145
330
142
100
AcDbEntity
  8
LAYERGROUP-1
  6
CONTINUOUS
 62
     7
100
AcDbText
 10
133.301819
 20
103.569229
 30
0.0
 40
4.0
  1
%%c100
 50
90.0
 41
0.828947
  7
FX_VECTOR
 72
     5
 11
133.301819
 21
115.569229
 31
0.0
100
AcDbText
  0
LINE
  5
146
330
142
100
AcDbEntity
  8
LAYERGROUP-1
  6
CONTINUOUS
 62
     7
100
AcDbLine
 10
134.30183
 20
59.569231
 30
0.0
 11
134.30183
 21
159.569231
 31
0.0
  0
INSERT
  5
147
330
142
100
AcDbEntity
  8
LAYERGROUP-1
  6
CONTINUOUS
 62
     7
100
AcDbBlockReference
  2
FXTIP_ARROW_S
 10
134.30183
 20
59.569231
 30
0.0
 41
3.0
 42
3.0
 50
270.0
  0
INSERT
  5
148
330
142
100
AcDbEntity
  8
LAYERGROUP-1
  6
CONTINUOUS
 62
     7
100
AcDbBlockReference
  2
FXTIP_ARROW_E
 10
134.30183
 20
159.569231
 30
0.0
 41
3.0
 42
3.0
 50
90.0
  0
LINE
  5
149
330
142
100
AcDbEntity
  8
LAYERGROUP-1
  6
CONTINUOUS
 62
     7
100
AcDbLine
 10
87.145911
 20
59.569231
 30
0.0
 11
135.30183
 21
59.569231
 31
0.0
  0
LINE
  5
14A
330
142
100
AcDbEntity
  8
LAYERGROUP-1
  6
CONTINUOUS
 62
     7
100
AcDbLine
 10
87.145911
 20
159.569231
 30
0.0
 11
135.30183
 21
159.569231
 31
0.0
  0
ENDBLK
  5
144
330
142
100
AcDbEntity
  8
0
100
AcDbBlockEnd
  0
BLOCK
  5
14C
330
14B
100
AcDbEntity
  8
0
100
AcDbBlockBegin
  2
BLKF024
 70
     0
 71
     0
 10
0.0
 20
0.0
 30
0.0
  3
BLKF024
  1

  0
LINE
  5
150
330
14B
100
AcDbEntity
  8
GR1-1
  6
CONTINUOUS
 62
     7
100
AcDbLine
 10
212.098216
 20
138.568231
 30
0.0
 11
212.475387
 21
138.945402
 31
0.0
  0
LINE
  5
151
330
14B
100
AcDbEntity
  8
GR1-1
  6
CONTINUOUS
 62
     7
100
AcDbLine
 10
211.721046
 20
138.568231
 30
0.0
 11
212.475387
 21
139.322572
 31
0.0
  0
LINE
  5
152
330
14B
100
AcDbEntity
  8
GR1-1
  6
CONTINUOUS
 62
     7
100
AcDbLine
 10
211.343875
 20
138.568231
 30
0.0
 11
212.475387
 21
139.699743
 31
0.0
  0
LINE
  5
153
330
14B
100
AcDbEntity
  8
GR1-1
  6
CONTINUOUS
 62
     7
100
AcDbLine
 10
210.966704
 20
138.568231
 30
0.0
 11
212.475387
 21
140.076914
 31
0.0
  0
LINE
  5
154
330
14B
100
AcDbEntity
  8
GR1-1
  6
CONTINUOUS
 62
     7
100
AcDbLine
 10
210.589533
 20
138.568231
 30
0.0
 11
211.890602
 21
139.869299
 31
0.0
  0
LINE
  5
155
330
14B
100
AcDbEntity
  8
GR1-1
  6
CONTINUOUS
 62
     7
100
AcDbLine
 10
212.246595
 20
140.225292
 30
0.0
 11
212.475387
 21
140.454085
 31
0.0
  0
LINE
  5
156
330
14B
100
AcDbEntity
  8
GR1-1
  6
CONTINUOUS
 62
     7
100
AcDbLine
 10
210.212362
 20
138.568231
 30
0.0
 11
211.513431
 21
139.869299
 31
0.0
  0
LINE
  5
157
330
14B
100
AcDbEntity
  8
GR1-1
  6
CONTINUOUS
 62
     7
100
AcDbLine
 10
212.246595
 20
140.602463
 30
0.0
 11
212.475387
 21
140.831255
 31
0.0
  0
LINE
  5
158
330
14B
100
AcDbEntity
  8
GR1-1
  6
CONTINUOUS
 62
     7
100
AcDbLine
 10
209.835192
 20
138.568231
 30
0.0
 11
211.13626
 21
139.869299
 31
0.0
  0
LINE
  5
159
330
14B
100
AcDbEntity
  8
GR1-1
  6
CONTINUOUS
 62
     7
100
AcDbLine
 10
212.246595
 20
140.979634
 30
0.0
 11
212.475387
 21
141.208426
 31
0.0
  0
LINE
  5
15A
330
14B
100
AcDbEntity
  8
GR1-1
  6
CONTINUOUS
 62
     7
100
AcDbLine
 10
209.458021
 20
138.568231
 30
0.0
 11
210.913095
 21
140.023304
 31
0.0
  0
LINE
  5
15B
330
14B
100
AcDbEntity
  8
GR1-1
  6
CONTINUOUS
 62
     7
100
AcDbLine
 10
212.246595
 20
141.356804
 30
0.0
 11
212.475387
 21
141.585597
 31
0.0
  0
LINE
  5
15C
330
14B
100
AcDbEntity
  8
GR1-1
  6
CONTINUOUS
 62
     7
100
AcDbLine
 10
209.08085
 20
138.568231
 30
0.0
 11
210.913095
 21
140.400475
 31
0.0
  0
LINE
  5
15D
330
14B
100
AcDbEntity
  8
GR1-1
  6
CONTINUOUS
 62
     7
100
AcDbLine
 10
212.246595
 20
141.733975
 30
0.0
 11
212.475387
 21
141.962768
 31
0.0
  0
LINE
  5
15E
330
14B
100
AcDbEntity
  8
GR1-1
  6
CONTINUOUS
 62
     7
100
AcDbLine
 10
208.703679
 20
138.568231
 30
0.0
 11
210.913095
 21
140.777646
 31
0.0
  0
LINE
  5
15F
330
14B
100
AcDbEntity
  8
GR1-1
  6
CONTINUOUS
 62
     7
100
AcDbLine
 10
212.246595
 20
142.111146
 30
0.0
 11
212.475387
 21
142.339938
 31
0.0
  0
LINE
  5
160
330
14B
100
AcDbEntity
  8
GR1-1
  6
CONTINUOUS
 62
     7
100
AcDbLine
 10
208.326509
 20
138.568231
 30
0.0
 11
210.802898
 21
141.04462
 31
0.0
  0
LINE
  5
161
330
14B
100
AcDbEntity
  8
GR1-1
  6
CONTINUOUS
 62
     7
100
AcDbLine
 10
212.246595
 20
142.488317
 30
0.0
 11
212.475387
 21
142.717109
 31
0.0
  0
LINE
  5
162
330
14B
100
AcDbEntity
  8
GR1-1
  6
CONTINUOUS
 62
     7
100
AcDbLine
 10
207.949338
 20
138.568231
 30
0.0
 11
208.326509
 21
138.945402
 31
0.0
  0
LINE
  5
163
330
14B
100
AcDbEntity
  8
GR1-1
  6
CONTINUOUS
 62
     7
100
AcDbLine
 10
211.949838
 20
142.568731
 30
0.0
 11
212.475387
 21
143.09428
 31
0.0
  0
LINE
  5
164
330
14B
100
AcDbEntity
  8
GR1-1
  6
CONTINUOUS
 62
     7
100
AcDbLine
 10
207.572167
 20
138.568231
 30
0.0
 11
208.137923
 21
139.133987
 31
0.0
  0
LINE
  5
165
330
14B
100
AcDbEntity
  8
GR1-1
  6
CONTINUOUS
 62
     7
100
AcDbLine
 10
211.572667
 20
142.568731
 30
0.0
 11
212.475387
 21
143.471451
 31
0.0
  0
LINE
  5
166
330
14B
100
AcDbEntity
  8
GR1-1
  6
CONTINUOUS
 62
     7
100
AcDbLine
 10
207.194996
 20
138.568231
 30
0.0
 11
207.949338
 21
139.322572
 31
0.0
  0
LINE
  5
167
330
14B
100
AcDbEntity
  8
GR1-1
  6
CONTINUOUS
 62
     7
100
AcDbLine
 10
211.195496
 20
142.568731
 30
0.0
 11
211.595546
 21
142.968781
 31
0.0
  0
LINE
  5
168
330
14B
100
AcDbEntity
  8
GR1-1
  6
CONTINUOUS
 62
     7
100
AcDbLine
 10
211.721046
 20
143.09428
 30
0.0
 11
212.475387
 21
143.848621
 31
0.0
  0
LINE
  5
169
330
14B
100
AcDbEntity
  8
GR1-1
  6
CONTINUOUS
 62
     7
100
AcDbLine
 10
206.817826
 20
138.568231
 30
0.0
 11
207.760753
 21
139.511158
 31
0.0
  0
LINE
  5
16A
330
14B
100
AcDbEntity
  8
GR1-1
  6
CONTINUOUS
 62
     7
100
AcDbLine
 10
210.818326
 20
142.568731
 30
0.0
 11
211.218376
 21
142.968781
 31
0.0
  0
LINE
  5
16B
330
14B
100
AcDbEntity
  8
GR1-1
  6
CONTINUOUS
 62
     7
100
AcDbLine
 10
211.53246
 20
143.282865
 30
0.0
 11
212.475387
 21
144.225792
 31
0.0
  0
LINE
  5
16C
330
14B
100
AcDbEntity
  8
GR1-1
  6
CONTINUOUS
 62
     7
100
AcDbLine
 10
206.440655
 20
138.568231
 30
0.0
 11
207.572167
 21
139.699743
 31
0.0
  0
LINE
  5
16D
330
14B
100
AcDbEntity
  8
GR1-1
  6
CONTINUOUS
 62
     7
100
AcDbLine
 10
210.441155
 20
142.568731
 30
0.0
 11
210.841205
 21
142.968781
 31
0.0
  0
LINE
  5
16E
330
14B
100
AcDbEntity
  8
GR1-1
  6
CONTINUOUS
 62
     7
100
AcDbLine
 10
211.343875
 20
143.471451
 30
0.0
 11
212.475387
 21
144.602963
 31
0.0
  0
LINE
  5
16F
330
14B
100
AcDbEntity
  8
GR1-1
  6
CONTINUOUS
 62
     7
100
AcDbLine
 10
206.063484
 20
138.568231
 30
0.0
 11
207.383582
 21
139.888328
 31
0.0
  0
LINE
  5
170
330
14B
100
AcDbEntity
  8
GR1-1
  6
CONTINUOUS
 62
     7
100
AcDbLine
 10
208.326509
 20
140.831255
 30
0.0
 11
209.395209
 21
141.899955
 31
0.0
  0
LINE
  5
171
330
14B
100
AcDbEntity
  8
GR1-1
  6
CONTINUOUS
 62
     7
100
AcDbLine
 10
210.063984
 20
142.568731
 30
0.0
 11
210.464034
 21
142.968781
 31
0.0
  0
LINE
  5
172
330
14B
100
AcDbEntity
  8
GR1-1
  6
CONTINUOUS
 62
     7
100
AcDbLine
 10
211.155289
 20
143.660036
 30
0.0
 11
212.475387
 21
144.980134
 31
0.0
  0
LINE
  5
173
330
14B
100
AcDbEntity
  8
GR1-1
  6
CONTINUOUS
 62
     7
100
AcDbLine
 10
205.686313
 20
138.568231
 30
0.0
 11
207.194996
 21
140.076914
 31
0.0
  0
LINE
  5
174
330
14B
100
AcDbEntity
  8
GR1-1
  6
CONTINUOUS
 62
     7
100
AcDbLine
 10
208.137923
 20
141.019841
 30
0.0
 11
209.020063
 21
141.901981
 31
0.0
  0
LINE
  5
175
330
14B
100
AcDbEntity
  8
GR1-1
  6
CONTINUOUS
 62
     7
100
AcDbLine
 10
209.686813
 20
142.568731
 30
0.0
 11
210.086863
 21
142.968781
 31
0.0
  0
LINE
  5
176
330
14B
100
AcDbEntity
  8
GR1-1
  6
CONTINUOUS
 62
     7
100
AcDbLine
 10
210.966704
 20
143.848621
 30
0.0
 11
212.475387
 21
145.357304
 31
0.0
  0
LINE
  5
177
330
14B
100
AcDbEntity
  8
GR1-1
  6
CONTINUOUS
 62
     7
100
AcDbLine
 10
205.309143
 20
138.568231
 30
0.0
 11
207.006411
 21
140.265499
 31
0.0
  0
LINE
  5
178
330
14B
100
AcDbEntity
  8
GR1-1
  6
CONTINUOUS
 62
     7
100
AcDbLine
 10
207.949338
 20
141.208426
 30
0.0
 11
208.642893
 21
141.901981
 31
0.0
  0
LINE
  5
179
330
14B
100
AcDbEntity
  8
GR1-1
  6
CONTINUOUS
 62
     7
100
AcDbLine
 10
209.309643
 20
142.568731
 30
0.0
 11
209.835192
 21
143.09428
 31
0.0
  0
LINE
  5
17A
330
14B
100
AcDbEntity
  8
GR1-1
  6
CONTINUOUS
 62
     7
100
AcDbLine
 10
210.778119
 20
144.037207
 30
0.0
 11
212.475387
 21
145.734475
 31
0.0
  0
LINE
  5
17B
330
14B
100
AcDbEntity
  8
GR1-1
  6
CONTINUOUS
 62
     7
100
AcDbLine
 10
204.931972
 20
138.568231
 30
0.0
 11
206.817826
 21
140.454085
 31
0.0
  0
LINE
  5
17C
330
14B
100
AcDbEntity
  8
GR1-1
  6
CONTINUOUS
 62
     7
100
AcDbLine
 10
207.760753
 20
141.397011
 30
0.0
 11
208.474887
 21
142.111146
 31
0.0
  0
LINE
  5
17D
330
14B
100
AcDbEntity
  8
GR1-1
  6
CONTINUOUS
 62
     7
100
AcDbLine
 10
208.932472
 20
142.568731
 30
0.0
 11
209.646606
 21
143.282865
 31
0.0
  0
LINE
  5
17E
330
14B
100
AcDbEntity
  8
GR1-1
  6
CONTINUOUS
 62
     7
100
AcDbLine
 10
210.589533
 20
144.225792
 30
0.0
 11
212.475387
 21
146.111646
 31
0.0
  0
LINE
  5
17F
330
14B
100
AcDbEntity
  8
GR1-1
  6
CONTINUOUS
 62
     7
100
AcDbLine
 10
204.554801
 20
138.568231
 30
0.0
 11
206.62924
 21
140.64267
 31
0.0
  0
LINE
  5
180
330
14B
100
AcDbEntity
  8
GR1-1
  6
CONTINUOUS
 62
     7
100
AcDbLine
 10
207.572167
 20
141.585597
 30
0.0
 11
208.474887
 21
142.488317
 31
0.0
  0
LINE
  5
181
330
14B
100
AcDbEntity
  8
GR1-1
  6
CONTINUOUS
 62
     7
100
AcDbLine
 10
208.555301
 20
142.568731
 30
0.0
 11
209.458021
 21
143.471451
 31
0.0
  0
LINE
  5
182
330
14B
100
AcDbEntity
  8
GR1-1
  6
CONTINUOUS
 62
     7
100
AcDbLine
 10
210.400948
 20
144.414378
 30
0.0
 11
212.475387
 21
146.488817
 31
0.0
  0
LINE
  5
183
330
14B
100
AcDbEntity
  8
GR1-1
  6
CONTINUOUS
 62
     7
100
AcDbLine
 10
204.474387
 20
138.864987
 30
0.0
 11
206.440655
 21
140.831255
 31
0.0
  0
LINE
  5
184
330
14B
100
AcDbEntity
  8
GR1-1
  6
CONTINUOUS
 62
     7
100
AcDbLine
 10
207.383582
 20
141.774182
 30
0.0
 11
209.269436
 21
143.660036
 31
0.0
  0
LINE
  5
185
330
14B
100
AcDbEntity
  8
GR1-1
  6
CONTINUOUS
 62
     7
100
AcDbLine
 10
210.212362
 20
144.602963
 30
0.0
 11
212.17863
 21
146.569231
 31
0.0
  0
LINE
  5
186
330
14B
100
AcDbEntity
  8
GR1-1
  6
CONTINUOUS
 62
     7
100
AcDbLine
 10
204.474387
 20
139.242158
 30
0.0
 11
206.25207
 21
141.019841
 31
0.0
  0
LINE
  5
187
330
14B
100
AcDbEntity
  8
GR1-1
  6
CONTINUOUS
 62
     7
100
AcDbLine
 10
207.194996
 20
141.962768
 30
0.0
 11
209.08085
 21
143.848621
 31
0.0
  0
LINE
  5
188
330
14B
100
AcDbEntity
  8
GR1-1
  6
CONTINUOUS
 62
     7
100
AcDbLine
 10
210.023777
 20
144.791548
 30
0.0
 11
211.80146
 21
146.569231
 31
0.0
  0
LINE
  5
189
330
14B
100
AcDbEntity
  8
GR1-1
  6
CONTINUOUS
 62
     7
100
AcDbLine
 10
204.474387
 20
139.619329
 30
0.0
 11
206.063484
 21
141.208426
 31
0.0
  0
LINE
  5
18A
330
14B
100
AcDbEntity
  8
GR1-1
  6
CONTINUOUS
 62
     7
100
AcDbLine
 10
207.006411
 20
142.151353
 30
0.0
 11
208.892265
 21
144.037207
 31
0.0
  0
LINE
  5
18B
330
14B
100
AcDbEntity
  8
GR1-1
  6
CONTINUOUS
 62
     7
100
AcDbLine
 10
209.835192
 20
144.980134
 30
0.0
 11
211.424289
 21
146.569231
 31
0.0
  0
LINE
  5
18C
330
14B
100
AcDbEntity
  8
GR1-1
  6
CONTINUOUS
 62
     7
100
AcDbLine
 10
204.474387
 20
139.9965
 30
0.0
 11
205.874899
 21
141.397011
 31
0.0
  0
LINE
  5
18D
330
14B
100
AcDbEntity
  8
GR1-1
  6
CONTINUOUS
 62
     7
100
AcDbLine
 10
206.817826
 20
142.339938
 30
0.0
 11
208.703679
 21
144.225792
 31
0.0
  0
LINE
  5
18E
330
14B
100
AcDbEntity
  8
GR1-1
  6
CONTINUOUS
 62
     7
100
AcDbLine
 10
209.646606
 20
145.168719
 30
0.0
 11
211.047118
 21
146.569231
 31
0.0
  0
LINE
  5
18F
330
14B
100
AcDbEntity
  8
GR1-1
  6
CONTINUOUS
 62
     7
100
AcDbLine
 10
204.474387
 20
140.37367
 30
0.0
 11
205.686313
 21
141.585597
 31
0.0
  0
LINE
  5
190
330
14B
100
AcDbEntity
  8
GR1-1
  6
CONTINUOUS
 62
     7
100
AcDbLine
 10
206.62924
 20
142.528524
 30
0.0
 11
208.515094
 21
144.414378
 31
0.0
  0
LINE
  5
191
330
14B
100
AcDbEntity
  8
GR1-1
  6
CONTINUOUS
 62
     7
100
AcDbLine
 10
209.458021
 20
145.357304
 30
0.0
 11
210.669947
 21
146.569231
 31
0.0
  0
LINE
  5
192
330
14B
100
AcDbEntity
  8
GR1-1
  6
CONTINUOUS
 62
     7
100
AcDbLine
 10
204.474387
 20
140.750841
 30
0.0
 11
205.497728
 21
141.774182
 31
0.0
  0
LINE
  5
193
330
14B
100
AcDbEntity
  8
GR1-1
  6
CONTINUOUS
 62
     7
100
AcDbLine
 10
209.269436
 20
145.54589
 30
0.0
 11
210.292777
 21
146.569231
 31
0.0
  0
LINE
  5
194
330
14B
100
AcDbEntity
  8
GR1-1
  6
CONTINUOUS
 62
     7
100
AcDbLine
 10
204.474387
 20
141.128012
 30
0.0
 11
205.309143
 21
141.962768
 31
0.0
  0
LINE
  5
195
330
14B
100
AcDbEntity
  8
GR1-1
  6
CONTINUOUS
 62
     7
100
AcDbLine
 10
209.08085
 20
145.734475
 30
0.0
 11
209.915606
 21
146.569231
 31
0.0
  0
LINE
  5
196
330
14B
100
AcDbEntity
  8
GR1-1
  6
CONTINUOUS
 62
     7
100
AcDbLine
 10
204.474387
 20
141.505183
 30
0.0
 11
205.120557
 21
142.151353
 31
0.0
  0
LINE
  5
197
330
14B
100
AcDbEntity
  8
GR1-1
  6
CONTINUOUS
 62
     7
100
AcDbLine
 10
208.892265
 20
145.923061
 30
0.0
 11
209.538435
 21
146.569231
 31
0.0
  0
LINE
  5
198
330
14B
100
AcDbEntity
  8
GR1-1
  6
CONTINUOUS
 62
     7
100
AcDbLine
 10
204.474387
 20
141.882353
 30
0.0
 11
204.931972
 21
142.339938
 31
0.0
  0
LINE
  5
199
330
14B
100
AcDbEntity
  8
GR1-1
  6
CONTINUOUS
 62
     7
100
AcDbLine
 10
208.703679
 20
146.111646
 30
0.0
 11
209.161264
 21
146.569231
 31
0.0
  0
LINE
  5
19A
330
14B
100
AcDbEntity
  8
GR1-1
  6
CONTINUOUS
 62
     7
100
AcDbLine
 10
204.474387
 20
142.259524
 30
0.0
 11
204.743386
 21
142.528524
 31
0.0
  0
LINE
  5
19B
330
14B
100
AcDbEntity
  8
GR1-1
  6
CONTINUOUS
 62
     7
100
AcDbLine
 10
208.515094
 20
146.300231
 30
0.0
 11
208.784094
 21
146.569231
 31
0.0
  0
LINE
  5
19C
330
14B
100
AcDbEntity
  8
GR1-1
  6
CONTINUOUS
 62
     7
100
AcDbLine
 10
204.474387
 20
142.636695
 30
0.0
 11
208.406923
 21
146.569231
 31
0.0
  0
LINE
  5
19D
330
14B
100
AcDbEntity
  8
GR1-1
  6
CONTINUOUS
 62
     7
100
AcDbLine
 10
204.474387
 20
143.013866
 30
0.0
 11
208.029752
 21
146.569231
 31
0.0
  0
LINE
  5
19E
330
14B
100
AcDbEntity
  8
GR1-1
  6
CONTINUOUS
 62
     7
100
AcDbLine
 10
204.474387
 20
143.391037
 30
0.0
 11
207.652581
 21
146.569231
 31
0.0
  0
LINE
  5
19F
330
14B
100
AcDbEntity
  8
GR1-1
  6
CONTINUOUS
 62
     7
100
AcDbLine
 10
204.474387
 20
143.768207
 30
0.0
 11
207.275411
 21
146.569231
 31
0.0
  0
LINE
  5
1A0
330
14B
100
AcDbEntity
  8
GR1-1
  6
CONTINUOUS
 62
     7
100
AcDbLine
 10
204.474387
 20
144.145378
 30
0.0
 11
206.89824
 21
146.569231
 31
0.0
  0
LINE
  5
1A1
330
14B
100
AcDbEntity
  8
GR1-1
  6
CONTINUOUS
 62
     7
100
AcDbLine
 10
204.474387
 20
144.522549
 30
0.0
 11
206.521069
 21
146.569231
 31
0.0
  0
LINE
  5
1A2
330
14B
100
AcDbEntity
  8
GR1-1
  6
CONTINUOUS
 62
     7
100
AcDbLine
 10
204.474387
 20
144.89972
 30
0.0
 11
206.143898
 21
146.569231
 31
0.0
  0
LINE
  5
1A3
330
14B
100
AcDbEntity
  8
GR1-1
  6
CONTINUOUS
 62
     7
100
AcDbLine
 10
204.474387
 20
145.27689
 30
0.0
 11
205.766727
 21
146.569231
 31
0.0
  0
LINE
  5
1A4
330
14B
100
AcDbEntity
  8
GR1-1
  6
CONTINUOUS
 62
     7
100
AcDbLine
 10
204.474387
 20
145.654061
 30
0.0
 11
205.389557
 21
146.569231
 31
0.0
  0
LINE
  5
1A5
330
14B
100
AcDbEntity
  8
GR1-1
  6
CONTINUOUS
 62
     7
100
AcDbLine
 10
204.474387
 20
146.031232
 30
0.0
 11
205.012386
 21
146.569231
 31
0.0
  0
LINE
  5
1A6
330
14B
100
AcDbEntity
  8
GR1-1
  6
CONTINUOUS
 62
     7
100
AcDbLine
 10
204.474387
 20
146.408403
 30
0.0
 11
204.635215
 21
146.569231
 31
0.0
  0
ENDBLK
  5
14D
330
14B
100
AcDbEntity
  8
0
100
AcDbBlockEnd
  0
BLOCK
  5
1C7
330
1C6
100
AcDbEntity
  8
0
100
AcDbBlockBegin
  2
*D23
 70
     1
 71
     0
 10
0.0
 20
0.0
 30
0.0
  3
*D23
  1

  0
TEXT
  5
1C9
330
1C6
100
AcDbEntity
  8
LAYERGROUP-1
  6
CONTINUOUS
 62
     7
100
AcDbText
 10
119.565536
 20
103.569229
 30
0.0
 40
4.0
  1
φ8.3
 50
90.0
 41
0.969231
  7
FX_VECTOR
 72
     5
 11
119.565536
 21
115.569229
 31
0.0
100
AcDbText
  0
LINE
  5
1CA
330
1C6
100
AcDbEntity
  8
LAYERGROUP-1
  6
CONTINUOUS
 62
     7
100
AcDbLine
 10
111.565539
 20
105.419231
 30
0.0
 11
111.565539
 21
113.719231
 31
0.0
  0
LINE
  5
1CB
330
1C6
100
AcDbEntity
  8
LAYERGROUP-1
  6
CONTINUOUS
 62
     7
100
AcDbLine
 10
99.645911
 20
105.419231
 30
0.0
 11
112.565539
 21
105.419231
 31
0.0
  0
LINE
  5
1CC
330
1C6
100
AcDbEntity
  8
LAYERGROUP-1
  6
CONTINUOUS
 62
     7
100
AcDbLine
 10
99.645911
 20
113.719231
 30
0.0
 11
112.565539
 21
113.719231
 31
0.0
  0
LINE
  5
1CD
330
1C6
100
AcDbEntity
  8
LAYERGROUP-1
  6
CONTINUOUS
 62
     7
100
AcDbLine
 10
111.565539
 20
99.419231
 30
0.0
 11
111.565539
 21
105.419231
 31
0.0
  0
INSERT
  5
1CE
330
1C6
100
AcDbEntity
  8
LAYERGROUP-1
  6
CONTINUOUS
 62
     7
100
AcDbBlockReference
  2
FXTIP_ARROW_E
 10
111.565539
 20
105.419231
 30
0.0
 41
3.0
 42
3.0
 50
90.0
  0
LINE
  5
1CF
330
1C6
100
AcDbEntity
  8
LAYERGROUP-1
  6
CONTINUOUS
 62
     7
100
AcDbLine
 10
111.565539
 20
113.719231
 30
0.0
 11
111.565539
 21
119.719231
 31
0.0
  0
INSERT
  5
1D0
330
1C6
100
AcDbEntity
  8
LAYERGROUP-1
  6
CONTINUOUS
 62
     7
100
AcDbBlockReference
  2
FXTIP_ARROW_S
 10
111.565539
 20
113.719231
 30
0.0
 41
3.0
 42
3.0
 50
270.0
  0
ENDBLK
  5
1C8
330
1C6
100
AcDbEntity
  8
0
100
AcDbBlockEnd
  0
BLOCK
  5
1D3
330
1D2
100
AcDbEntity
  8
0
100
AcDbBlockBegin
  2
BLKF026
 70
     0
 71
     0
 10
0.0
 20
0.0
 30
0.0
  3
BLKF026
  1

  0
LINE
  5
1D6
330
1D2
100
AcDbEntity
  8
}}ﾊﾊGG血CCТ
  6
CONTINUOUS
 62
     7
100
AcDbLine
 10
10.0
 20
10.0
 30
0.0
 11
287.0
 21
10.0
 31
0.0
  0
LINE
  5
1D7
330
1D2
100
AcDbEntity
  8
}}ﾊﾊGG血CCТ
  6
CONTINUOUS
 62
     7
100
AcDbLine
 10
10.0
 20
10.0
 30
0.0
 11
10.0
 21
200.0
 31
0.0
  0
LINE
  5
1D8
330
1D2
100
AcDbEntity
  8
}}ﾊﾊGG血CCТ
  6
CONTINUOUS
 62
     7
100
AcDbLine
 10
10.0
 20
200.0
 30
0.0
 11
287.0
 21
200.0
 31
0.0
  0
LINE
  5
1D9
330
1D2
100
AcDbEntity
  8
}}ﾊﾊGG血CCТ
  6
CONTINUOUS
 62
     7
100
AcDbLine
 10
287.0
 20
200.0
 30
0.0
 11
287.0
 21
10.0
 31
0.0
  0
LINE
  5
1DA
330
1D2
100
AcDbEntity
  8
}}ﾊﾊGG血CCТ
  6
CONTINUOUS
 62
     7
100
AcDbLine
 10
30.0
 20
10.0
 30
0.0
 11
30.0
 21
20.0
 31
0.0
  0
TEXT
  5
1DB
330
1D2
100
AcDbEntity
  8
}}ﾊﾊGG血CCТ
  6
CONTINUOUS
 62
     7
100
AcDbText
 10
14.738815
 20
11.596879
 30
0.0
 40
6.648749
  1
品名
 41
1.083413
  7
FX_VECTOR
 72
     5
 11
26.058355
 21
11.596879
 31
0.0
100
AcDbText
  0
LINE
  5
1DC
330
1D2
100
AcDbEntity
  8
}}ﾊﾊGG血CCТ
  6
CONTINUOUS
 62
     7
100
AcDbLine
 10
110.0
 20
20.0
 30
0.0
 11
110.0
 21
10.0
 31
0.0
  0
LINE
  5
1DD
330
1D2
100
AcDbEntity
  8
}}ﾊﾊGG血CCТ
  6
CONTINUOUS
 62
     7
100
AcDbLine
 10
10.0
 20
20.0
 30
0.0
 11
287.0
 21
20.0
 31
0.0
  0
INSERT
  5
1E1
330
1D2
100
AcDbEntity
  8
0
100
AcDbBlockReference
  2
BLKF027
 10
0.0
 20
0.0
 30
0.0
  0
INSERT
  5
1EA
330
1D2
100
AcDbEntity
  8
0
100
AcDbBlockReference
  2
BLKF028
 10
0.0
 20
0.0
 30
0.0
  0
HATCH
  5
1FA
330
1D2
100
AcDbEntity
  8
GR1-1
  6
CONTINUOUS
 62
     7
100
AcDbHatch
 10
0.0
 20
0.0
 30
0.0
210
0.0
220
0.0
230
1.0
  2

 70
     0
 71
     1
 91
        2
 92
        0
 93
        4
 72
     1
 10
215.8018997861325
 20
17.91346152
 11
221.8018997861325
 21
17.91346152
 72
     1
 10
221.8018997861325
 20
17.91346152
 11
221.8018997861325
 21
11.91346152
 72
     1
 10
221.8018997861325
 20
11.91346152
 11
215.8018997861325
 21
11.91346152
 72
     1
 10
215.8018997861325
 20
11.91346152
 11
215.8018997861325
 21
17.91346152
 97
        0
 92
        0
 93
       15
 72
     1
 10
218.8018997861325
 20
17.76923076000002
 11
215.9461305461325
 21
14.91346152
 72
     1
 10
215.9461305461325
 20
14.91346152
 11
218.8018997861325
 21
12.05769228000001
 72
     1
 10
218.8018997861325
 20
12.05769228000001
 11
220.3595920661325
 21
13.61538462
 72
     1
 10
220.3595920661325
 20
13.61538462
 11
220.3595920661325
 21
12.98076924
 72
     1
 10
220.3595920661325
 20
12.98076924
 11
221.2249766861325
 21
12.98076924
 72
     1
 10
221.2249766861325
 20
12.98076924
 11
221.2249766861325
 21
15.00000000000001
 72
     1
 10
221.2249766861325
 20
15.00000000000001
 11
218.8018997861325
 21
15.00000000000001
 72
     1
 10
218.8018997861325
 20
15.00000000000001
 11
218.8018997861325
 21
14.13461538000001
 72
     1
 10
218.8018997861325
 20
14.13461538000001
 11
219.2461305461325
 21
14.13461538000001
 72
     1
 10
219.2461305461325
 20
14.13461538000001
 11
218.8018997861325
 21
13.69038462
 72
     1
 10
218.8018997861325
 20
13.69038462
 11
217.5788228861325
 21
14.91346152
 72
     1
 10
217.5788228861325
 20
14.91346152
 11
218.8018997861325
 21
16.13653842000003
 72
     1
 10
218.8018997861325
 20
16.13653842000003
 11
219.5922844061325
 21
15.3461538
 72
     1
 10
219.5922844061325
 20
15.3461538
 11
221.2249766861325
 21
15.3461538
 72
     1
 10
221.2249766861325
 20
15.3461538
 11
218.8018997861325
 21
17.76923076000002
 97
        0
 75
     0
 76
     0
 52
45.0
 41
0.05
 77
     0
 78
     1
 53
45.0
 43
0.0
 44
0.0
 45
-0.0353553390593274
 46
0.0353553390593274
 79
     0
 98
        0
  0
TEXT
  5
1FB
330
1D2
100
AcDbEntity
  8
}}ﾊﾊGG血CCТ
  6
CONTINUOUS
 62
     7
100
AcDbText
 10
226.225754
 20
11.461285
 30
0.0
 40
6.0
  1
GOLD CASTER
 41
0.719626
  7
FX_VECTOR
 72
     5
 11
270.225754
 21
11.461285
 31
0.0
100
AcDbText
  0
LINE
  5
1FC
330
1D2
100
AcDbEntity
  8
}}ﾊﾊGG血CCТ
  6
CONTINUOUS
 62
     7
100
AcDbLine
 10
130.0
 20
10.0
 30
0.0
 11
130.0
 21
20.0
 31
0.0
  0
TEXT
  5
1FD
330
1D2
100
AcDbEntity
  8
}}ﾊﾊGG血CCТ
  6
CONTINUOUS
 62
     7
100
AcDbText
 10
114.738815
 20
11.596879
 30
0.0
 40
6.648749
  1
図番
 41
1.083413
  7
FX_VECTOR
 72
     5
 11
126.058355
 21
11.596879
 31
0.0
100
AcDbText
  0
LINE
  5
1FE
330
1D2
100
AcDbEntity
  8
}}ﾊﾊGG血CCТ
  6
CONTINUOUS
 62
     7
100
AcDbLine
 10
210.0
 20
20.0
 30
0.0
 11
210.0
 21
10.0
 31
0.0
  0
ENDBLK
  5
1D4
330
1D2
100
AcDbEntity
  8
0
100
AcDbBlockEnd
  0
BLOCK
  5
1DF
330
1DE
100
AcDbEntity
  8
0
100
AcDbBlockBegin
  2
BLKF027
 70
     0
 71
     0
 10
0.0
 20
0.0
 30
0.0
  3
BLKF027
  1

  0
LINE
  5
1E3
330
1DE
100
AcDbEntity
  8
0-1
  6
CONTINUOUS
 62
     7
100
AcDbLine
 10
221.8019
 20
17.913462
 30
0.0
 11
215.8019
 21
17.913462
 31
0.0
  0
LINE
  5
1E4
330
1DE
100
AcDbEntity
  8
0-1
  6
CONTINUOUS
 62
     7
100
AcDbLine
 10
215.8019
 20
17.913462
 30
0.0
 11
215.8019
 21
11.913462
 31
0.0
  0
LINE
  5
1E5
330
1DE
100
AcDbEntity
  8
0-1
  6
CONTINUOUS
 62
     7
100
AcDbLine
 10
215.8019
 20
11.913462
 30
0.0
 11
221.8019
 21
11.913462
 31
0.0
  0
LINE
  5
1E6
330
1DE
100
AcDbEntity
  8
0-1
  6
CONTINUOUS
 62
     7
100
AcDbLine
 10
221.8019
 20
11.913462
 30
0.0
 11
221.8019
 21
17.913462
 31
0.0
  0
ENDBLK
  5
1E0
330
1DE
100
AcDbEntity
  8
0
100
AcDbBlockEnd
  0
BLOCK
  5
1E8
330
1E7
100
AcDbEntity
  8
0
100
AcDbBlockBegin
  2
BLKF028
 70
     0
 71
     0
 10
0.0
 20
0.0
 30
0.0
  3
BLKF028
  1

  0
LINE
  5
1EB
330
1E7
100
AcDbEntity
  8
0-1
  6
CONTINUOUS
 62
     7
100
AcDbLine
 10
221.224977
 20
15.346154
 30
0.0
 11
218.8019
 21
17.769231
 31
0.0
  0
LINE
  5
1EC
330
1E7
100
AcDbEntity
  8
0-1
  6
CONTINUOUS
 62
     7
100
AcDbLine
 10
218.8019
 20
17.769231
 30
0.0
 11
215.946131
 21
14.913462
 31
0.0
  0
LINE
  5
1ED
330
1E7
100
AcDbEntity
  8
0-1
  6
CONTINUOUS
 62
     7
100
AcDbLine
 10
215.946131
 20
14.913462
 30
0.0
 11
218.8019
 21
12.057692
 31
0.0
  0
LINE
  5
1EE
330
1E7
100
AcDbEntity
  8
0-1
  6
CONTINUOUS
 62
     7
100
AcDbLine
 10
218.8019
 20
12.057692
 30
0.0
 11
220.359592
 21
13.615385
 31
0.0
  0
LINE
  5
1EF
330
1E7
100
AcDbEntity
  8
0-1
  6
CONTINUOUS
 62
     7
100
AcDbLine
 10
220.359592
 20
13.615385
 30
0.0
 11
220.359592
 21
12.980769
 31
0.0
  0
LINE
  5
1F0
330
1E7
100
AcDbEntity
  8
0-1
  6
CONTINUOUS
 62
     7
100
AcDbLine
 10
220.359592
 20
12.980769
 30
0.0
 11
221.224977
 21
12.980769
 31
0.0
  0
LINE
  5
1F1
330
1E7
100
AcDbEntity
  8
0-1
  6
CONTINUOUS
 62
     7
100
AcDbLine
 10
221.224977
 20
12.980769
 30
0.0
 11
221.224977
 21
15.0
 31
0.0
  0
LINE
  5
1F2
330
1E7
100
AcDbEntity
  8
0-1
  6
CONTINUOUS
 62
     7
100
AcDbLine
 10
221.224977
 20
15.0
 30
0.0
 11
218.8019
 21
15.0
 31
0.0
  0
LINE
  5
1F3
330
1E7
100
AcDbEntity
  8
0-1
  6
CONTINUOUS
 62
     7
100
AcDbLine
 10
218.8019
 20
15.0
 30
0.0
 11
218.8019
 21
14.134615
 31
0.0
  0
LINE
  5
1F4
330
1E7
100
AcDbEntity
  8
0-1
  6
CONTINUOUS
 62
     7
100
AcDbLine
 10
218.8019
 20
14.134615
 30
0.0
 11
219.246131
 21
14.134615
 31
0.0
  0
LINE
  5
1F5
330
1E7
100
AcDbEntity
  8
0-1
  6
CONTINUOUS
 62
     7
100
AcDbLine
 10
219.246131
 20
14.134615
 30
0.0
 11
218.8019
 21
13.690385
 31
0.0
  0
LINE
  5
1F6
330
1E7
100
AcDbEntity
  8
0-1
  6
CONTINUOUS
 62
     7
100
AcDbLine
 10
218.8019
 20
13.690385
 30
0.0
 11
217.578823
 21
14.913462
 31
0.0
  0
LINE
  5
1F7
330
1E7
100
AcDbEntity
  8
0-1
  6
CONTINUOUS
 62
     7
100
AcDbLine
 10
217.578823
 20
14.913462
 30
0.0
 11
218.8019
 21
16.136538
 31
0.0
  0
LINE
  5
1F8
330
1E7
100
AcDbEntity
  8
0-1
  6
CONTINUOUS
 62
     7
100
AcDbLine
 10
218.8019
 20
16.136538
 30
0.0
 11
219.592284
 21
15.346154
 31
0.0
  0
LINE
  5
1F9
330
1E7
100
AcDbEntity
  8
0-1
  6
CONTINUOUS
 62
     7
100
AcDbLine
 10
219.592284
 20
15.346154
 30
0.0
 11
221.224977
 21
15.346154
 31
0.0
  0
ENDBLK
  5
1E9
330
1E7
100
AcDbEntity
  8
0
100
AcDbBlockEnd
  0
ENDSEC
  0
SECTION
  2
ENTITIES
  0
TEXT
  5
A8
330
1F
100
AcDbEntity
  8
}}ﾊﾊGG血CCТ
  6
CONTINUOUS
 62
     7
100
AcDbText
 10
32.941837
 20
12.0
 30
0.0
 40
6.0
  1
Ｅ－１００　Ｎ
 41
0.796748
  7
FX_VECTOR
 72
     5
 11
60.941837
 21
12.0
 31
0.0
100
AcDbText
  0
TEXT
  5
A9
330
1F
100
AcDbEntity
  8
}}ﾊﾊGG血CCТ
  6
CONTINUOUS
 62
     7
100
AcDbText
 10
133.415298
 20
12.0
 30
0.0
 40
6.0
  1
2E30FUAA-C02
 41
0.702929
  7
FX_VECTOR
 72
     5
 11
181.415298
 21
12.0
 31
0.0
100
AcDbText
  0
CIRCLE
  5
AA
330
1F
100
AcDbEntity
  8
LAYERGROUP-1
  6
CONTINUOUS
 62
     3
100
AcDbCircle
 10
208.474887
 20
109.569231
 30
0.0
 40
50.0
  0
CIRCLE
  5
AB
330
1F
100
AcDbEntity
  8
LAYERGROUP-1
  6
CONTINUOUS
 62
     3
100
AcDbCircle
 10
208.474887
 20
109.569231
 30
0.0
 40
43.5
  0
CIRCLE
  5
AC
330
1F
100
AcDbEntity
  8
LAYERGROUP-1
  6
CONTINUOUS
 62
     6
100
AcDbCircle
 10
208.474887
 20
109.569231
 30
0.0
 40
10.0
  0
CIRCLE
  5
AD
330
1F
100
AcDbEntity
  8
LAYERGROUP-1
  6
CONTINUOUS
 62
     3
100
AcDbCircle
 10
208.474887
 20
109.569231
 30
0.0
 40
5.0
  0
LINE
  5
AE
330
1F
100
AcDbEntity
  8
LAYERGROUP-1
  6
CENTER
 62
     6
100
AcDbLine
 10
154.789017
 20
109.569231
 30
0.0
 11
262.909185
 21
109.569231
 31
0.0
  0
LINE
  5
AF
330
1F
100
AcDbEntity
  8
LAYERGROUP-1
  6
CENTER
 62
     6
100
AcDbLine
 10
208.474887
 20
163.093552
 30
0.0
 11
208.474887
 21
47.094287
 31
0.0
  0
ARC
  5
B0
330
1F
100
AcDbEntity
  8
LAYERGROUP-1
  6
CONTINUOUS
 62
     6
100
AcDbCircle
 10
208.474887
 20
109.569231
 30
0.0
 40
38.5
100
AcDbArc
 50
306.400113
 51
353.599887
  0
ARC
  5
B1
330
1F
100
AcDbEntity
  8
LAYERGROUP-1
  6
CONTINUOUS
 62
     3
100
AcDbCircle
 10
86.145911
 20
79.569231
 30
0.0
 40
80.0
100
AcDbArc
 50
81.944782
 51
98.055218
  0
ARC
  5
B2
330
1F
100
AcDbEntity
  8
LAYERGROUP-1
  6
CONTINUOUS
 62
     3
100
AcDbCircle
 10
75.145911
 20
157.294709
 30
0.0
 40
1.5
100
AcDbArc
 50
98.055218
 51
180.0
  0
ARC
  5
B3
330
1F
100
AcDbEntity
  8
LAYERGROUP-1
  6
CONTINUOUS
 62
     3
100
AcDbCircle
 10
74.645911
 20
154.069231
 30
0.0
 40
1.0
100
AcDbArc
 50
180.0
 51
270.0
  0
ARC
  5
B4
330
1F
100
AcDbEntity
  8
LAYERGROUP-1
  6
CONTINUOUS
 62
     3
100
AcDbCircle
 10
78.645911
 20
148.069231
 30
0.0
 40
5.0
100
AcDbArc
 50
61.529099
 51
90.0
  0
LINE
  5
B5
330
1F
100
AcDbEntity
  8
LAYERGROUP-1
  6
CONTINUOUS
 62
     3
100
AcDbLine
 10
74.645911
 20
153.069231
 30
0.0
 11
78.645911
 21
153.069231
 31
0.0
  0
ARC
  5
B6
330
1F
100
AcDbEntity
  8
LAYERGROUP-1
  6
CONTINUOUS
 62
     3
100
AcDbCircle
 10
78.645911
 20
128.569231
 30
0.0
 40
5.0
100
AcDbArc
 50
270.0
 51
283.676871
  0
LINE
  5
B7
330
1F
100
AcDbEntity
  8
LAYERGROUP-1
  6
CONTINUOUS
 62
     3
100
AcDbLine
 10
78.645911
 20
123.569231
 30
0.0
 11
74.645911
 21
123.569231
 31
0.0
  0
LINE
  5
B8
330
1F
100
AcDbEntity
  8
LAYERGROUP-1
  6
CONTINUOUS
 62
     3
100
AcDbLine
 10
73.645911
 20
119.569231
 30
0.0
 11
73.645911
 21
157.294709
 31
0.0
  0
LINE
  5
B9
330
1F
100
AcDbEntity
  8
LAYERGROUP-1
  6
CONTINUOUS
 62
     3
100
AcDbLine
 10
73.645911
 20
119.569231
 30
0.0
 11
72.145911
 21
119.569231
 31
0.0
  0
LINE
  5
BA
330
1F
100
AcDbEntity
  8
LAYERGROUP-1
  6
CONTINUOUS
 62
     3
100
AcDbLine
 10
71.145911
 20
118.569231
 30
0.0
 11
71.145911
 21
100.569231
 31
0.0
  0
LINE
  5
BB
330
1F
100
AcDbEntity
  8
LAYERGROUP-1
  6
CONTINUOUS
 62
     3
100
AcDbLine
 10
71.145911
 20
114.569231
 30
0.0
 11
73.645911
 21
114.569231
 31
0.0
  0
LINE
  5
BC
330
1F
100
AcDbEntity
  8
LAYERGROUP-1
  6
CONTINUOUS
 62
     3
100
AcDbLine
 10
73.645911
 20
114.569231
 30
0.0
 11
73.645911
 21
113.719231
 31
0.0
  0
ARC
  5
BD
330
1F
100
AcDbEntity
  8
LAYERGROUP-1
  6
CONTINUOUS
 62
     3
100
AcDbCircle
 10
74.645911
 20
122.569231
 30
0.0
 40
1.0
100
AcDbArc
 50
90.0
 51
180.0
  0
ARC
  5
BE
330
1F
100
AcDbEntity
  8
LAYERGROUP-1
  6
CONTINUOUS
 62
     3
100
AcDbCircle
 10
72.145911
 20
118.569231
 30
0.0
 40
1.0
100
AcDbArc
 50
90.0
 51
180.0
  0
ARC
  5
BF
330
1F
100
AcDbEntity
  8
LAYERGROUP-1
  6
CONTINUOUS
 62
     3
100
AcDbCircle
 10
97.145911
 20
157.294709
 30
0.0
 40
1.5
100
AcDbArc
 50
0.0
 51
81.944782
  0
ARC
  5
C0
330
1F
100
AcDbEntity
  8
LAYERGROUP-1
  6
CONTINUOUS
 62
     3
100
AcDbCircle
 10
97.645911
 20
154.069231
 30
0.0
 40
1.0
100
AcDbArc
 50
270.0
 51
360.0
  0
ARC
  5
C1
330
1F
100
AcDbEntity
  8
LAYERGROUP-1
  6
CONTINUOUS
 62
     3
100
AcDbCircle
 10
93.645911
 20
148.069231
 30
0.0
 40
5.0
100
AcDbArc
 50
90.0
 51
180.0
  0
LINE
  5
C2
330
1F
100
AcDbEntity
  8
LAYERGROUP-1
  6
CONTINUOUS
 62
     3
100
AcDbLine
 10
97.645911
 20
153.069231
 30
0.0
 11
93.645911
 21
153.069231
 31
0.0
  0
LINE
  5
C3
330
1F
100
AcDbEntity
  8
LAYERGROUP-1
  6
CONTINUOUS
 62
     3
100
AcDbLine
 10
88.645911
 20
148.069231
 30
0.0
 11
88.645911
 21
128.569231
 31
0.0
  0
ARC
  5
C4
330
1F
100
AcDbEntity
  8
LAYERGROUP-1
  6
CONTINUOUS
 62
     3
100
AcDbCircle
 10
93.645911
 20
128.569231
 30
0.0
 40
5.0
100
AcDbArc
 50
180.0
 51
270.0
  0
LINE
  5
C5
330
1F
100
AcDbEntity
  8
LAYERGROUP-1
  6
CONTINUOUS
 62
     3
100
AcDbLine
 10
93.645911
 20
123.569231
 30
0.0
 11
97.645911
 21
123.569231
 31
0.0
  0
LINE
  5
C6
330
1F
100
AcDbEntity
  8
LAYERGROUP-1
  6
CONTINUOUS
 62
     3
100
AcDbLine
 10
98.645911
 20
119.569231
 30
0.0
 11
98.645911
 21
157.294709
 31
0.0
  0
LINE
  5
C7
330
1F
100
AcDbEntity
  8
LAYERGROUP-1
  6
CONTINUOUS
 62
     3
100
AcDbLine
 10
98.645911
 20
119.569231
 30
0.0
 11
100.145911
 21
119.569231
 31
0.0
  0
LINE
  5
C8
330
1F
100
AcDbEntity
  8
LAYERGROUP-1
  6
CONTINUOUS
 62
     3
100
AcDbLine
 10
101.145911
 20
118.569231
 30
0.0
 11
101.145911
 21
100.569231
 31
0.0
  0
LINE
  5
C9
330
1F
100
AcDbEntity
  8
LAYERGROUP-1
  6
CONTINUOUS
 62
     3
100
AcDbLine
 10
101.145911
 20
114.569231
 30
0.0
 11
98.645911
 21
114.569231
 31
0.0
  0
LINE
  5
CA
330
1F
100
AcDbEntity
  8
LAYERGROUP-1
  6
CONTINUOUS
 62
     3
100
AcDbLine
 10
98.645911
 20
114.569231
 30
0.0
 11
98.645911
 21
113.719231
 31
0.0
  0
ARC
  5
CB
330
1F
100
AcDbEntity
  8
LAYERGROUP-1
  6
CONTINUOUS
 62
     3
100
AcDbCircle
 10
97.645911
 20
122.569231
 30
0.0
 40
1.0
100
AcDbArc
 50
0.0
 51
90.0
  0
ARC
  5
CC
330
1F
100
AcDbEntity
  8
LAYERGROUP-1
  6
CONTINUOUS
 62
     3
100
AcDbCircle
 10
100.145911
 20
118.569231
 30
0.0
 40
1.0
100
AcDbArc
 50
0.0
 51
90.0
  0
LINE
  5
CD
330
1F
100
AcDbEntity
  8
LAYERGROUP-1
  6
CONTINUOUS
 62
     6
100
AcDbLine
 10
98.645911
 20
113.719231
 30
0.0
 11
98.645911
 21
105.419231
 31
0.0
  0
LINE
  5
CE
330
1F
100
AcDbEntity
  8
LAYERGROUP-1
  6
CONTINUOUS
 62
     6
100
AcDbLine
 10
73.645911
 20
113.719231
 30
0.0
 11
73.645911
 21
105.419231
 31
0.0
  0
LINE
  5
CF
330
1F
100
AcDbEntity
  8
LAYERGROUP-1
  6
CENTER
 62
     6
100
AcDbLine
 10
86.145911
 20
162.703649
 30
0.0
 11
86.145911
 21
56.716147
 31
0.0
  0
LINE
  5
D0
330
1F
100
AcDbEntity
  8
LAYERGROUP-1
  6
CENTER
 62
     6
100
AcDbLine
 10
68.368376
 20
109.569231
 30
0.0
 11
103.842931
 21
109.569231
 31
0.0
  0
CIRCLE
  5
D1
330
1F
100
AcDbEntity
  8
LAYERGROUP-1
  6
CONTINUOUS
 62
     6
100
AcDbCircle
 10
208.474887
 20
109.569231
 30
0.0
 40
14.0
  0
LINE
  5
D2
330
1F
100
AcDbEntity
  8
LAYERGROUP-1
  6
CONTINUOUS
 62
     6
100
AcDbLine
 10
170.220892
 20
105.223907
 30
0.0
 11
190.356028
 21
103.850231
 31
0.0
  0
LINE
  5
D3
330
1F
100
AcDbEntity
  8
LAYERGROUP-1
  6
CONTINUOUS
 62
     6
100
AcDbLine
 10
170.220892
 20
113.914555
 30
0.0
 11
190.356028
 21
115.288231
 31
0.0
  0
ARC
  5
D4
330
1F
100
AcDbEntity
  8
LAYERGROUP-1
  6
CONTINUOUS
 62
     6
100
AcDbCircle
 10
208.474887
 20
109.569231
 30
0.0
 40
38.5
100
AcDbArc
 50
186.480529
 51
233.519471
  0
ARC
  5
D5
330
1F
100
AcDbEntity
  8
LAYERGROUP-1
  6
CONTINUOUS
 62
     6
100
AcDbCircle
 10
208.474887
 20
109.569231
 30
0.0
 40
19.0
100
AcDbArc
 50
197.517675
 51
222.504497
  0
LINE
  5
D6
330
1F
100
AcDbEntity
  8
LAYERGROUP-1
  6
CONTINUOUS
 62
     6
100
AcDbLine
 10
164.974887
 20
109.569231
 30
0.0
 11
170.220892
 21
105.223907
 31
0.0
  0
LINE
  5
D7
330
1F
100
AcDbEntity
  8
LAYERGROUP-1
  6
CONTINUOUS
 62
     6
100
AcDbLine
 10
164.974887
 20
109.569231
 30
0.0
 11
170.220892
 21
113.914555
 31
0.0
  0
LINE
  5
D8
330
1F
100
AcDbEntity
  8
LAYERGROUP-1
  6
CONTINUOUS
 62
     6
100
AcDbLine
 10
190.356028
 20
103.850231
 30
0.0
 11
194.474887
 21
109.569231
 31
0.0
  0
LINE
  5
D9
330
1F
100
AcDbEntity
  8
LAYERGROUP-1
  6
CONTINUOUS
 62
     6
100
AcDbLine
 10
194.474887
 20
109.569231
 30
0.0
 11
190.356028
 21
115.288231
 31
0.0
  0
LINE
  5
DA
330
1F
100
AcDbEntity
  8
LAYERGROUP-1
  6
CONTINUOUS
 62
     6
100
AcDbLine
 10
193.11105
 20
74.267637
 30
0.0
 11
204.368257
 21
91.018339
 31
0.0
  0
LINE
  5
DB
330
1F
100
AcDbEntity
  8
LAYERGROUP-1
  6
CONTINUOUS
 62
     6
100
AcDbLine
 10
185.584728
 20
78.612961
 30
0.0
 11
194.462659
 21
96.737339
 31
0.0
  0
LINE
  5
DC
330
1F
100
AcDbEntity
  8
LAYERGROUP-1
  6
CONTINUOUS
 62
     6
100
AcDbLine
 10
186.724887
 20
71.897126
 30
0.0
 11
193.11105
 21
74.267637
 31
0.0
  0
LINE
  5
DD
330
1F
100
AcDbEntity
  8
LAYERGROUP-1
  6
CONTINUOUS
 62
     6
100
AcDbLine
 10
186.724887
 20
71.897126
 30
0.0
 11
185.584728
 21
78.612961
 31
0.0
  0
LINE
  5
DE
330
1F
100
AcDbEntity
  8
LAYERGROUP-1
  6
CONTINUOUS
 62
     6
100
AcDbLine
 10
204.368257
 20
91.018339
 30
0.0
 11
201.474887
 21
97.444875
 31
0.0
  0
LINE
  5
DF
330
1F
100
AcDbEntity
  8
LAYERGROUP-1
  6
CONTINUOUS
 62
     6
100
AcDbLine
 10
201.474887
 20
97.444875
 30
0.0
 11
194.462659
 21
96.737339
 31
0.0
  0
LINE
  5
E0
330
1F
100
AcDbEntity
  8
LAYERGROUP-1
  6
CONTINUOUS
 62
     6
100
AcDbLine
 10
231.365046
 20
78.612961
 30
0.0
 11
222.487116
 21
96.737339
 31
0.0
  0
LINE
  5
E1
330
1F
100
AcDbEntity
  8
LAYERGROUP-1
  6
CONTINUOUS
 62
     6
100
AcDbLine
 10
223.838724
 20
74.267637
 30
0.0
 11
212.581517
 21
91.018339
 31
0.0
  0
LINE
  5
E2
330
1F
100
AcDbEntity
  8
LAYERGROUP-1
  6
CONTINUOUS
 62
     6
100
AcDbLine
 10
230.224887
 20
71.897126
 30
0.0
 11
231.365046
 21
78.612961
 31
0.0
  0
LINE
  5
E3
330
1F
100
AcDbEntity
  8
LAYERGROUP-1
  6
CONTINUOUS
 62
     6
100
AcDbLine
 10
230.224887
 20
71.897126
 30
0.0
 11
223.838724
 21
74.267637
 31
0.0
  0
LINE
  5
E4
330
1F
100
AcDbEntity
  8
LAYERGROUP-1
  6
CONTINUOUS
 62
     6
100
AcDbLine
 10
222.487116
 20
96.737339
 30
0.0
 11
215.474887
 21
97.444875
 31
0.0
  0
LINE
  5
E5
330
1F
100
AcDbEntity
  8
LAYERGROUP-1
  6
CONTINUOUS
 62
     6
100
AcDbLine
 10
215.474887
 20
97.444875
 30
0.0
 11
212.581517
 21
91.018339
 31
0.0
  0
LINE
  5
E6
330
1F
100
AcDbEntity
  8
LAYERGROUP-1
  6
CONTINUOUS
 62
     6
100
AcDbLine
 10
246.728882
 20
113.914555
 30
0.0
 11
226.593746
 21
115.288231
 31
0.0
  0
LINE
  5
E7
330
1F
100
AcDbEntity
  8
LAYERGROUP-1
  6
CONTINUOUS
 62
     6
100
AcDbLine
 10
246.728882
 20
105.223907
 30
0.0
 11
226.593746
 21
103.850231
 31
0.0
  0
LINE
  5
E8
330
1F
100
AcDbEntity
  8
LAYERGROUP-1
  6
CONTINUOUS
 62
     6
100
AcDbLine
 10
251.974887
 20
109.569231
 30
0.0
 11
246.728882
 21
113.914555
 31
0.0
  0
LINE
  5
E9
330
1F
100
AcDbEntity
  8
LAYERGROUP-1
  6
CONTINUOUS
 62
     6
100
AcDbLine
 10
251.974887
 20
109.569231
 30
0.0
 11
246.728882
 21
105.223907
 31
0.0
  0
LINE
  5
EA
330
1F
100
AcDbEntity
  8
LAYERGROUP-1
  6
CONTINUOUS
 62
     6
100
AcDbLine
 10
226.593746
 20
115.288231
 30
0.0
 11
222.474887
 21
109.569231
 31
0.0
  0
LINE
  5
EB
330
1F
100
AcDbEntity
  8
LAYERGROUP-1
  6
CONTINUOUS
 62
     6
100
AcDbLine
 10
222.474887
 20
109.569231
 30
0.0
 11
226.593746
 21
103.850231
 31
0.0
  0
LINE
  5
EC
330
1F
100
AcDbEntity
  8
LAYERGROUP-1
  6
CONTINUOUS
 62
     6
100
AcDbLine
 10
223.838724
 20
144.870824
 30
0.0
 11
212.581517
 21
128.120123
 31
0.0
  0
LINE
  5
ED
330
1F
100
AcDbEntity
  8
LAYERGROUP-1
  6
CONTINUOUS
 62
     6
100
AcDbLine
 10
231.365046
 20
140.525501
 30
0.0
 11
222.487116
 21
122.401123
 31
0.0
  0
LINE
  5
EE
330
1F
100
AcDbEntity
  8
LAYERGROUP-1
  6
CONTINUOUS
 62
     6
100
AcDbLine
 10
230.224887
 20
147.241336
 30
0.0
 11
223.838724
 21
144.870824
 31
0.0
  0
LINE
  5
EF
330
1F
100
AcDbEntity
  8
LAYERGROUP-1
  6
CONTINUOUS
 62
     6
100
AcDbLine
 10
230.224887
 20
147.241336
 30
0.0
 11
231.365046
 21
140.525501
 31
0.0
  0
LINE
  5
F0
330
1F
100
AcDbEntity
  8
LAYERGROUP-1
  6
CONTINUOUS
 62
     6
100
AcDbLine
 10
212.581517
 20
128.120123
 30
0.0
 11
215.474887
 21
121.693586
 31
0.0
  0
LINE
  5
F1
330
1F
100
AcDbEntity
  8
LAYERGROUP-1
  6
CONTINUOUS
 62
     6
100
AcDbLine
 10
215.474887
 20
121.693586
 30
0.0
 11
222.487116
 21
122.401123
 31
0.0
  0
LINE
  5
F2
330
1F
100
AcDbEntity
  8
LAYERGROUP-1
  6
CONTINUOUS
 62
     6
100
AcDbLine
 10
185.584728
 20
140.525501
 30
0.0
 11
194.462659
 21
122.401123
 31
0.0
  0
LINE
  5
F3
330
1F
100
AcDbEntity
  8
LAYERGROUP-1
  6
CONTINUOUS
 62
     6
100
AcDbLine
 10
193.11105
 20
144.870824
 30
0.0
 11
204.368257
 21
128.120123
 31
0.0
  0
LINE
  5
F4
330
1F
100
AcDbEntity
  8
LAYERGROUP-1
  6
CONTINUOUS
 62
     6
100
AcDbLine
 10
186.724887
 20
147.241336
 30
0.0
 11
185.584728
 21
140.525501
 31
0.0
  0
LINE
  5
F5
330
1F
100
AcDbEntity
  8
LAYERGROUP-1
  6
CONTINUOUS
 62
     6
100
AcDbLine
 10
186.724887
 20
147.241336
 30
0.0
 11
193.11105
 21
144.870824
 31
0.0
  0
LINE
  5
F6
330
1F
100
AcDbEntity
  8
LAYERGROUP-1
  6
CONTINUOUS
 62
     6
100
AcDbLine
 10
194.462659
 20
122.401123
 30
0.0
 11
201.474887
 21
121.693586
 31
0.0
  0
LINE
  5
F7
330
1F
100
AcDbEntity
  8
LAYERGROUP-1
  6
CONTINUOUS
 62
     6
100
AcDbLine
 10
201.474887
 20
121.693586
 30
0.0
 11
204.368257
 21
128.120123
 31
0.0
  0
ARC
  5
F8
330
1F
100
AcDbEntity
  8
LAYERGROUP-1
  6
CONTINUOUS
 62
     6
100
AcDbCircle
 10
208.474887
 20
109.569231
 30
0.0
 40
38.5
100
AcDbArc
 50
246.480529
 51
293.519471
  0
ARC
  5
F9
330
1F
100
AcDbEntity
  8
LAYERGROUP-1
  6
CONTINUOUS
 62
     6
100
AcDbCircle
 10
208.474887
 20
109.569231
 30
0.0
 40
38.5
100
AcDbArc
 50
6.480529
 51
53.519471
  0
ARC
  5
FA
330
1F
100
AcDbEntity
  8
LAYERGROUP-1
  6
CONTINUOUS
 62
     6
100
AcDbCircle
 10
208.474887
 20
109.569231
 30
0.0
 40
38.5
100
AcDbArc
 50
66.480529
 51
113.519471
  0
ARC
  5
FB
330
1F
100
AcDbEntity
  8
LAYERGROUP-1
  6
CONTINUOUS
 62
     6
100
AcDbCircle
 10
208.474887
 20
109.569231
 30
0.0
 40
38.5
100
AcDbArc
 50
126.480529
 51
173.519471
  0
LINE
  5
FC
330
1F
100
AcDbEntity
  8
LAYERGROUP-1
  6
CONTINUOUS
 62
     6
100
AcDbLine
 10
201.474887
 20
121.693586
 30
0.0
 11
186.724887
 21
147.241336
 31
0.0
  0
LINE
  5
FD
330
1F
100
AcDbEntity
  8
LAYERGROUP-1
  6
CONTINUOUS
 62
     6
100
AcDbLine
 10
215.474887
 20
121.693586
 30
0.0
 11
230.224887
 21
147.241336
 31
0.0
  0
LINE
  5
FE
330
1F
100
AcDbEntity
  8
LAYERGROUP-1
  6
CONTINUOUS
 62
     6
100
AcDbLine
 10
230.224887
 20
71.897126
 30
0.0
 11
215.474887
 21
97.444875
 31
0.0
  0
LINE
  5
FF
330
1F
100
AcDbEntity
  8
LAYERGROUP-1
  6
CONTINUOUS
 62
     6
100
AcDbLine
 10
186.724887
 20
71.897126
 30
0.0
 11
201.474887
 21
97.444875
 31
0.0
  0
LINE
  5
100
330
1F
100
AcDbEntity
  8
LAYERGROUP-1
  6
CONTINUOUS
 62
     6
100
AcDbLine
 10
194.474887
 20
109.569231
 30
0.0
 11
165.390667
 21
109.569231
 31
0.0
  0
LINE
  5
101
330
1F
100
AcDbEntity
  8
LAYERGROUP-1
  6
CONTINUOUS
 62
     6
100
AcDbLine
 10
222.474887
 20
109.569231
 30
0.0
 11
251.974887
 21
109.569231
 31
0.0
  0
ARC
  5
102
330
1F
100
AcDbEntity
  8
LAYERGROUP-1
  6
CONTINUOUS
 62
     6
100
AcDbCircle
 10
208.474887
 20
109.569231
 30
0.0
 40
19.0
100
AcDbArc
 50
257.538152
 51
282.482325
  0
ARC
  5
103
330
1F
100
AcDbEntity
  8
LAYERGROUP-1
  6
CONTINUOUS
 62
     6
100
AcDbCircle
 10
208.474887
 20
109.569231
 30
0.0
 40
19.0
100
AcDbArc
 50
317.517675
 51
342.482325
  0
ARC
  5
104
330
1F
100
AcDbEntity
  8
LAYERGROUP-1
  6
CONTINUOUS
 62
     6
100
AcDbCircle
 10
208.474887
 20
109.569231
 30
0.0
 40
19.0
100
AcDbArc
 50
17.517675
 51
42.482325
  0
ARC
  5
105
330
1F
100
AcDbEntity
  8
LAYERGROUP-1
  6
CONTINUOUS
 62
     6
100
AcDbCircle
 10
208.474887
 20
109.569231
 30
0.0
 40
19.0
100
AcDbArc
 50
77.517675
 51
102.461848
  0
ARC
  5
106
330
1F
100
AcDbEntity
  8
LAYERGROUP-1
  6
CONTINUOUS
 62
     6
100
AcDbCircle
 10
208.474887
 20
109.569231
 30
0.0
 40
19.0
100
AcDbArc
 50
137.463102
 51
162.482325
  0
ARC
  5
107
330
1F
100
AcDbEntity
  8
LAYERGROUP-1
  6
CONTINUOUS
 62
     3
100
AcDbCircle
 10
86.145911
 20
139.569231
 30
0.0
 40
80.0
100
AcDbArc
 50
261.944782
 51
278.055218
  0
ARC
  5
108
330
1F
100
AcDbEntity
  8
LAYERGROUP-1
  6
CONTINUOUS
 62
     3
100
AcDbCircle
 10
75.145911
 20
61.843752
 30
0.0
 40
1.5
100
AcDbArc
 50
180.0
 51
261.944782
  0
ARC
  5
109
330
1F
100
AcDbEntity
  8
LAYERGROUP-1
  6
CONTINUOUS
 62
     3
100
AcDbCircle
 10
74.645911
 20
65.069231
 30
0.0
 40
1.0
100
AcDbArc
 50
90.0
 51
180.0
  0
ARC
  5
10A
330
1F
100
AcDbEntity
  8
LAYERGROUP-1
  6
CONTINUOUS
 62
     3
100
AcDbCircle
 10
78.645911
 20
71.069231
 30
0.0
 40
5.0
100
AcDbArc
 50
270.0
 51
298.470901
  0
LINE
  5
10B
330
1F
100
AcDbEntity
  8
LAYERGROUP-1
  6
CONTINUOUS
 62
     3
100
AcDbLine
 10
74.645911
 20
66.069231
 30
0.0
 11
78.645911
 21
66.069231
 31
0.0
  0
ARC
  5
10C
330
1F
100
AcDbEntity
  8
LAYERGROUP-1
  6
CONTINUOUS
 62
     3
100
AcDbCircle
 10
78.645911
 20
90.569231
 30
0.0
 40
5.0
100
AcDbArc
 50
76.99781
 51
90.0
  0
LINE
  5
10D
330
1F
100
AcDbEntity
  8
LAYERGROUP-1
  6
CONTINUOUS
 62
     3
100
AcDbLine
 10
78.645911
 20
95.569231
 30
0.0
 11
74.645911
 21
95.569231
 31
0.0
  0
LINE
  5
10E
330
1F
100
AcDbEntity
  8
LAYERGROUP-1
  6
CONTINUOUS
 62
     3
100
AcDbLine
 10
73.645911
 20
99.569231
 30
0.0
 11
73.645911
 21
61.843752
 31
0.0
  0
LINE
  5
10F
330
1F
100
AcDbEntity
  8
LAYERGROUP-1
  6
CONTINUOUS
 62
     3
100
AcDbLine
 10
73.645911
 20
99.569231
 30
0.0
 11
72.145911
 21
99.569231
 31
0.0
  0
LINE
  5
110
330
1F
100
AcDbEntity
  8
LAYERGROUP-1
  6
CONTINUOUS
 62
     3
100
AcDbLine
 10
71.145911
 20
104.569231
 30
0.0
 11
73.645911
 21
104.569231
 31
0.0
  0
LINE
  5
111
330
1F
100
AcDbEntity
  8
LAYERGROUP-1
  6
CONTINUOUS
 62
     3
100
AcDbLine
 10
73.645911
 20
104.569231
 30
0.0
 11
73.645911
 21
105.419231
 31
0.0
  0
ARC
  5
112
330
1F
100
AcDbEntity
  8
LAYERGROUP-1
  6
CONTINUOUS
 62
     3
100
AcDbCircle
 10
74.645911
 20
96.569231
 30
0.0
 40
1.0
100
AcDbArc
 50
180.0
 51
270.0
  0
ARC
  5
113
330
1F
100
AcDbEntity
  8
LAYERGROUP-1
  6
CONTINUOUS
 62
     3
100
AcDbCircle
 10
72.145911
 20
100.569231
 30
0.0
 40
1.0
100
AcDbArc
 50
180.0
 51
270.0
  0
ARC
  5
114
330
1F
100
AcDbEntity
  8
LAYERGROUP-1
  6
CONTINUOUS
 62
     3
100
AcDbCircle
 10
97.145911
 20
61.843752
 30
0.0
 40
1.5
100
AcDbArc
 50
278.055218
 51
360.0
  0
ARC
  5
115
330
1F
100
AcDbEntity
  8
LAYERGROUP-1
  6
CONTINUOUS
 62
     3
100
AcDbCircle
 10
97.645911
 20
65.069231
 30
0.0
 40
1.0
100
AcDbArc
 50
0.0
 51
90.0
  0
ARC
  5
116
330
1F
100
AcDbEntity
  8
LAYERGROUP-1
  6
CONTINUOUS
 62
     3
100
AcDbCircle
 10
93.645911
 20
71.069231
 30
0.0
 40
5.0
100
AcDbArc
 50
180.0
 51
270.0
  0
LINE
  5
117
330
1F
100
AcDbEntity
  8
LAYERGROUP-1
  6
CONTINUOUS
 62
     3
100
AcDbLine
 10
97.645911
 20
66.069231
 30
0.0
 11
93.645911
 21
66.069231
 31
0.0
  0
LINE
  5
118
330
1F
100
AcDbEntity
  8
LAYERGROUP-1
  6
CONTINUOUS
 62
     3
100
AcDbLine
 10
88.645911
 20
71.069231
 30
0.0
 11
88.645911
 21
90.569231
 31
0.0
  0
ARC
  5
119
330
1F
100
AcDbEntity
  8
LAYERGROUP-1
  6
CONTINUOUS
 62
     3
100
AcDbCircle
 10
93.645911
 20
90.569231
 30
0.0
 40
5.0
100
AcDbArc
 50
90.0
 51
180.0
  0
LINE
  5
11A
330
1F
100
AcDbEntity
  8
LAYERGROUP-1
  6
CONTINUOUS
 62
     3
100
AcDbLine
 10
93.645911
 20
95.569231
 30
0.0
 11
97.645911
 21
95.569231
 31
0.0
  0
LINE
  5
11B
330
1F
100
AcDbEntity
  8
LAYERGROUP-1
  6
CONTINUOUS
 62
     3
100
AcDbLine
 10
98.645911
 20
99.569231
 30
0.0
 11
98.645911
 21
61.843752
 31
0.0
  0
LINE
  5
11C
330
1F
100
AcDbEntity
  8
LAYERGROUP-1
  6
CONTINUOUS
 62
     3
100
AcDbLine
 10
98.645911
 20
99.569231
 30
0.0
 11
100.145911
 21
99.569231
 31
0.0
  0
LINE
  5
11D
330
1F
100
AcDbEntity
  8
LAYERGROUP-1
  6
CONTINUOUS
 62
     3
100
AcDbLine
 10
101.145911
 20
104.569231
 30
0.0
 11
98.645911
 21
104.569231
 31
0.0
  0
LINE
  5
11E
330
1F
100
AcDbEntity
  8
LAYERGROUP-1
  6
CONTINUOUS
 62
     3
100
AcDbLine
 10
98.645911
 20
104.569231
 30
0.0
 11
98.645911
 21
105.419231
 31
0.0
  0
ARC
  5
11F
330
1F
100
AcDbEntity
  8
LAYERGROUP-1
  6
CONTINUOUS
 62
     3
100
AcDbCircle
 10
97.645911
 20
96.569231
 30
0.0
 40
1.0
100
AcDbArc
 50
270.0
 51
360.0
  0
ARC
  5
120
330
1F
100
AcDbEntity
  8
LAYERGROUP-1
  6
CONTINUOUS
 62
     3
100
AcDbCircle
 10
100.145911
 20
100.569231
 30
0.0
 40
1.0
100
AcDbArc
 50
270.0
 51
360.0
  0
LINE
  5
121
330
1F
100
AcDbEntity
  8
LAYERGROUP-1
  6
CONTINUOUS
 62
     3
100
AcDbLine
 10
92.082281
 20
124.177418
 30
0.0
 11
91.001082
 21
152.005586
 31
0.0
  0
ARC
  5
122
330
1F
100
AcDbEntity
  8
LAYERGROUP-1
  6
CONTINUOUS
 62
     3
100
AcDbCircle
 10
91.500705
 20
152.024998
 30
0.0
 40
0.5
100
AcDbArc
 50
118.470901
 51
182.224976
  0
ARC
  5
123
330
1F
100
AcDbEntity
  8
LAYERGROUP-1
  6
CONTINUOUS
 62
     3
100
AcDbCircle
 10
92.581904
 20
124.19683
 30
0.0
 40
0.5
100
AcDbArc
 50
182.224976
 51
256.323129
  0
LINE
  5
124
330
1F
100
AcDbEntity
  8
LAYERGROUP-1
  6
CONTINUOUS
 62
     3
100
AcDbLine
 10
80.20954
 20
124.177418
 30
0.0
 11
81.290739
 21
152.005586
 31
0.0
  0
ARC
  5
125
330
1F
100
AcDbEntity
  8
LAYERGROUP-1
  6
CONTINUOUS
 62
     3
100
AcDbCircle
 10
80.791116
 20
152.024998
 30
0.0
 40
0.5
100
AcDbArc
 50
-2.224976
 51
61.529099
  0
ARC
  5
126
330
1F
100
AcDbEntity
  8
LAYERGROUP-1
  6
CONTINUOUS
 62
     3
100
AcDbCircle
 10
79.709917
 20
124.19683
 30
0.0
 40
0.5
100
AcDbArc
 50
283.676871
 51
357.775024
  0
LINE
  5
127
330
1F
100
AcDbEntity
  8
LAYERGROUP-1
  6
CONTINUOUS
 62
     3
100
AcDbLine
 10
92.082281
 20
94.961043
 30
0.0
 11
91.001082
 21
67.132875
 31
0.0
  0
ARC
  5
128
330
1F
100
AcDbEntity
  8
LAYERGROUP-1
  6
CONTINUOUS
 62
     3
100
AcDbCircle
 10
91.500705
 20
67.113464
 30
0.0
 40
0.5
100
AcDbArc
 50
177.775024
 51
241.529099
  0
ARC
  5
129
330
1F
100
AcDbEntity
  8
LAYERGROUP-1
  6
CONTINUOUS
 62
     3
100
AcDbCircle
 10
92.581904
 20
94.941632
 30
0.0
 40
0.5
100
AcDbArc
 50
103.676871
 51
177.775024
  0
LINE
  5
12A
330
1F
100
AcDbEntity
  8
LAYERGROUP-1
  6
CONTINUOUS
 62
     3
100
AcDbLine
 10
80.20954
 20
94.961043
 30
0.0
 11
81.290739
 21
67.132875
 31
0.0
  0
ARC
  5
12B
330
1F
100
AcDbEntity
  8
LAYERGROUP-1
  6
CONTINUOUS
 62
     3
100
AcDbCircle
 10
80.791116
 20
67.113464
 30
0.0
 40
0.5
100
AcDbArc
 50
-61.529099
 51
2.224976
  0
ARC
  5
12C
330
1F
100
AcDbEntity
  8
LAYERGROUP-1
  6
CONTINUOUS
 62
     3
100
AcDbCircle
 10
79.709917
 20
94.941632
 30
0.0
 40
0.5
100
AcDbArc
 50
2.224976
 51
76.323129
  0
DIMENSION
  5
12D
330
1F
100
AcDbEntity
  8
LAYERGROUP-1
100
AcDbDimension
  2
*D19
 10
101.145911
 20
38.020346
 30
0.0
 11
86.145912
 21
39.020348
 31
0.0
 70
    33
  3
FXDIMINFO
100
AcDbAlignedDimension
 13
71.145911
 23
100.569231
 33
0.0
 14
101.145911
 24
100.569231
 34
0.0
1001
ACAD
1000
DSTYLE
1002
{
1070
     7
1000
FXTIP_ARROW_E
1070
     6
1000
FXTIP_ARROW_S
1070
   173
1070
     1
1002
}
  0
DIMENSION
  5
137
330
1F
100
AcDbEntity
  8
LAYERGROUP-1
100
AcDbDimension
  2
*D20
 10
98.645911
 20
48.020346
 30
0.0
 11
86.145912
 21
49.020344
 31
0.0
 70
    33
  3
FXDIMINFO
100
AcDbAlignedDimension
 13
73.645911
 23
61.843752
 33
0.0
 14
98.645911
 24
61.843752
 34
0.0
1001
ACAD
1000
DSTYLE
1002
{
1070
     7
1000
FXTIP_ARROW_E
1070
     6
1000
FXTIP_ARROW_S
1070
   173
1070
     1
1002
}
  0
DIMENSION
  5
141
330
1F
100
AcDbEntity
  8
LAYERGROUP-1
100
AcDbDimension
  2
*D21
 10
134.30183
 20
159.569231
 30
0.0
 11
133.301819
 21
109.569229
 31
0.0
 70
    33
  3
FXDIMINFO
100
AcDbAlignedDimension
 13
86.145911
 23
59.569231
 33
0.0
 14
86.145911
 24
159.569231
 34
0.0
1001
ACAD
1000
DSTYLE
1002
{
1070
     7
1000
FXTIP_ARROW_E
1070
     6
1000
FXTIP_ARROW_S
1070
   173
1070
     1
1002
}
  0
INSERT
  5
14E
330
1F
100
AcDbEntity
  8
0
100
AcDbBlockReference
  2
BLKF024
 10
0.0
 20
0.0
 30
0.0
  0
LINE
  5
1A7
330
1F
100
AcDbEntity
  8
GR1-1
  6
CONTINUOUS
 62
     7
100
AcDbLine
 10
204.474387
 20
138.568231
 30
0.0
 11
212.475387
 21
138.568231
 31
0.0
  0
LINE
  5
1A8
330
1F
100
AcDbEntity
  8
GR1-1
  6
CONTINUOUS
 62
     7
100
AcDbLine
 10
212.475387
 20
138.568231
 30
0.0
 11
212.475387
 21
146.569231
 31
0.0
  0
LINE
  5
1A9
330
1F
100
AcDbEntity
  8
GR1-1
  6
CONTINUOUS
 62
     7
100
AcDbLine
 10
212.475387
 20
146.569231
 30
0.0
 11
204.474387
 21
146.569231
 31
0.0
  0
LINE
  5
1AA
330
1F
100
AcDbEntity
  8
GR1-1
  6
CONTINUOUS
 62
     7
100
AcDbLine
 10
204.474387
 20
146.569231
 30
0.0
 11
204.474387
 21
138.568231
 31
0.0
  0
LINE
  5
1AB
330
1F
100
AcDbEntity
  8
GR1-1
  6
CONTINUOUS
 62
     7
100
AcDbLine
 10
204.703179
 20
142.568731
 30
0.0
 11
208.474887
 21
146.340438
 31
0.0
  0
LINE
  5
1AC
330
1F
100
AcDbEntity
  8
GR1-1
  6
CONTINUOUS
 62
     7
100
AcDbLine
 10
208.474887
 20
146.340438
 30
0.0
 11
211.846545
 21
142.968781
 31
0.0
  0
LINE
  5
1AD
330
1F
100
AcDbEntity
  8
GR1-1
  6
CONTINUOUS
 62
     7
100
AcDbLine
 10
211.846545
 20
142.968781
 30
0.0
 11
209.960691
 21
142.968781
 31
0.0
  0
LINE
  5
1AE
330
1F
100
AcDbEntity
  8
GR1-1
  6
CONTINUOUS
 62
     7
100
AcDbLine
 10
209.960691
 20
142.968781
 30
0.0
 11
208.474887
 21
144.454585
 31
0.0
  0
LINE
  5
1AF
330
1F
100
AcDbEntity
  8
GR1-1
  6
CONTINUOUS
 62
     7
100
AcDbLine
 10
208.474887
 20
144.454585
 30
0.0
 11
206.589033
 21
142.568731
 31
0.0
  0
LINE
  5
1B0
330
1F
100
AcDbEntity
  8
GR1-1
  6
CONTINUOUS
 62
     7
100
AcDbLine
 10
206.589033
 20
142.568731
 30
0.0
 11
208.474887
 21
140.682877
 31
0.0
  0
LINE
  5
1B1
330
1F
100
AcDbEntity
  8
GR1-1
  6
CONTINUOUS
 62
     7
100
AcDbLine
 10
208.474887
 20
140.682877
 30
0.0
 11
209.466348
 21
141.674338
 31
0.0
  0
ARC
  5
1B2
330
1F
100
AcDbEntity
  8
GR1-1
  6
CONTINUOUS
 62
     7
100
AcDbCircle
 10
209.372055
 20
141.768631
 30
0.0
 40
0.13335
100
AcDbArc
 50
-45.0
 51
90.0
  0
LINE
  5
1B3
330
1F
100
AcDbEntity
  8
GR1-1
  6
CONTINUOUS
 62
     7
100
AcDbLine
 10
209.372055
 20
141.901981
 30
0.0
 11
208.474887
 21
141.901981
 31
0.0
  0
LINE
  5
1B4
330
1F
100
AcDbEntity
  8
GR1-1
  6
CONTINUOUS
 62
     7
100
AcDbLine
 10
208.474887
 20
141.901981
 30
0.0
 11
208.474887
 21
142.568731
 31
0.0
  0
LINE
  5
1B5
330
1F
100
AcDbEntity
  8
GR1-1
  6
CONTINUOUS
 62
     7
100
AcDbLine
 10
208.474887
 20
142.568731
 30
0.0
 11
212.246595
 21
142.568731
 31
0.0
  0
LINE
  5
1B6
330
1F
100
AcDbEntity
  8
GR1-1
  6
CONTINUOUS
 62
     7
100
AcDbLine
 10
212.246595
 20
142.568731
 30
0.0
 11
212.246595
 21
139.869299
 31
0.0
  0
LINE
  5
1B7
330
1F
100
AcDbEntity
  8
GR1-1
  6
CONTINUOUS
 62
     7
100
AcDbLine
 10
212.246595
 20
139.869299
 30
0.0
 11
210.913095
 21
139.869299
 31
0.0
  0
LINE
  5
1B8
330
1F
100
AcDbEntity
  8
GR1-1
  6
CONTINUOUS
 62
     7
100
AcDbLine
 10
210.913095
 20
139.869299
 30
0.0
 11
210.913095
 21
140.913295
 31
0.0
  0
ARC
  5
1B9
330
1F
100
AcDbEntity
  8
GR1-1
  6
CONTINUOUS
 62
     7
100
AcDbCircle
 10
210.779745
 20
140.913295
 30
0.0
 40
0.13335
100
AcDbArc
 50
0.0
 51
135.0
  0
LINE
  5
1BA
330
1F
100
AcDbEntity
  8
GR1-1
  6
CONTINUOUS
 62
     7
100
AcDbLine
 10
210.685452
 20
141.007588
 30
0.0
 11
208.474887
 21
138.797023
 31
0.0
  0
LINE
  5
1BB
330
1F
100
AcDbEntity
  8
GR1-1
  6
CONTINUOUS
 62
     7
100
AcDbLine
 10
208.474887
 20
138.797023
 30
0.0
 11
204.703179
 21
142.568731
 31
0.0
  0
TEXT
  5
1BC
330
1F
100
AcDbEntity
  8
LAYERGROUP-1
  6
CONTINUOUS
 62
     7
100
AcDbText
 10
212.757584
 20
78.888474
 30
0.0
 40
7.111485
  1
0
 50
184.5
 41
0.667612
  7
FX_VECTOR
 72
     5
 11
208.926047
 21
78.586925
 31
0.0
100
AcDbText
  0
TEXT
  5
1BD
330
1F
100
AcDbEntity
  8
LAYERGROUP-1
  6
CONTINUOUS
 62
     7
100
AcDbText
 10
216.725601
 20
79.709961
 30
0.0
 40
7.111485
  1
0
 50
192.0
 41
0.667612
  7
FX_VECTOR
 72
     5
 11
212.966204
 21
78.910876
 31
0.0
100
AcDbText
  0
TEXT
  5
1BE
330
1F
100
AcDbEntity
  8
LAYERGROUP-1
  6
CONTINUOUS
 62
     7
100
AcDbText
 10
219.549515
 20
80.638229
 30
0.0
 40
7.111485
  1
1
 50
197.5
 41
1.031763
  7
FX_VECTOR
 72
     5
 11
215.884014
 21
79.482502
 31
0.0
100
AcDbText
  0
TEXT
  5
1BF
330
1F
100
AcDbEntity
  8
LAYERGROUP-1
  6
CONTINUOUS
 62
     7
100
AcDbText
 10
209.256882
 20
78.600876
 30
0.0
 40
7.111485
  1
X
 50
178.0
 41
0.667612
  7
FX_VECTOR
 72
     5
 11
205.415839
 21
78.735008
 31
0.0
100
AcDbText
  0
TEXT
  5
1C0
330
1F
100
AcDbEntity
  8
LAYERGROUP-1
  6
CONTINUOUS
 62
     7
100
AcDbText
 10
205.476974
 20
78.736404
 30
0.0
 40
7.111485
  1
2
 50
171.0
 41
0.667612
  7
FX_VECTOR
 72
     5
 11
201.680909
 21
79.337642
 31
0.0
100
AcDbText
  0
TEXT
  5
1C1
330
1F
100
AcDbEntity
  8
LAYERGROUP-1
  6
CONTINUOUS
 62
     7
100
AcDbText
 10
201.741745
 20
79.331573
 30
0.0
 40
7.111485
  1
5
 50
164.0
 41
0.667612
  7
FX_VECTOR
 72
     5
 11
198.047247
 21
80.390954
 31
0.0
100
AcDbText
  0
CIRCLE
  5
1C2
330
1F
100
AcDbEntity
  8
LAYERGROUP-1
  6
CONTINUOUS
 62
     3
100
AcDbCircle
 10
208.474887
 20
109.569231
 30
0.0
 40
4.15
  0
LINE
  5
1C3
330
1F
100
AcDbEntity
  8
LAYERGROUP-1
  6
CONTINUOUS
 62
     3
100
AcDbLine
 10
73.645911
 20
113.719231
 30
0.0
 11
98.645911
 21
113.719231
 31
0.0
  0
LINE
  5
1C4
330
1F
100
AcDbEntity
  8
LAYERGROUP-1
  6
CONTINUOUS
 62
     3
100
AcDbLine
 10
73.645911
 20
105.419231
 30
0.0
 11
98.645911
 21
105.419231
 31
0.0
  0
DIMENSION
  5
1C5
330
1F
100
AcDbEntity
  8
LAYERGROUP-1
100
AcDbDimension
  2
*D23
 10
111.565539
 20
113.719231
 30
0.0
 11
119.565536
 21
109.569229
 31
0.0
 70
    33
  3
FXDIMINFO
100
AcDbAlignedDimension
 13
98.645911
 23
105.419231
 33
0.0
 14
98.645911
 24
113.719231
 34
0.0
  0
HATCH
  5
1D1
330
1F
100
AcDbEntity
  8
LAYERGROUP-1
  6
CONTINUOUS
 62
     3
100
AcDbHatch
 10
0.0
 20
0.0
 30
0.0
210
0.0
220
0.0
230
1.0
  2

 70
     0
 71
     1
 91
        2
 92
        0
 93
       34
 72
     1
 10
88.64591065953701
 20
128.5692307692308
 11
88.64591065953701
 21
148.0692307692308
 72
     2
 10
93.64591065953701
 20
148.0692307692308
 40
5.0
 50
90.0
 51
180.0
 73
     0
 72
     1
 10
93.64591065953701
 20
153.0692307692308
 11
97.64591065953701
 21
153.0692307692308
 72
     2
 10
97.64591065953701
 20
154.0692307692308
 40
1.0
 50
270.0
 51
360.0
 73
     1
 72
     1
 10
98.64591065953701
 20
154.0692307692308
 11
98.64591065953701
 21
157.2947092174205
 72
     2
 10
97.14591065953701
 20
157.2947092174205
 40
1.5
 50
0.0
 51
81.94478226277295
 73
     1
 72
     2
 10
86.14591065953701
 20
79.56923076923079
 40
80.0
 50
81.94478226277303
 51
98.05521773722698
 73
     1
 72
     2
 10
75.14591065953701
 20
157.2947092174205
 40
1.5
 50
98.0552177372271
 51
180.0
 73
     1
 72
     1
 10
73.64591065953701
 20
157.2947092174205
 11
73.64591065953701
 21
154.0692307692308
 72
     2
 10
74.64591065953701
 20
154.0692307692308
 40
1.0
 50
180.0
 51
270.0
 73
     1
 72
     1
 10
74.64591065953701
 20
153.0692307692308
 11
78.64591065953701
 21
153.0692307692308
 72
     2
 10
78.64591065953701
 20
148.0692307692308
 40
5.0
 50
61.52909884662568
 51
90.0
 73
     0
 72
     2
 10
80.79111633936405
 20
152.0249977733954
 40
0.5
 50
357.7750242966313
 51
421.529098846626
 73
     0
 72
     1
 10
81.29073938331918
 20
152.0055860772042
 11
80.20954037168495
 21
124.1774181524878
 72
     2
 10
79.70991732772984
 20
124.1968298486791
 40
0.5
 50
283.6768705115615
 51
357.7750242966313
 73
     0
 72
     2
 10
78.64591065953701
 20
128.5692307692308
 40
5.0
 50
270.0
 51
283.6768705115611
 73
     0
 72
     1
 10
78.64591065953701
 20
123.5692307692308
 11
74.64591065953701
 21
123.5692307692308
 72
     2
 10
74.64591065953701
 20
122.5692307692308
 40
1.0
 50
90.0
 51
180.0
 73
     1
 72
     1
 10
73.64591065953701
 20
122.5692307692308
 11
73.64591065953701
 21
119.5692307692308
 72
     1
 10
73.64591065953701
 20
119.5692307692308
 11
72.14591065953702
 21
119.5692307692308
 72
     2
 10
72.14591065953702
 20
118.5692307692308
 40
1.0
 50
90.0
 51
180.0
 73
     1
 72
     1
 10
71.14591065953702
 20
118.5692307692308
 11
71.14591065953701
 21
114.5692307692308
 72
     1
 10
71.14591065953701
 20
114.5692307692308
 11
73.64591065953701
 21
114.5692307692308
 72
     1
 10
73.64591065953701
 20
114.5692307692308
 11
73.64591065953701
 21
113.7192307692308
 72
     1
 10
73.64591065953701
 20
113.7192307692308
 11
98.64591065953702
 21
113.7192307692308
 72
     1
 10
98.64591065953702
 20
113.7192307692308
 11
98.64591065953701
 21
114.5692307692308
 72
     1
 10
98.64591065953701
 20
114.5692307692308
 11
101.145910659537
 21
114.5692307692308
 72
     1
 10
101.145910659537
 20
114.5692307692308
 11
101.145910659537
 21
118.5692307692308
 72
     2
 10
100.145910659537
 20
118.5692307692308
 40
1.0
 50
0.0
 51
90.0
 73
     1
 72
     1
 10
100.145910659537
 20
119.5692307692308
 11
98.64591065953701
 21
119.5692307692308
 72
     1
 10
98.64591065953701
 20
119.5692307692308
 11
98.64591065953701
 21
122.5692307692308
 72
     2
 10
97.64591065953701
 20
122.5692307692308
 40
1.0
 50
0.0
 51
90.0
 73
     1
 72
     1
 10
97.64591065953701
 20
123.5692307692308
 11
93.64591065953701
 21
123.5692307692308
 72
     2
 10
93.64591065953701
 20
128.5692307692308
 40
5.0
 50
180.0
 51
270.0
 73
     0
 97
        0
 92
        0
 93
       36
 72
     1
 10
98.64591065953701
 20
105.4192307692308
 11
73.64591065953701
 21
105.4192307692308
 72
     1
 10
73.64591065953701
 20
105.4192307692308
 11
73.64591065953701
 21
104.5692307692308
 72
     1
 10
73.64591065953701
 20
104.5692307692308
 11
71.14591065953701
 21
104.5692307692308
 72
     1
 10
71.14591065953701
 20
104.5692307692308
 11
71.14591065953702
 21
100.5692307692308
 72
     2
 10
72.14591065953702
 20
100.5692307692308
 40
1.0
 50
180.0
 51
270.0
 73
     1
 72
     1
 10
72.14591065953702
 20
99.56923076923079
 11
73.64591065953701
 21
99.56923076923079
 72
     1
 10
73.64591065953701
 20
99.56923076923079
 11
73.64591065953701
 21
96.56923076923079
 72
     2
 10
74.64591065953701
 20
96.56923076923079
 40
1.0
 50
180.0
 51
270.0
 73
     1
 72
     1
 10
74.64591065953701
 20
95.56923076923079
 11
78.64591065953701
 21
95.56923076923079
 72
     2
 10
78.64591065953701
 20
90.56923076923079
 40
5.0
 50
76.32312948843895
 51
90.0
 73
     0
 72
     2
 10
79.70991732772984
 20
94.94163168978247
 40
0.5
 50
2.224975703368713
 51
76.32312948843858
 73
     0
 72
     1
 10
80.20954037168497
 20
94.96104338597374
 11
81.29073938331918
 21
67.1328754612574
 72
     2
 10
80.79111633936405
 20
67.11346376506614
 40
0.5
 50
298.470901153374
 51
362.2249757033671
 73
     0
 72
     2
 10
78.64591065953701
 20
71.06923076923081
 40
5.0
 50
270.0
 51
298.4709011533743
 73
     0
 72
     1
 10
78.64591065953701
 20
66.06923076923081
 11
74.64591065953701
 21
66.06923076923081
 72
     2
 10
74.64591065953701
 20
65.06923076923081
 40
1.0
 50
90.0
 51
180.0
 73
     1
 72
     1
 10
73.64591065953701
 20
65.06923076923081
 11
73.64591065953701
 21
61.84375232104111
 72
     2
 10
75.14591065953701
 20
61.84375232104111
 40
1.5
 50
180.0
 51
261.944782262773
 73
     1
 72
     2
 10
86.14591065953701
 20
139.5692307692308
 40
80.0
 50
261.944782262773
 51
278.0552177372269
 73
     1
 72
     2
 10
97.14591065953701
 20
61.84375232104111
 40
1.5
 50
278.0552177372271
 51
360.0
 73
     1
 72
     1
 10
98.64591065953701
 20
61.84375232104111
 11
98.64591065953701
 21
65.06923076923081
 72
     2
 10
97.64591065953701
 20
65.06923076923081
 40
1.0
 50
0.0
 51
90.0
 73
     1
 72
     1
 10
97.64591065953701
 20
66.06923076923081
 11
93.64591065953701
 21
66.06923076923081
 72
     2
 10
93.64591065953701
 20
71.06923076923081
 40
5.0
 50
180.0
 51
270.0
 73
     0
 72
     1
 10
88.64591065953701
 20
71.06923076923081
 11
88.64591065953701
 21
90.56923076923079
 72
     2
 10
93.64591065953701
 20
90.56923076923079
 40
5.0
 50
90.0
 51
180.0
 73
     0
 72
     1
 10
93.64591065953701
 20
95.56923076923079
 11
97.64591065953701
 21
95.56923076923079
 72
     2
 10
97.64591065953701
 20
96.56923076923079
 40
1.0
 50
270.0
 51
360.0
 73
     1
 72
     1
 10
98.64591065953701
 20
96.56923076923079
 11
98.64591065953701
 21
99.56923076923079
 72
     1
 10
98.64591065953701
 20
99.56923076923079
 11
100.145910659537
 21
99.56923076923079
 72
     2
 10
100.145910659537
 20
100.5692307692308
 40
1.0
 50
270.0
 51
360.0
 73
     1
 72
     1
 10
101.145910659537
 20
100.5692307692308
 11
101.145910659537
 21
104.5692307692308
 72
     1
 10
101.145910659537
 20
104.5692307692308
 11
98.64591065953701
 21
104.5692307692308
 72
     1
 10
98.64591065953701
 20
104.5692307692308
 11
98.64591065953702
 21
105.4192307692308
 72
     1
 10
98.64591065953702
 20
105.4192307692308
 11
73.64591065953701
 21
105.4192307692308
 72
     1
 10
73.64591065953701
 20
105.4192307692308
 11
98.64591065953701
 21
105.4192307692308
 97
        0
 75
     0
 76
     0
 52
45.0
 41
2.0
 77
     0
 78
     1
 53
45.0
 43
0.0
 44
0.0
 45
-1.414213562373095
 46
1.414213562373095
 79
     0
 98
        0
  0
INSERT
  5
1D5
330
1F
100
AcDbEntity
  8
0
100
AcDbBlockReference
  2
BLKF026
 10
0.0
 20
0.0
 30
0.0
  0
ENDSEC
  0
SECTION
  2
OBJECTS
  0
DICTIONARY
  5
C
330
0
100
AcDbDictionary
  3
ACAD_GROUP
350
D
  3
ACAD_LAYOUT
350
1A
  3
ACAD_MLINESTYLE
350
17
  3
ACAD_PLOTSETTINGS
350
19
  3
ACDBHEADERROUNDTRIPXREC
350
1FF
  0
DICTIONARY
  5
D
102
{ACAD_REACTORS
330
C
102
}
330
C
100
AcDbDictionary
  0
DICTIONARY
  5
1A
102
{ACAD_REACTORS
330
C
102
}
330
C
100
AcDbDictionary
  0
DICTIONARY
  5
17
102
{ACAD_REACTORS
330
C
102
}
330
C
100
AcDbDictionary
  3
STANDARD
350
18
  0
DICTIONARY
  5
19
102
{ACAD_REACTORS
330
C
102
}
330
C
100
AcDbDictionary
  0
DICTIONARY
  5
1FF
102
{ACAD_REACTORS
330
C
102
}
330
C
100
AcDbDictionary
  3
CEPSNTYPE
350
208
  3
DIMSTYLEDATA
350
21E
  3
FINGERPRINTGUID
350
209
  3
HYPERLINKBASE
350
202
  3
INSUNITS
350
207
  3
LAYOUTDICT
350
204
  3
LWETCUNION
350
206
  3
PLOTSETDICT
350
205
  3
PSVPSCALE
350
20B
  3
PUCSBASE
350
20E
  3
PUCSORGBACK
350
214
  3
PUCSORGBOTTOM
350
210
  3
PUCSORGFRONT
350
213
  3
PUCSORGLEFT
350
211
  3
PUCSORGRIGHT
350
212
  3
PUCSORGTOP
350
20F
  3
PUCSORTHOREF
350
20C
  3
PUCSORTHOVIEW
350
20D
  3
STYLESHEET
350
203
  3
TSTACKALIGN
350
200
  3
TSTACKSIZE
350
201
  3
UCSBASE
350
217
  3
UCSORGBACK
350
21D
  3
UCSORGBOTTOM
350
219
  3
UCSORGFRONT
350
21C
  3
UCSORGLEFT
350
21A
  3
UCSORGRIGHT
350
21B
  3
UCSORGTOP
350
218
  3
UCSORTHOREF
350
215
  3
UCSORTHOVIEW
350
216
  3
VERSIONGUID
350
20A
  0
MLINESTYLE
  5
18
102
{ACAD_REACTORS
330
17
102
}
330
17
100
AcDbMlineStyle
  2
Standard
 70
     0
  3

 62
   256
 51
90.0
 52
90.0
 71
     2
 49
0.5
 62
   256
  6
BYLAYER
 49
-0.5
 62
   256
  6
BYLAYER
  0
XRECORD
  5
208
102
{ACAD_REACTORS
330
1FF
102
}
330
1FF
100
AcDbXrecord
 90
        0
  0
XRECORD
  5
21E
102
{ACAD_REACTORS
330
1FF
102
}
330
1FF
100
AcDbXrecord
1000
DSTYLE
1002
{
1070
   179
 70
     2
1070
   171
 70
     3
1070
   143
 40
0.03937
1070
   274
 70
     3
1070
    41
 40
3.0
1070
   343
340
41
1070
   344
340
47
1070
   141
 40
2.5
1070
   176
 70
     7
1070
   177
 70
     7
1070
   178
 70
     7
1070
   271
 70
     2
1070
    46
 40
6.0
1070
    43
 40
8.0
1070
    44
 40
1.0
1070
    42
 40
1.0
1070
   147
 40
1.0
1070
   341
340
41
1070
   173
 70
     1
1070
    77
 70
     1
1070
   272
 70
     2
1070
    73
 70
     0
1070
   172
 70
     1
1070
    74
 70
     0
1070
   283
 70
     0
1070
   340
340
3F
1070
   140
 40
4.0
1070
   284
 70
     8
1070
    78
 70
     8
1002
}
  0
XRECORD
  5
209
102
{ACAD_REACTORS
330
1FF
102
}
330
1FF
100
AcDbXrecord
  1
{7F8CB5A1-9BB9-4D4F-8ED5-105298410355}
  0
XRECORD
  5
202
102
{ACAD_REACTORS
330
1FF
102
}
330
1FF
100
AcDbXrecord
  1

  0
XRECORD
  5
207
102
{ACAD_REACTORS
330
1FF
102
}
330
1FF
100
AcDbXrecord
 90
        1
  0
XRECORD
  5
204
102
{ACAD_REACTORS
330
1FF
102
}
330
1FF
100
AcDbXrecord
340
1A
  0
XRECORD
  5
206
102
{ACAD_REACTORS
330
1FF
102
}
330
1FF
100
AcDbXrecord
 90
    10781
  0
XRECORD
  5
205
102
{ACAD_REACTORS
330
1FF
102
}
330
1FF
100
AcDbXrecord
340
19
  0
XRECORD
  5
20B
102
{ACAD_REACTORS
330
1FF
102
}
330
1FF
100
AcDbXrecord
 40
0.0
  0
XRECORD
  5
20E
102
{ACAD_REACTORS
330
1FF
102
}
330
1FF
100
AcDbXrecord
340
0
  0
XRECORD
  5
214
102
{ACAD_REACTORS
330
1FF
102
}
330
1FF
100
AcDbXrecord
 10
0.0
 20
0.0
 30
0.0
  0
XRECORD
  5
210
102
{ACAD_REACTORS
330
1FF
102
}
330
1FF
100
AcDbXrecord
 10
0.0
 20
0.0
 30
0.0
  0
XRECORD
  5
213
102
{ACAD_REACTORS
330
1FF
102
}
330
1FF
100
AcDbXrecord
 10
0.0
 20
0.0
 30
0.0
  0
XRECORD
  5
211
102
{ACAD_REACTORS
330
1FF
102
}
330
1FF
100
AcDbXrecord
 10
0.0
 20
0.0
 30
0.0
  0
XRECORD
  5
212
102
{ACAD_REACTORS
330
1FF
102
}
330
1FF
100
AcDbXrecord
 10
0.0
 20
0.0
 30
0.0
  0
XRECORD
  5
20F
102
{ACAD_REACTORS
330
1FF
102
}
330
1FF
100
AcDbXrecord
 10
0.0
 20
0.0
 30
0.0
  0
XRECORD
  5
20C
102
{ACAD_REACTORS
330
1FF
102
}
330
1FF
100
AcDbXrecord
340
0
  0
XRECORD
  5
20D
102
{ACAD_REACTORS
330
1FF
102
}
330
1FF
100
AcDbXrecord
 70
     0
  0
XRECORD
  5
203
102
{ACAD_REACTORS
330
1FF
102
}
330
1FF
100
AcDbXrecord
  1

  0
XRECORD
  5
200
102
{ACAD_REACTORS
330
1FF
102
}
330
1FF
100
AcDbXrecord
 90
        1
  0
XRECORD
  5
201
102
{ACAD_REACTORS
330
1FF
102
}
330
1FF
100
AcDbXrecord
 90
       70
  0
XRECORD
  5
217
102
{ACAD_REACTORS
330
1FF
102
}
330
1FF
100
AcDbXrecord
340
0
  0
XRECORD
  5
21D
102
{ACAD_REACTORS
330
1FF
102
}
330
1FF
100
AcDbXrecord
 10
0.0
 20
0.0
 30
0.0
  0
XRECORD
  5
219
102
{ACAD_REACTORS
330
1FF
102
}
330
1FF
100
AcDbXrecord
 10
0.0
 20
0.0
 30
0.0
  0
XRECORD
  5
21C
102
{ACAD_REACTORS
330
1FF
102
}
330
1FF
100
AcDbXrecord
 10
0.0
 20
0.0
 30
0.0
  0
XRECORD
  5
21A
102
{ACAD_REACTORS
330
1FF
102
}
330
1FF
100
AcDbXrecord
 10
0.0
 20
0.0
 30
0.0
  0
XRECORD
  5
21B
102
{ACAD_REACTORS
330
1FF
102
}
330
1FF
100
AcDbXrecord
 10
0.0
 20
0.0
 30
0.0
  0
XRECORD
  5
218
102
{ACAD_REACTORS
330
1FF
102
}
330
1FF
100
AcDbXrecord
 10
0.0
 20
0.0
 30
0.0
  0
XRECORD
  5
215
102
{ACAD_REACTORS
330
1FF
102
}
330
1FF
100
AcDbXrecord
340
0
  0
XRECORD
  5
216
102
{ACAD_REACTORS
330
1FF
102
}
330
1FF
100
AcDbXrecord
 70
     0
  0
XRECORD
  5
20A
102
{ACAD_REACTORS
330
1FF
102
}
330
1FF
100
AcDbXrecord
  1
{FAEB1C32-E019-11D5-929B-00C0DF256EC4}
  0
ENDSEC
  0
EOF
